  0
SECTION
  2
HEADER
  9
$ACADVER
  1
AC1014
  9
$ACADMAINTVER
 70
     9
  9
$DWGCODEPAGE
  3
ANSI_932
  9
$INSBASE
 10
0.0
 20
0.0
 30
0.0
  9
$EXTMIN
 10
-89.40000135426986
 20
-24.75000718101108
 30
-0.00000001
  9
$EXTMAX
 10
15.38287452502289
 20
14.95761781230824
 30
0.00000001
  9
$LIMMIN
 10
-102.35473833122
 20
-36.56371904222072
  9
$LIMMAX
 10
22.87243717934654
 20
30.27940878337739
  9
$ORTHOMODE
 70
     0
  9
$REGENMODE
 70
     1
  9
$FILLMODE
 70
     1
  9
$QTEXTMODE
 70
     0
  9
$MIRRTEXT
 70
     0
  9
$DRAGMODE
 70
     2
  9
$LTSCALE
 40
1.0
  9
$OSMODE
 70
    55
  9
$ATTMODE
 70
     1
  9
$TEXTSIZE
 40
2.5
  9
$TRACEWID
 40
1.0
  9
$TEXTSTYLE
  7
STANDARD
  9
$CLAYER
  8
AM_0
  9
$CELTYPE
  6
BYLAYER
  9
$CECOLOR
 62
   256
  9
$CELTSCALE
 40
1.0
  9
$DELOBJ
 70
     1
  9
$DISPSILH
 70
     0
  9
$DIMSCALE
 40
0.5
  9
$DIMASZ
 40
2.5
  9
$DIMEXO
 40
1.0
  9
$DIMDLI
 40
12.0
  9
$DIMRND
 40
0.0
  9
$DIMDLE
 40
0.0
  9
$DIMEXE
 40
1.0
  9
$DIMTP
 40
0.1
  9
$DIMTM
 40
0.1
  9
$DIMTXT
 40
3.2
  9
$DIMCEN
 40
0.0
  9
$DIMTSZ
 40
0.0
  9
$DIMTOL
 70
     0
  9
$DIMLIM
 70
     0
  9
$DIMTIH
 70
     0
  9
$DIMTOH
 70
     0
  9
$DIMSE1
 70
     0
  9
$DIMSE2
 70
     0
  9
$DIMTAD
 70
     3
  9
$DIMZIN
 70
     8
  9
$DIMBLK
  1
OPEN30
  9
$DIMASO
 70
     1
  9
$DIMSHO
 70
     1
  9
$DIMPOST
  1

  9
$DIMAPOST
  1
"
  9
$DIMALT
 70
     0
  9
$DIMALTD
 70
     2
  9
$DIMALTF
 40
0.0393701
  9
$DIMLFAC
 40
1.0
  9
$DIMTOFL
 70
     1
  9
$DIMTVP
 40
0.0
  9
$DIMTIX
 70
     0
  9
$DIMSOXD
 70
     0
  9
$DIMSAH
 70
     0
  9
$DIMBLK1
  1

  9
$DIMBLK2
  1

  9
$DIMSTYLE
  2
AM_JIS
  9
$DIMCLRD
 70
   256
  9
$DIMCLRE
 70
   256
  9
$DIMCLRT
 70
     2
  9
$DIMTFAC
 40
0.71
  9
$DIMGAP
 40
1.5
  9
$DIMJUST
 70
     0
  9
$DIMSD1
 70
     0
  9
$DIMSD2
 70
     0
  9
$DIMTOLJ
 70
     0
  9
$DIMTZIN
 70
     0
  9
$DIMALTZ
 70
     0
  9
$DIMALTTZ
 70
     0
  9
$DIMFIT
 70
     3
  9
$DIMUPT
 70
     0
  9
$DIMUNIT
 70
     2
  9
$DIMDEC
 70
     3
  9
$DIMTDEC
 70
     3
  9
$DIMALTU
 70
     2
  9
$DIMALTTD
 70
     2
  9
$DIMTXSTY
  7
ASAMI
  9
$DIMAUNIT
 70
     0
  9
$LUNITS
 70
     2
  9
$LUPREC
 70
     2
  9
$SKETCHINC
 40
1.0
  9
$FILLETRAD
 40
2.5
  9
$AUNITS
 70
     0
  9
$AUPREC
 70
     0
  9
$MENU
  1
.
  9
$ELEVATION
 40
0.0
  9
$PELEVATION
 40
0.0
  9
$THICKNESS
 40
0.0
  9
$LIMCHECK
 70
     0
  9
$BLIPMODE
 70
     0
  9
$CHAMFERA
 40
0.25
  9
$CHAMFERB
 40
0.25
  9
$CHAMFERC
 40
20.0
  9
$CHAMFERD
 40
0.0
  9
$SKPOLY
 70
     0
  9
$TDCREATE
 40
2452800.443498622
  9
$TDUPDATE
 40
2453151.688101654
  9
$TDINDWG
 40
0.0355475926
  9
$TDUSRTIMER
 40
0.0355475926
  9
$USRTIMER
 70
     1
  9
$ANGBASE
 50
0.0
  9
$ANGDIR
 70
     0
  9
$PDMODE
 70
     0
  9
$PDSIZE
 40
0.0
  9
$PLINEWID
 40
0.0
  9
$COORDS
 70
     1
  9
$SPLFRAME
 70
     0
  9
$SPLINETYPE
 70
     6
  9
$SPLINESEGS
 70
     8
  9
$ATTDIA
 70
     1
  9
$ATTREQ
 70
     1
  9
$HANDLING
 70
 12289
  9
$HANDSEED
  5
24B0
  9
$SURFTAB1
 70
     6
  9
$SURFTAB2
 70
     6
  9
$SURFTYPE
 70
     6
  9
$SURFU
 70
     6
  9
$SURFV
 70
     6
  9
$UCSNAME
  2

  9
$UCSORG
 10
0.0
 20
-0.0000000000000003
 30
0.0
  9
$UCSXDIR
 10
1.0
 20
0.000000000000002
 30
0.0
  9
$UCSYDIR
 10
-0.000000000000002
 20
1.0
 30
0.0
  9
$PUCSNAME
  2

  9
$PUCSORG
 10
0.0
 20
0.0
 30
0.0
  9
$PUCSXDIR
 10
1.0
 20
0.0
 30
0.0
  9
$PUCSYDIR
 10
0.0
 20
1.0
 30
0.0
  9
$USERI1
 70
     0
  9
$USERI2
 70
     0
  9
$USERI3
 70
     0
  9
$USERI4
 70
     0
  9
$USERI5
 70
     0
  9
$USERR1
 40
0.0
  9
$USERR2
 40
0.0
  9
$USERR3
 40
0.0
  9
$USERR4
 40
0.0
  9
$USERR5
 40
0.0
  9
$WORLDVIEW
 70
     1
  9
$SHADEDGE
 70
     3
  9
$SHADEDIF
 70
    70
  9
$TILEMODE
 70
     1
  9
$MAXACTVP
 70
    64
  9
$PINSBASE
 10
0.0
 20
0.0
 30
0.0
  9
$PLIMCHECK
 70
     0
  9
$PEXTMIN
 10
1.000000000000000E+20
 20
1.000000000000000E+20
 30
1.000000000000000E+20
  9
$PEXTMAX
 10
-1.000000000000000E+20
 20
-1.000000000000000E+20
 30
-1.000000000000000E+20
  9
$PLIMMIN
 10
0.0
 20
0.0
  9
$PLIMMAX
 10
841.0
 20
594.0
  9
$UNITMODE
 70
     0
  9
$VISRETAIN
 70
     1
  9
$PLINEGEN
 70
     0
  9
$PSLTSCALE
 70
     0
  9
$TREEDEPTH
 70
  3020
  9
$PICKSTYLE
 70
     0
  9
$CMLSTYLE
  2
STANDARD
  9
$CMLJUST
 70
     0
  9
$CMLSCALE
 40
20.0
  9
$PROXYGRAPHICS
 70
     1
  9
$MEASUREMENT
 70
     1
  0
ENDSEC
  0
SECTION
  2
CLASSES
  0
CLASS
  1
ACDBDICTIONARYWDFLT
  2
AcDbDictionaryWithDefault
  3
AutoCAD 2000
 90
        0
280
     0
281
     0
  0
CLASS
  1
ACDBPLACEHOLDER
  2
AcDbPlaceHolder
  3
AutoCAD 2000
 90
        0
280
     0
281
     0
  0
CLASS
  1
LAYOUT
  2
AcDbLayout
  3
AutoCAD 2000
 90
        0
280
     0
281
     0
  0
CLASS
  1
AMGSETTINGSOBJ
  2
AmgSettingsObj
  3
"AcadM|Product Description: AutoCAD Mechanical 2000|Company: Autodesk"
 90
        0
280
     0
281
     0
  0
CLASS
  1
ACME_DOCUMENT
  2
AcMeDbDoc
  3
AcMeServices
 90
        0
280
     0
281
     0
  0
CLASS
  1
ACMESCOPE
  2
AcMeScope
  3
AcMeServices
 90
        0
280
     0
281
     0
  0
CLASS
  1
ACMECOMMANDHISTORY
  2
AcMeCommandHistory
  3
AcMeServices
 90
        0
280
     0
281
     0
  0
CLASS
  1
DICTIONARYVAR
  2
AcDbDictionaryVar
  3
AutoCAD 2000
 90
        0
280
     0
281
     0
  0
CLASS
  1
ACIMSYSVARMAN
  2
AcImSysVarManager
  3
AcMeServices
 90
        0
280
     0
281
     0
  0
CLASS
  1
ACIMREALSYSVAR
  2
AcImRealSysVar
  3
AcMeServices
 90
        0
280
     0
281
     0
  0
CLASS
  1
ACIMINTSYSVAR
  2
AcImIntSysVar
  3
AcMeServices
 90
        0
280
     0
281
     0
  0
CLASS
  1
ACMEDRAWINGMAN
  2
AcMeDrawingMan
  3
AcMeServices
 90
        0
280
     0
281
     0
  0
CLASS
  1
ACMEVIEW
  2
AcMeView
  3
AcMeServices
 90
        0
280
     0
281
     0
  0
CLASS
  1
ACDBENTITYCACHE
  2
AcMeEntityCache
  3
AcMeServices
 90
        0
280
     0
281
     0
  0
CLASS
  1
GSMANAGER
  2
AcMeGSManager
  3
AcMeServices
 90
        0
280
     0
281
     0
  0
CLASS
  1
AmdtInternalReactor
  2
AmdtInternalReactor
  3
AcMeServices
 90
        0
280
     0
281
     0
  0
CLASS
  1
ACMESTATEMGR
  2
AcMeStateMgr
  3
AcMeServices
 90
        0
280
     0
281
     0
  0
CLASS
  1
ACME_DATABASE
  2
AcMeDbDatabase
  3
AcMeServices
 90
        0
280
     0
281
     0
  0
CLASS
  1
ACRFINSADJUSTERMGR
  2
AcRfInsAdjusterMgr
  3
AcMeServices
 90
        0
280
     0
281
     0
  0
CLASS
  1
ACMDATADICTIONARY
  2
AcmDataDictionary
  3
"AcmSymBB|Product Description: AutoCAD Mechanical 2000|Company: Autodesk"
 90
        0
280
     0
281
     0
  0
CLASS
  1
ACMDATAENTRYBLOCK
  2
AcmDataEntryBlock
  3
"AcmSymBB|Product Description: AutoCAD Mechanical 2000|Company: Autodesk"
 90
        0
280
     0
281
     0
  0
CLASS
  1
AMGOBJPROPCFG
  2
AmgObjPropCfg
  3
"AmgLay|Product Description: AutoCAD Mechanical 2000|Company: Autodesk"
 90
        1
280
     0
281
     0
  0
CLASS
  1
ACAMGFILTERDAT
  2
AcAmgFilterDat
  3
"AcadM|Product Description: AutoCAD Mechanical 2000|Company: Autodesk"
 90
        0
280
     0
281
     0
  0
CLASS
  1
LAYER_INDEX
  2
AcDbLayerIndex
  3
AutoCAD 2000
 90
        0
280
     0
281
     0
  0
CLASS
  1
IDBUFFER
  2
AcDbIdBuffer
  3
AutoCAD 2000
 90
        0
280
     0
281
     0
  0
CLASS
  1
ACIMSTRSYSVAR
  2
AcImStrSysVar
  3
AcMeServices
 90
        0
280
     0
281
     0
  0
CLASS
  1
ACMSTANDARDJIS
  2
AcmStandardJIS
  3
"AcmSymBB|Product Description: AutoCAD Mechanical 2000|Company: Autodesk"
 90
        0
280
     0
281
     0
  0
CLASS
  1
ACMSURFSTANDARDJIS
  2
AcmSurfTextStdJIS
  3
"AcmSymBB|Product Description: AutoCAD Mechanical 2000|Company: Autodesk"
 90
        0
280
     0
281
     0
  0
CLASS
  1
ACMFCFSTANDARDJIS
  2
AcmFCFStdJIS
  3
"AcmSymBB|Product Description: AutoCAD Mechanical 2000|Company: Autodesk"
 90
        0
280
     0
281
     0
  0
CLASS
  1
ACMWELDSTANDARDJIS
  2
AcmWeldingStdJIS
  3
"AcmSymBB|Product Description: AutoCAD Mechanical 2000|Company: Autodesk"
 90
        0
280
     0
281
     0
  0
CLASS
  1
ACMIDSTANDARDJIS
  2
AcmIdStdJIS
  3
"AcmSymBB|Product Description: AutoCAD Mechanical 2000|Company: Autodesk"
 90
        0
280
     0
281
     0
  0
CLASS
  1
ACMDATUMSTANDARDJIS
  2
AcmDatumStdJIS
  3
"AcmSymBB|Product Description: AutoCAD Mechanical 2000|Company: Autodesk"
 90
        0
280
     0
281
     0
  0
CLASS
  1
ACMBOMSTANDARDJIS
  2
AcmBOMStdJIS
  3
"AcmSymBB|Product Description: AutoCAD Mechanical 2000|Company: Autodesk"
 90
        0
280
     0
281
     0
  0
CLASS
  1
ACMSTANDARDANSI
  2
AcmStandardANSI
  3
"AcmSymBB|Product Description: AutoCAD Mechanical 2000|Company: Autodesk"
 90
        0
280
     0
281
     0
  0
CLASS
  1
ACMSURFSTANDARDANSI
  2
AcmSurfTextStdANSI
  3
"AcmSymBB|Product Description: AutoCAD Mechanical 2000|Company: Autodesk"
 90
        0
280
     0
281
     0
  0
CLASS
  1
ACMFCFSTANDARDANSI
  2
AcmFCFStdANSI
  3
"AcmSymBB|Product Description: AutoCAD Mechanical 2000|Company: Autodesk"
 90
        0
280
     0
281
     0
  0
CLASS
  1
ACMWELDSTANDARDANSI
  2
AcmWeldingStdANSI
  3
"AcmSymBB|Product Description: AutoCAD Mechanical 2000|Company: Autodesk"
 90
        0
280
     0
281
     0
  0
CLASS
  1
ACMIDSTANDARDANSI
  2
AcmIdStdANSI
  3
"AcmSymBB|Product Description: AutoCAD Mechanical 2000|Company: Autodesk"
 90
        0
280
     0
281
     0
  0
CLASS
  1
ACMDATUMSTANDARDANSI
  2
AcmDatumStdANSI
  3
"AcmSymBB|Product Description: AutoCAD Mechanical 2000|Company: Autodesk"
 90
        0
280
     0
281
     0
  0
CLASS
  1
ACMBOMSTANDARDANSI
  2
AcmBOMStdANSI
  3
"AcmSymBB|Product Description: AutoCAD Mechanical 2000|Company: Autodesk"
 90
        0
280
     0
281
     0
  0
CLASS
  1
ACMSTANDARDBSI
  2
AcmStandardBSI
  3
"AcmSymBB|Product Description: AutoCAD Mechanical 2000|Company: Autodesk"
 90
        0
280
     0
281
     0
  0
CLASS
  1
ACMSURFSTANDARDBSI
  2
AcmSurfTextStdBSI
  3
"AcmSymBB|Product Description: AutoCAD Mechanical 2000|Company: Autodesk"
 90
        0
280
     0
281
     0
  0
CLASS
  1
ACMFCFSTANDARDBSI
  2
AcmFCFStdBSI
  3
"AcmSymBB|Product Description: AutoCAD Mechanical 2000|Company: Autodesk"
 90
        0
280
     0
281
     0
  0
CLASS
  1
ACMWELDSTANDARDBSI
  2
AcmWeldingStdBSI
  3
"AcmSymBB|Product Description: AutoCAD Mechanical 2000|Company: Autodesk"
 90
        0
280
     0
281
     0
  0
CLASS
  1
ACMIDSTANDARDBSI
  2
AcmIdStdBSI
  3
"AcmSymBB|Product Description: AutoCAD Mechanical 2000|Company: Autodesk"
 90
        0
280
     0
281
     0
  0
CLASS
  1
ACMDATUMSTANDARDBSI
  2
AcmDatumStdBSI
  3
"AcmSymBB|Product Description: AutoCAD Mechanical 2000|Company: Autodesk"
 90
        0
280
     0
281
     0
  0
CLASS
  1
ACMBOMSTANDARDBSI
  2
AcmBOMStdBSI
  3
"AcmSymBB|Product Description: AutoCAD Mechanical 2000|Company: Autodesk"
 90
        0
280
     0
281
     0
  0
CLASS
  1
LONG_TRANSACTION
  2
AcDbLongTransaction
  3
AutoCAD 2000
 90
        0
280
     0
281
     0
  0
CLASS
  1
LWPOLYLINE
  2
AcDbPolyline
  3
AutoCAD 2000
 90
        0
280
     0
281
     1
  0
CLASS
  1
HATCH
  2
AcDbHatch
  3
AutoCAD 2000
 90
        0
280
     0
281
     1
  0
CLASS
  1
XRECORD
  2
AcDbXrecord
  3
AutoCAD 2000
 90
        0
280
     0
281
     0
  0
ENDSEC
  0
SECTION
  2
TABLES
  0
TABLE
  2
VPORT
  5
8
330
0
100
AcDbSymbolTable
 70
     3
  0
VPORT
  5
2485
330
8
100
AcDbSymbolTableRecord
100
AcDbViewportTableRecord
  2
*ACTIVE
 70
     0
 10
0.0
 20
0.0
 11
1.0
 21
1.0
 12
-35.04717014134084
 22
-4.896460698794527
 13
0.0
 23
0.0
 14
2.5
 24
2.5
 15
10.0
 25
10.0
 16
0.0
 26
0.0
 36
1.0
 17
0.0
 27
0.0
 37
0.0
 40
69.76614164534943
 41
1.56570841889117
 42
50.0
 43
0.0
 44
0.0
 50
0.0
 51
0.0
 71
     0
 72
   100
 73
     1
 74
     1
 75
     0
 76
     0
 77
     0
 78
     0
  0
ENDTAB
  0
TABLE
  2
LTYPE
  5
5
330
0
100
AcDbSymbolTable
 70
    10
  0
LTYPE
  5
14
330
5
100
AcDbSymbolTableRecord
100
AcDbLinetypeTableRecord
  2
BYBLOCK
 70
     0
  3

 72
    65
 73
     0
 40
0.0
  0
LTYPE
  5
15
330
5
100
AcDbSymbolTableRecord
100
AcDbLinetypeTableRecord
  2
BYLAYER
 70
     0
  3

 72
    65
 73
     0
 40
0.0
  0
LTYPE
  5
16
330
5
100
AcDbSymbolTableRecord
100
AcDbLinetypeTableRecord
  2
CONTINUOUS
 70
     0
  3
Solid line
 72
    65
 73
     0
 40
0.0
  0
LTYPE
  5
4B
330
5
100
AcDbSymbolTableRecord
100
AcDbLinetypeTableRecord
  2
AM_ISO02W050
 70
     0
  3
__ __ __ __ __ __ __ __ __ __ __ __ __ __ __
 72
    65
 73
     2
 40
7.5
 49
6.0
 74
     0
 49
-1.5
 74
     0
  0
LTYPE
  5
4C
330
5
100
AcDbSymbolTableRecord
100
AcDbLinetypeTableRecord
  2
AM_ISO08W050
 70
     0
  3
____ . ____ . ____ . ____ . ____ . ____ . ____
 72
    65
 73
     4
 40
18.0
 49
12.0
 74
     0
 49
-1.5
 74
     0
 49
3.0
 74
     0
 49
-1.5
 74
     0
  0
LTYPE
  5
4D
330
5
100
AcDbSymbolTableRecord
100
AcDbLinetypeTableRecord
  2
AM_ISO09W050
 70
     0
  3
_____ . . _____ . . _____ . . ____ .. ____
 72
    65
 73
     6
 40
22.5
 49
12.0
 74
     0
 49
-1.5
 74
     0
 49
3.0
 74
     0
 49
-1.5
 74
     0
 49
3.0
 74
     0
 49
-1.5
 74
     0
  0
LTYPE
  5
4E
330
5
100
AcDbSymbolTableRecord
100
AcDbLinetypeTableRecord
  2
AMCONSTR
 70
     0
  3
_______________________
 72
    65
 73
     2
 40
9999.0
 49
9999.0
 74
     0
 49
0.0
 74
     0
  0
LTYPE
  5
4F
330
5
100
AcDbSymbolTableRecord
100
AcDbLinetypeTableRecord
  2
AM_ISO02W050X2
 70
     0
  3
 _ _ _ _ _ _ _ _ _ _ _ _
 72
    65
 73
     2
 40
3.75
 49
3.0
 74
     0
 49
-0.75
 74
     0
  0
LTYPE
  5
50
330
5
100
AcDbSymbolTableRecord
100
AcDbLinetypeTableRecord
  2
AM_ISO08W050X2
 70
     0
  3
__ . __ . __ . __ . __ . __
 72
    65
 73
     4
 40
9.0
 49
6.0
 74
     0
 49
-0.75
 74
     0
 49
1.5
 74
     0
 49
-0.75
 74
     0
  0
LTYPE
  5
53
330
5
100
AcDbSymbolTableRecord
100
AcDbLinetypeTableRecord
  2
AMZIGZAG
 70
     0
  3
/\/-/\/-/\/-/\/-/\/-/\/
 72
    65
 73
     2
 40
11.00009999999999
 49
0.0001
 74
     4
 75
   135
340
52
 46
0.04
 50
0.0
 44
0.0
 45
0.0
 49
-11.0
 74
     0
  0
LTYPE
  5
166
330
5
100
AcDbSymbolTableRecord
100
AcDbLinetypeTableRecord
  2
ACJISTGL
 70
     0
  3
_ _ _ _ _
 72
    65
 73
     2
 40
3.0
 49
2.0
 74
     0
 49
-1.0
 74
     0
  0
LTYPE
  5
26A
330
5
100
AcDbSymbolTableRecord
100
AcDbLinetypeTableRecord
  2
ACJISTGB
 70
     0
  3
__ . . __ . .
 72
    65
 73
     6
 40
9.0
 49
4.0
 74
     0
 49
-1.0
 74
     0
 49
1.0
 74
     0
 49
-1.0
 74
     0
 49
1.0
 74
     0
 49
-1.0
 74
     0
  0
ENDTAB
  0
TABLE
  2
LAYER
  5
2
330
0
100
AcDbSymbolTable
 70
     8
  0
LAYER
  5
10
330
2
100
AcDbSymbolTableRecord
100
AcDbLayerTableRecord
  2
0
 70
     0
 62
     7
  6
CONTINUOUS
  0
LAYER
  5
3F9
330
2
100
AcDbSymbolTableRecord
100
AcDbLayerTableRecord
  2
AM_0
 70
     0
 62
     7
  6
CONTINUOUS
  0
LAYER
  5
C7C
330
2
100
AcDbSymbolTableRecord
100
AcDbLayerTableRecord
  2
AM_7
 70
     0
 62
     4
  6
AM_ISO08W050
  0
LAYER
  5
C97
330
2
100
AcDbSymbolTableRecord
100
AcDbLayerTableRecord
  2
AM_11
 70
     0
 62
     3
  6
AM_ISO09W050
  0
LAYER
  5
CC5
330
2
100
AcDbSymbolTableRecord
100
AcDbLayerTableRecord
  2
AM_5
 70
     0
 62
     3
  6
CONTINUOUS
  0
LAYER
  5
CC7
330
2
100
AcDbSymbolTableRecord
100
AcDbLayerTableRecord
  2
DEFPOINTS
 70
     0
 62
     7
  6
CONTINUOUS
  0
LAYER
  5
19BC
330
2
100
AcDbSymbolTableRecord
100
AcDbLayerTableRecord
  2
AM_6
 70
     0
 62
     2
  6
CONTINUOUS
  0
LAYER
  5
2314
330
2
100
AcDbSymbolTableRecord
100
AcDbLayerTableRecord
  2
AM_CL
 70
     0
 62
     1
  6
AMCONSTR
  0
ENDTAB
  0
TABLE
  2
STYLE
  5
3
330
0
100
AcDbSymbolTable
 70
     5
  0
STYLE
  5
11
330
3
100
AcDbSymbolTableRecord
100
AcDbTextStyleTableRecord
  2
STANDARD
 70
     0
 40
0.0
 41
1.0
 50
0.0
 71
     0
 42
2.5
  3
simplex.shx
  4
EXTFONT.SHX
  0
STYLE
  5
52
330
3
100
AcDbSymbolTableRecord
100
AcDbTextStyleTableRecord
  2

 70
     1
 40
0.0
 41
1.0
 50
0.0
 71
     0
 42
2.5
  3
ltypeshp.shx
  4

  0
STYLE
  5
6B
330
3
100
AcDbSymbolTableRecord
100
AcDbTextStyleTableRecord
  2
ASAMI
 70
     0
 40
0.0
 41
1.0
 50
0.0
 71
     0
 42
2.5
  3
simplex.shx
  4
EXTFONT.SHX
  0
STYLE
  5
262
330
3
100
AcDbSymbolTableRecord
100
AcDbTextStyleTableRecord
  2
ACJISTS
 70
     0
 40
1.0
 41
1.0
 50
0.0
 71
     0
 42
2.5
  3
simplex.shx
  4
bigfont.shx
  0
STYLE
  5
269
330
3
100
AcDbSymbolTableRecord
100
AcDbTextStyleTableRecord
  2
ACJISGDT
 70
     0
 40
0.0
 41
1.0
 50
0.0
 71
     0
 42
2.5
  3
amgdtans.shx
  4

  0
ENDTAB
  0
TABLE
  2
VIEW
  5
6
330
0
100
AcDbSymbolTable
 70
     0
  0
ENDTAB
  0
TABLE
  2
UCS
  5
7
330
0
100
AcDbSymbolTable
 70
     0
  0
ENDTAB
  0
TABLE
  2
APPID
  5
9
330
0
100
AcDbSymbolTable
 70
    16
  0
APPID
  5
12
330
9
100
AcDbSymbolTableRecord
100
AcDbRegAppTableRecord
  2
ACAD
 70
     0
  0
APPID
  5
30
330
9
100
AcDbSymbolTableRecord
100
AcDbRegAppTableRecord
  2
MCAD_NO_VIS
 70
     0
  0
APPID
  5
31
330
9
100
AcDbSymbolTableRecord
100
AcDbRegAppTableRecord
  2
ACAD_TEMP_GRAPHIC
 70
     0
  0
APPID
  5
2C2
330
9
100
AcDbSymbolTableRecord
100
AcDbRegAppTableRecord
  2
GENIUS_GENDTOL_13
 70
     0
  0
APPID
  5
339
330
9
100
AcDbSymbolTableRecord
100
AcDbRegAppTableRecord
  2
GENIUS_GENODEF_13
 70
     0
  0
APPID
  5
33A
330
9
100
AcDbSymbolTableRecord
100
AcDbRegAppTableRecord
  2
GENIUS_GENOBJ-N-RSBK_13
 70
     0
  0
APPID
  5
33B
330
9
100
AcDbSymbolTableRecord
100
AcDbRegAppTableRecord
  2
GENIUS_GENOBJ-N-LIB_13
 70
     0
  0
APPID
  5
33C
330
9
100
AcDbSymbolTableRecord
100
AcDbRegAppTableRecord
  2
GENIUS_GENSCALE_13
 70
     0
  0
APPID
  5
378
330
9
100
AcDbSymbolTableRecord
100
AcDbRegAppTableRecord
  2
GENIUS_GENDIMSH_14
 70
     0
  0
APPID
  5
C82
330
9
100
AcDbSymbolTableRecord
100
AcDbRegAppTableRecord
  2
GENIUS_GENOBJ-N-CRS_13
 70
     0
  0
APPID
  5
C83
330
9
100
AcDbSymbolTableRecord
100
AcDbRegAppTableRecord
  2
GENIUS_GENOENT_13
 70
     0
  0
APPID
  5
C84
330
9
100
AcDbSymbolTableRecord
100
AcDbRegAppTableRecord
  2
GENIUS_GENOREF_13
 70
     0
  0
APPID
  5
C85
330
9
100
AcDbSymbolTableRecord
100
AcDbRegAppTableRecord
  2
GENIUS_GENOLIS_13
 70
     0
  0
APPID
  5
CA0
330
9
100
AcDbSymbolTableRecord
100
AcDbRegAppTableRecord
  2
GENIUS_GENOBJ-N-CEN_13
 70
     0
  0
APPID
  5
1B6F
330
9
100
AcDbSymbolTableRecord
100
AcDbRegAppTableRecord
  2
GENIUS_GENFIL_13
 70
     0
  0
APPID
  5
1B70
330
9
100
AcDbSymbolTableRecord
100
AcDbRegAppTableRecord
  2
GENIUS_GENOBJ-N-CHA_13
 70
     0
  0
ENDTAB
  0
TABLE
  2
DIMSTYLE
  5
A
330
0
100
AcDbSymbolTable
 70
     9
  0
DIMSTYLE
105
58
330
A
100
AcDbSymbolTableRecord
100
AcDbDimStyleTableRecord
  2
AM_JIS
 70
     0
  3

  4
"
  5
OPEN30
  6

  7

 40
0.5
 41
2.5
 42
1.0
 43
12.0
 44
1.0
 45
0.0
 46
0.0
 47
0.1
 48
0.1
140
3.2
141
0.0
142
0.0
143
0.0393701
144
1.0
145
0.0
146
0.71
147
1.5
 71
     0
 72
     0
 73
     0
 74
     0
 75
     0
 76
     0
 77
     3
 78
     8
170
     0
171
     2
172
     1
173
     0
174
     0
175
     0
176
   256
177
   256
178
     2
270
     2
271
     3
272
     3
273
     2
274
     2
340
6B
275
     0
280
     0
281
     0
282
     0
283
     0
284
     0
285
     0
286
     0
287
     3
288
     0
  0
DIMSTYLE
105
5F
330
A
100
AcDbSymbolTableRecord
100
AcDbDimStyleTableRecord
  2
AM_JIS$3
 70
     0
  3

  4
"
  5
OPEN30
  6

  7

 40
0.5
 41
2.5
 42
1.0
 43
10.0
 44
1.0
 45
0.0
 46
0.0
 47
0.1
 48
0.1
140
3.2
141
0.0
142
0.0
143
0.0393701
144
1.0
145
0.0
146
0.71
147
1.5
 71
     0
 72
     0
 73
     0
 74
     1
 75
     0
 76
     0
 77
     3
 78
     8
170
     0
171
     2
172
     0
173
     0
174
     0
175
     0
176
   256
177
   256
178
     2
270
     2
271
     2
272
     3
273
     2
274
     2
340
6B
275
     0
280
     0
281
     0
282
     0
283
     0
284
     0
285
     0
286
     0
287
     0
288
     1
  0
DIMSTYLE
105
60
330
A
100
AcDbSymbolTableRecord
100
AcDbDimStyleTableRecord
  2
AM_JIS$4
 70
     0
  3

  4
"
  5
OPEN30
  6

  7

 40
0.5
 41
2.5
 42
1.0
 43
10.0
 44
1.0
 45
0.0
 46
0.0
 47
0.1
 48
0.1
140
3.2
141
0.0
142
0.0
143
0.0393701
144
1.0
145
0.0
146
0.71
147
1.5
 71
     0
 72
     0
 73
     0
 74
     1
 75
     0
 76
     0
 77
     3
 78
     8
170
     0
171
     2
172
     0
173
     0
174
     0
175
     0
176
   256
177
   256
178
     2
270
     2
271
     2
272
     3
273
     2
274
     2
340
6B
275
     0
280
     0
281
     0
282
     0
283
     0
284
     0
285
     0
286
     0
287
     0
288
     1
  0
DIMSTYLE
105
61
330
A
100
AcDbSymbolTableRecord
100
AcDbDimStyleTableRecord
  2
AM_JIS$6
 70
     0
  3

  4
"
  5
OPEN30
  6

  7

 40
0.5
 41
2.5
 42
1.0
 43
10.0
 44
1.0
 45
0.0
 46
0.0
 47
0.1
 48
0.1
140
3.2
141
0.0
142
0.0
143
0.0393701
144
1.0
145
0.0
146
0.71
147
1.5
 71
     0
 72
     0
 73
     0
 74
     0
 75
     0
 76
     0
 77
     0
 78
     8
170
     0
171
     2
172
     1
173
     0
174
     0
175
     0
176
   256
177
   256
178
     2
270
     2
271
     2
272
     2
273
     2
274
     2
340
6B
275
     0
280
     0
281
     0
282
     0
283
     0
284
     0
285
     0
286
     0
287
     3
288
     0
  0
DIMSTYLE
105
62
330
A
100
AcDbSymbolTableRecord
100
AcDbDimStyleTableRecord
  2
AM_JIS$7
 70
     0
  3

  4
"
  5
OPEN30
  6

  7

 40
0.5
 41
2.5
 42
1.0
 43
10.0
 44
1.0
 45
0.0
 46
0.0
 47
0.1
 48
0.1
140
3.2
141
0.0
142
0.0
143
0.0393701
144
1.0
145
0.0
146
0.71
147
1.5
 71
     0
 72
     0
 73
     0
 74
     0
 75
     0
 76
     0
 77
     3
 78
     8
170
     0
171
     2
172
     1
173
     0
174
     0
175
     0
176
   256
177
   256
178
     2
270
     2
271
     2
272
     3
273
     2
274
     2
340
6B
275
     0
280
     0
281
     0
282
     0
283
     0
284
     0
285
     0
286
     0
287
     3
288
     0
  0
DIMSTYLE
105
63
330
A
100
AcDbSymbolTableRecord
100
AcDbDimStyleTableRecord
  2
AM_JIS$SF
 70
     0
  3

  4
"
  5
OPEN30
  6

  7

 40
0.5
 41
2.5
 42
1.0
 43
10.0
 44
1.0
 45
0.0
 46
0.0
 47
0.1
 48
0.1
140
3.2
141
0.0
142
0.0
143
0.0393701
144
1.0
145
0.0
146
0.71
147
1.5
 71
     0
 72
     0
 73
     0
 74
     0
 75
     1
 76
     1
 77
     3
 78
     8
170
     0
171
     2
172
     1
173
     0
174
     0
175
     0
176
   256
177
   256
178
     2
270
     2
271
     2
272
     2
273
     2
274
     2
340
6B
275
     0
280
     0
281
     0
282
     0
283
     0
284
     0
285
     0
286
     0
287
     3
288
     0
  0
DIMSTYLE
105
68
330
A
100
AcDbSymbolTableRecord
100
AcDbDimStyleTableRecord
  2
AM_JIS$SH
 70
     0
  3

  4
"
  5

  6
GENAXEH
  7
OPEN30
 40
0.5
 41
2.5
 42
1.0
 43
10.0
 44
1.0
 45
0.0
 46
0.0
 47
0.1
 48
0.1
140
3.2
141
0.0
142
0.0
143
0.0393701
144
2.0
145
0.0
146
0.71
147
1.5
 71
     0
 72
     0
 73
     0
 74
     0
 75
     1
 76
     1
 77
     3
 78
     8
170
     0
171
     2
172
     1
173
     1
174
     0
175
     0
176
   256
177
   256
178
     2
270
     2
271
     2
272
     2
273
     2
274
     2
340
6B
275
     0
280
     0
281
     0
282
     0
283
     0
284
     0
285
     0
286
     0
287
     3
288
     0
  0
DIMSTYLE
105
B34
102
{ACAD_REACTORS
330
2358
102
}
330
A
100
AcDbSymbolTableRecord
100
AcDbDimStyleTableRecord
  2
AM_JIS$2
 70
     0
  3

  4
"
  5
OPEN30
  6

  7

 40
0.5
 41
2.5
 42
1.0
 43
12.0
 44
1.0
 45
0.0
 46
0.0
 47
0.1
 48
0.1
140
3.2
141
0.0
142
0.0
143
0.0393701
144
1.0
145
0.0
146
0.71
147
1.5
 71
     0
 72
     0
 73
     0
 74
     0
 75
     0
 76
     0
 77
     3
 78
     8
170
     0
171
     2
172
     1
173
     0
174
     0
175
     0
176
   256
177
   256
178
     2
270
     2
271
     3
272
     3
273
     2
274
     2
340
6B
275
     0
280
     0
281
     0
282
     0
283
     0
284
     0
285
     0
286
     0
287
     3
288
     0
  0
DIMSTYLE
105
BA5
102
{ACAD_REACTORS
330
CC6
330
1BC7
330
1F56
330
211C
102
}
330
A
100
AcDbSymbolTableRecord
100
AcDbDimStyleTableRecord
  2
AM_JIS$0
 70
     0
  3

  4
"
  5
OPEN30
  6

  7

 40
0.5
 41
2.5
 42
0.0
 43
10.0
 44
1.0
 45
0.0
 46
0.0
 47
0.1
 48
0.1000000001
140
3.799999999999999
141
0.0
142
0.0
143
0.0393701
144
1.0
145
0.0
146
0.71
147
1.5
 71
     0
 72
     0
 73
     0
 74
     0
 75
     0
 76
     0
 77
     3
 78
     1
170
     0
171
     2
172
     1
173
     0
174
     0
175
     0
176
     3
177
     3
178
     2
270
     2
271
     2
272
     2
273
     2
274
     2
340
11
275
     1
280
     0
281
     0
282
     0
283
     0
284
     8
285
     0
286
     0
287
     0
288
     0
  0
ENDTAB
  0
TABLE
  2
BLOCK_RECORD
  5
1
330
0
100
AcDbSymbolTable
 70
    11
  0
BLOCK_RECORD
  5
1F
102
{ACAD_XDICTIONARY
360
74
102
}
330
1
100
AcDbSymbolTableRecord
100
AcDbBlockTableRecord
  2
*MODEL_SPACE
  0
BLOCK_RECORD
  5
101
102
{ACAD_XDICTIONARY
360
24AE
102
}
330
1
100
AcDbSymbolTableRecord
100
AcDbBlockTableRecord
  2
*PAPER_SPACE
  0
BLOCK_RECORD
  5
59
330
1
100
AcDbSymbolTableRecord
100
AcDbBlockTableRecord
  2
_OPEN30
  0
BLOCK_RECORD
  5
64
330
1
100
AcDbSymbolTableRecord
100
AcDbBlockTableRecord
  2
GENAXEH
  0
BLOCK_RECORD
  5
CC8
330
1
100
AcDbSymbolTableRecord
100
AcDbBlockTableRecord
  2
*D5
  0
BLOCK_RECORD
  5
1BC8
330
1
100
AcDbSymbolTableRecord
100
AcDbBlockTableRecord
  2
*D7
  0
BLOCK_RECORD
  5
1F57
330
1
100
AcDbSymbolTableRecord
100
AcDbBlockTableRecord
  2
*D8
  0
BLOCK_RECORD
  5
211D
330
1
100
AcDbSymbolTableRecord
100
AcDbBlockTableRecord
  2
*D9
  0
BLOCK_RECORD
  5
2359
330
1
100
AcDbSymbolTableRecord
100
AcDbBlockTableRecord
  2
*D10
  0
ENDTAB
  0
ENDSEC
  0
SECTION
  2
BLOCKS
  0
BLOCK
  5
20
330
1F
100
AcDbEntity
  8
0
100
AcDbBlockBegin
  2
*MODEL_SPACE
 70
     0
 10
0.0
 20
0.0
 30
0.0
  3
*MODEL_SPACE
  1

  0
ENDBLK
  5
21
330
1F
100
AcDbEntity
  8
0
100
AcDbBlockEnd
  0
BLOCK
  5
103
330
101
100
AcDbEntity
 67
     1
  8
0
100
AcDbBlockBegin
  2
*PAPER_SPACE
 70
     0
 10
0.0
 20
0.0
 30
0.0
  3
*PAPER_SPACE
  1

  0
ENDBLK
  5
104
330
101
100
AcDbEntity
 67
     1
  8
0
100
AcDbBlockEnd
  0
BLOCK
  5
5D
330
59
100
AcDbEntity
  8
0
100
AcDbBlockBegin
  2
_OPEN30
 70
     0
 10
0.0
 20
0.0
 30
0.0
  3
_OPEN30
  1

  0
LINE
  5
5A
330
59
100
AcDbEntity
  8
0
 62
     0
100
AcDbLine
 10
-1.0
 20
0.26794919
 30
0.0
 11
0.0
 21
0.0
 31
0.0
  0
LINE
  5
5B
330
59
100
AcDbEntity
  8
0
 62
     0
100
AcDbLine
 10
0.0
 20
0.0
 30
0.0
 11
-1.0
 21
-0.26794919
 31
0.0
  0
LINE
  5
5C
330
59
100
AcDbEntity
  8
0
 62
     0
100
AcDbLine
 10
0.0
 20
0.0
 30
0.0
 11
-1.0
 21
0.0
 31
0.0
  0
ENDBLK
  5
5E
330
59
100
AcDbEntity
  8
0
100
AcDbBlockEnd
  0
BLOCK
  5
66
330
64
100
AcDbEntity
  8
0
100
AcDbBlockBegin
  2
GENAXEH
 70
     0
 10
0.0
 20
0.0
 30
0.0
  3
GENAXEH
  1

  0
LINE
  5
65
330
64
100
AcDbEntity
  8
0
100
AcDbLine
 10
-1.0
 20
0.0
 30
0.0
 11
1.0
 21
0.0
 31
0.0
  0
ENDBLK
  5
67
330
64
100
AcDbEntity
  8
0
100
AcDbBlockEnd
  0
BLOCK
  5
CD2
330
CC8
100
AcDbEntity
  8
0
100
AcDbBlockBegin
  2
*D5
 70
     1
 10
0.0
 20
0.0
 30
0.0
  3
*D5
  1

  0
LINE
  5
2435
330
CC8
100
AcDbEntity
  8
AM_5
 62
     3
100
AcDbLine
 10
-79.0
 20
-1.150006285662958
 30
0.0
 11
-79.0
 21
-13.90000725720272
 31
0.0
  0
LINE
  5
2436
330
CC8
100
AcDbEntity
  8
AM_5
 62
     3
100
AcDbLine
 10
-1.000000000000001
 20
-1.400000000000005
 30
0.0
 11
-1.000000000000002
 21
-13.90000725720272
 31
0.0
  0
LINE
  5
2437
330
CC8
100
AcDbEntity
  8
AM_5
 62
     3
100
AcDbLine
 10
-77.75
 20
-13.40000725720272
 30
0.0
 11
-2.250000000000002
 21
-13.40000725720272
 31
0.0
  0
INSERT
  5
2438
330
CC8
100
AcDbEntity
  8
AM_5
 62
     3
100
AcDbBlockReference
  2
_OPEN30
 10
-79.0
 20
-13.40000725720272
 30
0.0
 41
1.25
 42
1.25
 43
1.25
 50
180.0
  0
INSERT
  5
2439
330
CC8
100
AcDbEntity
  8
AM_5
 62
     3
100
AcDbBlockReference
  2
_OPEN30
 10
-1.000000000000002
 20
-13.40000725720272
 30
0.0
 41
1.25
 42
1.25
 43
1.25
  0
MTEXT
  5
243A
330
CC8
100
AcDbEntity
  8
AM_5
 62
     2
100
AcDbMText
 10
-40.0
 20
-11.70000725720272
 30
0.0
 40
1.9
 41
0.0
 71
     5
 72
     1
  1
78
1001
ACAD
1000
MTEXTBEGIN
1070
    73
1070
     1
1070
    44
1040
1.0
1070
    74
1070
     0
1000
MTEXTEND
  0
POINT
  5
243B
330
CC8
100
AcDbEntity
  8
DEFPOINTS
 62
     0
100
AcDbPoint
 10
-79.0
 20
-1.150006285662958
 30
0.0
  0
POINT
  5
243C
330
CC8
100
AcDbEntity
  8
DEFPOINTS
 62
     0
100
AcDbPoint
 10
-1.000000000000001
 20
-1.400000000000005
 30
0.0
  0
POINT
  5
243D
330
CC8
100
AcDbEntity
  8
DEFPOINTS
 62
     0
100
AcDbPoint
 10
-1.000000000000002
 20
-13.40000725720272
 30
0.0
  0
ENDBLK
  5
CD3
330
CC8
100
AcDbEntity
  8
0
100
AcDbBlockEnd
  0
BLOCK
  5
1BD2
330
1BC8
100
AcDbEntity
  8
0
100
AcDbBlockBegin
  2
*D7
 70
     1
 10
0.0
 20
0.0
 30
0.0
  3
*D7
  1

  0
LINE
  5
245F
330
1BC8
100
AcDbEntity
  8
AM_5
 62
     3
100
AcDbLine
 10
-30.99999999999999
 20
-1.500000542241565
 30
0.0
 11
-30.99999999999999
 21
-9.000007181011092
 31
0.0
  0
LINE
  5
2460
330
1BC8
100
AcDbEntity
  8
AM_5
 62
     3
100
AcDbLine
 10
-1.000004132588686
 20
-1.500000000000008
 30
0.0
 11
-1.000004132588687
 21
-9.000007181011092
 31
0.0
  0
LINE
  5
2461
330
1BC8
100
AcDbEntity
  8
AM_5
 62
     3
100
AcDbLine
 10
-29.74999999999999
 20
-8.500007181011092
 30
0.0
 11
-2.250004132588687
 21
-8.500007181011092
 31
0.0
  0
INSERT
  5
2462
330
1BC8
100
AcDbEntity
  8
AM_5
 62
     3
100
AcDbBlockReference
  2
_OPEN30
 10
-30.99999999999999
 20
-8.500007181011092
 30
0.0
 41
1.25
 42
1.25
 43
1.25
 50
180.0
  0
INSERT
  5
2463
330
1BC8
100
AcDbEntity
  8
AM_5
 62
     3
100
AcDbBlockReference
  2
_OPEN30
 10
-1.000004132588687
 20
-8.500007181011092
 30
0.0
 41
1.25
 42
1.25
 43
1.25
  0
MTEXT
  5
2464
330
1BC8
100
AcDbEntity
  8
AM_5
 62
     2
100
AcDbMText
 10
-16.00000206629434
 20
-6.800007181011092
 30
0.0
 40
1.9
 41
0.0
 71
     5
 72
     1
  1
30
1001
ACAD
1000
MTEXTBEGIN
1070
    73
1070
     1
1070
    44
1040
1.0
1070
    74
1070
     0
1000
MTEXTEND
  0
POINT
  5
2465
330
1BC8
100
AcDbEntity
  8
DEFPOINTS
 62
     0
100
AcDbPoint
 10
-30.99999999999999
 20
-1.500000542241565
 30
0.0
  0
POINT
  5
2466
330
1BC8
100
AcDbEntity
  8
DEFPOINTS
 62
     0
100
AcDbPoint
 10
-1.000004132588686
 20
-1.500000000000008
 30
0.0
  0
POINT
  5
2467
330
1BC8
100
AcDbEntity
  8
DEFPOINTS
 62
     0
100
AcDbPoint
 10
-1.000004132588687
 20
-8.500007181011092
 30
0.0
  0
ENDBLK
  5
1BD3
330
1BC8
100
AcDbEntity
  8
0
100
AcDbBlockEnd
  0
BLOCK
  5
1F63
330
1F57
100
AcDbEntity
  8
0
100
AcDbBlockBegin
  2
*D8
 70
     1
 10
0.0
 20
0.0
 30
0.0
  3
*D8
  1

  0
LINE
  5
243E
330
1F57
100
AcDbEntity
  8
AM_5
 62
     3
100
AcDbLine
 10
-78.74999999999997
 20
-1.500006181011382
 30
0.0
 11
-87.25000135426986
 21
-1.500006181011399
 31
0.0
  0
LINE
  5
243F
330
1F57
100
AcDbEntity
  8
AM_5
 62
     3
100
AcDbLine
 10
-78.74999999999997
 20
1.500005264989021
 30
0.0
 11
-87.25000135426986
 21
1.500005264989004
 31
0.0
  0
LINE
  5
2440
330
1F57
100
AcDbEntity
  8
AM_5
 62
     3
100
AcDbLine
 10
-86.75000135426985
 20
-2.750006181011398
 30
0.0
 11
-86.75000135426984
 21
-4.000006181011397
 31
0.0
  0
LINE
  5
2441
330
1F57
100
AcDbEntity
  8
AM_5
 62
     3
100
AcDbLine
 10
-86.75000135426985
 20
2.750005264989006
 30
0.0
 11
-86.75000135426987
 21
4.000005264989005
 31
0.0
  0
LINE
  5
2442
330
1F57
100
AcDbEntity
  8
AM_5
 62
     3
100
AcDbLine
 10
-86.75000135426985
 20
-1.500006181011398
 30
0.0
 11
-86.75000135426985
 21
1.500005264989005
 31
0.0
  0
INSERT
  5
2443
330
1F57
100
AcDbEntity
  8
AM_5
 62
     3
100
AcDbBlockReference
  2
_OPEN30
 10
-86.75000135426985
 20
-1.500006181011398
 30
0.0
 41
1.25
 42
1.25
 43
1.25
 50
90.0000000000001
  0
INSERT
  5
2444
330
1F57
100
AcDbEntity
  8
AM_5
 62
     3
100
AcDbBlockReference
  2
_OPEN30
 10
-86.75000135426985
 20
1.500005264989005
 30
0.0
 41
1.25
 42
1.25
 43
1.25
 50
270.0000000000001
  0
MTEXT
  5
2445
330
1F57
100
AcDbEntity
  8
AM_5
 62
     2
100
AcDbMText
 10
-88.45000135426985
 20
-0.0000004580111961
 30
0.0
 40
1.9
 41
0.0
 71
     5
 72
     1
  1
%%c3
 11
-0.000000000000002
 21
1.0
 31
0.0
1001
ACAD
1000
MTEXTBEGIN
1070
    73
1070
     1
1070
    44
1040
1.0
1070
    74
1070
     0
1000
MTEXTEND
  0
POINT
  5
2446
330
1F57
100
AcDbEntity
  8
DEFPOINTS
 62
     0
100
AcDbPoint
 10
-78.74999999999997
 20
-1.500006181011207
 30
0.0
  0
POINT
  5
2447
330
1F57
100
AcDbEntity
  8
DEFPOINTS
 62
     0
100
AcDbPoint
 10
-78.74999999999997
 20
1.500005264989196
 30
0.0
  0
POINT
  5
2448
330
1F57
100
AcDbEntity
  8
DEFPOINTS
 62
     0
100
AcDbPoint
 10
-86.75000135426985
 20
1.500005264989198
 30
0.0
  0
ENDBLK
  5
1F64
330
1F57
100
AcDbEntity
  8
0
100
AcDbBlockEnd
  0
BLOCK
  5
2129
330
211D
100
AcDbEntity
  8
0
100
AcDbBlockBegin
  2
*D9
 70
     1
 10
0.0
 20
0.0
 30
0.0
  3
*D9
  1

  0
LINE
  5
2454
330
211D
100
AcDbEntity
  8
AM_5
 62
     3
100
AcDbLine
 10
-1.000000000000003
 20
-1.400000000000005
 30
0.0
 11
7.841451725177076
 21
-1.400000000000008
 31
0.0
  0
LINE
  5
2455
330
211D
100
AcDbEntity
  8
AM_5
 62
     3
100
AcDbLine
 10
-0.999999999999985
 20
1.399999999999994
 30
0.0
 11
7.841451725177076
 21
1.399999999999991
 31
0.0
  0
LINE
  5
2456
330
211D
100
AcDbEntity
  8
AM_5
 62
     3
100
AcDbLine
 10
7.341451725177076
 20
-2.650000000000008
 30
0.0
 11
7.341451725177076
 21
-3.900000000000008
 31
0.0
  0
LINE
  5
2457
330
211D
100
AcDbEntity
  8
AM_5
 62
     3
100
AcDbLine
 10
7.341451725177078
 20
2.649999999999991
 30
0.0
 11
7.34145172517708
 21
11.09999999999999
 31
0.0
  0
LINE
  5
2458
330
211D
100
AcDbEntity
  8
AM_5
 62
     3
100
AcDbLine
 10
7.341451725177077
 20
-1.400000000000007
 30
0.0
 11
7.341451725177077
 21
1.399999999999992
 31
0.0
  0
INSERT
  5
2459
330
211D
100
AcDbEntity
  8
AM_5
 62
     3
100
AcDbBlockReference
  2
_OPEN30
 10
7.341451725177077
 20
-1.400000000000007
 30
0.0
 41
1.25
 42
1.25
 43
1.25
 50
90.0
  0
INSERT
  5
245A
330
211D
100
AcDbEntity
  8
AM_5
 62
     3
100
AcDbBlockReference
  2
_OPEN30
 10
7.341451725177077
 20
1.399999999999992
 30
0.0
 41
1.25
 42
1.25
 43
1.25
 50
270.0
  0
MTEXT
  5
245B
330
211D
100
AcDbEntity
  8
AM_5
 62
     2
100
AcDbMText
 10
5.641451725177078
 20
7.499999999999998
 30
0.0
 40
1.9
 41
0.0
 71
     5
 72
     1
  1
%%c2.8
 11
0.0000000000000001
 21
1.0
 31
0.0
1001
ACAD
1000
MTEXTBEGIN
1070
    73
1070
     1
1070
    44
1040
1.0
1070
    74
1070
     0
1000
MTEXTEND
  0
POINT
  5
245C
330
211D
100
AcDbEntity
  8
DEFPOINTS
 62
     0
100
AcDbPoint
 10
-1.000000000000003
 20
-1.400000000000005
 30
0.0
  0
POINT
  5
245D
330
211D
100
AcDbEntity
  8
DEFPOINTS
 62
     0
100
AcDbPoint
 10
-0.999999999999985
 20
1.399999999999994
 30
0.0
  0
POINT
  5
245E
330
211D
100
AcDbEntity
  8
DEFPOINTS
 62
     0
100
AcDbPoint
 10
7.341451725177077
 20
1.399999999999992
 30
0.0
  0
ENDBLK
  5
212A
330
211D
100
AcDbEntity
  8
0
100
AcDbBlockEnd
  0
BLOCK
  5
2369
330
2359
100
AcDbEntity
  8
0
100
AcDbBlockBegin
  2
*D10
 70
     1
 10
0.0
 20
0.0
 30
0.0
  3
*D10
  1

  0
LINE
  5
2449
330
2359
100
AcDbEntity
  8
AM_5
100
AcDbLine
 10
0.1710087926304757
 20
-0.4698467759206896
 30
0.0
 11
5.444086857110124
 21
-14.95763240181802
 31
0.0
  0
LINE
  5
244A
330
2359
100
AcDbEntity
  8
AM_5
100
AcDbLine
 10
0.1710100517590929
 20
0.469846317637323
 30
0.0
 11
5.444126941631224
 21
14.95761781230824
 31
0.0
  0
ARC
  5
244B
330
2359
100
AcDbEntity
  8
AM_5
100
AcDbCircle
 10
-0.0000000000000007
 20
0.0000000000000001
 30
0.0
 40
15.41756415962177
100
AcDbArc
 50
294.6464505954709
 51
65.35339585917231
  0
INSERT
  5
244C
330
2359
100
AcDbEntity
  8
AM_5
100
AcDbBlockReference
  2
_OPEN30
 10
5.273078064479648
 20
-14.48778562589733
 30
0.0
 41
1.25
 42
1.25
 43
1.25
 50
202.3231473114684
  0
INSERT
  5
244D
330
2359
100
AcDbEntity
  8
AM_5
100
AcDbBlockReference
  2
_OPEN30
 10
5.273116889872131
 20
14.48777149467091
 30
0.0
 41
1.25
 42
1.25
 43
1.25
 50
157.6766991431748
  0
MTEXT
  5
244E
330
2359
100
AcDbEntity
  8
AM_5
 62
     2
100
AcDbMText
 10
13.86756415960932
 20
-0.0000185816486275
 30
0.0
 40
1.6
 41
0.0
 71
     5
 72
     1
  1
140°
  7
ASAMI
 11
0.0000013399360126
 21
0.9999999999991022
 31
0.0
1001
ACAD
1000
MTEXTBEGIN
1070
    73
1070
     1
1070
    44
1040
1.0
1070
    74
1070
     0
1000
MTEXTEND
  0
POINT
  5
244F
330
2359
100
AcDbEntity
  8
DEFPOINTS
 62
     0
100
AcDbPoint
 10
14.156644744061
 20
-6.106610697146481
 30
0.0
  0
POINT
  5
2450
330
2359
100
AcDbEntity
  8
DEFPOINTS
 62
     0
100
AcDbPoint
 10
-0.0000000000000007
 20
0.0000000000000001
 30
0.0
  0
POINT
  5
2451
330
2359
100
AcDbEntity
  8
DEFPOINTS
 62
     0
100
AcDbPoint
 10
-0.0000000000000007
 20
0.0000000000000001
 30
0.0
  0
POINT
  5
2452
330
2359
100
AcDbEntity
  8
DEFPOINTS
 62
     0
100
AcDbPoint
 10
-0.1332386856516308
 20
0.3660733808968628
 30
0.0
  0
POINT
  5
2453
330
2359
100
AcDbEntity
  8
DEFPOINTS
 62
     0
100
AcDbPoint
 10
-0.1332411609958324
 20
-0.3660771294298142
 30
0.0
  0
ENDBLK
  5
236A
330
2359
100
AcDbEntity
  8
0
100
AcDbBlockEnd
  0
ENDSEC
  0
SECTION
  2
ENTITIES
  0
LINE
  5
C30
330
1F
100
AcDbEntity
  8
AM_0
 48
0.5
100
AcDbLine
 10
-79.0
 20
-1.250006209471283
 30
0.0
 11
-79.00000000000007
 21
1.250005235204402
 31
0.0
  0
LINE
  5
C9F
330
1F
100
AcDbEntity
  8
AM_7
100
AcDbLine
 10
-79.74999999999997
 20
-0.000000000000083
 30
0.0
 11
0.3414507133674695
 21
-0.0000000000000021
 31
0.0
1001
GENIUS_GENODEF_13
1002
{
1000
HIER
1070
     0
1002
}
1002
{
1000
MANEDIT
1070
     0
1002
}
1002
{
1000
NOSEL
1070
     0
1002
}
1002
{
1000
BEHIND
1070
     0
1002
}
1002
{
1000
REACTOR
1002
}
1001
GENIUS_GENOBJ-N-CEN_13
1002
{
1000
OWNER
1000
GEN
1002
}
  0
DIMENSION
  5
CC6
330
1F
100
AcDbEntity
  8
AM_5
100
AcDbDimension
  2
*D5
 10
-1.000000000000002
 20
-13.40000725720272
 30
0.0
 11
-40.0
 21
-11.70000725720272
 31
0.0
 70
    32
  1
<>
  3
AM_JIS$0
100
AcDbAlignedDimension
 13
-79.0
 23
-1.150006285662958
 33
0.0
 14
-1.000000000000001
 24
-1.400000000000005
 34
0.0
 50
0.0000000000001129
100
AcDbRotatedDimension
1001
GENIUS_GENDTOL_13
1000

1000
h7
1000

1040
0.0
1001
ACAD
1000
DSTYLE
1002
{
1070
   271
1070
     0
1002
}
  0
ARC
  5
144A
330
1F
100
AcDbEntity
  8
AM_11
 48
0.5
100
AcDbCircle
 10
-24.57419016387427
 20
-6.625446930970558
 30
0.0
 40
7.325448036193749
100
AcDbArc
 50
64.74833051131179
 51
115.2516644797366
  0
ARC
  5
144B
330
1F
100
AcDbEntity
  8
AM_11
 48
0.5
100
AcDbCircle
 10
-24.57419016387426
 20
6.62545143023544
 30
0.0
 40
7.325448036193749
100
AcDbArc
 50
244.7482808787518
 51
295.2516148471758
  0
ARC
  5
144E
330
1F
100
AcDbEntity
  8
AM_11
 48
0.5
100
AcDbCircle
 10
-18.32419016387426
 20
-6.625446930970558
 30
0.0
 40
7.325448036193749
100
AcDbArc
 50
64.74833051131179
 51
115.2516644797366
  0
ARC
  5
144F
330
1F
100
AcDbEntity
  8
AM_11
 48
0.5
100
AcDbCircle
 10
-18.32419016387426
 20
6.62545143023544
 30
0.0
 40
7.325448036193749
100
AcDbArc
 50
244.7482808787518
 51
295.2516148471758
  0
ARC
  5
1450
330
1F
100
AcDbEntity
  8
AM_11
 48
0.5
100
AcDbCircle
 10
-12.07419016387601
 20
6.62545143023544
 30
0.0
 40
7.325448036193749
100
AcDbArc
 50
244.7482808787518
 51
295.2516148471758
  0
ARC
  5
1451
330
1F
100
AcDbEntity
  8
AM_11
 48
0.5
100
AcDbCircle
 10
-12.07419016387601
 20
-6.625446930970558
 30
0.0
 40
7.325448036193749
100
AcDbArc
 50
64.74833051131179
 51
115.2516644797366
  0
ARC
  5
1452
330
1F
100
AcDbEntity
  8
AM_11
 48
0.5
100
AcDbCircle
 10
-5.824190163876019
 20
-6.625446930970558
 30
0.0
 40
7.325448036193749
100
AcDbArc
 50
64.74833051131179
 51
115.2516644797366
  0
ARC
  5
1453
330
1F
100
AcDbEntity
  8
AM_11
 48
0.5
100
AcDbCircle
 10
-5.824190163876019
 20
6.62545143023544
 30
0.0
 40
7.325448036193749
100
AcDbArc
 50
244.7482808787518
 51
295.2516148471758
  0
ARC
  5
1454
330
1F
100
AcDbEntity
  8
AM_11
 48
0.5
100
AcDbCircle
 10
0.4258098361239881
 20
6.62545143023544
 30
0.0
 40
7.325448036193749
100
AcDbArc
 50
244.7482808787518
 51
254.0147302238188
  0
ARC
  5
18B8
330
1F
100
AcDbEntity
  8
AM_11
 48
0.5
100
AcDbCircle
 10
-30.82419016387421
 20
6.625451430235418
 30
0.0
 40
7.325448036193749
100
AcDbArc
 50
244.7482808787518
 51
295.2516148471758
  0
ARC
  5
18B9
330
1F
100
AcDbEntity
  8
AM_11
 48
0.5
100
AcDbCircle
 10
-30.82419016387422
 20
-6.625446930970579
 30
0.0
 40
7.325448036193749
100
AcDbArc
 50
64.74833051131179
 51
115.2516644797366
  0
ARC
  5
18BA
330
1F
100
AcDbEntity
  8
AM_11
 48
0.5
100
AcDbCircle
 10
-37.07420293107463
 20
6.625457452091304
 30
0.0
 40
7.325448036193749
100
AcDbArc
 50
244.7482808787518
 51
295.2516148471758
  0
ARC
  5
18BB
330
1F
100
AcDbEntity
  8
AM_11
 48
0.5
100
AcDbCircle
 10
-37.07420293107464
 20
-6.625440909114694
 30
0.0
 40
7.325448036193749
100
AcDbArc
 50
64.74833051131179
 51
115.2516644797366
  0
TEXT
  5
19BD
330
1F
100
AcDbEntity
  8
AM_6
100
AcDbText
 10
-50.8333333333333
 20
-24.75000718101108
 30
0.0
 40
2.5
  1
MDW028LHK
 50
0.0000000000001527
 72
     4
 11
-39.99999999999997
 21
-23.50000718101105
 31
0.0
100
AcDbText
  0
LINE
  5
1B73
330
1F
100
AcDbEntity
  8
AM_0
 48
0.5
100
AcDbLine
 10
-79.00000000000007
 20
1.250005235204402
 30
0.0
 11
-78.75000000000008
 21
1.500005264989096
 31
0.0
1001
GENIUS_GENFIL_13
1070
     0
1040
0.25
1040
0.25
1040
20.0
1040
0.0
1002
{
1002
}
1001
GENIUS_GENODEF_13
1002
{
1000
HIER
1070
     0
1002
}
1002
{
1000
MANEDIT
1070
     0
1002
}
1002
{
1000
NOSEL
1070
     0
1002
}
1002
{
1000
BEHIND
1070
     0
1002
}
1002
{
1000
REACTOR
1002
}
1001
GENIUS_GENOBJ-N-CHA_13
1002
{
1000
OWNER
1000
GEN
1002
}
  0
LINE
  5
1B77
330
1F
100
AcDbEntity
  8
AM_0
 48
0.5
100
AcDbLine
 10
-78.74999999999999
 20
-1.500006181011207
 30
0.0
 11
-79.0
 21
-1.250006209471283
 31
0.0
1001
GENIUS_GENFIL_13
1070
     0
1040
0.25
1040
0.25
1040
20.0
1040
0.0
1002
{
1002
}
1001
GENIUS_GENODEF_13
1002
{
1000
HIER
1070
     0
1002
}
1002
{
1000
MANEDIT
1070
     0
1002
}
1002
{
1000
NOSEL
1070
     0
1002
}
1002
{
1000
BEHIND
1070
     0
1002
}
1002
{
1000
REACTOR
1002
}
1001
GENIUS_GENOBJ-N-CHA_13
1002
{
1000
OWNER
1000
GEN
1002
}
  0
LINE
  5
1B8A
330
1F
100
AcDbEntity
  8
AM_0
100
AcDbLine
 10
-78.74999999999999
 20
-1.500006181011207
 30
0.0
 11
-78.74999999999999
 21
1.500005264989096
 31
0.0
  0
DIMENSION
  5
1BC7
330
1F
100
AcDbEntity
  8
AM_5
100
AcDbDimension
  2
*D7
 10
-1.000004132588687
 20
-8.500007181011092
 30
0.0
 11
-16.00000206629434
 21
-6.800007181011092
 31
0.0
 70
    32
  1
<>
  3
AM_JIS$0
100
AcDbAlignedDimension
 13
-30.99999999999999
 23
-1.500000542241565
 33
0.0
 14
-1.000004132588686
 24
-1.500000000000008
 34
0.0
 50
0.0000000000000364
100
AcDbRotatedDimension
1001
GENIUS_GENDTOL_13
1000

1000
h7
1000

1040
0.0
1001
ACAD
1000
DSTYLE
1002
{
1070
   271
1070
     0
1002
}
  0
ARC
  5
1C60
330
1F
100
AcDbEntity
  8
AM_11
 48
0.5
100
AcDbCircle
 10
-49.57421569827501
 20
-6.625446930970605
 30
0.0
 40
7.325448036193749
100
AcDbArc
 50
64.74833051131179
 51
115.2516644797366
  0
ARC
  5
1C61
330
1F
100
AcDbEntity
  8
AM_11
 48
0.5
100
AcDbCircle
 10
-49.57421569827499
 20
6.625451430235393
 30
0.0
 40
7.325448036193749
100
AcDbArc
 50
244.7482808787518
 51
295.2516148471758
  0
ARC
  5
1C62
330
1F
100
AcDbEntity
  8
AM_11
 48
0.5
100
AcDbCircle
 10
-43.32420293107458
 20
-6.62545295282649
 30
0.0
 40
7.325448036193749
100
AcDbArc
 50
64.74833051131179
 51
115.2516644797366
  0
ARC
  5
1C63
330
1F
100
AcDbEntity
  8
AM_11
 48
0.5
100
AcDbCircle
 10
-43.32420293107458
 20
6.625445408379508
 30
0.0
 40
7.325448036193749
100
AcDbArc
 50
244.7482808787518
 51
295.2516148471758
  0
ARC
  5
1C64
330
1F
100
AcDbEntity
  8
AM_11
 48
0.5
100
AcDbCircle
 10
-62.07422846547538
 20
-6.625440909114741
 30
0.0
 40
7.325448036193749
100
AcDbArc
 50
64.74833051131179
 51
115.2516644797366
  0
ARC
  5
1C65
330
1F
100
AcDbEntity
  8
AM_11
 48
0.5
100
AcDbCircle
 10
-62.07422846547537
 20
6.625457452091258
 30
0.0
 40
7.325448036193749
100
AcDbArc
 50
244.7482808787518
 51
295.2516148471758
  0
ARC
  5
1C66
330
1F
100
AcDbEntity
  8
AM_11
 48
0.5
100
AcDbCircle
 10
-55.82421569827495
 20
-6.625446930970626
 30
0.0
 40
7.325448036193749
100
AcDbArc
 50
64.74833051131179
 51
115.2516644797366
  0
ARC
  5
1C67
330
1F
100
AcDbEntity
  8
AM_11
 48
0.5
100
AcDbCircle
 10
-55.82421569827495
 20
6.625451430235372
 30
0.0
 40
7.325448036193749
100
AcDbArc
 50
244.7482808787518
 51
295.2516148471758
  0
ARC
  5
1C68
330
1F
100
AcDbEntity
  8
AM_11
 48
0.5
100
AcDbCircle
 10
-74.57421569821118
 20
-6.625446930970632
 30
0.0
 40
7.325448036193749
100
AcDbArc
 50
64.74833051131179
 51
115.2516644797366
  0
ARC
  5
1C69
330
1F
100
AcDbEntity
  8
AM_11
 48
0.5
100
AcDbCircle
 10
-74.57421569821116
 20
6.625451430235367
 30
0.0
 40
7.325448036193749
100
AcDbArc
 50
244.7482808787518
 51
295.2516148471758
  0
ARC
  5
1C6A
330
1F
100
AcDbEntity
  8
AM_11
 48
0.5
100
AcDbCircle
 10
-68.32420293101074
 20
-6.625452952826517
 30
0.0
 40
7.325448036193749
100
AcDbArc
 50
64.74833051131179
 51
115.2516644797366
  0
ARC
  5
1C6B
330
1F
100
AcDbEntity
  8
AM_11
 48
0.5
100
AcDbCircle
 10
-68.32420293101074
 20
6.625445408379481
 30
0.0
 40
7.325448036193749
100
AcDbArc
 50
244.7482808787518
 51
295.2516148471758
  0
ARC
  5
1C6C
330
1F
100
AcDbEntity
  8
AM_11
 48
0.5
100
AcDbCircle
 10
-80.82420202669728
 20
6.62545143023535
 30
0.0
 40
7.325448036193749
100
AcDbArc
 50
284.4196815136692
 51
295.2516148471758
  0
ARC
  5
1C6D
330
1F
100
AcDbEntity
  8
AM_11
 48
0.5
100
AcDbCircle
 10
-80.8242020266973
 20
-6.625446930970649
 30
0.0
 40
7.325448036193749
100
AcDbArc
 50
64.74833051131179
 51
75.58031848633074
  0
LINE
  5
1D7E
330
1F
100
AcDbEntity
  8
AM_0
 48
0.5
100
AcDbLine
 10
-30.99999999999999
 20
-1.500000542241561
 30
0.0
 11
-31.00000000000008
 21
1.5000005111364
 31
0.0
  0
LINE
  5
1D83
330
1F
100
AcDbEntity
  8
AM_0
 48
0.5
100
AcDbLine
 10
-31.00000000000008
 20
1.5000005111364
 30
0.0
 11
-78.75000000000008
 21
1.500005264989096
 31
0.0
  0
LINE
  5
1D87
330
1F
100
AcDbEntity
  8
AM_0
 48
0.5
100
AcDbLine
 10
-30.99999999999999
 20
-1.500000542241561
 30
0.0
 11
-78.74999999999999
 21
-1.500006181011207
 31
0.0
  0
LINE
  5
1E69
330
1F
100
AcDbEntity
  8
AM_0
100
AcDbLine
 10
-30.99999999999999
 20
-1.500000542241561
 30
0.0
 11
-30.82679482356518
 21
-1.400000487001891
 31
0.0
  0
LINE
  5
1E6A
330
1F
100
AcDbEntity
  8
AM_0
100
AcDbLine
 10
-31.00000000000008
 20
1.5000005111364
 30
0.0
 11
-30.82679483234644
 21
1.400000460966533
 31
0.0
  0
DIMENSION
  5
1F56
330
1F
100
AcDbEntity
  8
AM_5
100
AcDbDimension
  2
*D8
 10
-86.75000135426985
 20
1.500005264989198
 30
0.0
 11
-86.75000135426985
 21
-0.0000004580110176
 31
0.0
 70
   160
  1
%%c<>
 51
359.9999999999998
  3
AM_JIS$0
100
AcDbAlignedDimension
 13
-78.74999999999997
 23
-1.500006181011207
 33
0.0
 14
-78.74999999999997
 24
1.500005264989196
 34
0.0
 50
270.0000067660251
100
AcDbRotatedDimension
1001
ACAD
1000
DSTYLE
1002
{
1070
   271
1070
     0
1002
}
1001
GENIUS_GENDTOL_13
1000

1000
h7
1000

1040
0.0
  0
DIMENSION
  5
211C
330
1F
100
AcDbEntity
  8
AM_5
100
AcDbDimension
  2
*D9
 10
7.341451725177077
 20
1.399999999999992
 30
0.0
 11
7.341451725177078
 21
7.499999999999997
 31
0.0
 70
   160
  1
%%c<>
  3
AM_JIS$0
100
AcDbAlignedDimension
 13
-1.000000000000003
 23
-1.400000000000005
 33
0.0
 14
-0.999999999999985
 24
1.399999999999994
 34
0.0
 50
89.99999999999978
100
AcDbRotatedDimension
1001
ACAD
1000
DSTYLE
1002
{
1070
   271
1070
     1
1002
}
1001
GENIUS_GENDTOL_13
1000

1000
h7
1000

1040
0.0
  0
LINE
  5
212B
330
1F
100
AcDbEntity
  8
AM_0
 48
0.5
100
AcDbLine
 10
-26.40821197802685
 20
-1.399999999999895
 30
0.0
 11
-30.82679482356518
 21
-1.400000487001891
 31
0.0
  0
LINE
  5
212C
330
1F
100
AcDbEntity
  8
AM_0
 48
0.5
100
AcDbLine
 10
-25.86589838437437
 20
1.400000000000101
 30
0.0
 11
-30.82679483234644
 21
1.400000460966533
 31
0.0
  0
LINE
  5
212F
330
1F
100
AcDbEntity
  8
AM_0
 48
0.5
100
AcDbLine
 10
-1.876960118611695
 20
-1.4
 30
0.0
 11
-1.000000000000003
 21
-1.400000000000005
 31
0.0
  0
LINE
  5
2130
330
1F
100
AcDbEntity
  8
AM_0
 48
0.5
100
AcDbLine
 10
-1.876960118611677
 20
1.399999999999999
 30
0.0
 11
-0.999999999999985
 21
1.399999999999994
 31
0.0
  0
LINE
  5
2133
330
1F
100
AcDbEntity
  8
AM_0
 48
0.5
100
AcDbLine
 10
-11.62682333030162
 20
-1.399999999999976
 30
0.0
 11
-7.036042531331313
 21
-1.399999999999972
 31
0.0
  0
LINE
  5
2134
330
1F
100
AcDbEntity
  8
AM_0
 48
0.5
100
AcDbLine
 10
-12.82485707600896
 20
1.400000000000058
 30
0.0
 11
-7.036042531331296
 21
1.400000000000027
 31
0.0
  0
LINE
  5
2135
330
1F
100
AcDbEntity
  8
AM_0
100
AcDbLine
 10
-22.57475789388019
 20
1.400000000000083
 30
0.0
 11
-16.11718123715969
 21
1.400198895407442
 31
0.0
  0
LINE
  5
2136
330
1F
100
AcDbEntity
  8
AM_0
 48
0.5
100
AcDbLine
 10
-22.57475996018417
 20
-1.399999999999898
 30
0.0
 11
-16.78590574302164
 21
-1.399999999999917
 31
0.0
  0
LINE
  5
2137
330
1F
100
AcDbEntity
  8
AM_11
 48
0.5
100
AcDbLine
 10
-16.11718123715969
 20
1.400198895407442
 30
0.0
 11
-12.82485263252163
 21
1.400000000000058
 31
0.0
  0
LINE
  5
2138
330
1F
100
AcDbEntity
  8
AM_11
 48
0.5
100
AcDbLine
 10
-16.78590574302059
 20
-1.399999999999947
 30
0.0
 11
-11.62682333030162
 21
-1.400198895407337
 31
0.0
  0
LINE
  5
2139
330
1F
100
AcDbEntity
  8
AM_11
 48
0.5
100
AcDbLine
 10
-7.036042531331313
 20
-1.399999999999972
 30
0.0
 11
-1.876960118611695
 21
-1.4
 31
0.0
  0
LINE
  5
213A
330
1F
100
AcDbEntity
  8
AM_11
 48
0.5
100
AcDbLine
 10
-7.036042531331296
 20
1.400000000000027
 30
0.0
 11
-1.876960118611677
 21
1.399999999999999
 31
0.0
  0
LINE
  5
213B
330
1F
100
AcDbEntity
  8
AM_0
100
AcDbLine
 10
-28.99999999999998
 20
1.039484773238194
 30
0.0
 11
-25.86708205503091
 21
1.400000105380806
 31
0.0
  0
POLYLINE
  5
213C
330
1F
100
AcDbEntity
  8
AM_0
100
AcDb2dPolyline
 66
     1
 10
0.0
 20
0.0
 30
0.0
 70
     2
  0
VERTEX
  5
213D
330
213C
100
AcDbEntity
  8
AM_0
100
AcDbVertex
100
AcDb2dVertex
 10
-26.99999999999999
 20
0.0599881315895018
 30
0.0
 42
0.0328772359659946
  0
VERTEX
  5
213E
330
213C
100
AcDbEntity
  8
AM_0
100
AcDbVertex
100
AcDb2dVertex
 10
-27.4079493986279
 20
0.1814892290615686
 30
0.0
 42
0.0406441426826111
 70
     1
  0
VERTEX
  5
213F
330
213C
100
AcDbEntity
  8
AM_0
100
AcDbVertex
100
AcDb2dVertex
 10
-27.74999999999999
 20
0.2336379115540527
 30
0.0
 42
0.0349480616290147
  0
VERTEX
  5
2140
330
213C
100
AcDbEntity
  8
AM_0
100
AcDbVertex
100
AcDb2dVertex
 10
-28.46068563533544
 20
0.2408069392511114
 30
0.0
 42
0.0841411130651936
 70
     1
  0
VERTEX
  5
2141
330
213C
100
AcDbEntity
  8
AM_0
100
AcDbVertex
100
AcDb2dVertex
 10
-28.75
 20
0.1784509769502143
 30
0.0
 42
0.0979526151427332
  0
VERTEX
  5
2142
330
213C
100
AcDbEntity
  8
AM_0
100
AcDbVertex
100
AcDb2dVertex
 10
-28.95085340515316
 20
0.0529024773086451
 30
0.0
 42
0.1938983539896396
 70
     1
  0
VERTEX
  5
2143
330
213C
100
AcDbEntity
  8
AM_0
100
AcDbVertex
100
AcDb2dVertex
 10
-28.99999999999999
 20
-0.0548823563831173
 30
0.0
 42
0.1455033175112951
  0
VERTEX
  5
2144
330
213C
100
AcDbEntity
  8
AM_0
100
AcDbVertex
100
AcDb2dVertex
 10
-28.96116188432687
 20
-0.1860287723069922
 30
0.0
 42
0.0623373512118238
 70
     1
  0
VERTEX
  5
2145
330
213C
100
AcDbEntity
  8
AM_0
100
AcDbVertex
100
AcDb2dVertex
 10
-28.74999999999999
 20
-0.4281766923219054
 30
0.0
 42
0.038537546653951
  0
VERTEX
  5
2146
330
213C
100
AcDbEntity
  8
AM_0
100
AcDbVertex
100
AcDb2dVertex
 10
-28.40593432441943
 20
-0.6911088793806565
 30
0.0
 42
0.0220442519779929
 70
     1
  0
VERTEX
  5
2147
330
213C
100
AcDbEntity
  8
AM_0
100
AcDbVertex
100
AcDb2dVertex
 10
-27.750000000086
 20
-1.079180587411117
 30
0.0
 42
0.0372086905244029
  0
VERTEX
  5
2148
330
213C
100
AcDbEntity
  8
AM_0
100
AcDbVertex
100
AcDb2dVertex
 10
-27.46801360741433
 20
-1.205181378750042
 30
0.0
 42
0.0235344846445626
 70
     1
  0
VERTEX
  5
2149
330
213C
100
AcDbEntity
  8
AM_0
100
AcDbVertex
100
AcDb2dVertex
 10
-27.00000000017201
 20
-1.352393527796598
 30
0.0
  0
SEQEND
  5
214A
330
213C
100
AcDbEntity
  8
AM_0
  0
LINE
  5
214B
330
1F
100
AcDbEntity
  8
AM_11
 48
0.5
100
AcDbLine
 10
-26.40909353892025
 20
1.400000000000104
 30
0.0
 11
-22.57475789388019
 21
1.400000000000083
 31
0.0
  0
LINE
  5
214C
330
1F
100
AcDbEntity
  8
AM_11
 48
0.5
100
AcDbLine
 10
-26.40909353892027
 20
-1.399999999999895
 30
0.0
 11
-21.3766865427811
 21
-1.399999999999921
 31
0.0
  0
SPLINE
  5
2150
330
1F
100
AcDbEntity
  8
AM_0
100
AcDbSpline
210
0.0
220
0.0
230
1.0
 70
     8
 71
     3
 72
    17
 73
    13
 74
     0
 42
0.0000000001
 43
0.0000000001
 40
1.580019955310467
 40
1.580019955310467
 40
1.580019955310467
 40
1.580019955310467
 40
2.030549285115227
 40
3.082371838836284
 40
4.126290986361125
 40
5.162752068350215
 40
6.192395305374981
 40
7.216039564037012
 40
8.234688489606833
 40
9.249433870634691
 40
10.26152376260694
 40
11.27226744710342
 40
11.27226744710342
 40
11.27226744710342
 40
11.27226744710352
 10
-4.456300070712305
 20
-1.033241225226491
 30
0.0
 10
-4.495048681549119
 20
-1.043882751493682
 30
0.0
 10
-4.624482059812454
 20
-1.078761775213408
 30
0.0
 10
-4.845456934642515
 20
-1.133470771910924
 30
0.0
 10
-5.119167006923872
 20
-1.19473759056728
 30
0.0
 10
-5.392952431331866
 20
-1.248521722851248
 30
0.0
 10
-5.666750400492429
 20
-1.294642549558466
 30
0.0
 10
-5.940578199451027
 20
-1.332764585568158
 30
0.0
 10
-6.2144249163865
 20
-1.362670285230308
 30
0.0
 10
-6.488288685210692
 20
-1.384165849604539
 30
0.0
 10
-6.762162758629555
 20
-1.39711290924665
 30
0.0
 10
-6.94478978864659
 20
-1.400000008010847
 30
0.0
 10
-7.03604253133129
 20
-1.399999999999972
 30
0.0
  0
SPLINE
  5
2151
330
1F
100
AcDbEntity
  8
AM_0
100
AcDbSpline
210
0.0
220
0.0
230
1.0
 70
     8
 71
     3
 72
    22
 73
    18
 74
     0
 42
0.0000000001
 43
0.0000000001
 40
17.17441611292
 40
17.17441611292
 40
17.17441611292
 40
17.17441611292
 40
17.38177636558528
 40
18.41823744757437
 40
19.46215659509824
 40
20.51397914882054
 40
21.57394542641293
 40
22.64209583141747
 40
23.71826625065247
 40
24.80210429862395
 40
25.8930771157021
 40
26.99048705697709
 40
28.09349309193389
 40
29.20112995599786
 40
30.31233024745139
 40
31.42594771747373
 40
32.5407895042663
 40
32.54078950426994
 40
32.54078950426994
 40
32.54078950426994
 10
-8.081359220813929
 20
-1.257210132708649
 30
0.0
 10
-8.09969821920338
 20
-1.253969270023126
 30
0.0
 10
-8.209630499037794
 20
-1.234228821170587
 30
0.0
 10
-8.411020241035133
 20
-1.194646651944624
 30
0.0
 10
-8.684768418436453
 20
-1.133473910154485
 30
0.0
 10
-8.958488701473124
 20
-1.065315629900124
 30
0.0
 10
-9.232183022595
 20
-0.9905972720669462
 30
0.0
 10
-9.50585102027092
 20
-0.9097769706609463
 30
0.0
 10
-9.779496063036592
 20
-0.8233577077643994
 30
0.0
 10
-10.05311941794548
 20
-0.73187058836161
 30
0.0
 10
-10.32672361666429
 20
-0.6358798085050203
 30
0.0
 10
-10.60031170149823
 20
-0.5359775705047713
 30
0.0
 10
-10.87388604702682
 20
-0.4327781762434446
 30
0.0
 10
-11.14744940721813
 20
-0.3269165258331388
 30
0.0
 10
-11.42100420697328
 20
-0.2190435485953797
 30
0.0
 10
-11.6945544987687
 20
-0.1098248791059312
 30
0.0
 10
-11.87688556353473
 20
-0.0365742342396158
 30
0.0
 10
-11.96810118357394
 20
0.000071207682525
 30
0.0
  0
SPLINE
  5
2152
330
1F
100
AcDbEntity
  8
AM_0
100
AcDbSpline
210
0.0
220
0.0
230
1.0
 70
     8
 71
     3
 72
    11
 73
     7
 74
     0
 42
0.0000000001
 43
0.0000000001
 40
11.27226913003534
 40
11.27226913003534
 40
11.27226913003534
 40
11.2722691300354
 40
12.28301561507924
 40
13.29510212255852
 40
14.30984805882082
 40
15.18258238371378
 40
15.18258238371378
 40
15.18258238371378
 40
15.18258238371378
 10
-7.036042531331305
 20
-1.399999999999972
 30
0.0
 10
-7.126948286163598
 20
-1.393147993162628
 30
0.0
 10
-7.30858833028823
 20
-1.376559582820934
 30
0.0
 10
-7.580110441149898
 20
-1.343096656028164
 30
0.0
 10
-7.837789712037968
 20
-1.303128859041029
 30
0.0
 10
-8.004441538978621
 20
-1.272404423979073
 30
0.0
 10
-8.081239446239306
 20
-1.257227401697943
 30
0.0
  0
SPLINE
  5
2153
330
1F
100
AcDbEntity
  8
AM_0
100
AcDbSpline
210
0.0
220
0.0
230
1.0
 70
     8
 71
     3
 72
    55
 73
    51
 74
     0
 42
0.0000000001
 43
0.0000000001
 40
0.0
 40
0.0
 40
0.0
 40
0.0
 40
1.010743684496582
 40
2.022833576467832
 40
3.037578957496688
 40
4.056212745003489
 40
5.079857003664532
 40
6.109500240690281
 40
7.145961322679372
 40
8.189895241603872
 40
9.241717795325891
 40
10.30168407291828
 40
11.36983447792315
 40
12.44600489715814
 40
13.52984294512926
 40
14.62081576220742
 40
15.7182257034828
 40
16.82123173843959
 40
17.92886860250316
 40
19.0400688939571
 40
20.15368796660465
 40
21.26852814259644
 40
22.38336992938901
 40
23.49698739941135
 40
24.6081876908653
 40
25.71582455492886
 40
26.81883757994213
 40
27.91624752121713
 40
29.00722033829659
 40
30.09105838626677
 40
31.16722880550176
 40
32.23537921050758
 40
33.29534548809967
 40
34.347168041821
 40
35.39108718934584
 40
36.42754827133493
 40
37.45720575381954
 40
38.48085062012849
 40
39.49948440763516
 40
40.51422944315121
 40
41.52631975251916
 40
42.53706336719636
 40
43.54780698187354
 40
44.55989729124051
 40
45.57464232675757
 40
46.59327611426424
 40
47.6169209805722
 40
48.64656348684535
 40
49.68302456883444
 40
50.58557219878025
 40
50.58557219878025
 40
50.58557219878025
 40
50.58557219878025
 10
-1.876960118611695
 20
-1.4
 30
0.0
 10
-1.968212862500291
 20
-1.399167033917073
 30
0.0
 10
-2.150839889623011
 20
-1.397499992325377
 30
0.0
 10
-2.424713968850895
 20
-1.384061765607219
 30
0.0
 10
-2.698576357426966
 20
-1.362698495581813
 30
0.0
 10
-2.972421796609887
 20
-1.332757060134869
 30
0.0
 10
-3.246247553853252
 20
-1.294643223122178
 30
0.0
 10
-3.520048227187102
 20
-1.248526470703081
 30
0.0
 10
-3.79382473246255
 20
-1.194717461759278
 30
0.0
 10
-4.067574641835286
 20
-1.133545696915904
 30
0.0
 10
-4.341296090569519
 20
-1.065386767098176
 30
0.0
 10
-4.614990443015345
 20
-0.9906684988628835
 30
0.0
 10
-4.888658432180821
 20
-0.909848173133971
 30
0.0
 10
-5.162303477328265
 20
-0.8234289169688649
 30
0.0
 10
-5.435926831306626
 20
-0.7319417952125731
 30
0.0
 10
-5.709531031353543
 20
-0.6359510179932176
 30
0.0
 10
-5.983119111776616
 20
-0.5360487717494268
 30
0.0
 10
-6.256693473730916
 20
-0.4328494080283744
 30
0.0
 10
-6.530256772286795
 20
-0.3269876430624881
 30
0.0
 10
-6.803811934687792
 20
-0.219115043438127
 30
0.0
 10
-7.077361360273087
 20
-0.1098947655660281
 30
0.0
 10
-7.350908911984285
 20
-0.0000002856508268
 30
0.0
 10
-7.62445523569586
 20
0.1098961724335001
 30
0.0
 10
-7.898005578159201
 20
0.2191147494569784
 30
0.0
 10
-8.171560402852687
 20
0.326987675605557
 30
0.0
 10
-8.445124189168897
 20
0.4328498438575831
 30
0.0
 10
-8.71869968604088
 20
0.5360483268571438
 30
0.0
 10
-8.992288198258227
 20
0.6359510797443252
 30
0.0
 10
-9.26589243780449
 20
0.731941779125057
 30
0.0
 10
-9.539515781826573
 20
0.8234289201207467
 30
0.0
 10
-9.813160827674712
 20
0.9098481764122668
 30
0.0
 10
-10.08682882381073
 20
0.9906684828158207
 30
0.0
 10
-10.36052314800831
 20
1.06538682734534
 30
0.0
 10
-10.6342434203883
 20
1.133545155320591
 30
0.0
 10
-10.90799163693404
 20
1.194717721361463
 30
0.0
 10
-11.18176804065261
 20
1.248527812336744
 30
0.0
 10
-11.45557066901503
 20
1.294639297582545
 30
0.0
 10
-11.72939733090132
 20
1.332764931633505
 30
0.0
 10
-12.00324285126427
 20
1.362670875373346
 30
0.0
 10
-12.27710543012826
 20
1.384163876755337
 30
0.0
 10
-12.55097927714356
 20
1.397114998869374
 30
0.0
 10
-12.82485914237056
 20
1.40144154022733
 30
0.0
 10
-13.09873900719458
 20
1.397114998862592
 30
0.0
 10
-13.37261285542116
 20
1.384163876782552
 30
0.0
 10
-13.64647542982557
 20
1.362670875270789
 30
0.0
 10
-13.92032096690853
 20
1.3327649320189
 30
0.0
 10
-14.19414623098083
 20
1.29463948200198
 30
0.0
 10
-14.46794778066511
 20
1.248528283801764
 30
0.0
 10
-14.72927616544856
 20
1.197160358817981
 30
0.0
 10
-14.8988289975883
 20
1.159594509661749
 30
0.0
 10
-14.97749162944735
 20
1.141286838795435
 30
0.0
  0
SPLINE
  5
2154
330
1F
100
AcDbEntity
  8
AM_0
100
AcDbSpline
210
0.0
220
0.0
230
1.0
 70
     8
 71
     3
 72
    46
 73
    42
 74
     0
 42
0.0000000001
 43
0.0000000001
 40
0.0
 40
0.0
 40
0.0
 40
0.0
 40
0.5056245176053715
 40
0.759310862862336
 40
1.013969309739036
 40
1.269880374404297
 40
1.527291183660732
 40
1.786406454158005
 40
2.047386241038974
 40
2.310345544571907
 40
2.575337113970003
 40
2.842374715221223
 40
3.111417320030211
 40
3.382376832022752
 40
3.655120036292296
 40
3.929472521611371
 40
4.205224030350333
 40
4.482133246366229
 40
4.759933319229942
 40
5.038338087391601
 40
5.317048131389549
 40
5.595758175387723
 40
5.874162943549383
 40
6.151963016412869
 40
6.428872232428759
 40
6.704623741167955
 40
6.978976226486705
 40
7.251719430756336
 40
7.522680721168327
 40
7.791723325977311
 40
8.058760927228529
 40
8.32375249662655
 40
8.586708135057122
 40
8.84768792193809
 40
9.106803192435362
 40
9.364213819003406
 40
9.620125035580644
 40
9.87478726697307
 40
10.12847352585208
 40
10.38149610319407
 40
10.63418200686337
 40
10.63418200686337
 40
10.63418200686337
 40
10.63418200686337
 10
-1.110298792521131
 20
-1.400000000000004
 30
0.0
 10
-1.29293474250935
 20
-1.396810691778723
 30
0.0
 10
-1.56720439508081
 20
-1.392021216005468
 30
0.0
 10
-1.931912712521079
 20
-1.362533293543049
 30
0.0
 10
-2.205761093889115
 20
-1.332801623565835
 30
0.0
 10
-2.479586067739625
 20
-1.294631209711475
 30
0.0
 10
-2.753386912723867
 20
-1.248529617798658
 30
0.0
 10
-3.027162222273204
 20
-1.194717252711623
 30
0.0
 10
-3.300911537855126
 20
-1.133544667849028
 30
0.0
 10
-3.574633641188491
 20
-1.065387471937413
 30
0.0
 10
-3.848329079378135
 20
-0.9906684011814732
 30
0.0
 10
-4.121997116266547
 20
-0.9098481996075415
 30
0.0
 10
-4.39564214847716
 20
-0.8234289097902458
 30
0.0
 10
-4.669265505979537
 20
-0.7319417971855189
 30
0.0
 10
-4.942869704995634
 20
-0.6359510173467548
 30
0.0
 10
-5.216457785987941
 20
-0.536048772349083
 30
0.0
 10
-5.490032146696258
 20
-0.43284940626921
 30
0.0
 10
-5.763595449689358
 20
-0.326987649532707
 30
0.0
 10
-6.037150595518108
 20
-0.2191150192215921
 30
0.0
 10
-6.31070008312663
 20
-0.1098948561844645
 30
0.0
 10
-6.584247271229862
 20
-0.0000000000222108
 30
0.0
 10
-6.857794459272993
 20
0.1098948562735871
 30
0.0
 10
-7.131343947061774
 20
0.2191150189102766
 30
0.0
 10
-7.404899092231667
 20
0.3269876506848148
 30
0.0
 10
-7.678462397667844
 20
0.4328494019940151
 30
0.0
 10
-7.952036749317455
 20
0.5360487881977749
 30
0.0
 10
-8.225624863857225
 20
0.6359509586696129
 30
0.0
 10
-8.499229533585618
 20
0.7319422228599882
 30
0.0
 10
-8.77285395425636
 20
0.8234285042579212
 30
0.0
 10
-9.046499474607767
 20
0.9098482372037388
 30
0.0
 10
-9.320167505124414
 20
0.9906684628259821
 30
0.0
 10
-9.59386181900429
 20
1.065386846977514
 30
0.0
 10
-9.867582098583566
 20
1.133545097223216
 30
0.0
 10
-10.14133029673914
 20
1.194717931982515
 30
0.0
 10
-10.41510544784171
 20
1.248526776382114
 30
0.0
 10
-10.68890649355997
 20
1.294641739573272
 30
0.0
 10
-10.96273321498259
 20
1.332757645587198
 30
0.0
 10
-11.23658018527934
 20
1.362698620982293
 30
0.0
 10
-11.51044409835489
 20
1.384059930351101
 30
0.0
 10
-11.78431795248676
 20
1.397501783388083
 30
0.0
 10
-11.96694505609176
 20
1.399167630806784
 30
0.0
 10
-12.05819781621288
 20
1.400000000000054
 30
0.0
  0
SPLINE
  5
2158
330
1F
100
AcDbEntity
  8
AM_0
 48
0.5
100
AcDbSpline
210
0.0
220
0.0
230
1.0
 70
     8
 71
     3
 72
    17
 73
    13
 74
     0
 42
0.0000000001
 43
0.0000000001
 40
0.0
 40
0.0
 40
0.0
 40
0.0
 40
1.010743614677189
 40
2.022833924044153
 40
3.037578959561199
 40
4.056212747067873
 40
5.079857613375832
 40
6.109500119648989
 40
7.14596120163808
 40
8.18989512056258
 40
9.241717674284874
 40
9.497417106354891
 40
9.497417106354891
 40
9.497417106354891
 40
9.497417106354891
 10
-1.876960118611677
 20
1.399999999999999
 30
0.0
 10
-1.968212879107182
 20
1.399167634192935
 30
0.0
 10
-2.150839983461386
 20
1.397501793551175
 30
0.0
 10
-2.42471383196294
 20
1.384059889590807
 30
0.0
 10
-2.698576405237126
 20
1.362698880701914
 30
0.0
 10
-2.972421946589902
 20
1.332757386493323
 30
0.0
 10
-3.246247194600213
 20
1.294641482352989
 30
0.0
 10
-3.520048804763337
 20
1.24852788725363
 30
0.0
 10
-3.793823102201497
 20
1.194713449657204
 30
0.0
 10
-4.067580710456395
 20
1.133560462216985
 30
0.0
 10
-4.271519992651317
 20
1.082720044907715
 30
0.0
 10
-4.384413593319278
 20
1.05299929637395
 30
0.0
 10
-4.406470287372573
 20
1.047129249631676
 30
0.0
  0
SPLINE
  5
215B
330
1F
100
AcDbEntity
  8
AM_0
100
AcDbSpline
210
0.0
220
0.0
230
1.0
 70
     8
 71
     3
 72
    23
 73
    19
 74
     0
 42
0.0000000001
 43
0.0000000001
 40
16.03460024169435
 40
16.03460024169435
 40
16.03460024169435
 40
16.03460024169435
 40
16.35212704903564
 40
17.38177054169784
 40
18.41822485651776
 40
19.46214173629503
 40
20.51396345435107
 40
21.57393551351153
 40
22.64208202342361
 40
23.7182574881101
 40
24.80209208578934
 40
25.89306333925047
 40
26.99048218457928
 40
28.09348763352352
 40
29.20111863782268
 40
30.31232390128032
 40
31.42594612798585
 40
32.5407912310448
 40
32.5407912310486
 40
32.5407912310486
 40
32.5407912310486
 10
-25.86708205503091
 20
1.400198895407465
 30
0.0
 10
-25.8389448591703
 20
1.395472741946927
 30
0.0
 10
-25.71968705918399
 20
1.374891673831298
 30
0.0
 10
-25.50961316018963
 20
1.334566211925695
 30
0.0
 10
-25.23756691105049
 20
1.274602691067021
 30
0.0
 10
-24.96577335126373
 20
1.207273652049752
 30
0.0
 10
-24.69421642033116
 20
1.132968761010334
 30
0.0
 10
-24.42288648021605
 20
1.052102269379777
 30
0.0
 10
-24.15176784869817
 20
0.9651364441267038
 30
0.0
 10
-23.88084164610646
 20
0.8725774045399472
 30
0.0
 10
-23.61009247744106
 20
0.7749493070641533
 30
0.0
 10
-23.33949863575934
 20
0.6728202268506763
 30
0.0
 10
-23.06903819245638
 20
0.5667837822384169
 30
0.0
 10
-22.79869312752424
 20
0.4574496383305704
 30
0.0
 10
-22.52844082151969
 20
0.3454535582012585
 30
0.0
 10
-22.25825624335563
 20
0.2314495167917179
 30
0.0
 10
-21.98811739238046
 20
0.1160981366507112
 30
0.0
 10
-21.80807319786445
 20
0.0387613436144426
 30
0.0
 10
-21.71800200144396
 20
0.0000712076820454
 30
0.0
  0
SPLINE
  5
215C
330
1F
100
AcDbEntity
  8
AM_0
100
AcDbSpline
210
0.0
220
0.0
230
1.0
 70
     8
 71
     3
 72
    55
 73
    51
 74
     0
 42
0.0000000001
 43
0.0000000001
 40
0.0
 40
0.0
 40
0.0
 40
0.0
 40
1.010743684496582
 40
2.022833576467832
 40
3.037578957496688
 40
4.056212745003489
 40
5.079857003664532
 40
6.109500240690281
 40
7.145961322679372
 40
8.189895241603872
 40
9.241717795325891
 40
10.30168407291828
 40
11.36983447792315
 40
12.44600489715814
 40
13.52984294512926
 40
14.62081576220742
 40
15.7182257034828
 40
16.82123173843959
 40
17.92886860250316
 40
19.0400688939571
 40
20.15368796660465
 40
21.26852814259644
 40
22.38336992938901
 40
23.49698739941135
 40
24.6081876908653
 40
25.71582455492886
 40
26.81883757994213
 40
27.91624752121713
 40
29.00722033829659
 40
30.09105838626677
 40
31.16722880550176
 40
32.23537921050758
 40
33.29534548809967
 40
34.347168041821
 40
35.39108718934584
 40
36.42754827133493
 40
37.45720575381954
 40
38.48085062012849
 40
39.49948440763516
 40
40.51422944315121
 40
41.52631975251916
 40
42.53706336719636
 40
43.54780698187354
 40
44.55989729124051
 40
45.57464232675757
 40
46.59327611426424
 40
47.6169209805722
 40
48.64656348684535
 40
49.68302456883444
 40
50.58557219878025
 40
50.58557219878025
 40
50.58557219878025
 40
50.58557219878025
 10
-11.62682333030162
 20
-1.399999999999976
 30
0.0
 10
-11.71807607419021
 20
-1.399167033917048
 30
0.0
 10
-11.90070310131294
 20
-1.397499992325353
 30
0.0
 10
-12.17457718054082
 20
-1.384061765607194
 30
0.0
 10
-12.44843956911689
 20
-1.362698495581788
 30
0.0
 10
-12.72228500829981
 20
-1.332757060134844
 30
0.0
 10
-12.99611076554318
 20
-1.294643223122153
 30
0.0
 10
-13.26991143887702
 20
-1.248526470703057
 30
0.0
 10
-13.54368794415247
 20
-1.194717461759253
 30
0.0
 10
-13.81743785352521
 20
-1.13354569691588
 30
0.0
 10
-14.09115930225944
 20
-1.065386767098152
 30
0.0
 10
-14.36485365470527
 20
-0.990668498862859
 30
0.0
 10
-14.63852164387074
 20
-0.9098481731339468
 30
0.0
 10
-14.91216668901819
 20
-0.8234289169688405
 30
0.0
 10
-15.18579004299655
 20
-0.7319417952125487
 30
0.0
 10
-15.45939424304347
 20
-0.6359510179931932
 30
0.0
 10
-15.73298232346654
 20
-0.5360487717494024
 30
0.0
 10
-16.00655668542084
 20
-0.43284940802835
 30
0.0
 10
-16.28011998397671
 20
-0.3269876430624637
 30
0.0
 10
-16.55367514637771
 20
-0.2191150434381027
 30
0.0
 10
-16.82722457196301
 20
-0.1098947655660038
 30
0.0
 10
-17.10077212367421
 20
-0.0000002856508024
 30
0.0
 10
-17.37431844738578
 20
0.1098961724335244
 30
0.0
 10
-17.64786878984913
 20
0.2191147494570027
 30
0.0
 10
-17.92142361454262
 20
0.3269876756055814
 30
0.0
 10
-18.19498740085882
 20
0.4328498438576073
 30
0.0
 10
-18.46856289773081
 20
0.5360483268571681
 30
0.0
 10
-18.74215140994816
 20
0.6359510797443493
 30
0.0
 10
-19.01575564949442
 20
0.7319417791250814
 30
0.0
 10
-19.2893789935165
 20
0.823428920120771
 30
0.0
 10
-19.56302403936463
 20
0.9098481764122913
 30
0.0
 10
-19.83669203550065
 20
0.9906684828158452
 30
0.0
 10
-20.11038635969823
 20
1.065386827345364
 30
0.0
 10
-20.38410663207822
 20
1.133545155320615
 30
0.0
 10
-20.65785484862396
 20
1.194717721361488
 30
0.0
 10
-20.93163125234253
 20
1.248527812336768
 30
0.0
 10
-21.20543388070495
 20
1.294639297582569
 30
0.0
 10
-21.47926054259125
 20
1.332764931633529
 30
0.0
 10
-21.75310606295421
 20
1.362670875373371
 30
0.0
 10
-22.02696864181819
 20
1.384163876755361
 30
0.0
 10
-22.30084248883349
 20
1.397114998869398
 30
0.0
 10
-22.57472235406049
 20
1.401441540227355
 30
0.0
 10
-22.84860221888451
 20
1.397114998862617
 30
0.0
 10
-23.12247606711109
 20
1.384163876782576
 30
0.0
 10
-23.3963386415155
 20
1.362670875270813
 30
0.0
 10
-23.67018417859847
 20
1.332764932018924
 30
0.0
 10
-23.94400944267075
 20
1.294639482002004
 30
0.0
 10
-24.21781099235503
 20
1.248528283801789
 30
0.0
 10
-24.47913937713849
 20
1.197160358818006
 30
0.0
 10
-24.64869220927823
 20
1.159594509661773
 30
0.0
 10
-24.72735484113727
 20
1.141286838795459
 30
0.0
  0
SPLINE
  5
215D
330
1F
100
AcDbEntity
  8
AM_0
100
AcDbSpline
210
0.0
220
0.0
230
1.0
 70
     8
 71
     3
 72
    46
 73
    42
 74
     0
 42
0.0000000001
 43
0.0000000001
 40
0.0
 40
0.0
 40
0.0
 40
0.0
 40
0.5056245176053715
 40
0.759310862862336
 40
1.013969309739036
 40
1.269880374404297
 40
1.527291183660732
 40
1.786406454158005
 40
2.047386241038974
 40
2.310345544571907
 40
2.575337113970003
 40
2.842374715221223
 40
3.111417320030211
 40
3.382376832022752
 40
3.655120036292296
 40
3.929472521611371
 40
4.205224030350333
 40
4.482133246366229
 40
4.759933319229942
 40
5.038338087391601
 40
5.317048131389549
 40
5.595758175387723
 40
5.874162943549382
 40
6.151963016412868
 40
6.428872232428759
 40
6.704623741167953
 40
6.978976226486702
 40
7.251719430756334
 40
7.522680721168324
 40
7.791723325977308
 40
8.058760927228528
 40
8.323752496626548
 40
8.586708135057122
 40
8.84768792193809
 40
9.106803192435362
 40
9.364213819003406
 40
9.620125035580642
 40
9.874787266973068
 40
10.12847352585207
 40
10.38149610319407
 40
10.63418200686337
 40
10.63418200686337
 40
10.63418200686337
 40
10.63418200686337
 10
-10.86016200421106
 20
-1.39999999999998
 30
0.0
 10
-11.04279795419927
 20
-1.396810691778699
 30
0.0
 10
-11.31706760677074
 20
-1.392021216005444
 30
0.0
 10
-11.681775924211
 20
-1.362533293543025
 30
0.0
 10
-11.95562430557904
 20
-1.33280162356581
 30
0.0
 10
-12.22944927942955
 20
-1.29463120971145
 30
0.0
 10
-12.50325012441378
 20
-1.248529617798633
 30
0.0
 10
-12.77702543396312
 20
-1.194717252711599
 30
0.0
 10
-13.05077474954505
 20
-1.133544667849004
 30
0.0
 10
-13.32449685287841
 20
-1.065387471937388
 30
0.0
 10
-13.59819229106806
 20
-0.9906684011814492
 30
0.0
 10
-13.87186032795647
 20
-0.9098481996075172
 30
0.0
 10
-14.14550536016708
 20
-0.8234289097902214
 30
0.0
 10
-14.41912871766946
 20
-0.7319417971854946
 30
0.0
 10
-14.69273291668556
 20
-0.6359510173467305
 30
0.0
 10
-14.96632099767787
 20
-0.5360487723490588
 30
0.0
 10
-15.23989535838619
 20
-0.4328494062691857
 30
0.0
 10
-15.51345866137928
 20
-0.3269876495326828
 30
0.0
 10
-15.78701380720803
 20
-0.2191150192215677
 30
0.0
 10
-16.06056329481655
 20
-0.1098948561844402
 30
0.0
 10
-16.33411048291979
 20
-0.0000000000221867
 30
0.0
 10
-16.60765767096291
 20
0.1098948562736117
 30
0.0
 10
-16.8812071587517
 20
0.2191150189103007
 30
0.0
 10
-17.15476230392159
 20
0.3269876506848393
 30
0.0
 10
-17.42832560935777
 20
0.432849401994039
 30
0.0
 10
-17.70189996100737
 20
0.5360487881977994
 30
0.0
 10
-17.97548807554715
 20
0.6359509586696373
 30
0.0
 10
-18.24909274527555
 20
0.7319422228600124
 30
0.0
 10
-18.52271716594629
 20
0.8234285042579458
 30
0.0
 10
-18.79636268629768
 20
0.9098482372037635
 30
0.0
 10
-19.07003071681434
 20
0.9906684628260061
 30
0.0
 10
-19.34372503069421
 20
1.065386846977539
 30
0.0
 10
-19.61744531027348
 20
1.13354509722324
 30
0.0
 10
-19.89119350842907
 20
1.19471793198254
 30
0.0
 10
-20.16496865953163
 20
1.248526776382139
 30
0.0
 10
-20.4387697052499
 20
1.294641739573295
 30
0.0
 10
-20.71259642667252
 20
1.332757645587223
 30
0.0
 10
-20.98644339696927
 20
1.362698620982317
 30
0.0
 10
-21.26030731004481
 20
1.384059930351126
 30
0.0
 10
-21.53418116417668
 20
1.397501783388107
 30
0.0
 10
-21.71680826778169
 20
1.399167630806808
 30
0.0
 10
-21.80806102790281
 20
1.400000000000078
 30
0.0
  0
SPLINE
  5
215E
330
1F
100
AcDbEntity
  8
AM_0
100
AcDbSpline
210
0.0
220
0.0
230
1.0
 70
     8
 71
     3
 72
    22
 73
    18
 74
     0
 42
0.0000000001
 43
0.0000000001
 40
17.17441611292
 40
17.17441611292
 40
17.17441611292
 40
17.17441611292
 40
17.38177636558528
 40
18.41823744757437
 40
19.46215659509824
 40
20.51397914882054
 40
21.57394542641293
 40
22.64209583141747
 40
23.71826625065247
 40
24.80210429862395
 40
25.8930771157021
 40
26.99048705697709
 40
28.09349309193389
 40
29.20112995599786
 40
30.31233024745139
 40
31.42594771747373
 40
32.5407895042663
 40
32.54078950426994
 40
32.54078950426994
 40
32.54078950426994
 10
-17.83122243250386
 20
-1.257210132708624
 30
0.0
 10
-17.8495614308933
 20
-1.253969270023102
 30
0.0
 10
-17.95949371072772
 20
-1.234228821170563
 30
0.0
 10
-18.16088345272506
 20
-1.194646651944599
 30
0.0
 10
-18.43463163012638
 20
-1.133473910154461
 30
0.0
 10
-18.70835191316306
 20
-1.0653156299001
 30
0.0
 10
-18.98204623428493
 20
-0.990597272066922
 30
0.0
 10
-19.25571423196085
 20
-0.909776970660922
 30
0.0
 10
-19.52935927472651
 20
-0.8233577077643754
 30
0.0
 10
-19.80298262963541
 20
-0.7318705883615859
 30
0.0
 10
-20.07658682835421
 20
-0.635879808504996
 30
0.0
 10
-20.35017491318816
 20
-0.5359775705047467
 30
0.0
 10
-20.62374925871674
 20
-0.4327781762434203
 30
0.0
 10
-20.89731261890806
 20
-0.3269165258331144
 30
0.0
 10
-21.17086741866321
 20
-0.2190435485953554
 30
0.0
 10
-21.44441771045863
 20
-0.1098248791059069
 30
0.0
 10
-21.62674877522466
 20
-0.0365742342395915
 30
0.0
 10
-21.71796439526387
 20
0.0000712076825493
 30
0.0
  0
SPLINE
  5
215F
330
1F
100
AcDbEntity
  8
AM_0
100
AcDbSpline
210
0.0
220
0.0
230
1.0
 70
     8
 71
     3
 72
    17
 73
    13
 74
     0
 42
0.0000000001
 43
0.0000000001
 40
1.580019955310467
 40
1.580019955310467
 40
1.580019955310467
 40
1.580019955310467
 40
2.030549285115227
 40
3.082371838836284
 40
4.126290986361125
 40
5.162752068350215
 40
6.192395305374981
 40
7.216039564037012
 40
8.234688489606833
 40
9.249433870634691
 40
10.26152376260694
 40
11.27226744710342
 40
11.27226744710342
 40
11.27226744710342
 40
11.27226744710352
 10
-14.20616328240223
 20
-1.033241225226466
 30
0.0
 10
-14.24491189323904
 20
-1.043882751493657
 30
0.0
 10
-14.37434527150237
 20
-1.078761775213384
 30
0.0
 10
-14.59532014633244
 20
-1.133470771910899
 30
0.0
 10
-14.86903021861379
 20
-1.194737590567255
 30
0.0
 10
-15.14281564302178
 20
-1.248521722851224
 30
0.0
 10
-15.41661361218235
 20
-1.294642549558441
 30
0.0
 10
-15.69044141114095
 20
-1.332764585568133
 30
0.0
 10
-15.96428812807642
 20
-1.362670285230284
 30
0.0
 10
-16.23815189690062
 20
-1.384165849604514
 30
0.0
 10
-16.51202597031948
 20
-1.397112909246625
 30
0.0
 10
-16.69465300033651
 20
-1.400000008010822
 30
0.0
 10
-16.78590574302121
 20
-1.399999999999947
 30
0.0
  0
SPLINE
  5
2160
330
1F
100
AcDbEntity
  8
AM_0
100
AcDbSpline
210
0.0
220
0.0
230
1.0
 70
     8
 71
     3
 72
    11
 73
     7
 74
     0
 42
0.0000000001
 43
0.0000000001
 40
11.27226913003534
 40
11.27226913003534
 40
11.27226913003534
 40
11.2722691300354
 40
12.28301561507924
 40
13.29510212255852
 40
14.30984805882082
 40
15.18258238371378
 40
15.18258238371378
 40
15.18258238371378
 40
15.18258238371378
 10
-16.78590574302123
 20
-1.399999999999947
 30
0.0
 10
-16.87681149785352
 20
-1.393147993162604
 30
0.0
 10
-17.05845154197815
 20
-1.376559582820909
 30
0.0
 10
-17.32997365283982
 20
-1.34309665602814
 30
0.0
 10
-17.58765292372789
 20
-1.303128859041005
 30
0.0
 10
-17.75430475066855
 20
-1.272404423979049
 30
0.0
 10
-17.83110265792923
 20
-1.257227401697919
 30
0.0
  0
SPLINE
  5
2161
330
1F
100
AcDbEntity
  8
AM_0
100
AcDbSpline
210
0.0
220
0.0
230
1.0
 70
     8
 71
     3
 72
    23
 73
    19
 74
     0
 42
0.0000000001
 43
0.0000000001
 40
16.03460024169435
 40
16.03460024169435
 40
16.03460024169435
 40
16.03460024169435
 40
16.35212704903564
 40
17.38177054169784
 40
18.41822485651776
 40
19.46214173629503
 40
20.51396345435107
 40
21.57393551351153
 40
22.64208202342361
 40
23.7182574881101
 40
24.80209208578934
 40
25.89306333925047
 40
26.99048218457928
 40
28.09348763352352
 40
29.20111863782268
 40
30.31232390128032
 40
31.42594612798585
 40
32.5407912310448
 40
32.5407912310486
 40
32.5407912310486
 40
32.5407912310486
 10
-16.11718123715969
 20
1.400198895407442
 30
0.0
 10
-16.08904404129907
 20
1.395472741946903
 30
0.0
 10
-15.96978624131276
 20
1.374891673831274
 30
0.0
 10
-15.7597123423184
 20
1.334566211925672
 30
0.0
 10
-15.48766609317926
 20
1.274602691066997
 30
0.0
 10
-15.21587253339251
 20
1.207273652049729
 30
0.0
 10
-14.94431560245993
 20
1.132968761010311
 30
0.0
 10
-14.67298566234483
 20
1.052102269379754
 30
0.0
 10
-14.40186703082694
 20
0.9651364441266803
 30
0.0
 10
-14.13094082823524
 20
0.8725774045399235
 30
0.0
 10
-13.86019165956983
 20
0.77494930706413
 30
0.0
 10
-13.58959781788811
 20
0.6728202268506529
 30
0.0
 10
-13.31913737458514
 20
0.5667837822383937
 30
0.0
 10
-13.04879230965301
 20
0.4574496383305469
 30
0.0
 10
-12.77854000364846
 20
0.345453558201235
 30
0.0
 10
-12.5083554254844
 20
0.2314495167916944
 30
0.0
 10
-12.23821657450923
 20
0.1160981366506878
 30
0.0
 10
-12.05817237999322
 20
0.0387613436144192
 30
0.0
 10
-11.96810118357273
 20
0.000071207682022
 30
0.0
  0
SPLINE
  5
2162
330
1F
100
AcDbEntity
  8
AM_0
100
AcDbSpline
210
0.0
220
0.0
230
1.0
 70
     8
 71
     3
 72
    17
 73
    13
 74
     0
 42
0.0000000001
 43
0.0000000001
 40
1.580019955310467
 40
1.580019955310467
 40
1.580019955310467
 40
1.580019955310467
 40
2.030549285115227
 40
3.082371838836284
 40
4.126290986361125
 40
5.162752068350215
 40
6.192395305374981
 40
7.216039564037012
 40
8.234688489606833
 40
9.249433870634691
 40
10.26152376260694
 40
11.27226744710342
 40
11.27226744710342
 40
11.27226744710342
 40
11.27226744710352
 10
-23.95602649488171
 20
-1.033241225226412
 30
0.0
 10
-23.99477510571852
 20
-1.043882751493603
 30
0.0
 10
-24.12420848398186
 20
-1.07876177521333
 30
0.0
 10
-24.34518335881191
 20
-1.133470771910845
 30
0.0
 10
-24.61889343109328
 20
-1.194737590567201
 30
0.0
 10
-24.89267885550127
 20
-1.24852172285117
 30
0.0
 10
-25.16647682466183
 20
-1.294642549558387
 30
0.0
 10
-25.44030462362043
 20
-1.332764585568079
 30
0.0
 10
-25.71415134055591
 20
-1.36267028523023
 30
0.0
 10
-25.9880151093801
 20
-1.384165849604459
 30
0.0
 10
-26.26188918279896
 20
-1.397112909246571
 30
0.0
 10
-26.44451621281599
 20
-1.400000008010768
 30
0.0
 10
-26.53576895550069
 20
-1.399999999999894
 30
0.0
  0
SPLINE
  5
2163
330
1F
100
AcDbEntity
  8
AM_0
100
AcDbSpline
210
0.0
220
0.0
230
1.0
 70
     8
 71
     3
 72
    37
 73
    33
 74
     0
 42
0.0000000001
 43
0.0000000001
 40
0.0
 40
0.0
 40
0.0
 40
0.0
 40
0.5056245176053715
 40
0.759310862862336
 40
1.013969309739036
 40
1.269880374404297
 40
1.527291183660732
 40
1.786406454158005
 40
2.047386241038974
 40
2.310345544571907
 40
2.575337113970003
 40
2.842374715221223
 40
3.111417320030211
 40
3.382376832022752
 40
3.655120036292296
 40
3.929472521611371
 40
4.205224030350333
 40
4.482133246366229
 40
4.759933319229942
 40
5.038338087391601
 40
5.317048131389549
 40
5.595758175387723
 40
5.874162943549382
 40
6.151963016412868
 40
6.428872232428759
 40
6.704623741167953
 40
6.978976226486702
 40
7.251719430756334
 40
7.522680721168324
 40
7.791723325977308
 40
8.058760927228528
 40
8.232349533780283
 40
8.232349533780283
 40
8.232349533780283
 40
8.232349533780283
 10
-20.61002521669053
 20
-1.399999999999926
 30
0.0
 10
-20.79266116667875
 20
-1.396810691778645
 30
0.0
 10
-21.06693081925022
 20
-1.392021216005389
 30
0.0
 10
-21.43163913669048
 20
-1.36253329354297
 30
0.0
 10
-21.70548751805852
 20
-1.332801623565756
 30
0.0
 10
-21.97931249190903
 20
-1.294631209711396
 30
0.0
 10
-22.25311333689326
 20
-1.248529617798579
 30
0.0
 10
-22.52688864644261
 20
-1.194717252711545
 30
0.0
 10
-22.80063796202453
 20
-1.13354466784895
 30
0.0
 10
-23.07436006535789
 20
-1.065387471937333
 30
0.0
 10
-23.34805550354754
 20
-0.9906684011813949
 30
0.0
 10
-23.62172354043595
 20
-0.9098481996074632
 30
0.0
 10
-23.89536857264656
 20
-0.8234289097901672
 30
0.0
 10
-24.16899193014894
 20
-0.7319417971854402
 30
0.0
 10
-24.44259612916503
 20
-0.6359510173466762
 30
0.0
 10
-24.71618421015735
 20
-0.5360487723490045
 30
0.0
 10
-24.98975857086566
 20
-0.4328494062691314
 30
0.0
 10
-25.26332187385875
 20
-0.3269876495326286
 30
0.0
 10
-25.53687701968751
 20
-0.2191150192215135
 30
0.0
 10
-25.81042650729603
 20
-0.109894856184386
 30
0.0
 10
-26.08397369539927
 20
-0.0000000000221325
 30
0.0
 10
-26.35752088344239
 20
0.1098948562736659
 30
0.0
 10
-26.63107037123118
 20
0.2191150189103549
 30
0.0
 10
-26.90462551640107
 20
0.3269876506848935
 30
0.0
 10
-27.17818882183725
 20
0.4328494019940933
 30
0.0
 10
-27.45176317348685
 20
0.5360487881978534
 30
0.0
 10
-27.72535128802663
 20
0.6359509586696914
 30
0.0
 10
-27.99895595775502
 20
0.7319422228600665
 30
0.0
 10
-28.27258037842577
 20
0.8234285042579999
 30
0.0
 10
-28.54622589877716
 20
0.9098482372038178
 30
0.0
 10
-28.78866817700562
 20
0.9814468071566276
 30
0.0
 10
-28.94016475991439
 20
1.023382575109938
 30
0.0
 10
-29.00000000002496
 20
1.039484773244914
 30
0.0
  0
SPLINE
  5
2164
330
1F
100
AcDbEntity
  8
AM_0
100
AcDbSpline
210
0.0
220
0.0
230
1.0
 70
     8
 71
     3
 72
     9
 73
     5
 74
     0
 42
0.0000000001
 43
0.0000000001
 40
11.27226913003534
 40
11.27226913003534
 40
11.27226913003534
 40
11.2722691300354
 40
12.28301561507924
 40
12.99863635197729
 40
12.99863635197729
 40
12.99863635197729
 40
12.99863635197729
 10
-26.53576895550071
 20
-1.399999999999894
 30
0.0
 10
-26.626674710333
 20
-1.39314799316255
 30
0.0
 10
-26.78169364641319
 20
-1.37899077505118
 30
0.0
 10
-26.93611262418355
 20
-1.36068499443346
 30
0.0
 10
-27.00000000017201
 20
-1.352393527796598
 30
0.0
  0
SPLINE
  5
2165
330
1F
100
AcDbEntity
  8
AM_0
100
AcDbSpline
210
0.0
220
0.0
230
1.0
 70
     8
 71
     3
 72
    28
 73
    24
 74
     0
 42
0.0000000001
 43
0.0000000001
 40
0.0
 40
0.0
 40
0.0
 40
0.0
 40
1.010743684496582
 40
2.022833576467832
 40
3.037578957496688
 40
4.056212745003489
 40
5.079857003664532
 40
6.109500240690281
 40
7.145961322679372
 40
8.189895241603872
 40
9.241717795325891
 40
10.30168407291828
 40
11.36983447792315
 40
12.44600489715814
 40
13.52984294512926
 40
14.62081576220742
 40
15.7182257034828
 40
16.82123173843959
 40
17.92886860250316
 40
19.0400688939571
 40
20.15368796660465
 40
21.26852814259644
 40
21.87700996060819
 40
21.87700996060819
 40
21.87700996060819
 40
21.87700996060819
 10
-21.3766865427811
 20
-1.399999999999921
 30
0.0
 10
-21.46793928666969
 20
-1.399167033916995
 30
0.0
 10
-21.65056631379242
 20
-1.397499992325298
 30
0.0
 10
-21.9244403930203
 20
-1.384061765607141
 30
0.0
 10
-22.19830278159637
 20
-1.362698495581734
 30
0.0
 10
-22.47214822077929
 20
-1.33275706013479
 30
0.0
 10
-22.74597397802266
 20
-1.294643223122099
 30
0.0
 10
-23.01977465135651
 20
-1.248526470703003
 30
0.0
 10
-23.29355115663195
 20
-1.194717461759199
 30
0.0
 10
-23.56730106600469
 20
-1.133545696915826
 30
0.0
 10
-23.84102251473892
 20
-1.065386767098098
 30
0.0
 10
-24.11471686718475
 20
-0.9906684988628049
 30
0.0
 10
-24.38838485635022
 20
-0.9098481731338925
 30
0.0
 10
-24.66202990149767
 20
-0.8234289169687864
 30
0.0
 10
-24.93565325547602
 20
-0.7319417952124945
 30
0.0
 10
-25.20925745552295
 20
-0.635951017993139
 30
0.0
 10
-25.48284553594601
 20
-0.5360487717493482
 30
0.0
 10
-25.75641989790032
 20
-0.4328494080282958
 30
0.0
 10
-26.02998319645619
 20
-0.3269876430624095
 30
0.0
 10
-26.30353835885719
 20
-0.2191150434380485
 30
0.0
 10
-26.57708778444249
 20
-0.1098947655659496
 30
0.0
 10
-26.80920516630759
 20
-0.0166443643111245
 30
0.0
 10
-26.95020624466868
 20
0.0400021288558238
 30
0.0
 10
-27.00000000000004
 20
0.0599881315895216
 30
0.0
  0
LINE
  5
2176
330
1F
100
AcDbEntity
  8
AM_0
100
AcDbLine
 10
-30.82679482356518
 20
-1.400000487001891
 30
0.0
 11
-30.82679482356518
 21
1.400000455896676
 31
0.0
  0
ELLIPSE
  5
229D
330
1F
100
AcDbEntity
  8
AM_0
 48
0.5
100
AcDbEllipse
 10
2.904860689175475
 20
3.365685712787196
 30
0.0
 11
-3.018917186091205
 21
3.018917186091193
 31
0.0
210
0.0
220
0.0
230
1.0
 40
0.9999999999999943
 41
1.334247580774354
 42
1.564421971156354
  0
LINE
  5
229E
330
1F
100
AcDbEntity
  8
AM_0
 48
0.5
100
AcDbLine
 10
-0.7374672547451642
 20
1.138317511997695
 30
0.0
 11
-0.9999999999999896
 21
1.399999999999994
 31
0.0
  0
SPLINE
  5
229F
330
1F
100
AcDbEntity
  8
AM_0
 48
0.5
100
AcDbSpline
210
0.0
220
0.0
230
1.0
 70
     8
 71
     3
 72
    10
 73
     6
 74
     0
 42
0.0000000001
 43
0.0000000001
 40
0.0
 40
0.0
 40
0.0
 40
0.0
 40
2.69986029516136
 40
4.147722969032201
 40
6.285750005020438
 40
6.285750005020438
 40
6.285750005020438
 40
6.285750005020438
 10
-1.787770073425189
 20
0.3352930704752336
 30
0.0
 10
-1.592848361861259
 20
0.1145141632620243
 30
0.0
 10
-1.293395363620684
 20
-0.0710353500007902
 30
0.0
 10
-0.585229249026985
 20
0.0187924199229805
 30
0.0
 10
-0.7185975266863876
 20
0.3213442350093763
 30
0.0
 10
-0.8067187633152641
 20
0.5057588846496303
 30
0.0
  0
LINE
  5
22A0
330
1F
100
AcDbEntity
  8
AM_0
 48
0.5
100
AcDbLine
 10
-0.0000000000000007
 20
0.0000000000000001
 30
0.0
 11
-0.1332386856516308
 21
0.3660733808968627
 31
0.0
  0
LINE
  5
22A1
330
1F
100
AcDbEntity
  8
AM_0
 48
0.5
100
AcDbLine
 10
-0.0000000000000007
 20
0.0000000000000001
 30
0.0
 11
-0.7986153372240644
 21
0.4991605884799829
 31
0.0
  0
SPLINE
  5
22A2
330
1F
100
AcDbEntity
  8
AM_0
 48
0.5
100
AcDbSpline
210
0.0
220
0.0
230
1.0
 70
     8
 71
     3
 72
    25
 73
    21
 74
     0
 42
0.0000000001
 43
0.0000000001
 40
6.846175049578289
 40
6.846175049578289
 40
6.846175049578289
 40
6.846175049578289
 40
7.604337694224321
 40
8.711974558287883
 40
9.814980593243754
 40
10.91239053451967
 40
12.0033633515982
 40
13.08720139956839
 40
14.16337181880432
 40
15.23152222380919
 40
16.29148850140128
 40
17.34331105512262
 40
18.38723020264746
 40
19.42369128463655
 40
20.45333379090873
 40
21.47697865721768
 40
22.49561244472435
 40
23.5103574802404
 40
24.52244778960836
 40
25.53320666051913
 40
25.53320666051913
 40
25.53320666051913
 40
25.53320666051913
 10
-1.787770073425193
 20
0.3352930704752341
 30
0.0
 10
-2.014660639415046
 20
0.3581341988645969
 30
0.0
 10
-2.411819458280448
 20
0.4140786391382964
 30
0.0
 10
-2.656309200988922
 20
0.5019315494012155
 30
0.0
 10
-2.929883531566424
 20
0.5977595854364792
 30
0.0
 10
-3.203471620374687
 20
0.6905259420833407
 30
0.0
 10
-3.477075818045274
 20
0.7796602396126286
 30
0.0
 10
-3.75069917320415
 20
0.8646125641351844
 30
0.0
 10
-4.024344216007887
 20
0.9448590231512849
 30
0.0
 10
-4.298012213288906
 20
1.019906444087084
 30
0.0
 10
-4.571706535934875
 20
1.089287782874697
 30
0.0
 10
-4.845426813331012
 20
1.15257759053792
 30
0.0
 10
-5.119175011552638
 20
1.209380939339596
 30
0.0
 10
-5.392950164529763
 20
1.259346282210302
 30
0.0
 10
-5.666751202758285
 20
1.302167367346772
 30
0.0
 10
-5.940576602664108
 20
1.337560356734706
 30
0.0
 10
-6.214422103633963
 20
1.365363266123804
 30
0.0
 10
-6.488284687612501
 20
1.385198463024174
 30
0.0
 10
-6.762159908984748
 20
1.397680303404211
 30
0.0
 10
-6.944788392545464
 20
1.399227107169947
 30
0.0
 10
-7.036042531331296
 20
1.400000000000027
 30
0.0
  0
ELLIPSE
  5
22A3
330
1F
100
AcDbEntity
  8
AM_0
 48
0.5
100
AcDbEllipse
 10
0.6287978490195487
 20
1.560730056660392
 30
0.0
 11
1.965692130336879
 21
2.054377605209982
 31
0.0
210
0.0
220
0.0
230
1.0
 40
0.7217765507462824
 41
2.688235193450635
 42
3.248260507211319
  0
ELLIPSE
  5
22A4
330
1F
100
AcDbEntity
  8
AM_0
 48
0.5
100
AcDbEllipse
 10
-0.484153231790941
 20
-0.3387986374925064
 30
0.0
 11
-0.0569783155195109
 21
0.211341296521631
 31
0.0
210
0.0
220
0.0
230
1.0
 40
0.6123776719086898
 41
1.730173618767749
 42
4.865515508479723
  0
ELLIPSE
  5
22A5
330
1F
100
AcDbEntity
  8
AM_0
 48
0.5
100
AcDbEllipse
 10
-0.484153231790941
 20
-0.3387986374925064
 30
0.0
 11
-0.2403768658788904
 21
0.0978470841303514
 31
0.0
210
0.0
220
0.0
230
1.0
 40
0.4356078197020576
 41
4.378295523223194
 42
7.521735864552704
  0
ELLIPSE
  5
22A6
330
1F
100
AcDbEntity
  8
AM_0
 48
0.5
100
AcDbEllipse
 10
-2.812953751098353
 20
2.181871363219573
 30
0.0
 11
-3.917995491203941
 21
0.0001957897491167
 31
0.0
210
0.0
220
0.0
230
0.9999999999999998
 40
0.800002914788182
 41
2.243974158376915
 42
2.371699722597257
  0
ELLIPSE
  5
22A7
330
1F
100
AcDbEntity
  8
AM_0
 48
0.5
100
AcDbEllipse
 10
2.904860689175495
 20
-3.365685712787178
 30
0.0
 11
-3.018917186091187
 21
-3.018917186091211
 31
0.0
210
0.0
220
0.0
230
-0.9999999999999998
 40
0.9999999999999943
 41
1.334247580774354
 42
1.564421971156354
  0
ELLIPSE
  5
22A8
330
1F
100
AcDbEntity
  8
AM_0
 48
0.5
100
AcDbEllipse
 10
-2.812953751098353
 20
2.181871363219573
 30
0.0
 11
5.537742723265147
 21
1.531257567924938
 31
0.0
210
0.0
220
0.0
230
1.0
 40
0.5544071532722467
 41
-1.424880376263004
 42
-1.31755376938518
  0
LINE
  5
22A9
330
1F
100
AcDbEntity
  8
AM_0
 48
0.5
100
AcDbLine
 10
-0.0000000000000007
 20
0.0000000000000001
 30
0.0
 11
-0.1332411609958324
 21
-0.3660771294298141
 31
0.0
  0
ELLIPSE
  5
22AA
330
1F
100
AcDbEntity
  8
AM_0
 48
0.5
100
AcDbEllipse
 10
-320.4957580261819
 20
-70.92053269218631
 30
0.0
 11
-231.2040698947495
 21
231.2040698947495
 31
0.0
210
0.0
220
0.0
230
1.0
 40
0.9999999999744698
 41
4.141245557317002
 42
4.1436467704507
  0
LINE
  5
22AB
330
1F
100
AcDbEntity
  8
AM_0
 48
0.5
100
AcDbLine
 10
-0.737467254745152
 20
-1.13831751199769
 30
0.0
 11
-1.000000000000001
 21
-1.400000000000005
 31
0.0
  0
DIMENSION
  5
2358
330
1F
100
AcDbEntity
  8
AM_5
100
AcDbDimension
  2
*D10
 10
-0.1332411609958324
 20
-0.3660771294298141
 30
0.0
 11
13.86756415960933
 21
-0.0000185816486532
 31
0.0
 70
    34
  1
<>
 51
359.9999999999998
  3
AM_JIS$2
100
AcDb2LineAngularDimension
 13
-0.0000000000000007
 23
0.0000000000000001
 33
0.0
 14
-0.1332386856516308
 24
0.3660733808968627
 34
0.0
 15
-0.0000000000000007
 25
0.0000000000000001
 35
0.0
 16
14.156644744061
 26
-6.106610697146481
 36
0.0
1001
ACAD
1000
DSTYLE
1002
{
1070
   179
1070
     3
1002
}
1001
GENIUS_GENDTOL_13
1000

1000
h7
1000

1040
0.0
  0
VIEWPORT
  5
110
330
101
100
AcDbEntity
 67
     1
  8
0
100
AcDbViewport
 10
420.5
 20
297.0
 30
0.0
 40
948.9782706766916
 41
628.452
 68
     1
 69
     1
1001
ACAD
1000
MVIEW
1002
{
1070
    16
1010
0.0
1020
0.0
1030
0.0
1010
0.0
1020
0.0
1030
1.0
1040
0.0
1040
628.452
1040
420.5
1040
297.0
1040
50.0
1040
0.0
1040
0.0
1070
     0
1070
   100
1070
     1
1070
     1
1070
     0
1070
     0
1070
     0
1070
     0
1040
0.0
1040
0.0
1040
0.0
1040
10.0
1040
10.0
1040
10.0
1040
10.0
1070
     0
1002
{
1002
}
1002
}
  0
ENDSEC
  0
SECTION
  2
OBJECTS
  0
DICTIONARY
  5
C
330
0
100
AcDbDictionary
  3
ACAD_GROUP
350
D
  3
ACAD_LAYOUT
350
1A
  3
ACAD_MLINESTYLE
350
17
  3
ACAD_PLOTSETTINGS
350
19
  3
ACAD_PLOTSTYLENAME
350
E
  3
ACDBVARIABLEDICTIONARY
350
34
  3
ACMDICTIONARY
350
43
  3
AMG
350
2B
  3
AMGSNAPSETTINGS
350
6E
  3
DWGPROPS
350
2479
  3
ACDBHEADERROUNDTRIPXREC
350
2486
  0
DICTIONARY
  5
74
330
1F
100
AcDbDictionary
280
     1
  3
ACAD_INDEX
360
247B
  3
ACAD_LAYOUTSELFREF
360
24A9
  0
DICTIONARY
  5
24AE
330
101
100
AcDbDictionary
280
     1
  3
ACAD_LAYOUTSELFREF
360
24AF
  0
DICTIONARY
  5
D
102
{ACAD_REACTORS
330
C
102
}
330
C
100
AcDbDictionary
  0
DICTIONARY
  5
1A
102
{ACAD_REACTORS
330
C
102
}
330
C
100
AcDbDictionary
  0
DICTIONARY
  5
17
102
{ACAD_REACTORS
330
C
102
}
330
C
100
AcDbDictionary
  3
STANDARD
350
18
  0
DICTIONARY
  5
19
102
{ACAD_REACTORS
330
C
102
}
330
C
100
AcDbDictionary
  0
ACDBDICTIONARYWDFLT
  5
E
102
{ACAD_REACTORS
330
C
102
}
330
C
100
AcDbDictionary
281
     1
  3
Normal
350
F
100
AcDbDictionaryWithDefault
340
F
  0
DICTIONARY
  5
34
102
{ACAD_REACTORS
330
C
102
}
330
C
100
AcDbDictionary
  3
INDEXCTL
350
35
  3
SORTENTS
350
B5E
  0
DICTIONARY
  5
43
102
{ACAD_REACTORS
330
C
102
}
330
C
100
AcDbDictionary
  3
ACMSTDDICTIONARY
350
260
  0
DICTIONARY
  5
2B
102
{ACAD_REACTORS
330
C
102
}
330
C
100
AcDbDictionary
  3
ACMGSETTINGS
350
2C
  0
DICTIONARY
  5
6E
102
{ACAD_REACTORS
330
C
102
}
330
C
100
AcDbDictionary
  0
XRECORD
  5
2479
102
{ACAD_REACTORS
330
C
102
}
330
C
100
AcDbXrecord
  1
DWGPROPS COOKIE
  2

  3

  4

  6

  7

  8

  9

300
AmdtFileType=82
301
=
302
=
303
=
304
=
305
=
306
=
307
=
308
=
309
=
 40
0.0353864583333333
 41
2452800.443498622
 42
2452946.661134976
  1

 90
        1
  0
DICTIONARY
  5
2486
102
{ACAD_REACTORS
330
C
102
}
330
C
100
AcDbDictionary
  3
TSTACKALIGN
350
2487
  3
TSTACKSIZE
350
2488
  3
HYPERLINKBASE
350
2489
  3
STYLESHEET
350
248A
  3
LAYOUTDICT
350
248B
  3
PLOTSETDICT
350
248C
  3
PLOTSTYLNAMDICT
350
248D
  3
LWETCUNION
350
248E
  3
INSUNITS
350
248F
  3
CEPSNTYPE
350
2490
  3
FINGERPRINTGUID
350
2491
  3
VERSIONGUID
350
2492
  3
PSVPSCALE
350
2493
  3
DIMSTYLEDATA
350
2494
  3
PUCSORTHOREF
350
2495
  3
PUCSORTHOVIEW
350
2496
  3
PUCSBASE
350
2497
  3
PUCSORGTOP
350
2498
  3
PUCSORGBOTTOM
350
2499
  3
PUCSORGLEFT
350
249A
  3
PUCSORGRIGHT
350
249B
  3
PUCSORGFRONT
350
249C
  3
PUCSORGBACK
350
249D
  3
UCSORTHOREF
350
249E
  3
UCSORTHOVIEW
350
249F
  3
UCSBASE
350
24A0
  3
UCSORGTOP
350
24A1
  3
UCSORGBOTTOM
350
24A2
  3
UCSORGLEFT
350
24A3
  3
UCSORGRIGHT
350
24A4
  3
UCSORGFRONT
350
24A5
  3
UCSORGBACK
350
24A6
  0
DICTIONARY
  5
247B
102
{ACAD_REACTORS
330
74
102
}
330
74
100
AcDbDictionary
  3
*A1
350
247C
  0
XRECORD
  5
24A9
102
{ACAD_REACTORS
330
74
102
}
330
74
100
AcDbXrecord
340
1F
  0
XRECORD
  5
24AF
102
{ACAD_REACTORS
330
24AE
102
}
330
24AE
100
AcDbXrecord
340
101
  0
MLINESTYLE
  5
18
102
{ACAD_REACTORS
330
17
102
}
330
17
100
AcDbMlineStyle
  2
STANDARD
 70
     0
  3

 62
   256
 51
90.0
 52
90.0
 71
     2
 49
0.5
 62
   256
  6
BYLAYER
 49
-0.5
 62
   256
  6
BYLAYER
  0
ACDBPLACEHOLDER
  5
F
102
{ACAD_REACTORS
330
E
102
}
330
E
100
AcDbPlaceHolder
280
     0
  0
DICTIONARYVAR
  5
35
102
{ACAD_REACTORS
330
34
102
}
330
34
100
DictionaryVariables
280
     0
  1
1
  0
DICTIONARYVAR
  5
B5E
102
{ACAD_REACTORS
330
34
102
}
330
34
100
DictionaryVariables
280
     0
  1
96
  0
DICTIONARY
  5
260
102
{ACAD_REACTORS
330
43
102
}
330
43
100
AcDbDictionary
  0
DICTIONARY
  5
2C
102
{ACAD_REACTORS
330
2B
102
}
330
2B
100
AcDbDictionary
  3
DWGSETTINGS
350
2D
  0
XRECORD
  5
2487
102
{ACAD_REACTORS
330
2486
102
}
330
2486
100
AcDbXrecord
 90
        1
  0
XRECORD
  5
2488
102
{ACAD_REACTORS
330
2486
102
}
330
2486
100
AcDbXrecord
 90
       70
  0
XRECORD
  5
2489
102
{ACAD_REACTORS
330
2486
102
}
330
2486
100
AcDbXrecord
  1

  0
XRECORD
  5
248A
102
{ACAD_REACTORS
330
2486
102
}
330
2486
100
AcDbXrecord
  1
ASAMI.ctb
  0
XRECORD
  5
248B
102
{ACAD_REACTORS
330
2486
102
}
330
2486
100
AcDbXrecord
340
1A
  0
XRECORD
  5
248C
102
{ACAD_REACTORS
330
2486
102
}
330
2486
100
AcDbXrecord
340
19
  0
XRECORD
  5
248D
102
{ACAD_REACTORS
330
2486
102
}
330
2486
100
AcDbXrecord
340
E
  0
XRECORD
  5
248E
102
{ACAD_REACTORS
330
2486
102
}
330
2486
100
AcDbXrecord
 90
    10781
  0
XRECORD
  5
248F
102
{ACAD_REACTORS
330
2486
102
}
330
2486
100
AcDbXrecord
 90
        4
  0
XRECORD
  5
2490
102
{ACAD_REACTORS
330
2486
102
}
330
2486
100
AcDbXrecord
 90
        0
  0
XRECORD
  5
2491
102
{ACAD_REACTORS
330
2486
102
}
330
2486
100
AcDbXrecord
  1
{AFB28963-8C59-40AE-9337-C84526B81ACE}
  0
XRECORD
  5
2492
102
{ACAD_REACTORS
330
2486
102
}
330
2486
100
AcDbXrecord
  1
{2F059076-ED08-47CE-8050-FCE499C0698B}
  0
XRECORD
  5
2493
102
{ACAD_REACTORS
330
2486
102
}
330
2486
100
AcDbXrecord
 40
0.0
  0
XRECORD
  5
2494
102
{ACAD_REACTORS
330
2486
102
}
330
2486
100
AcDbXrecord
1000
DSTYLE
1002
{
1070
    79
 70
     2
1070
   341
340
59
1070
   342
340
59
1070
   371
 70
    -1
1070
   372
 70
    -1
1002
}
  0
XRECORD
  5
2495
102
{ACAD_REACTORS
330
2486
102
}
330
2486
100
AcDbXrecord
340
0
  0
XRECORD
  5
2496
102
{ACAD_REACTORS
330
2486
102
}
330
2486
100
AcDbXrecord
 70
     0
  0
XRECORD
  5
2497
102
{ACAD_REACTORS
330
2486
102
}
330
2486
100
AcDbXrecord
340
0
  0
XRECORD
  5
2498
102
{ACAD_REACTORS
330
2486
102
}
330
2486
100
AcDbXrecord
 10
0.0
 20
0.0
 30
0.0
  0
XRECORD
  5
2499
102
{ACAD_REACTORS
330
2486
102
}
330
2486
100
AcDbXrecord
 10
0.0
 20
0.0
 30
0.0
  0
XRECORD
  5
249A
102
{ACAD_REACTORS
330
2486
102
}
330
2486
100
AcDbXrecord
 10
0.0
 20
0.0
 30
0.0
  0
XRECORD
  5
249B
102
{ACAD_REACTORS
330
2486
102
}
330
2486
100
AcDbXrecord
 10
0.0
 20
0.0
 30
0.0
  0
XRECORD
  5
249C
102
{ACAD_REACTORS
330
2486
102
}
330
2486
100
AcDbXrecord
 10
0.0
 20
0.0
 30
0.0
  0
XRECORD
  5
249D
102
{ACAD_REACTORS
330
2486
102
}
330
2486
100
AcDbXrecord
 10
0.0
 20
0.0
 30
0.0
  0
XRECORD
  5
249E
102
{ACAD_REACTORS
330
2486
102
}
330
2486
100
AcDbXrecord
340
0
  0
XRECORD
  5
249F
102
{ACAD_REACTORS
330
2486
102
}
330
2486
100
AcDbXrecord
 70
     0
  0
XRECORD
  5
24A0
102
{ACAD_REACTORS
330
2486
102
}
330
2486
100
AcDbXrecord
340
0
  0
XRECORD
  5
24A1
102
{ACAD_REACTORS
330
2486
102
}
330
2486
100
AcDbXrecord
 10
0.0
 20
0.0
 30
0.0
  0
XRECORD
  5
24A2
102
{ACAD_REACTORS
330
2486
102
}
330
2486
100
AcDbXrecord
 10
0.0
 20
0.0
 30
0.0
  0
XRECORD
  5
24A3
102
{ACAD_REACTORS
330
2486
102
}
330
2486
100
AcDbXrecord
 10
0.0
 20
0.0
 30
0.0
  0
XRECORD
  5
24A4
102
{ACAD_REACTORS
330
2486
102
}
330
2486
100
AcDbXrecord
 10
0.0
 20
0.0
 30
0.0
  0
XRECORD
  5
24A5
102
{ACAD_REACTORS
330
2486
102
}
330
2486
100
AcDbXrecord
 10
0.0
 20
0.0
 30
0.0
  0
XRECORD
  5
24A6
102
{ACAD_REACTORS
330
2486
102
}
330
2486
100
AcDbXrecord
 10
0.0
 20
0.0
 30
0.0
  0
LAYER_INDEX
  5
247C
102
{ACAD_REACTORS
330
247B
102
}
330
247B
100
AcDbIndex
 40
2453151.688101654
100
AcDbLayerIndex
  8
0
360
247D
 90
        0
  8
AM_0
360
247E
 90
       52
  8
AM_7
360
247F
 90
        1
  8
AM_11
360
2480
 90
       33
  8
AM_5
360
2481
 90
        5
  8
Defpoints
360
2482
 90
        0
  8
AM_6
360
2483
 90
        1
  8
AM_CL
360
2484
 90
        0
  0
XRECORD
  5
2D
102
{ACAD_REACTORS
330
2C
102
}
330
2C
100
AcDbXrecord
  1
VERSION
140
15.0
  1
PRODUCT
  2
AutoCAD Mechanical 2000
  0
IDBUFFER
  5
247D
330
0
100
AcDbIdBuffer
  0
IDBUFFER
  5
247E
330
0
100
AcDbIdBuffer
330
22A8
330
22A9
330
22AA
330
22AB
330
C30
330
1B73
330
1B77
330
1B8A
330
1D7E
330
1D83
330
1D87
330
1E69
330
1E6A
330
212B
330
212C
330
212F
330
2130
330
2133
330
2134
330
2135
330
2136
330
213B
330
213C
330
2150
330
2151
330
2152
330
2153
330
2154
330
2158
330
215B
330
215C
330
215D
330
215E
330
215F
330
2160
330
2161
330
2162
330
2163
330
2164
330
2165
330
2176
330
229D
330
229E
330
229F
330
22A0
330
22A1
330
22A2
330
22A3
330
22A4
330
22A5
330
22A6
330
22A7
  0
IDBUFFER
  5
247F
330
0
100
AcDbIdBuffer
330
C9F
  0
IDBUFFER
  5
2480
330
0
100
AcDbIdBuffer
330
1C63
330
1C64
330
1C65
330
1C66
330
1C67
330
1C68
330
1C69
330
1C6A
330
1C6B
330
1C6C
330
1C6D
330
2137
330
2138
330
2139
330
213A
330
214B
330
214C
330
144A
330
144B
330
144E
330
144F
330
1450
330
1451
330
1452
330
1453
330
1454
330
18B8
330
18B9
330
18BA
330
18BB
330
1C60
330
1C61
330
1C62
  0
IDBUFFER
  5
2481
330
0
100
AcDbIdBuffer
330
CC6
330
1BC7
330
1F56
330
211C
330
2358
  0
IDBUFFER
  5
2482
330
0
100
AcDbIdBuffer
  0
IDBUFFER
  5
2483
330
0
100
AcDbIdBuffer
330
19BD
  0
IDBUFFER
  5
2484
330
0
100
AcDbIdBuffer
  0
ENDSEC
  0
EOF
