  0
SECTION
  2
HEADER
  9
$ACADVER
  1
AC1014
  9
$ACADMAINTVER
 70
     9
  9
$DWGCODEPAGE
  3
ANSI_932
  9
$INSBASE
 10
0.0
 20
0.0
 30
0.0
  9
$EXTMIN
 10
-78.94595986050544
 20
-19.75000718101111
 30
-0.00000001
  9
$EXTMAX
 10
14.62605454003733
 20
13.81684561790335
 30
0.00000001
  9
$LIMMIN
 10
-82.34037039394099
 20
-37.97145095443895
  9
$LIMMAX
 10
19.32151923811031
 20
24.34159145814783
  9
$ORTHOMODE
 70
     0
  9
$REGENMODE
 70
     1
  9
$FILLMODE
 70
     1
  9
$QTEXTMODE
 70
     0
  9
$MIRRTEXT
 70
     0
  9
$DRAGMODE
 70
     2
  9
$LTSCALE
 40
1.0
  9
$OSMODE
 70
    55
  9
$ATTMODE
 70
     1
  9
$TEXTSIZE
 40
2.5
  9
$TRACEWID
 40
1.0
  9
$TEXTSTYLE
  7
STANDARD
  9
$CLAYER
  8
AM_0
  9
$CELTYPE
  6
BYLAYER
  9
$CECOLOR
 62
   256
  9
$CELTSCALE
 40
1.0
  9
$DELOBJ
 70
     1
  9
$DISPSILH
 70
     0
  9
$DIMSCALE
 40
0.5
  9
$DIMASZ
 40
2.5
  9
$DIMEXO
 40
1.0
  9
$DIMDLI
 40
12.0
  9
$DIMRND
 40
0.0
  9
$DIMDLE
 40
0.0
  9
$DIMEXE
 40
1.0
  9
$DIMTP
 40
0.1
  9
$DIMTM
 40
0.1
  9
$DIMTXT
 40
3.2
  9
$DIMCEN
 40
0.0
  9
$DIMTSZ
 40
0.0
  9
$DIMTOL
 70
     0
  9
$DIMLIM
 70
     0
  9
$DIMTIH
 70
     0
  9
$DIMTOH
 70
     0
  9
$DIMSE1
 70
     0
  9
$DIMSE2
 70
     0
  9
$DIMTAD
 70
     3
  9
$DIMZIN
 70
     8
  9
$DIMBLK
  1
OPEN30
  9
$DIMASO
 70
     1
  9
$DIMSHO
 70
     1
  9
$DIMPOST
  1

  9
$DIMAPOST
  1
"
  9
$DIMALT
 70
     0
  9
$DIMALTD
 70
     2
  9
$DIMALTF
 40
0.0393701
  9
$DIMLFAC
 40
1.0
  9
$DIMTOFL
 70
     1
  9
$DIMTVP
 40
0.0
  9
$DIMTIX
 70
     0
  9
$DIMSOXD
 70
     0
  9
$DIMSAH
 70
     0
  9
$DIMBLK1
  1

  9
$DIMBLK2
  1

  9
$DIMSTYLE
  2
AM_JIS
  9
$DIMCLRD
 70
   256
  9
$DIMCLRE
 70
   256
  9
$DIMCLRT
 70
     2
  9
$DIMTFAC
 40
0.71
  9
$DIMGAP
 40
1.5
  9
$DIMJUST
 70
     0
  9
$DIMSD1
 70
     0
  9
$DIMSD2
 70
     0
  9
$DIMTOLJ
 70
     0
  9
$DIMTZIN
 70
     0
  9
$DIMALTZ
 70
     0
  9
$DIMALTTZ
 70
     0
  9
$DIMFIT
 70
     3
  9
$DIMUPT
 70
     0
  9
$DIMUNIT
 70
     2
  9
$DIMDEC
 70
     3
  9
$DIMTDEC
 70
     3
  9
$DIMALTU
 70
     2
  9
$DIMALTTD
 70
     2
  9
$DIMTXSTY
  7
ASAMI
  9
$DIMAUNIT
 70
     0
  9
$LUNITS
 70
     2
  9
$LUPREC
 70
     2
  9
$SKETCHINC
 40
1.0
  9
$FILLETRAD
 40
2.5
  9
$AUNITS
 70
     0
  9
$AUPREC
 70
     0
  9
$MENU
  1
.
  9
$ELEVATION
 40
0.0
  9
$PELEVATION
 40
0.0
  9
$THICKNESS
 40
0.0
  9
$LIMCHECK
 70
     0
  9
$BLIPMODE
 70
     0
  9
$CHAMFERA
 40
0.25
  9
$CHAMFERB
 40
0.25
  9
$CHAMFERC
 40
20.0
  9
$CHAMFERD
 40
0.0
  9
$SKPOLY
 70
     0
  9
$TDCREATE
 40
2452800.443498622
  9
$TDUPDATE
 40
2453151.576419617
  9
$TDINDWG
 40
0.0596952546
  9
$TDUSRTIMER
 40
0.0596952546
  9
$USRTIMER
 70
     1
  9
$ANGBASE
 50
0.0
  9
$ANGDIR
 70
     0
  9
$PDMODE
 70
     0
  9
$PDSIZE
 40
0.0
  9
$PLINEWID
 40
0.0
  9
$COORDS
 70
     1
  9
$SPLFRAME
 70
     0
  9
$SPLINETYPE
 70
     6
  9
$SPLINESEGS
 70
     8
  9
$ATTDIA
 70
     1
  9
$ATTREQ
 70
     1
  9
$HANDLING
 70
 12289
  9
$HANDSEED
  5
3161
  9
$SURFTAB1
 70
     6
  9
$SURFTAB2
 70
     6
  9
$SURFTYPE
 70
     6
  9
$SURFU
 70
     6
  9
$SURFV
 70
     6
  9
$UCSNAME
  2

  9
$UCSORG
 10
0.0
 20
0.0
 30
0.0
  9
$UCSXDIR
 10
1.0
 20
0.000000000000002
 30
0.0
  9
$UCSYDIR
 10
-0.000000000000002
 20
1.0
 30
0.0
  9
$PUCSNAME
  2

  9
$PUCSORG
 10
0.0
 20
0.0
 30
0.0
  9
$PUCSXDIR
 10
1.0
 20
0.0
 30
0.0
  9
$PUCSYDIR
 10
0.0
 20
1.0
 30
0.0
  9
$USERI1
 70
     0
  9
$USERI2
 70
     0
  9
$USERI3
 70
     0
  9
$USERI4
 70
     0
  9
$USERI5
 70
     0
  9
$USERR1
 40
0.0
  9
$USERR2
 40
0.0
  9
$USERR3
 40
0.0
  9
$USERR4
 40
0.0
  9
$USERR5
 40
0.0
  9
$WORLDVIEW
 70
     1
  9
$SHADEDGE
 70
     3
  9
$SHADEDIF
 70
    70
  9
$TILEMODE
 70
     1
  9
$MAXACTVP
 70
    64
  9
$PINSBASE
 10
0.0
 20
0.0
 30
0.0
  9
$PLIMCHECK
 70
     0
  9
$PEXTMIN
 10
1.000000000000000E+20
 20
1.000000000000000E+20
 30
1.000000000000000E+20
  9
$PEXTMAX
 10
-1.000000000000000E+20
 20
-1.000000000000000E+20
 30
-1.000000000000000E+20
  9
$PLIMMIN
 10
0.0
 20
0.0
  9
$PLIMMAX
 10
841.0
 20
594.0
  9
$UNITMODE
 70
     0
  9
$VISRETAIN
 70
     1
  9
$PLINEGEN
 70
     0
  9
$PSLTSCALE
 70
     0
  9
$TREEDEPTH
 70
  3020
  9
$PICKSTYLE
 70
     0
  9
$CMLSTYLE
  2
STANDARD
  9
$CMLJUST
 70
     0
  9
$CMLSCALE
 40
20.0
  9
$PROXYGRAPHICS
 70
     1
  9
$MEASUREMENT
 70
     1
  0
ENDSEC
  0
SECTION
  2
CLASSES
  0
CLASS
  1
ACDBDICTIONARYWDFLT
  2
AcDbDictionaryWithDefault
  3
AutoCAD 2000
 90
        0
280
     0
281
     0
  0
CLASS
  1
ACDBPLACEHOLDER
  2
AcDbPlaceHolder
  3
AutoCAD 2000
 90
        0
280
     0
281
     0
  0
CLASS
  1
LAYOUT
  2
AcDbLayout
  3
AutoCAD 2000
 90
        0
280
     0
281
     0
  0
CLASS
  1
AMGSETTINGSOBJ
  2
AmgSettingsObj
  3
"AcadM|Product Description: AutoCAD Mechanical 2000|Company: Autodesk"
 90
        0
280
     0
281
     0
  0
CLASS
  1
ACME_DOCUMENT
  2
AcMeDbDoc
  3
AcMeServices
 90
        0
280
     0
281
     0
  0
CLASS
  1
ACMESCOPE
  2
AcMeScope
  3
AcMeServices
 90
        0
280
     0
281
     0
  0
CLASS
  1
ACMECOMMANDHISTORY
  2
AcMeCommandHistory
  3
AcMeServices
 90
        0
280
     0
281
     0
  0
CLASS
  1
DICTIONARYVAR
  2
AcDbDictionaryVar
  3
AutoCAD 2000
 90
        0
280
     0
281
     0
  0
CLASS
  1
ACIMSYSVARMAN
  2
AcImSysVarManager
  3
AcMeServices
 90
        0
280
     0
281
     0
  0
CLASS
  1
ACIMREALSYSVAR
  2
AcImRealSysVar
  3
AcMeServices
 90
        0
280
     0
281
     0
  0
CLASS
  1
ACIMINTSYSVAR
  2
AcImIntSysVar
  3
AcMeServices
 90
        0
280
     0
281
     0
  0
CLASS
  1
ACMEDRAWINGMAN
  2
AcMeDrawingMan
  3
AcMeServices
 90
        0
280
     0
281
     0
  0
CLASS
  1
ACMEVIEW
  2
AcMeView
  3
AcMeServices
 90
        0
280
     0
281
     0
  0
CLASS
  1
ACDBENTITYCACHE
  2
AcMeEntityCache
  3
AcMeServices
 90
        0
280
     0
281
     0
  0
CLASS
  1
GSMANAGER
  2
AcMeGSManager
  3
AcMeServices
 90
        0
280
     0
281
     0
  0
CLASS
  1
AmdtInternalReactor
  2
AmdtInternalReactor
  3
AcMeServices
 90
        0
280
     0
281
     0
  0
CLASS
  1
ACMESTATEMGR
  2
AcMeStateMgr
  3
AcMeServices
 90
        0
280
     0
281
     0
  0
CLASS
  1
ACME_DATABASE
  2
AcMeDbDatabase
  3
AcMeServices
 90
        0
280
     0
281
     0
  0
CLASS
  1
ACRFINSADJUSTERMGR
  2
AcRfInsAdjusterMgr
  3
AcMeServices
 90
        0
280
     0
281
     0
  0
CLASS
  1
ACMDATADICTIONARY
  2
AcmDataDictionary
  3
"AcmSymBB|Product Description: AutoCAD Mechanical 2000|Company: Autodesk"
 90
        0
280
     0
281
     0
  0
CLASS
  1
ACMDATAENTRYBLOCK
  2
AcmDataEntryBlock
  3
"AcmSymBB|Product Description: AutoCAD Mechanical 2000|Company: Autodesk"
 90
        0
280
     0
281
     0
  0
CLASS
  1
AMGOBJPROPCFG
  2
AmgObjPropCfg
  3
"AmgLay|Product Description: AutoCAD Mechanical 2000|Company: Autodesk"
 90
        1
280
     0
281
     0
  0
CLASS
  1
ACAMGFILTERDAT
  2
AcAmgFilterDat
  3
"AcadM|Product Description: AutoCAD Mechanical 2000|Company: Autodesk"
 90
        0
280
     0
281
     0
  0
CLASS
  1
LAYER_INDEX
  2
AcDbLayerIndex
  3
AutoCAD 2000
 90
        0
280
     0
281
     0
  0
CLASS
  1
IDBUFFER
  2
AcDbIdBuffer
  3
AutoCAD 2000
 90
        0
280
     0
281
     0
  0
CLASS
  1
ACIMSTRSYSVAR
  2
AcImStrSysVar
  3
AcMeServices
 90
        0
280
     0
281
     0
  0
CLASS
  1
ACMSTANDARDJIS
  2
AcmStandardJIS
  3
"AcmSymBB|Product Description: AutoCAD Mechanical 2000|Company: Autodesk"
 90
        0
280
     0
281
     0
  0
CLASS
  1
ACMSURFSTANDARDJIS
  2
AcmSurfTextStdJIS
  3
"AcmSymBB|Product Description: AutoCAD Mechanical 2000|Company: Autodesk"
 90
        0
280
     0
281
     0
  0
CLASS
  1
ACMFCFSTANDARDJIS
  2
AcmFCFStdJIS
  3
"AcmSymBB|Product Description: AutoCAD Mechanical 2000|Company: Autodesk"
 90
        0
280
     0
281
     0
  0
CLASS
  1
ACMWELDSTANDARDJIS
  2
AcmWeldingStdJIS
  3
"AcmSymBB|Product Description: AutoCAD Mechanical 2000|Company: Autodesk"
 90
        0
280
     0
281
     0
  0
CLASS
  1
ACMIDSTANDARDJIS
  2
AcmIdStdJIS
  3
"AcmSymBB|Product Description: AutoCAD Mechanical 2000|Company: Autodesk"
 90
        0
280
     0
281
     0
  0
CLASS
  1
ACMDATUMSTANDARDJIS
  2
AcmDatumStdJIS
  3
"AcmSymBB|Product Description: AutoCAD Mechanical 2000|Company: Autodesk"
 90
        0
280
     0
281
     0
  0
CLASS
  1
ACMBOMSTANDARDJIS
  2
AcmBOMStdJIS
  3
"AcmSymBB|Product Description: AutoCAD Mechanical 2000|Company: Autodesk"
 90
        0
280
     0
281
     0
  0
CLASS
  1
ACMSTANDARDANSI
  2
AcmStandardANSI
  3
"AcmSymBB|Product Description: AutoCAD Mechanical 2000|Company: Autodesk"
 90
        0
280
     0
281
     0
  0
CLASS
  1
ACMSURFSTANDARDANSI
  2
AcmSurfTextStdANSI
  3
"AcmSymBB|Product Description: AutoCAD Mechanical 2000|Company: Autodesk"
 90
        0
280
     0
281
     0
  0
CLASS
  1
ACMFCFSTANDARDANSI
  2
AcmFCFStdANSI
  3
"AcmSymBB|Product Description: AutoCAD Mechanical 2000|Company: Autodesk"
 90
        0
280
     0
281
     0
  0
CLASS
  1
ACMWELDSTANDARDANSI
  2
AcmWeldingStdANSI
  3
"AcmSymBB|Product Description: AutoCAD Mechanical 2000|Company: Autodesk"
 90
        0
280
     0
281
     0
  0
CLASS
  1
ACMIDSTANDARDANSI
  2
AcmIdStdANSI
  3
"AcmSymBB|Product Description: AutoCAD Mechanical 2000|Company: Autodesk"
 90
        0
280
     0
281
     0
  0
CLASS
  1
ACMDATUMSTANDARDANSI
  2
AcmDatumStdANSI
  3
"AcmSymBB|Product Description: AutoCAD Mechanical 2000|Company: Autodesk"
 90
        0
280
     0
281
     0
  0
CLASS
  1
ACMBOMSTANDARDANSI
  2
AcmBOMStdANSI
  3
"AcmSymBB|Product Description: AutoCAD Mechanical 2000|Company: Autodesk"
 90
        0
280
     0
281
     0
  0
CLASS
  1
ACMSTANDARDBSI
  2
AcmStandardBSI
  3
"AcmSymBB|Product Description: AutoCAD Mechanical 2000|Company: Autodesk"
 90
        0
280
     0
281
     0
  0
CLASS
  1
ACMSURFSTANDARDBSI
  2
AcmSurfTextStdBSI
  3
"AcmSymBB|Product Description: AutoCAD Mechanical 2000|Company: Autodesk"
 90
        0
280
     0
281
     0
  0
CLASS
  1
ACMFCFSTANDARDBSI
  2
AcmFCFStdBSI
  3
"AcmSymBB|Product Description: AutoCAD Mechanical 2000|Company: Autodesk"
 90
        0
280
     0
281
     0
  0
CLASS
  1
ACMWELDSTANDARDBSI
  2
AcmWeldingStdBSI
  3
"AcmSymBB|Product Description: AutoCAD Mechanical 2000|Company: Autodesk"
 90
        0
280
     0
281
     0
  0
CLASS
  1
ACMIDSTANDARDBSI
  2
AcmIdStdBSI
  3
"AcmSymBB|Product Description: AutoCAD Mechanical 2000|Company: Autodesk"
 90
        0
280
     0
281
     0
  0
CLASS
  1
ACMDATUMSTANDARDBSI
  2
AcmDatumStdBSI
  3
"AcmSymBB|Product Description: AutoCAD Mechanical 2000|Company: Autodesk"
 90
        0
280
     0
281
     0
  0
CLASS
  1
ACMBOMSTANDARDBSI
  2
AcmBOMStdBSI
  3
"AcmSymBB|Product Description: AutoCAD Mechanical 2000|Company: Autodesk"
 90
        0
280
     0
281
     0
  0
CLASS
  1
LONG_TRANSACTION
  2
AcDbLongTransaction
  3
AutoCAD 2000
 90
        0
280
     0
281
     0
  0
CLASS
  1
LWPOLYLINE
  2
AcDbPolyline
  3
AutoCAD 2000
 90
        0
280
     0
281
     1
  0
CLASS
  1
HATCH
  2
AcDbHatch
  3
AutoCAD 2000
 90
        0
280
     0
281
     1
  0
CLASS
  1
XRECORD
  2
AcDbXrecord
  3
AutoCAD 2000
 90
        0
280
     0
281
     0
  0
ENDSEC
  0
SECTION
  2
TABLES
  0
TABLE
  2
VPORT
  5
8
330
0
100
AcDbSymbolTable
 70
     3
  0
VPORT
  5
312B
330
8
100
AcDbSymbolTableRecord
100
AcDbViewportTableRecord
  2
*ACTIVE
 70
     0
 10
0.0
 20
0.0
 11
1.0
 21
1.0
 12
-30.409731825355
 22
-2.966580781553883
 13
0.0
 23
0.0
 14
2.5
 24
2.5
 15
10.0
 25
10.0
 16
0.0
 26
0.0
 36
1.0
 17
0.0
 27
0.0
 37
0.0
 40
62.29636853977062
 41
1.56570841889117
 42
50.0
 43
0.0
 44
0.0
 50
0.0
 51
0.0
 71
     0
 72
   100
 73
     1
 74
     1
 75
     0
 76
     0
 77
     0
 78
     0
  0
ENDTAB
  0
TABLE
  2
LTYPE
  5
5
330
0
100
AcDbSymbolTable
 70
    10
  0
LTYPE
  5
14
330
5
100
AcDbSymbolTableRecord
100
AcDbLinetypeTableRecord
  2
BYBLOCK
 70
     0
  3

 72
    65
 73
     0
 40
0.0
  0
LTYPE
  5
15
330
5
100
AcDbSymbolTableRecord
100
AcDbLinetypeTableRecord
  2
BYLAYER
 70
     0
  3

 72
    65
 73
     0
 40
0.0
  0
LTYPE
  5
16
330
5
100
AcDbSymbolTableRecord
100
AcDbLinetypeTableRecord
  2
CONTINUOUS
 70
     0
  3
Solid line
 72
    65
 73
     0
 40
0.0
  0
LTYPE
  5
4B
330
5
100
AcDbSymbolTableRecord
100
AcDbLinetypeTableRecord
  2
AM_ISO02W050
 70
     0
  3
__ __ __ __ __ __ __ __ __ __ __ __ __ __ __
 72
    65
 73
     2
 40
7.5
 49
6.0
 74
     0
 49
-1.5
 74
     0
  0
LTYPE
  5
4C
330
5
100
AcDbSymbolTableRecord
100
AcDbLinetypeTableRecord
  2
AM_ISO08W050
 70
     0
  3
____ . ____ . ____ . ____ . ____ . ____ . ____
 72
    65
 73
     4
 40
18.0
 49
12.0
 74
     0
 49
-1.5
 74
     0
 49
3.0
 74
     0
 49
-1.5
 74
     0
  0
LTYPE
  5
4D
330
5
100
AcDbSymbolTableRecord
100
AcDbLinetypeTableRecord
  2
AM_ISO09W050
 70
     0
  3
_____ . . _____ . . _____ . . ____ .. ____
 72
    65
 73
     6
 40
22.5
 49
12.0
 74
     0
 49
-1.5
 74
     0
 49
3.0
 74
     0
 49
-1.5
 74
     0
 49
3.0
 74
     0
 49
-1.5
 74
     0
  0
LTYPE
  5
4E
330
5
100
AcDbSymbolTableRecord
100
AcDbLinetypeTableRecord
  2
AMCONSTR
 70
     0
  3
_______________________
 72
    65
 73
     2
 40
9999.0
 49
9999.0
 74
     0
 49
0.0
 74
     0
  0
LTYPE
  5
4F
330
5
100
AcDbSymbolTableRecord
100
AcDbLinetypeTableRecord
  2
AM_ISO02W050X2
 70
     0
  3
 _ _ _ _ _ _ _ _ _ _ _ _
 72
    65
 73
     2
 40
3.75
 49
3.0
 74
     0
 49
-0.75
 74
     0
  0
LTYPE
  5
50
330
5
100
AcDbSymbolTableRecord
100
AcDbLinetypeTableRecord
  2
AM_ISO08W050X2
 70
     0
  3
__ . __ . __ . __ . __ . __
 72
    65
 73
     4
 40
9.0
 49
6.0
 74
     0
 49
-0.75
 74
     0
 49
1.5
 74
     0
 49
-0.75
 74
     0
  0
LTYPE
  5
53
330
5
100
AcDbSymbolTableRecord
100
AcDbLinetypeTableRecord
  2
AMZIGZAG
 70
     0
  3
/\/-/\/-/\/-/\/-/\/-/\/
 72
    65
 73
     2
 40
11.00009999999999
 49
0.0001
 74
     4
 75
   135
340
52
 46
0.04
 50
0.0
 44
0.0
 45
0.0
 49
-11.0
 74
     0
  0
LTYPE
  5
166
330
5
100
AcDbSymbolTableRecord
100
AcDbLinetypeTableRecord
  2
ACJISTGL
 70
     0
  3
_ _ _ _ _
 72
    65
 73
     2
 40
3.0
 49
2.0
 74
     0
 49
-1.0
 74
     0
  0
LTYPE
  5
26A
330
5
100
AcDbSymbolTableRecord
100
AcDbLinetypeTableRecord
  2
ACJISTGB
 70
     0
  3
__ . . __ . .
 72
    65
 73
     6
 40
9.0
 49
4.0
 74
     0
 49
-1.0
 74
     0
 49
1.0
 74
     0
 49
-1.0
 74
     0
 49
1.0
 74
     0
 49
-1.0
 74
     0
  0
ENDTAB
  0
TABLE
  2
LAYER
  5
2
330
0
100
AcDbSymbolTable
 70
     8
  0
LAYER
  5
10
330
2
100
AcDbSymbolTableRecord
100
AcDbLayerTableRecord
  2
0
 70
     0
 62
     7
  6
CONTINUOUS
  0
LAYER
  5
3F9
330
2
100
AcDbSymbolTableRecord
100
AcDbLayerTableRecord
  2
AM_0
 70
     0
 62
     7
  6
CONTINUOUS
  0
LAYER
  5
C7C
330
2
100
AcDbSymbolTableRecord
100
AcDbLayerTableRecord
  2
AM_7
 70
     0
 62
     4
  6
AM_ISO08W050
  0
LAYER
  5
C97
330
2
100
AcDbSymbolTableRecord
100
AcDbLayerTableRecord
  2
AM_11
 70
     0
 62
     3
  6
AM_ISO09W050
  0
LAYER
  5
CC5
330
2
100
AcDbSymbolTableRecord
100
AcDbLayerTableRecord
  2
AM_5
 70
     0
 62
     3
  6
CONTINUOUS
  0
LAYER
  5
CC7
330
2
100
AcDbSymbolTableRecord
100
AcDbLayerTableRecord
  2
DEFPOINTS
 70
     0
 62
     7
  6
CONTINUOUS
  0
LAYER
  5
19BC
330
2
100
AcDbSymbolTableRecord
100
AcDbLayerTableRecord
  2
AM_6
 70
     0
 62
     2
  6
CONTINUOUS
  0
LAYER
  5
30DE
330
2
100
AcDbSymbolTableRecord
100
AcDbLayerTableRecord
  2
AM_CL
 70
     0
 62
     1
  6
AMCONSTR
  0
ENDTAB
  0
TABLE
  2
STYLE
  5
3
330
0
100
AcDbSymbolTable
 70
     5
  0
STYLE
  5
11
330
3
100
AcDbSymbolTableRecord
100
AcDbTextStyleTableRecord
  2
STANDARD
 70
     0
 40
0.0
 41
1.0
 50
0.0
 71
     0
 42
2.5
  3
simplex.shx
  4
EXTFONT.SHX
  0
STYLE
  5
52
330
3
100
AcDbSymbolTableRecord
100
AcDbTextStyleTableRecord
  2

 70
     1
 40
0.0
 41
1.0
 50
0.0
 71
     0
 42
2.5
  3
ltypeshp.shx
  4

  0
STYLE
  5
6B
330
3
100
AcDbSymbolTableRecord
100
AcDbTextStyleTableRecord
  2
ASAMI
 70
     0
 40
0.0
 41
1.0
 50
0.0
 71
     0
 42
2.5
  3
simplex.shx
  4
EXTFONT.SHX
  0
STYLE
  5
262
330
3
100
AcDbSymbolTableRecord
100
AcDbTextStyleTableRecord
  2
ACJISTS
 70
     0
 40
1.0
 41
1.0
 50
0.0
 71
     0
 42
2.5
  3
simplex.shx
  4
bigfont.shx
  0
STYLE
  5
269
330
3
100
AcDbSymbolTableRecord
100
AcDbTextStyleTableRecord
  2
ACJISGDT
 70
     0
 40
0.0
 41
1.0
 50
0.0
 71
     0
 42
2.5
  3
amgdtans.shx
  4

  0
ENDTAB
  0
TABLE
  2
VIEW
  5
6
330
0
100
AcDbSymbolTable
 70
     0
  0
ENDTAB
  0
TABLE
  2
UCS
  5
7
330
0
100
AcDbSymbolTable
 70
     0
  0
ENDTAB
  0
TABLE
  2
APPID
  5
9
330
0
100
AcDbSymbolTable
 70
    18
  0
APPID
  5
12
330
9
100
AcDbSymbolTableRecord
100
AcDbRegAppTableRecord
  2
ACAD
 70
     0
  0
APPID
  5
30
330
9
100
AcDbSymbolTableRecord
100
AcDbRegAppTableRecord
  2
MCAD_NO_VIS
 70
     0
  0
APPID
  5
31
330
9
100
AcDbSymbolTableRecord
100
AcDbRegAppTableRecord
  2
ACAD_TEMP_GRAPHIC
 70
     0
  0
APPID
  5
2C2
330
9
100
AcDbSymbolTableRecord
100
AcDbRegAppTableRecord
  2
GENIUS_GENDTOL_13
 70
     0
  0
APPID
  5
339
330
9
100
AcDbSymbolTableRecord
100
AcDbRegAppTableRecord
  2
GENIUS_GENODEF_13
 70
     0
  0
APPID
  5
33A
330
9
100
AcDbSymbolTableRecord
100
AcDbRegAppTableRecord
  2
GENIUS_GENOBJ-N-RSBK_13
 70
     0
  0
APPID
  5
33B
330
9
100
AcDbSymbolTableRecord
100
AcDbRegAppTableRecord
  2
GENIUS_GENOBJ-N-LIB_13
 70
     0
  0
APPID
  5
33C
330
9
100
AcDbSymbolTableRecord
100
AcDbRegAppTableRecord
  2
GENIUS_GENSCALE_13
 70
     0
  0
APPID
  5
378
330
9
100
AcDbSymbolTableRecord
100
AcDbRegAppTableRecord
  2
GENIUS_GENDIMSH_14
 70
     0
  0
APPID
  5
C82
330
9
100
AcDbSymbolTableRecord
100
AcDbRegAppTableRecord
  2
GENIUS_GENOBJ-N-CRS_13
 70
     0
  0
APPID
  5
C83
330
9
100
AcDbSymbolTableRecord
100
AcDbRegAppTableRecord
  2
GENIUS_GENOENT_13
 70
     0
  0
APPID
  5
C84
330
9
100
AcDbSymbolTableRecord
100
AcDbRegAppTableRecord
  2
GENIUS_GENOREF_13
 70
     0
  0
APPID
  5
C85
330
9
100
AcDbSymbolTableRecord
100
AcDbRegAppTableRecord
  2
GENIUS_GENOLIS_13
 70
     0
  0
APPID
  5
CA0
330
9
100
AcDbSymbolTableRecord
100
AcDbRegAppTableRecord
  2
GENIUS_GENOBJ-N-CEN_13
 70
     0
  0
APPID
  5
1B5D
330
9
100
AcDbSymbolTableRecord
100
AcDbRegAppTableRecord
  2
GENIUS_GENFIL_13
 70
     0
  0
APPID
  5
1B5E
330
9
100
AcDbSymbolTableRecord
100
AcDbRegAppTableRecord
  2
GENIUS_GENOBJ-N-CHA_13
 70
     0
  0
APPID
  5
1FBC
330
9
100
AcDbSymbolTableRecord
100
AcDbRegAppTableRecord
  2
GENIUS_GENREC_14
 70
     0
  0
APPID
  5
1FBD
330
9
100
AcDbSymbolTableRecord
100
AcDbRegAppTableRecord
  2
GENIUS_GENOBJ-N-REC_13
 70
     0
  0
ENDTAB
  0
TABLE
  2
DIMSTYLE
  5
A
330
0
100
AcDbSymbolTable
 70
     9
  0
DIMSTYLE
105
58
330
A
100
AcDbSymbolTableRecord
100
AcDbDimStyleTableRecord
  2
AM_JIS
 70
     0
  3

  4
"
  5
OPEN30
  6

  7

 40
0.5
 41
2.5
 42
1.0
 43
12.0
 44
1.0
 45
0.0
 46
0.0
 47
0.1
 48
0.1
140
3.2
141
0.0
142
0.0
143
0.0393701
144
1.0
145
0.0
146
0.71
147
1.5
 71
     0
 72
     0
 73
     0
 74
     0
 75
     0
 76
     0
 77
     3
 78
     8
170
     0
171
     2
172
     1
173
     0
174
     0
175
     0
176
   256
177
   256
178
     2
270
     2
271
     3
272
     3
273
     2
274
     2
340
6B
275
     0
280
     0
281
     0
282
     0
283
     0
284
     0
285
     0
286
     0
287
     3
288
     0
  0
DIMSTYLE
105
5F
330
A
100
AcDbSymbolTableRecord
100
AcDbDimStyleTableRecord
  2
AM_JIS$3
 70
     0
  3

  4
"
  5
OPEN30
  6

  7

 40
0.5
 41
2.5
 42
1.0
 43
10.0
 44
1.0
 45
0.0
 46
0.0
 47
0.1
 48
0.1
140
3.2
141
0.0
142
0.0
143
0.0393701
144
1.0
145
0.0
146
0.71
147
1.5
 71
     0
 72
     0
 73
     0
 74
     1
 75
     0
 76
     0
 77
     3
 78
     8
170
     0
171
     2
172
     0
173
     0
174
     0
175
     0
176
   256
177
   256
178
     2
270
     2
271
     2
272
     3
273
     2
274
     2
340
6B
275
     0
280
     0
281
     0
282
     0
283
     0
284
     0
285
     0
286
     0
287
     0
288
     1
  0
DIMSTYLE
105
60
330
A
100
AcDbSymbolTableRecord
100
AcDbDimStyleTableRecord
  2
AM_JIS$4
 70
     0
  3

  4
"
  5
OPEN30
  6

  7

 40
0.5
 41
2.5
 42
1.0
 43
10.0
 44
1.0
 45
0.0
 46
0.0
 47
0.1
 48
0.1
140
3.2
141
0.0
142
0.0
143
0.0393701
144
1.0
145
0.0
146
0.71
147
1.5
 71
     0
 72
     0
 73
     0
 74
     1
 75
     0
 76
     0
 77
     3
 78
     8
170
     0
171
     2
172
     0
173
     0
174
     0
175
     0
176
   256
177
   256
178
     2
270
     2
271
     2
272
     3
273
     2
274
     2
340
6B
275
     0
280
     0
281
     0
282
     0
283
     0
284
     0
285
     0
286
     0
287
     0
288
     1
  0
DIMSTYLE
105
61
330
A
100
AcDbSymbolTableRecord
100
AcDbDimStyleTableRecord
  2
AM_JIS$6
 70
     0
  3

  4
"
  5
OPEN30
  6

  7

 40
0.5
 41
2.5
 42
1.0
 43
10.0
 44
1.0
 45
0.0
 46
0.0
 47
0.1
 48
0.1
140
3.2
141
0.0
142
0.0
143
0.0393701
144
1.0
145
0.0
146
0.71
147
1.5
 71
     0
 72
     0
 73
     0
 74
     0
 75
     0
 76
     0
 77
     0
 78
     8
170
     0
171
     2
172
     1
173
     0
174
     0
175
     0
176
   256
177
   256
178
     2
270
     2
271
     2
272
     2
273
     2
274
     2
340
6B
275
     0
280
     0
281
     0
282
     0
283
     0
284
     0
285
     0
286
     0
287
     3
288
     0
  0
DIMSTYLE
105
62
330
A
100
AcDbSymbolTableRecord
100
AcDbDimStyleTableRecord
  2
AM_JIS$7
 70
     0
  3

  4
"
  5
OPEN30
  6

  7

 40
0.5
 41
2.5
 42
1.0
 43
10.0
 44
1.0
 45
0.0
 46
0.0
 47
0.1
 48
0.1
140
3.2
141
0.0
142
0.0
143
0.0393701
144
1.0
145
0.0
146
0.71
147
1.5
 71
     0
 72
     0
 73
     0
 74
     0
 75
     0
 76
     0
 77
     3
 78
     8
170
     0
171
     2
172
     1
173
     0
174
     0
175
     0
176
   256
177
   256
178
     2
270
     2
271
     2
272
     3
273
     2
274
     2
340
6B
275
     0
280
     0
281
     0
282
     0
283
     0
284
     0
285
     0
286
     0
287
     3
288
     0
  0
DIMSTYLE
105
63
330
A
100
AcDbSymbolTableRecord
100
AcDbDimStyleTableRecord
  2
AM_JIS$SF
 70
     0
  3

  4
"
  5
OPEN30
  6

  7

 40
0.5
 41
2.5
 42
1.0
 43
10.0
 44
1.0
 45
0.0
 46
0.0
 47
0.1
 48
0.1
140
3.2
141
0.0
142
0.0
143
0.0393701
144
1.0
145
0.0
146
0.71
147
1.5
 71
     0
 72
     0
 73
     0
 74
     0
 75
     1
 76
     1
 77
     3
 78
     8
170
     0
171
     2
172
     1
173
     0
174
     0
175
     0
176
   256
177
   256
178
     2
270
     2
271
     2
272
     2
273
     2
274
     2
340
6B
275
     0
280
     0
281
     0
282
     0
283
     0
284
     0
285
     0
286
     0
287
     3
288
     0
  0
DIMSTYLE
105
68
330
A
100
AcDbSymbolTableRecord
100
AcDbDimStyleTableRecord
  2
AM_JIS$SH
 70
     0
  3

  4
"
  5

  6
GENAXEH
  7
OPEN30
 40
0.5
 41
2.5
 42
1.0
 43
10.0
 44
1.0
 45
0.0
 46
0.0
 47
0.1
 48
0.1
140
3.2
141
0.0
142
0.0
143
0.0393701
144
2.0
145
0.0
146
0.71
147
1.5
 71
     0
 72
     0
 73
     0
 74
     0
 75
     1
 76
     1
 77
     3
 78
     8
170
     0
171
     2
172
     1
173
     1
174
     0
175
     0
176
   256
177
   256
178
     2
270
     2
271
     2
272
     2
273
     2
274
     2
340
6B
275
     0
280
     0
281
     0
282
     0
283
     0
284
     0
285
     0
286
     0
287
     3
288
     0
  0
DIMSTYLE
105
B34
102
{ACAD_REACTORS
330
2C50
102
}
330
A
100
AcDbSymbolTableRecord
100
AcDbDimStyleTableRecord
  2
AM_JIS$2
 70
     0
  3

  4
"
  5
OPEN30
  6

  7

 40
0.5
 41
2.5
 42
1.0
 43
12.0
 44
1.0
 45
0.0
 46
0.0
 47
0.1
 48
0.1
140
3.2
141
0.0
142
0.0
143
0.0393701
144
1.0
145
0.0
146
0.71
147
1.5
 71
     0
 72
     0
 73
     0
 74
     0
 75
     0
 76
     0
 77
     3
 78
     8
170
     0
171
     2
172
     1
173
     0
174
     0
175
     0
176
   256
177
   256
178
     2
270
     2
271
     3
272
     3
273
     2
274
     2
340
6B
275
     0
280
     0
281
     0
282
     0
283
     0
284
     0
285
     0
286
     0
287
     3
288
     0
  0
DIMSTYLE
105
BA5
102
{ACAD_REACTORS
330
CC6
330
1DEF
330
1C71
102
}
330
A
100
AcDbSymbolTableRecord
100
AcDbDimStyleTableRecord
  2
AM_JIS$0
 70
     0
  3

  4
"
  5
OPEN30
  6

  7

 40
0.5
 41
2.5
 42
0.0
 43
10.0
 44
1.0
 45
0.0
 46
0.0
 47
0.1
 48
0.1000000001
140
3.799999999999999
141
0.0
142
0.0
143
0.0393701
144
1.0
145
0.0
146
0.71
147
1.5
 71
     0
 72
     0
 73
     0
 74
     0
 75
     0
 76
     0
 77
     3
 78
     1
170
     0
171
     2
172
     1
173
     0
174
     0
175
     0
176
     3
177
     3
178
     2
270
     2
271
     2
272
     2
273
     2
274
     2
340
11
275
     1
280
     0
281
     0
282
     0
283
     0
284
     8
285
     0
286
     0
287
     0
288
     0
  0
ENDTAB
  0
TABLE
  2
BLOCK_RECORD
  5
1
330
0
100
AcDbSymbolTable
 70
     9
  0
BLOCK_RECORD
  5
1F
102
{ACAD_XDICTIONARY
360
74
102
}
330
1
100
AcDbSymbolTableRecord
100
AcDbBlockTableRecord
  2
*MODEL_SPACE
  0
BLOCK_RECORD
  5
101
102
{ACAD_XDICTIONARY
360
3154
102
}
330
1
100
AcDbSymbolTableRecord
100
AcDbBlockTableRecord
  2
*PAPER_SPACE
  0
BLOCK_RECORD
  5
59
330
1
100
AcDbSymbolTableRecord
100
AcDbBlockTableRecord
  2
_OPEN30
  0
BLOCK_RECORD
  5
64
330
1
100
AcDbSymbolTableRecord
100
AcDbBlockTableRecord
  2
GENAXEH
  0
BLOCK_RECORD
  5
CC8
330
1
100
AcDbSymbolTableRecord
100
AcDbBlockTableRecord
  2
*D5
  0
BLOCK_RECORD
  5
1C72
330
1
100
AcDbSymbolTableRecord
100
AcDbBlockTableRecord
  2
*D6
  0
BLOCK_RECORD
  5
1DF0
330
1
100
AcDbSymbolTableRecord
100
AcDbBlockTableRecord
  2
*D7
  0
BLOCK_RECORD
  5
2C51
330
1
100
AcDbSymbolTableRecord
100
AcDbBlockTableRecord
  2
*D8
  0
ENDTAB
  0
ENDSEC
  0
SECTION
  2
BLOCKS
  0
BLOCK
  5
20
330
1F
100
AcDbEntity
  8
0
100
AcDbBlockBegin
  2
*MODEL_SPACE
 70
     0
 10
0.0
 20
0.0
 30
0.0
  3
*MODEL_SPACE
  1

  0
ENDBLK
  5
21
330
1F
100
AcDbEntity
  8
0
100
AcDbBlockEnd
  0
BLOCK
  5
103
330
101
100
AcDbEntity
 67
     1
  8
0
100
AcDbBlockBegin
  2
*PAPER_SPACE
 70
     0
 10
0.0
 20
0.0
 30
0.0
  3
*PAPER_SPACE
  1

  0
ENDBLK
  5
104
330
101
100
AcDbEntity
 67
     1
  8
0
100
AcDbBlockEnd
  0
BLOCK
  5
5D
330
59
100
AcDbEntity
  8
0
100
AcDbBlockBegin
  2
_OPEN30
 70
     0
 10
0.0
 20
0.0
 30
0.0
  3
_OPEN30
  1

  0
LINE
  5
5A
330
59
100
AcDbEntity
  8
0
 62
     0
100
AcDbLine
 10
-1.0
 20
0.26794919
 30
0.0
 11
0.0
 21
0.0
 31
0.0
  0
LINE
  5
5B
330
59
100
AcDbEntity
  8
0
 62
     0
100
AcDbLine
 10
0.0
 20
0.0
 30
0.0
 11
-1.0
 21
-0.26794919
 31
0.0
  0
LINE
  5
5C
330
59
100
AcDbEntity
  8
0
 62
     0
100
AcDbLine
 10
0.0
 20
0.0
 30
0.0
 11
-1.0
 21
0.0
 31
0.0
  0
ENDBLK
  5
5E
330
59
100
AcDbEntity
  8
0
100
AcDbBlockEnd
  0
BLOCK
  5
66
330
64
100
AcDbEntity
  8
0
100
AcDbBlockBegin
  2
GENAXEH
 70
     0
 10
0.0
 20
0.0
 30
0.0
  3
GENAXEH
  1

  0
LINE
  5
65
330
64
100
AcDbEntity
  8
0
100
AcDbLine
 10
-1.0
 20
0.0
 30
0.0
 11
1.0
 21
0.0
 31
0.0
  0
ENDBLK
  5
67
330
64
100
AcDbEntity
  8
0
100
AcDbBlockEnd
  0
BLOCK
  5
CD2
330
CC8
100
AcDbEntity
  8
0
100
AcDbBlockBegin
  2
*D5
 70
     1
 10
0.0
 20
0.0
 30
0.0
  3
*D5
  1

  0
LINE
  5
30A2
330
CC8
100
AcDbEntity
  8
AM_5
 62
     3
100
AcDbLine
 10
-68.54595851898202
 20
-1.250006209471274
 30
0.0
 11
-68.54595851898202
 21
-9.000007181011087
 31
0.0
  0
LINE
  5
30A3
330
CC8
100
AcDbEntity
  8
AM_5
 62
     3
100
AcDbLine
 10
-0.5459547042847791
 20
-1.499999240104765
 30
0.0
 11
-0.5459547042847796
 21
-9.000007181011087
 31
0.0
  0
LINE
  5
30A4
330
CC8
100
AcDbEntity
  8
AM_5
 62
     3
100
AcDbLine
 10
-67.29595851898202
 20
-8.500007181011087
 30
0.0
 11
-1.795954704284779
 21
-8.500007181011087
 31
0.0
  0
INSERT
  5
30A5
330
CC8
100
AcDbEntity
  8
AM_5
 62
     3
100
AcDbBlockReference
  2
_OPEN30
 10
-68.54595851898202
 20
-8.500007181011087
 30
0.0
 41
1.25
 42
1.25
 43
1.25
 50
180.0
  0
INSERT
  5
30A6
330
CC8
100
AcDbEntity
  8
AM_5
 62
     3
100
AcDbBlockReference
  2
_OPEN30
 10
-0.5459547042847796
 20
-8.500007181011087
 30
0.0
 41
1.25
 42
1.25
 43
1.25
  0
MTEXT
  5
30A7
330
CC8
100
AcDbEntity
  8
AM_5
 62
     2
100
AcDbMText
 10
-34.5459566116334
 20
-6.800007181011086
 30
0.0
 40
1.9
 41
0.0
 71
     5
 72
     1
  1
68
1001
ACAD
1000
MTEXTBEGIN
1070
    73
1070
     1
1070
    44
1040
1.0
1070
    74
1070
     0
1000
MTEXTEND
  0
POINT
  5
30A8
330
CC8
100
AcDbEntity
  8
DEFPOINTS
 62
     0
100
AcDbPoint
 10
-68.54595851898202
 20
-1.250006209471274
 30
0.0
  0
POINT
  5
30A9
330
CC8
100
AcDbEntity
  8
DEFPOINTS
 62
     0
100
AcDbPoint
 10
-0.5459547042847791
 20
-1.499999240104765
 30
0.0
  0
POINT
  5
30AA
330
CC8
100
AcDbEntity
  8
DEFPOINTS
 62
     0
100
AcDbPoint
 10
-0.5459547042847796
 20
-8.500007181011087
 30
0.0
  0
ENDBLK
  5
CD3
330
CC8
100
AcDbEntity
  8
0
100
AcDbBlockEnd
  0
BLOCK
  5
1C7E
330
1C72
100
AcDbEntity
  8
0
100
AcDbBlockBegin
  2
*D6
 70
     1
 10
0.0
 20
0.0
 30
0.0
  3
*D6
  1

  0
LINE
  5
3095
330
1C72
100
AcDbEntity
  8
AM_5
 62
     3
100
AcDbLine
 10
-0.5459547042847791
 20
-1.499999240104765
 30
0.0
 11
8.250001097479479
 21
-1.499999240104767
 31
0.0
  0
LINE
  5
3096
330
1C72
100
AcDbEntity
  8
AM_5
 62
     3
100
AcDbLine
 10
-0.5459547042847614
 20
1.500000759895233
 30
0.0
 11
8.250001097479477
 21
1.500000759895231
 31
0.0
  0
LINE
  5
3097
330
1C72
100
AcDbEntity
  8
AM_5
 62
     3
100
AcDbLine
 10
7.750001097479477
 20
-2.749999240104767
 30
0.0
 11
7.750001097479477
 21
-3.999999240104767
 31
0.0
  0
LINE
  5
3098
330
1C72
100
AcDbEntity
  8
AM_5
 62
     3
100
AcDbLine
 10
7.750001097479479
 20
2.750000759895231
 30
0.0
 11
7.75000109747948
 21
8.485715045609516
 31
0.0
  0
LINE
  5
3099
330
1C72
100
AcDbEntity
  8
AM_5
 62
     3
100
AcDbLine
 10
7.750001097479478
 20
-1.499999240104767
 30
0.0
 11
7.750001097479478
 21
1.500000759895231
 31
0.0
  0
INSERT
  5
309A
330
1C72
100
AcDbEntity
  8
AM_5
 62
     3
100
AcDbBlockReference
  2
_OPEN30
 10
7.750001097479478
 20
-1.499999240104767
 30
0.0
 41
1.25
 42
1.25
 43
1.25
 50
90.0
  0
INSERT
  5
309B
330
1C72
100
AcDbEntity
  8
AM_5
 62
     3
100
AcDbBlockReference
  2
_OPEN30
 10
7.750001097479478
 20
1.500000759895231
 30
0.0
 41
1.25
 42
1.25
 43
1.25
 50
270.0
  0
MTEXT
  5
309C
330
1C72
100
AcDbEntity
  8
AM_5
 62
     2
100
AcDbMText
 10
6.050001097479478
 20
6.242857902752375
 30
0.0
 40
1.9
 41
0.0
 71
     5
 72
     1
  1
%%c3
 11
0.0000000000000001
 21
1.0
 31
0.0
1001
ACAD
1000
MTEXTBEGIN
1070
    73
1070
     1
1070
    44
1040
1.0
1070
    74
1070
     0
1000
MTEXTEND
  0
POINT
  5
309D
330
1C72
100
AcDbEntity
  8
DEFPOINTS
 62
     0
100
AcDbPoint
 10
-0.5459547042847791
 20
-1.499999240104765
 30
0.0
  0
POINT
  5
309E
330
1C72
100
AcDbEntity
  8
DEFPOINTS
 62
     0
100
AcDbPoint
 10
-0.5459547042847614
 20
1.500000759895233
 30
0.0
  0
POINT
  5
309F
330
1C72
100
AcDbEntity
  8
DEFPOINTS
 62
     0
100
AcDbPoint
 10
7.750001097479478
 20
1.500000759895231
 30
0.0
  0
ENDBLK
  5
1C7F
330
1C72
100
AcDbEntity
  8
0
100
AcDbBlockEnd
  0
BLOCK
  5
1DFC
330
1DF0
100
AcDbEntity
  8
0
100
AcDbBlockBegin
  2
*D7
 70
     1
 10
0.0
 20
0.0
 30
0.0
  3
*D7
  1

  0
LINE
  5
2826
330
1DF0
100
AcDbEntity
  8
AM_5
 62
     3
100
AcDbLine
 10
-68.29595851898203
 20
-1.50000618101135
 30
0.0
 11
-76.79595986050543
 21
-1.500006181011367
 31
0.0
  0
LINE
  5
2827
330
1DF0
100
AcDbEntity
  8
AM_5
 62
     3
100
AcDbLine
 10
-68.29595851898203
 20
1.500013847201653
 30
0.0
 11
-76.79595986050543
 21
1.500013847201637
 31
0.0
  0
LINE
  5
2828
330
1DF0
100
AcDbEntity
  8
AM_5
 62
     3
100
AcDbLine
 10
-76.29595986050543
 20
-2.750006181011366
 30
0.0
 11
-76.29595986050542
 21
-4.000006181011366
 31
0.0
  0
LINE
  5
2829
330
1DF0
100
AcDbEntity
  8
AM_5
 62
     3
100
AcDbLine
 10
-76.29595986050543
 20
2.750013847201638
 30
0.0
 11
-76.29595986050545
 21
4.000013847201637
 31
0.0
  0
LINE
  5
282A
330
1DF0
100
AcDbEntity
  8
AM_5
 62
     3
100
AcDbLine
 10
-76.29595986050543
 20
-1.500006181011366
 30
0.0
 11
-76.29595986050543
 21
1.500013847201637
 31
0.0
  0
INSERT
  5
282B
330
1DF0
100
AcDbEntity
  8
AM_5
 62
     3
100
AcDbBlockReference
  2
_OPEN30
 10
-76.29595986050543
 20
-1.500006181011366
 30
0.0
 41
1.25
 42
1.25
 43
1.25
 50
90.0000000000001
  0
INSERT
  5
282C
330
1DF0
100
AcDbEntity
  8
AM_5
 62
     3
100
AcDbBlockReference
  2
_OPEN30
 10
-76.29595986050543
 20
1.500013847201637
 30
0.0
 41
1.25
 42
1.25
 43
1.25
 50
270.0000000000001
  0
MTEXT
  5
282D
330
1DF0
100
AcDbEntity
  8
AM_5
 62
     2
100
AcDbMText
 10
-77.99595986050544
 20
0.0000038330951355
 30
0.0
 40
1.9
 41
0.0
 71
     5
 72
     1
  1
%%c3
 11
-0.000000000000002
 21
1.0
 31
0.0
1001
ACAD
1000
MTEXTBEGIN
1070
    73
1070
     1
1070
    44
1040
1.0
1070
    74
1070
     0
1000
MTEXTEND
  0
POINT
  5
282E
330
1DF0
100
AcDbEntity
  8
DEFPOINTS
 62
     0
100
AcDbPoint
 10
-68.29595851898203
 20
-1.500006181011199
 30
0.0
  0
POINT
  5
282F
330
1DF0
100
AcDbEntity
  8
DEFPOINTS
 62
     0
100
AcDbPoint
 10
-68.29595851898203
 20
1.500013847201805
 30
0.0
  0
POINT
  5
2830
330
1DF0
100
AcDbEntity
  8
DEFPOINTS
 62
     0
100
AcDbPoint
 10
-76.29595986050543
 20
1.500013847201807
 30
0.0
  0
ENDBLK
  5
1DFD
330
1DF0
100
AcDbEntity
  8
0
100
AcDbBlockEnd
  0
BLOCK
  5
2C61
330
2C51
100
AcDbEntity
  8
0
100
AcDbBlockBegin
  2
*D8
 70
     1
 10
0.0
 20
0.0
 30
0.0
  3
*D8
  1

  0
LINE
  5
3156
330
2C51
100
AcDbEntity
  8
AM_5
100
AcDbLine
 10
0.6250506284974145
 20
-0.4698466467671729
 30
0.0
 11
5.48293615824693
 21
-13.81685913220213
 31
0.0
  0
LINE
  5
3157
330
2C51
100
AcDbEntity
  8
AM_5
100
AcDbLine
 10
0.6250518911250551
 20
0.4698461872091879
 30
0.0
 11
5.48297328854969
 21
13.81684561790335
 31
0.0
  0
ARC
  5
3158
330
2C51
100
AcDbEntity
  8
AM_5
100
AcDbCircle
 10
0.4540414810179811
 20
0.0000000000000009
 30
0.0
 40
14.20358384727272
100
AcDbArc
 50
295.0438858954821
 51
64.95596013242769
  0
INSERT
  5
3159
330
2C51
100
AcDbEntity
  8
AM_5
100
AcDbBlockReference
  2
_OPEN30
 10
5.311927010767497
 20
-13.34701248543496
 30
0.0
 41
1.25
 42
1.25
 43
1.25
 50
202.5218865976237
  0
INSERT
  5
315A
330
2C51
100
AcDbEntity
  8
AM_5
100
AcDbBlockReference
  2
_OPEN30
 10
5.311962878442615
 20
13.34699943069416
 30
0.0
 41
1.25
 42
1.25
 43
1.25
 50
157.477959430286
  0
MTEXT
  5
315B
330
2C51
100
AcDbEntity
  8
AM_5
 62
     2
100
AcDbMText
 10
13.10762532827927
 20
-0.0000170021140225
 30
0.0
 40
1.6
 41
0.0
 71
     5
 72
     1
  1
140°
  7
ASAMI
 11
0.0000013436599653
 21
0.9999999999990972
 31
0.0
  0
POINT
  5
315C
330
2C51
100
AcDbEntity
  8
DEFPOINTS
 62
     0
100
AcDbPoint
 10
13.49599221699421
 20
-5.625772400913096
 30
0.0
  0
POINT
  5
315D
330
2C51
100
AcDbEntity
  8
DEFPOINTS
 62
     0
100
AcDbPoint
 10
0.4540414810179811
 20
0.0
 30
0.0
  0
POINT
  5
315E
330
2C51
100
AcDbEntity
  8
DEFPOINTS
 62
     0
100
AcDbPoint
 10
0.4540414810179811
 20
0.0
 30
0.0
  0
POINT
  5
315F
330
2C51
100
AcDbEntity
  8
DEFPOINTS
 62
     0
100
AcDbPoint
 10
0.3159908901510116
 20
0.3792932024930055
 30
0.0
  0
POINT
  5
3160
330
2C51
100
AcDbEntity
  8
DEFPOINTS
 62
     0
100
AcDbPoint
 10
0.315988927803597
 20
-0.3792954225515207
 30
0.0
  0
ENDBLK
  5
2C62
330
2C51
100
AcDbEntity
  8
0
100
AcDbBlockEnd
  0
ENDSEC
  0
SECTION
  2
ENTITIES
  0
LINE
  5
C1D
330
1F
100
AcDbEntity
  8
AM_0
 48
0.5
100
AcDbLine
 10
0.4540414810179812
 20
0.0
 30
0.0
 11
0.3159908901510117
 21
0.3792932024930055
 31
0.0
  0
LINE
  5
C20
330
1F
100
AcDbEntity
  8
AM_0
 48
0.5
100
AcDbLine
 10
0.4540414810179812
 20
0.0
 30
0.0
 11
0.3159889278035971
 21
-0.3792954225515207
 31
0.0
  0
LINE
  5
C2E
330
1F
100
AcDbEntity
  8
AM_0
 48
0.5
100
AcDbLine
 10
-68.29595851898202
 20
-1.500006181011199
 30
0.0
 11
-68.29595851898202
 21
1.500013847201805
 31
0.0
  0
LINE
  5
C30
330
1F
100
AcDbEntity
  8
AM_0
 48
0.5
100
AcDbLine
 10
-68.54595851898202
 20
-1.250006209471274
 30
0.0
 11
-68.54595851898202
 21
1.250005235204411
 31
0.0
  0
LINE
  5
C9F
330
1F
100
AcDbEntity
  8
AM_7
100
AcDbLine
 10
-69.295958518982
 20
-0.0000000000000741
 30
0.0
 11
0.7500000462497739
 21
0.0000000000000005
 31
0.0
1001
GENIUS_GENODEF_13
1002
{
1000
HIER
1070
     0
1002
}
1002
{
1000
MANEDIT
1070
     0
1002
}
1002
{
1000
NOSEL
1070
     0
1002
}
1002
{
1000
BEHIND
1070
     0
1002
}
1002
{
1000
REACTOR
1002
}
1001
GENIUS_GENOBJ-N-CEN_13
1002
{
1000
OWNER
1000
GEN
1002
}
  0
DIMENSION
  5
CC6
330
1F
100
AcDbEntity
  8
AM_5
100
AcDbDimension
  2
*D5
 10
-0.5459547042847796
 20
-8.500007181011087
 30
0.0
 11
-34.5459566116334
 21
-6.800007181011086
 31
0.0
 70
    32
  1
<>
  3
AM_JIS$0
100
AcDbAlignedDimension
 13
-68.54595851898202
 23
-1.250006209471274
 33
0.0
 14
-0.5459547042847791
 24
-1.499999240104765
 34
0.0
 50
0.0000000000001132
100
AcDbRotatedDimension
1001
GENIUS_GENDTOL_13
1000

1000
h7
1000

1040
0.0
1001
ACAD
1000
DSTYLE
1002
{
1070
   271
1070
     0
1002
}
  0
ARC
  5
144A
330
1F
100
AcDbEntity
  8
AM_11
 48
0.5
100
AcDbCircle
 10
-24.16564083099196
 20
-6.625446930970555
 30
0.0
 40
7.325448036193749
100
AcDbArc
 50
64.74833051131179
 51
115.2516644797366
  0
ARC
  5
144B
330
1F
100
AcDbEntity
  8
AM_11
 48
0.5
100
AcDbCircle
 10
-24.16564083099196
 20
6.625451430235442
 30
0.0
 40
7.325448036193749
100
AcDbArc
 50
244.7482808787518
 51
295.2516148471758
  0
ARC
  5
144E
330
1F
100
AcDbEntity
  8
AM_11
 48
0.5
100
AcDbCircle
 10
-17.91564083099196
 20
-6.625446930970555
 30
0.0
 40
7.325448036193749
100
AcDbArc
 50
64.74833051131179
 51
115.2516644797366
  0
ARC
  5
144F
330
1F
100
AcDbEntity
  8
AM_11
 48
0.5
100
AcDbCircle
 10
-17.91564083099196
 20
6.625451430235442
 30
0.0
 40
7.325448036193749
100
AcDbArc
 50
244.7482808787518
 51
295.2516148471758
  0
ARC
  5
1450
330
1F
100
AcDbEntity
  8
AM_11
 48
0.5
100
AcDbCircle
 10
-11.66564083099371
 20
6.625451430235442
 30
0.0
 40
7.325448036193749
100
AcDbArc
 50
244.7482808787518
 51
295.2516148471758
  0
ARC
  5
1451
330
1F
100
AcDbEntity
  8
AM_11
 48
0.5
100
AcDbCircle
 10
-11.66564083099371
 20
-6.625446930970555
 30
0.0
 40
7.325448036193749
100
AcDbArc
 50
64.74833051131179
 51
115.2516644797366
  0
ARC
  5
1452
330
1F
100
AcDbEntity
  8
AM_11
 48
0.5
100
AcDbCircle
 10
-5.415640830993714
 20
-6.625446930970555
 30
0.0
 40
7.325448036193749
100
AcDbArc
 50
64.74833051131179
 51
115.2516644797366
  0
ARC
  5
1453
330
1F
100
AcDbEntity
  8
AM_11
 48
0.5
100
AcDbCircle
 10
-5.415640830993714
 20
6.625451430235442
 30
0.0
 40
7.325448036193749
100
AcDbArc
 50
244.7482808787518
 51
295.2516148471758
  0
ARC
  5
1454
330
1F
100
AcDbEntity
  8
AM_11
 48
0.5
100
AcDbCircle
 10
0.8343591690062925
 20
6.625451430235442
 30
0.0
 40
7.325448036193749
100
AcDbArc
 50
244.7482808787518
 51
254.0147302238188
  0
ARC
  5
18B8
330
1F
100
AcDbEntity
  8
AM_11
 48
0.5
100
AcDbCircle
 10
-30.4156408309919
 20
6.625451430235421
 30
0.0
 40
7.325448036193749
100
AcDbArc
 50
244.7482808787518
 51
295.2516148471758
  0
ARC
  5
18B9
330
1F
100
AcDbEntity
  8
AM_11
 48
0.5
100
AcDbCircle
 10
-30.41564083099191
 20
-6.625446930970577
 30
0.0
 40
7.325448036193749
100
AcDbArc
 50
64.74833051131179
 51
115.2516644797366
  0
ARC
  5
18BA
330
1F
100
AcDbEntity
  8
AM_11
 48
0.5
100
AcDbCircle
 10
-36.66565359819232
 20
6.625457452091307
 30
0.0
 40
7.325448036193749
100
AcDbArc
 50
244.7482808787518
 51
295.2516148471758
  0
ARC
  5
18BB
330
1F
100
AcDbEntity
  8
AM_11
 48
0.5
100
AcDbCircle
 10
-36.66565359819234
 20
-6.625440909114692
 30
0.0
 40
7.325448036193749
100
AcDbArc
 50
64.74833051131179
 51
115.2516644797366
  0
TEXT
  5
19BD
330
1F
100
AcDbEntity
  8
AM_6
100
AcDbText
 10
-45.79595661163337
 20
-19.75000718101111
 30
0.0
 40
2.5
  1
MDW030MHK
 50
0.0000000000001527
 72
     4
 11
-34.54595661163337
 21
-18.50000718101108
 31
0.0
100
AcDbText
  0
LINE
  5
1B5C
330
1F
100
AcDbEntity
  8
AM_0
 48
0.5
100
AcDbLine
 10
-68.29595851898202
 20
1.500005264989105
 30
0.0
 11
-68.54595851898202
 21
1.250005235204411
 31
0.0
1001
GENIUS_GENFIL_13
1070
     0
1040
0.25
1040
0.25
1040
20.0
1040
0.0
1002
{
1002
}
1001
GENIUS_GENODEF_13
1002
{
1000
HIER
1070
     0
1002
}
1002
{
1000
MANEDIT
1070
     0
1002
}
1002
{
1000
NOSEL
1070
     0
1002
}
1002
{
1000
BEHIND
1070
     0
1002
}
1002
{
1000
REACTOR
1002
}
1001
GENIUS_GENOBJ-N-CHA_13
1002
{
1000
OWNER
1000
GEN
1002
}
  0
LINE
  5
1B60
330
1F
100
AcDbEntity
  8
AM_0
 48
0.5
100
AcDbLine
 10
-68.54595851898202
 20
-1.250006209471274
 30
0.0
 11
-68.29595851898202
 21
-1.500006181011199
 31
0.0
1001
GENIUS_GENFIL_13
1070
     0
1040
0.25
1040
0.25
1040
20.0
1040
0.0
1002
{
1002
}
1001
GENIUS_GENODEF_13
1002
{
1000
HIER
1070
     0
1002
}
1002
{
1000
MANEDIT
1070
     0
1002
}
1002
{
1000
NOSEL
1070
     0
1002
}
1002
{
1000
BEHIND
1070
     0
1002
}
1002
{
1000
REACTOR
1002
}
1001
GENIUS_GENOBJ-N-CHA_13
1002
{
1000
OWNER
1000
GEN
1002
}
  0
LINE
  5
1C1A
330
1F
100
AcDbEntity
  8
AM_0
 48
0.5
100
AcDbLine
 10
-17.10400155900489
 20
1.500011245623491
 30
0.0
 11
-68.29595851898202
 21
1.500005264989105
 31
0.0
  0
LINE
  5
1C1E
330
1F
100
AcDbEntity
  8
AM_0
 48
0.5
100
AcDbLine
 10
-17.46923501912456
 20
-1.499998862132026
 30
0.0
 11
-68.29595851898202
 21
-1.500006181011199
 31
0.0
  0
ARC
  5
1C22
330
1F
100
AcDbEntity
  8
AM_11
 48
0.5
100
AcDbCircle
 10
-49.16565359812853
 20
6.625457452091293
 30
0.0
 40
7.325448036193749
100
AcDbArc
 50
244.7482808787518
 51
295.2516148471758
  0
ARC
  5
1C23
330
1F
100
AcDbEntity
  8
AM_11
 48
0.5
100
AcDbCircle
 10
-49.16565359812855
 20
-6.625440909114706
 30
0.0
 40
7.325448036193749
100
AcDbArc
 50
64.74833051131179
 51
115.2516644797366
  0
ARC
  5
1C24
330
1F
100
AcDbEntity
  8
AM_11
 48
0.5
100
AcDbCircle
 10
-42.91564083092811
 20
6.625451430235407
 30
0.0
 40
7.325448036193749
100
AcDbArc
 50
244.7482808787518
 51
295.2516148471758
  0
ARC
  5
1C25
330
1F
100
AcDbEntity
  8
AM_11
 48
0.5
100
AcDbCircle
 10
-42.91564083092812
 20
-6.625446930970591
 30
0.0
 40
7.325448036193749
100
AcDbArc
 50
64.74833051131179
 51
115.2516644797366
  0
ARC
  5
1C26
330
1F
100
AcDbEntity
  8
AM_11
 48
0.5
100
AcDbCircle
 10
-61.66565359806465
 20
6.625457452091239
 30
0.0
 40
7.325448036193749
100
AcDbArc
 50
244.7482808787518
 51
295.2516148471758
  0
ARC
  5
1C27
330
1F
100
AcDbEntity
  8
AM_11
 48
0.5
100
AcDbCircle
 10
-61.66565359806467
 20
-6.62544090911476
 30
0.0
 40
7.325448036193749
100
AcDbArc
 50
64.74833051131179
 51
115.2516644797366
  0
ARC
  5
1C28
330
1F
100
AcDbEntity
  8
AM_11
 48
0.5
100
AcDbCircle
 10
-55.41564083086424
 20
6.625451430235353
 30
0.0
 40
7.325448036193749
100
AcDbArc
 50
244.7482808787518
 51
295.2516148471758
  0
ARC
  5
1C29
330
1F
100
AcDbEntity
  8
AM_11
 48
0.5
100
AcDbCircle
 10
-55.41564083086425
 20
-6.625446930970645
 30
0.0
 40
7.325448036193749
100
AcDbArc
 50
64.74833051131179
 51
115.2516644797366
  0
ARC
  5
1C2C
330
1F
100
AcDbEntity
  8
AM_11
 48
0.5
100
AcDbCircle
 10
-67.91564083080039
 20
6.625451430235318
 30
0.0
 40
7.325448036193749
100
AcDbArc
 50
265.0638846988117
 51
295.2516148471758
  0
ARC
  5
1C2D
330
1F
100
AcDbEntity
  8
AM_11
 48
0.5
100
AcDbCircle
 10
-67.91564083080039
 20
-6.62544693097068
 30
0.0
 40
7.325448036193749
100
AcDbArc
 50
64.74833051131179
 51
94.93611530118821
  0
DIMENSION
  5
1C71
330
1F
100
AcDbEntity
  8
AM_5
100
AcDbDimension
  2
*D6
 10
7.750001097479478
 20
1.500000759895231
 30
0.0
 11
7.750001097479478
 21
6.242857902752374
 31
0.0
 70
   160
  1
%%c<>
  3
AM_JIS$0
100
AcDbAlignedDimension
 13
-0.5459547042847791
 23
-1.499999240104765
 33
0.0
 14
-0.5459547042847614
 24
1.500000759895233
 34
0.0
 50
89.99999999999991
100
AcDbRotatedDimension
1001
GENIUS_GENDTOL_13
1000

1000
h7
1000

1040
0.0
1001
ACAD
1000
DSTYLE
1002
{
1070
   271
1070
     0
1002
}
  0
LINE
  5
1C85
330
1F
100
AcDbEntity
  8
AM_0
 48
0.5
100
AcDbLine
 10
-0.1943735756022989
 20
0.998162903508134
 30
0.0
 11
-0.5459547042847614
 21
1.500000759895233
 31
0.0
  0
ELLIPSE
  5
1C86
330
1F
100
AcDbEntity
  8
AM_0
 48
0.5
100
AcDbEllipse
 10
2.638349194277689
 20
1.607193267197504
 30
0.0
 11
2.836893409549336
 21
0.5901859898785923
 31
0.0
210
0.0
220
0.0
230
1.0
 40
0.5121575483306189
 41
3.154597222684332
 42
3.655201069360919
  0
DIMENSION
  5
1DEF
330
1F
100
AcDbEntity
  8
AM_5
100
AcDbDimension
  2
*D7
 10
-76.29595986050543
 20
1.500013847201807
 30
0.0
 11
-76.29595986050543
 21
0.000003833095293
 31
0.0
 70
   160
  1
%%c<>
 51
359.9999999999998
  3
AM_JIS$0
100
AcDbAlignedDimension
 13
-68.29595851898203
 23
-1.500006181011199
 33
0.0
 14
-68.29595851898203
 24
1.500013847201805
 34
0.0
 50
270.0000065225689
100
AcDbRotatedDimension
1001
ACAD
1000
DSTYLE
1002
{
1070
   271
1070
     0
1002
}
1001
GENIUS_GENDTOL_13
1000

1000
h7
1000

1040
0.0
  0
ELLIPSE
  5
25CA
330
1F
100
AcDbEntity
  8
AM_0
 48
0.5
100
AcDbEllipse
 10
2.638349194277693
 20
-1.607193267197498
 30
0.0
 11
2.836893409549338
 21
-0.5901859898785859
 31
0.0
210
0.0
220
0.0
230
-1.0
 40
0.5121575483306189
 41
3.154597222684332
 42
3.655201069360919
  0
LINE
  5
25CB
330
1F
100
AcDbEntity
  8
AM_0
 48
0.5
100
AcDbLine
 10
-0.1943735756022965
 20
-0.9981629035081283
 30
0.0
 11
-0.5459547042847791
 21
-1.499999240104765
 31
0.0
  0
DIMENSION
  5
2C50
330
1F
100
AcDbEntity
  8
AM_5
100
AcDbDimension
  2
*D8
 10
0.3159889278035971
 20
-0.3792954225515207
 30
0.0
 11
13.10762532827927
 21
-0.0000170021140496
 31
0.0
 70
    34
  1
<>
 51
359.9999999999998
  3
AM_JIS$2
100
AcDb2LineAngularDimension
 13
0.4540414810179812
 23
0.0
 33
0.0
 14
0.3159908901510117
 24
0.3792932024930055
 34
0.0
 15
0.4540414810179812
 25
0.0
 35
0.0
 16
13.49599221699421
 26
-5.625772400913096
 36
0.0
1001
GENIUS_GENDTOL_13
1000

1000
h7
1000

1040
0.0
1001
ACAD
1000
DSTYLE
1002
{
1070
   271
1070
     0
1002
}
  0
LINE
  5
3044
330
1F
100
AcDbEntity
  8
AM_0
 48
0.5
100
AcDbLine
 10
-1.670659156124826
 20
1.500000759895266
 30
0.0
 11
-0.5459547042847614
 21
1.500000759895233
 31
0.0
  0
LINE
  5
3045
330
1F
100
AcDbEntity
  8
AM_0
 48
0.5
100
AcDbLine
 10
-1.670659156124346
 20
-1.499999240104739
 30
0.0
 11
-0.5459547042847781
 21
-1.499999240104767
 31
0.0
  0
LINE
  5
3046
330
1F
100
AcDbEntity
  8
AM_0
 48
0.5
100
AcDbLine
 10
0.4540414810179812
 20
0.0
 30
0.0
 11
-0.7895909831242953
 21
0.5759551318510268
 31
0.0
  0
LINE
  5
3047
330
1F
100
AcDbEntity
  8
AM_0
 48
0.5
100
AcDbLine
 10
-13.53676682607802
 20
1.500000759895621
 30
0.0
 11
-7.262438803459639
 21
1.500000759895432
 31
0.0
  0
LINE
  5
3048
330
1F
100
AcDbEntity
  8
AM_0
 48
0.5
100
AcDbLine
 10
-13.24956326281478
 20
-1.500076413933946
 30
0.0
 11
-7.262438803459717
 21
-1.499999240104567
 31
0.0
  0
LINE
  5
3049
330
1F
100
AcDbEntity
  8
AM_0
 48
0.5
100
AcDbLine
 10
-14.36278012811361
 20
0.7190819034446499
 30
0.0
 11
-18.04595470428477
 21
-0.1213885553522995
 31
0.0
  0
LINE
  5
304A
330
1F
100
AcDbEntity
  8
AM_11
 48
0.5
100
AcDbLine
 10
-17.10522140074461
 20
1.500213862117905
 30
0.0
 11
-13.5367620099111
 21
1.500000759895621
 31
0.0
  0
LINE
  5
304B
330
1F
100
AcDbEntity
  8
AM_11
 48
0.5
100
AcDbLine
 10
-17.45889524493525
 20
-1.500076413933803
 30
0.0
 11
-12.42883354476928
 21
-1.499984005155245
 31
0.0
  0
LINE
  5
304C
330
1F
100
AcDbEntity
  8
AM_11
 48
0.5
100
AcDbLine
 10
-7.262438803459717
 20
-1.499999240104567
 30
0.0
 11
-1.670659156124903
 21
-1.499999240104734
 31
0.0
  0
LINE
  5
304D
330
1F
100
AcDbEntity
  8
AM_11
 48
0.5
100
AcDbLine
 10
-7.262438803459639
 20
1.500000759895432
 30
0.0
 11
-1.670659156124826
 21
1.500000759895266
 31
0.0
  0
SPLINE
  5
304E
330
1F
100
AcDbEntity
  8
AM_0
100
AcDbSpline
210
0.0
220
0.0
230
1.0
 70
     8
 71
     3
 72
    17
 73
    13
 74
     0
 42
0.0000000001
 43
0.0000000001
 40
1.580019955310467
 40
1.580019955310467
 40
1.580019955310467
 40
1.580019955310467
 40
2.030549285115227
 40
3.082371838836284
 40
4.126290986361125
 40
5.162752068350215
 40
6.192395305374981
 40
7.216039564037012
 40
8.234688489606833
 40
9.249433870634691
 40
10.26152376260694
 40
11.27226744710342
 40
11.27226744710342
 40
11.27226744710342
 40
11.27226744710352
 10
-4.466330846143621
 20
-1.107043409990191
 30
0.0
 10
-4.508329340469975
 20
-1.118445045276466
 30
0.0
 10
-4.648618421426363
 20
-1.155815427833313
 30
0.0
 10
-4.888126672855077
 20
-1.214432210009216
 30
0.0
 10
-5.184793073779386
 20
-1.280075229998162
 30
0.0
 10
-5.481541146686117
 20
-1.337701086016692
 30
0.0
 10
-5.778302816485955
 20
-1.387116257488704
 30
0.0
 10
-6.075096817937857
 20
-1.42796129607051
 30
0.0
 10
-6.371911324035658
 20
-1.460003117137091
 30
0.0
 10
-6.668744312180591
 20
-1.483034078966617
 30
0.0
 10
-6.965588469176521
 20
-1.496905928583158
 30
0.0
 10
-7.163532604936921
 20
-1.499999248687648
 30
0.0
 10
-7.262438803459692
 20
-1.499999240104567
 30
0.0
  0
SPLINE
  5
304F
330
1F
100
AcDbEntity
  8
AM_0
100
AcDbSpline
210
0.0
220
0.0
230
1.0
 70
     8
 71
     3
 72
    22
 73
    18
 74
     0
 42
0.0000000001
 43
0.0000000001
 40
17.17441611292
 40
17.17441611292
 40
17.17441611292
 40
17.17441611292
 40
17.38177636558528
 40
18.41823744757437
 40
19.46215659509824
 40
20.51397914882054
 40
21.57394542641293
 40
22.64209583141747
 40
23.71826625065247
 40
24.80210429862395
 40
25.8930771157021
 40
26.99048705697709
 40
28.09349309193389
 40
29.20112995599786
 40
30.31233024745139
 40
31.42594771747373
 40
32.5407895042663
 40
32.54078950426994
 40
32.54078950426994
 40
32.54078950426994
 10
-8.395427215286026
 20
-1.34701009657812
 30
0.0
 10
-8.415304323217821
 20
-1.343537743700775
 30
0.0
 10
-8.534456729748024
 20
-1.322387262787337
 30
0.0
 10
-8.752737224299979
 20
-1.279977795759513
 30
0.0
 10
-9.049444926257537
 20
-1.214435572412928
 30
0.0
 10
-9.34612239432309
 20
-1.141408843568965
 30
0.0
 10
-9.642771723022931
 20
-1.061353460176265
 30
0.0
 10
-9.939392520503931
 20
-0.9747602800984019
 30
0.0
 10
-10.23598843782414
 20
-0.8821682127092369
 30
0.0
 10
-10.53256084830603
 20
-0.7841462990633845
 30
0.0
 10
-10.82911249594965
 20
-0.6812990349313154
 30
0.0
 10
-11.12564667822127
 20
-0.5742609227881843
 30
0.0
 10
-11.42216596885868
 20
-0.46369014322247
 30
0.0
 10
-11.71867335280799
 20
-0.3502669463542776
 30
0.0
 10
-12.01517145834905
 20
-0.2346887564566715
 30
0.0
 10
-12.31166467784344
 20
-0.1176687534322551
 30
0.0
 10
-12.50928802546082
 20
-0.0391859196469123
 30
0.0
 10
-12.60815398782589
 20
0.0000770538410981
 30
0.0
  0
SPLINE
  5
3050
330
1F
100
AcDbEntity
  8
AM_0
100
AcDbSpline
210
0.0
220
0.0
230
1.0
 70
     8
 71
     3
 72
    11
 73
     7
 74
     0
 42
0.0000000001
 43
0.0000000001
 40
11.27226913003534
 40
11.27226913003534
 40
11.27226913003534
 40
11.2722691300354
 40
12.28301561507924
 40
13.29510212255852
 40
14.30984805882082
 40
15.18258238371378
 40
15.18258238371378
 40
15.18258238371378
 40
15.18258238371378
 10
-7.262438803459708
 20
-1.499999240104567
 30
0.0
 10
-7.360968911923096
 20
-1.492657804207411
 30
0.0
 10
-7.557843282329149
 20
-1.474884507412731
 30
0.0
 10
-7.852138215392117
 20
-1.439031371563329
 30
0.0
 10
-8.131429296096602
 20
-1.396208731934249
 30
0.0
 10
-8.312058373038727
 20
-1.363289694367864
 30
0.0
 10
-8.395297395101922
 20
-1.34702859906665
 30
0.0
  0
SPLINE
  5
3051
330
1F
100
AcDbEntity
  8
AM_0
100
AcDbSpline
210
0.0
220
0.0
230
1.0
 70
     8
 71
     3
 72
    46
 73
    42
 74
     0
 42
0.0000000001
 43
0.0000000001
 40
0.0
 40
0.0
 40
0.0
 40
0.0
 40
0.5056245176053715
 40
0.759310862862336
 40
1.013969309739036
 40
1.269880374404297
 40
1.527291183660732
 40
1.786406454158005
 40
2.047386241038974
 40
2.310345544571907
 40
2.575337113970003
 40
2.842374715221223
 40
3.111417320030211
 40
3.382376832022752
 40
3.655120036292296
 40
3.929472521611371
 40
4.205224030350333
 40
4.482133246366229
 40
4.759933319229942
 40
5.038338087391601
 40
5.317048131389549
 40
5.595758175387723
 40
5.874162943549383
 40
6.151963016412869
 40
6.428872232428759
 40
6.704623741167955
 40
6.978976226486705
 40
7.251719430756336
 40
7.522680721168327
 40
7.791723325977311
 40
8.058760927228529
 40
8.32375249662655
 40
8.586708135057122
 40
8.84768792193809
 40
9.106803192435362
 40
9.364213819003406
 40
9.620125035580644
 40
9.87478726697307
 40
10.12847352585208
 40
10.38149610319407
 40
10.63418200686337
 40
10.63418200686337
 40
10.63418200686337
 40
10.63418200686337
 10
-0.839697202684808
 20
-1.499999240104759
 30
0.0
 10
-1.037651006543007
 20
-1.496582124153382
 30
0.0
 10
-1.33492392029788
 20
-1.491450542967742
 30
0.0
 10
-1.730220677265397
 20
-1.459856340329427
 30
0.0
 10
-2.027036987393333
 20
-1.428000979639547
 30
0.0
 10
-2.323827926792593
 20
-1.387104107652726
 30
0.0
 10
-2.620592713614221
 20
-1.337709544888987
 30
0.0
 10
-2.917329823319309
 20
-1.280053439438584
 30
0.0
 10
-3.214038758917778
 20
-1.214511384228653
 30
0.0
 10
-3.510718199950069
 20
-1.141485817180487
 30
0.0
 10
-3.807368739407229
 20
-1.061429669941974
 30
0.0
 10
-4.103989579389506
 20
-0.9748365968270398
 30
0.0
 10
-4.400585485269398
 20
-0.8822445005942164
 30
0.0
 10
-4.697157898562295
 20
-0.7842225942320006
 30
0.0
 10
-4.993709546528122
 20
-0.6813753301190321
 30
0.0
 10
-5.290243724635914
 20
-0.5743372104786621
 30
0.0
 10
-5.586763031726218
 20
-0.463766461107362
 30
0.0
 10
-5.883270353680029
 20
-0.3503431503182444
 30
0.0
 10
-6.179768834320212
 20
-0.2347653321277566
 30
0.0
 10
-6.476261182179773
 20
-0.117743728873684
 30
0.0
 10
-6.772751037672307
 20
0.0000007598715951
 30
0.0
 10
-7.069240893099701
 20
0.1177452487599571
 30
0.0
 10
-7.365733241154639
 20
0.2347668515849891
 30
0.0
 10
-7.662231721080705
 20
0.3503446713434302
 30
0.0
 10
-7.958739045682496
 20
0.4637679763175807
 30
0.0
 10
-8.255258342954331
 20
0.5743387472501878
 30
0.0
 10
-8.551792557423244
 20
0.6813767870414499
 30
0.0
 10
-8.84834471558047
 20
0.7842245701025736
 30
0.0
 10
-9.144918281210685
 20
0.8822455858860806
 30
0.0
 10
-9.441514716172207
 20
0.9748381568994643
 30
0.0
 10
-9.738135549248317
 20
1.061431255780446
 30
0.0
 10
-10.03478487009876
 20
1.141486667371381
 30
0.0
 10
-10.33146233441694
 20
1.214513364063211
 30
0.0
 10
-10.62817005886944
 20
1.280055687019611
 30
0.0
 10
-10.92490699683867
 20
1.337708020304902
 30
0.0
 10
-11.22167200123008
 20
1.387116909438292
 30
0.0
 10
-11.51846483477202
 20
1.427955380167507
 30
0.0
 10
-11.81527961548075
 20
1.460034996662259
 30
0.0
 10
-12.11211275997554
 20
1.482922113843132
 30
0.0
 10
-12.40895667929266
 20
1.497324099239905
 30
0.0
 10
-12.60690089481293
 20
1.499108935759947
 30
0.0
 10
-12.70580711223453
 20
1.500000759895598
 30
0.0
  0
SPLINE
  5
3052
330
1F
100
AcDbEntity
  8
AM_0
 48
0.5
100
AcDbSpline
210
0.0
220
0.0
230
1.0
 70
     8
 71
     3
 72
    25
 73
    21
 74
     0
 42
0.0000000001
 43
0.0000000001
 40
6.846175049578289
 40
6.846175049578289
 40
6.846175049578289
 40
6.846175049578289
 40
7.604337694224321
 40
8.711974558287883
 40
9.814980593243754
 40
10.91239053451967
 40
12.0033633515982
 40
13.08720139956839
 40
14.16337181880432
 40
15.23152222380919
 40
16.29148850140128
 40
17.34331105512262
 40
18.38723020264746
 40
19.42369128463655
 40
20.45333379090873
 40
21.47697865721768
 40
22.49561244472435
 40
23.5103574802404
 40
24.52244778960836
 40
25.53320666051913
 40
25.53320666051913
 40
25.53320666051913
 40
25.53320666051913
 10
-2.016854164508241
 20
0.2715105801715341
 30
0.0
 10
-2.084286997102549
 20
0.2978479124313576
 30
0.0
 10
-2.250377666217449
 20
0.3623991896702468
 30
0.0
 10
-2.515373000249856
 20
0.4637679322813125
 30
0.0
 10
-2.811892274682244
 20
0.5743387430912392
 30
0.0
 10
-3.108426461261523
 20
0.6813768469145476
 30
0.0
 10
-3.404978107768993
 20
0.7842241132945026
 30
0.0
 10
-3.70155051852184
 20
0.8822460262051505
 30
0.0
 10
-3.998146435883308
 20
0.9748380943006576
 30
0.0
 10
-4.294767232936281
 20
1.06143127230351
 30
0.0
 10
-4.591416563288041
 20
1.141486663212301
 30
0.0
 10
-4.888094025239984
 20
1.214513364362181
 30
0.0
 10
-5.184801749764068
 20
1.280055689902581
 30
0.0
 10
-5.481538689765081
 20
1.337708008599557
 30
0.0
 10
-5.778303686038572
 20
1.387116952987798
 30
0.0
 10
-6.075095087226817
 20
1.42795501766619
 30
0.0
 10
-6.371908275374789
 20
1.460035297730543
 30
0.0
 10
-6.668739979299913
 20
1.482922063384821
 30
0.0
 10
-6.965585380529187
 20
1.497324186900254
 30
0.0
 10
-7.163531091743382
 20
1.49910896047611
 30
0.0
 10
-7.262438803459639
 20
1.500000759895432
 30
0.0
  0
SPLINE
  5
3053
330
1F
100
AcDbEntity
  8
AM_0
 48
0.5
100
AcDbSpline
210
0.0
220
0.0
230
1.0
 70
     8
 71
     3
 72
    17
 73
    13
 74
     0
 42
0.0000000001
 43
0.0000000001
 40
0.0
 40
0.0
 40
0.0
 40
0.0
 40
1.010743614677189
 40
2.022833924044153
 40
3.037578959561199
 40
4.056212747067873
 40
5.079857613375832
 40
6.109500119648989
 40
7.14596120163808
 40
8.18989512056258
 40
9.241717674284874
 40
9.693948937866434
 40
9.693948937866434
 40
9.693948937866434
 40
9.693948937866434
 10
-1.670659156124826
 20
1.500000759895266
 30
0.0
 10
-1.769565373952213
 20
1.499108939387701
 30
0.0
 10
-1.967509590284511
 20
1.497324110128676
 30
0.0
 10
-2.2643535034991
 20
1.482922070171147
 30
0.0
 10
-2.561185195822086
 20
1.460035274933056
 30
0.0
 10
-2.857998427739934
 20
1.427955102566714
 30
0.0
 10
-3.154789664293047
 20
1.387116633844935
 30
0.0
 10
-3.451555280469853
 20
1.337709210524201
 30
0.0
 10
-3.748291293177024
 20
1.280050884528038
 30
0.0
 10
-4.045009216962978
 20
1.214529826556381
 30
0.0
 10
-4.284527662341901
 20
1.155505257588176
 30
0.0
 10
-4.425186936693473
 20
1.118606413878629
 30
0.0
 10
-4.467405304390453
 20
1.107311924830839
 30
0.0
  0
SPLINE
  5
3054
330
1F
100
AcDbEntity
  8
AM_0
100
AcDbSpline
210
0.0
220
0.0
230
1.0
 70
     8
 71
     3
 72
    55
 73
    51
 74
     0
 42
0.0000000001
 43
0.0000000001
 40
0.0
 40
0.0
 40
0.0
 40
0.0
 40
1.010743684496582
 40
2.022833576467832
 40
3.037578957496688
 40
4.056212745003489
 40
5.079857003664532
 40
6.109500240690281
 40
7.145961322679372
 40
8.189895241603872
 40
9.241717795325891
 40
10.30168407291828
 40
11.36983447792315
 40
12.44600489715814
 40
13.52984294512926
 40
14.62081576220742
 40
15.7182257034828
 40
16.82123173843959
 40
17.92886860250316
 40
19.0400688939571
 40
20.15368796660465
 40
21.26852814259644
 40
22.38336992938901
 40
23.49698739941135
 40
24.6081876908653
 40
25.71582455492886
 40
26.81883757994213
 40
27.91624752121713
 40
29.00722033829659
 40
30.09105838626677
 40
31.16722880550176
 40
32.23537921050758
 40
33.29534548809967
 40
34.347168041821
 40
35.39108718934584
 40
36.42754827133493
 40
37.45720575381954
 40
38.48085062012849
 40
39.49948440763516
 40
40.51422944315121
 40
41.52631975251916
 40
42.53706336719636
 40
43.54780698187354
 40
44.55989729124051
 40
45.57464232675757
 40
46.59327611426424
 40
47.6169209805722
 40
48.64656348684535
 40
49.68302456883444
 40
50.58557219878025
 40
50.58557219878025
 40
50.58557219878025
 40
50.58557219878025
 10
-1.670659156124904
 20
-1.499999240104734
 30
0.0
 10
-1.769565355952543
 20
-1.499106776444452
 30
0.0
 10
-1.967509488575878
 20
-1.497320660453345
 30
0.0
 10
-2.264353651868035
 20
-1.482922560398167
 30
0.0
 10
-2.5611851440021
 20
-1.460033342513796
 30
0.0
 10
-2.857998265181007
 20
-1.42795323310635
 30
0.0
 10
-3.154790053677041
 20
-1.387116979164174
 30
0.0
 10
-3.451554654451792
 20
-1.337706173000847
 30
0.0
 10
-3.748293060169697
 20
-1.280053663418194
 30
0.0
 10
-4.045002639360792
 20
-1.214512486800287
 30
0.0
 10
-4.341681370892086
 20
-1.14148506199557
 30
0.0
 10
-4.638330733543043
 20
-1.061429774600606
 30
0.0
 10
-4.93495152179982
 20
-0.9748365684624786
 30
0.0
 10
-5.231547441701564
 20
-0.8822445082855725
 30
0.0
 10
-5.528119851174878
 20
-0.7842225921181098
 30
0.0
 10
-5.824671500257983
 20
-0.68137533081165
 30
0.0
 10
-6.121205677748799
 20
-0.5743372098361528
 30
0.0
 10
-6.417724986189591
 20
-0.4637664629921607
 30
0.0
 10
-6.714232303334027
 20
-0.3503431433858464
 30
0.0
 10
-7.010730801936386
 20
-0.2347653580740238
 30
0.0
 10
-7.307223082570772
 20
-0.1177436317824819
 30
0.0
 10
-7.603713332167425
 20
0.0000004538409555
 30
0.0
 10
-7.900202250770937
 20
0.117746658931313
 30
0.0
 10
-8.196695525182819
 20
0.234766562885047
 30
0.0
 10
-8.493193657753815
 20
0.3503446980442458
 30
0.0
 10
-8.789701503567513
 20
0.4637684497428525
 30
0.0
 10
-9.086222042112627
 20
0.5743382529566748
 30
0.0
 10
-9.382756687612721
 20
0.6813769167643765
 30
0.0
 10
-9.679308379508013
 20
0.7842240946723101
 30
0.0
 10
-9.975880778190012
 20
0.8822460314534145
 30
0.0
 10
-10.27247669885122
 20
0.9748380917657641
 30
0.0
 10
-10.56909749466316
 20
1.061431277198151
 30
0.0
 10
-10.86574682669666
 20
1.141486646336928
 30
0.0
 10
-11.16242428321176
 20
1.214513426310419
 30
0.0
 10
-11.45913202759681
 20
1.280055461354218
 30
0.0
 10
-11.75587032324017
 20
1.337709130256311
 30
0.0
 10
-12.05263704301364
 20
1.387114293019678
 30
0.0
 10
-12.34942981202587
 20
1.427963186645714
 30
0.0
 10
-12.64624302119346
 20
1.460005269224122
 30
0.0
 10
-12.94307471957507
 20
1.483033484990545
 30
0.0
 10
-13.23991863117875
 20
1.496909687255595
 30
0.0
 10
-13.53676906574737
 20
1.501545267281984
 30
0.0
 10
-13.83361949987921
 20
1.496909687248343
 30
0.0
 10
-14.13046341279576
 20
1.483033485019735
 30
0.0
 10
-14.42729510634377
 20
1.460005269114284
 30
0.0
 10
-14.72410833363369
 20
1.427963187058695
 30
0.0
 10
-15.02089958759592
 20
1.387114490612002
 30
0.0
 10
-15.31766513822146
 20
1.337709635397491
 30
0.0
 10
-15.60091138753514
 20
1.282672572914875
 30
0.0
 10
-15.78468477978983
 20
1.242423448818916
 30
0.0
 10
-15.86994492270802
 20
1.222808087176439
 30
0.0
  0
SPLINE
  5
3055
330
1F
100
AcDbEntity
  8
AM_0
100
AcDbSpline
210
0.0
220
0.0
230
1.0
 70
     8
 71
     3
 72
    23
 73
    19
 74
     0
 42
0.0000000001
 43
0.0000000001
 40
16.03460024169435
 40
16.03460024169435
 40
16.03460024169435
 40
16.03460024169435
 40
16.35212704903564
 40
17.38177054169784
 40
18.41822485651776
 40
19.46214173629503
 40
20.51396345435107
 40
21.57393551351153
 40
22.64208202342361
 40
23.7182574881101
 40
24.80209208578934
 40
25.89306333925047
 40
26.99048218457928
 40
28.09348763352352
 40
29.20111863782268
 40
30.31232390128032
 40
31.42594612798585
 40
32.5407912310448
 40
32.5407912310486
 40
32.5407912310486
 40
32.5407912310486
 10
-17.10522140074461
 20
1.500213862117905
 30
0.0
 10
-17.07472431103762
 20
1.495150126267328
 30
0.0
 10
-16.94546424395569
 20
1.473098981857722
 30
0.0
 10
-16.71777124375534
 20
1.429893129815999
 30
0.0
 10
-16.42290821243034
 20
1.365646500324555
 30
0.0
 10
-16.12831906375824
 20
1.293508244234617
 30
0.0
 10
-15.83398639023134
 20
1.213895860978092
 30
0.0
 10
-15.53989974546142
 20
1.127253191373915
 30
0.0
 10
-15.24604213194526
 20
1.034075521459901
 30
0.0
 10
-14.95239308655554
 20
0.9349051219026538
 30
0.0
 10
-14.65893592309884
 20
0.8303035888928684
 30
0.0
 10
-14.36564711405026
 20
0.7208795743784217
 30
0.0
 10
-14.07250289163157
 20
0.607269098008136
 30
0.0
 10
-13.77948372447934
 20
0.4901253723925786
 30
0.0
 10
-13.4865650960357
 20
0.3701295722540231
 30
0.0
 10
-13.19371987583207
 20
0.2479823850295084
 30
0.0
 10
-12.90092421800092
 20
0.1243916205927082
 30
0.0
 10
-12.70577954265453
 20
0.0415307709109871
 30
0.0
 10
-12.60815398782458
 20
0.0000770538405591
 30
0.0
  0
SPLINE
  5
3056
330
1F
100
AcDbEntity
  8
AM_0
 48
0.5
100
AcDbSpline
210
0.0
220
0.0
230
1.0
 70
     8
 71
     3
 72
    10
 73
     6
 74
     0
 42
0.0000000001
 43
0.0000000001
 40
0.0
 40
0.0
 40
0.0
 40
0.0
 40
2.69986029516136
 40
4.147722969032201
 40
6.285750005020438
 40
6.285750005020438
 40
6.285750005020438
 40
6.285750005020438
 10
-2.016854164508241
 20
0.2715105801715341
 30
0.0
 10
-1.547299285802677
 20
0.132132398822597
 30
0.0
 10
-1.259824407491728
 20
-0.0819631934037335
 30
0.0
 10
-0.5799849374817749
 20
0.0216842334313701
 30
0.0
 10
-0.7080184840347962
 20
0.3707824816079838
 30
0.0
 10
-0.7926148711985145
 20
0.5835686158082796
 30
0.0
  0
SPLINE
  5
3057
330
1F
100
AcDbEntity
  8
AM_0
 48
0.5
100
AcDbSpline
210
0.0
220
0.0
230
1.0
 70
     8
 71
     3
 72
    26
 73
    22
 74
     0
 42
0.0000000001
 43
0.0000000001
 40
0.0
 40
0.0
 40
0.0
 40
0.0
 40
0.2526859211241313
 40
0.5057083941171959
 40
0.7593947393741639
 40
1.01405318625086
 40
1.26996425091637
 40
1.527375060172565
 40
1.786490330669834
 40
2.047470117551047
 40
2.310425755981314
 40
2.575417325379407
 40
2.842456731169063
 40
3.111495753801943
 40
3.382458822635121
 40
3.655202026904655
 40
3.929554512223505
 40
4.205306020962704
 40
4.482215236978595
 40
4.76001530984208
 40
5.029821427366006
 40
5.029821427366006
 40
5.029821427366006
 40
5.029821427366006
 10
-12.41860130937469
 20
-1.50007641393397
 30
0.0
 10
-12.51750750921423
 20
-1.499183950312582
 30
0.0
 10
-12.71545164186147
 20
-1.4973978343993
 30
0.0
 10
-13.01229580497468
 20
-1.482999733759301
 30
0.0
 10
-13.30912729779151
 20
-1.46011051810645
 30
0.0
 10
-13.605940416404
 20
-1.428030400310859
 30
0.0
 10
-13.90273221455081
 20
-1.38719417791149
 30
0.0
 10
-14.19949677898803
 20
-1.337783252981857
 30
0.0
 10
-14.49623391229137
 20
-1.280131464902345
 30
0.0
 10
-14.79294159072014
 20
-1.214588961597987
 30
0.0
 10
-15.08961911282865
 20
-1.141562423350856
 30
0.0
 10
-15.38626892028398
 20
-1.061506373409119
 30
0.0
 10
-15.68288978386626
 20
-0.9749151320763722
 30
0.0
 10
-15.97948506437333
 20
-0.882319871499301
 30
0.0
 10
-16.27605872748858
 20
-0.7843007829117182
 30
0.0
 10
-16.57261141399622
 20
-0.6814524753648535
 30
0.0
 10
-16.86914533454071
 20
-0.5744139218511056
 30
0.0
 10
-17.1656659346186
 20
-0.4638455271358844
 30
0.0
 10
-17.46216831389782
 20
-0.3504131795910958
 30
0.0
 10
-17.75562496955469
 20
-0.2360618365546382
 30
0.0
 10
-17.9500510449151
 20
-0.1592398021752355
 30
0.0
 10
-18.04595470428477
 20
-0.1213885553522995
 30
0.0
  0
SPLINE
  5
3058
330
1F
100
AcDbEntity
  8
AM_0
 48
0.5
100
AcDbSpline
210
0.0
220
0.0
230
1.0
 70
     8
 71
     3
 72
    22
 73
    18
 74
     0
 42
0.0000000001
 43
0.0000000001
 40
0.0
 40
0.0
 40
0.0
 40
0.0
 40
1.010743684496582
 40
2.022833993863546
 40
3.037578683882831
 40
4.056212471389632
 40
5.079857945358201
 40
6.109499720892564
 40
7.145961650132166
 40
8.189873411961459
 40
9.241710626092514
 40
10.30166235592959
 40
11.36982472628033
 40
12.44598212828784
 40
13.52983440361964
 40
14.62080578343036
 40
14.90544694398022
 40
14.90544694398022
 40
14.90544694398022
 40
14.90544694398022
 10
-13.24956326281478
 20
-1.500076413933946
 30
0.0
 10
-13.34846948154171
 20
-1.499184216898992
 30
0.0
 10
-13.54641369283299
 20
-1.497398634145224
 30
0.0
 10
-13.84325754508822
 20
-1.48299652333355
 30
0.0
 10
-14.14008935842535
 20
-1.460111158930502
 30
0.0
 10
-14.43690263743018
 20
-1.428031019949834
 30
0.0
 10
-14.73369361756413
 20
-1.387190956162831
 30
0.0
 10
-15.03045920261485
 20
-1.337784303399759
 30
0.0
 10
-15.32719504391326
 20
-1.280130420313534
 30
0.0
 10
-15.62390318191851
 20
-1.214586968088098
 30
0.0
 10
-15.92058094433717
 20
-1.141563189081769
 30
0.0
 10
-16.21722988157805
 20
-1.061503514239229
 30
0.0
 10
-16.51385190593685
 20
-0.9749173998752322
 30
0.0
 10
-16.8104467946156
 20
-0.8823195967742018
 30
0.0
 10
-17.10702010397018
 20
-0.7842999948658593
 30
0.0
 10
-17.329915671806
 20
-0.7070009334324518
 30
0.0
 10
-17.45412086045054
 20
-0.6628192746286041
 30
0.0
 10
-17.43619065785363
 20
-0.6692386898776034
 30
0.0
  0
SPLINE
  5
3059
330
1F
100
AcDbEntity
  8
AM_0
100
AcDbSpline
210
0.0
220
0.0
230
1.0
 70
     8
 71
     3
 72
    13
 73
     9
 74
     0
 42
0.0000000001
 43
0.0000000001
 40
16.03460056234195
 40
16.03460056234195
 40
16.03460056234195
 40
16.03460056234195
 40
16.35212717791071
 40
17.38177067057215
 40
18.41822498539278
 40
19.46214186516937
 40
20.5139635832251
 40
21.34083983469381
 40
21.34083983469381
 40
21.34083983469381
 40
21.34083983469381
 10
-17.45889524493525
 20
-1.500076413933803
 30
0.0
 10
-17.3748549312338
 20
-1.49514924560403
 30
0.0
 10
-17.24559475719182
 20
-1.473098706206736
 30
0.0
 10
-17.01790188111043
 20
-1.429892349726557
 30
0.0
 10
-16.72303881267826
 20
-1.365645898375642
 30
0.0
 10
-16.42844967405553
 20
-1.29350759404225
 30
0.0
 10
-16.15585781005282
 20
-1.219775772409361
 30
0.0
 10
-15.98194900113581
 20
-1.16900616599371
 30
0.0
 10
-15.90565624897253
 20
-1.146057841281096
 30
0.0
  0
ELLIPSE
  5
305A
330
1F
100
AcDbEntity
  8
AM_0
 48
0.5
100
AcDbEllipse
 10
-21.63012112400765
 20
-31.89182252236979
 30
0.0
 11
19.06584144110139
 21
32.51015882829009
 31
0.0
210
0.0
220
0.0
230
1.0
 40
0.5002840149873406
 41
-0.1109635156644777
 42
-0.0343566177311769
  0
ELLIPSE
  5
305B
330
1F
100
AcDbEntity
  8
AM_0
 48
0.5
100
AcDbEllipse
 10
1.595346073732743
 20
-0.3334285766525913
 30
0.0
 11
-2.491895008082266
 21
0.2586440282283391
 31
0.0
210
0.0
220
0.0
230
0.9999999999999998
 40
0.9232659030207333
 41
0.243819602254254
 42
0.6400356639839253
  0
ELLIPSE
  5
305C
330
1F
100
AcDbEntity
  8
AM_0
 48
0.5
100
AcDbEllipse
 10
-0.2272223385374152
 20
-0.3909208981172437
 30
0.0
 11
-0.0463646222000966
 21
0.245983691424592
 31
0.0
210
0.0
220
0.0
230
0.9999999999999998
 40
0.5186873782325307
 41
1.796340771173956
 42
4.931682660885932
  0
ELLIPSE
  5
305D
330
1F
100
AcDbEntity
  8
AM_0
 48
0.5
100
AcDbEllipse
 10
-0.2272223385374152
 20
-0.3909208981172437
 30
0.0
 11
-0.2265367900323581
 21
0.1225991889533972
 31
0.0
210
0.0
220
0.0
230
0.9999999999999996
 40
0.4898326297868909
 41
4.4619340519799
 42
7.605374393309414
  0
ELLIPSE
  5
305E
330
1F
100
AcDbEntity
  8
AM_0
 48
0.5
100
AcDbEllipse
 10
-2.246394523910895
 20
2.517544487319818
 30
0.0
 11
-3.116308198656998
 21
2.072167568433311
 31
0.0
210
0.0
220
0.0
230
1.0
 40
0.7005944136026537
 41
2.676293235183015
 42
2.9102555324001
  0
ELLIPSE
  5
305F
330
1F
100
AcDbEntity
  8
AM_0
 48
0.5
100
AcDbEllipse
 10
-0.340994780758316
 20
-1.695918580450969
 30
0.0
 11
2.026915600242033
 21
0.7083108430882027
 31
0.0
210
0.0
220
0.0
230
1.0
 40
0.549626361704032
 41
1.381123516528113
 42
1.64550089507404
  0
ELLIPSE
  5
3060
330
1F
100
AcDbEntity
  8
AM_0
 48
0.5
100
AcDbEllipse
 10
-17.45889506063586
 20
-1.000076413933827
 30
0.0
 11
-0.5870967741935499
 21
0.0000000000000488
 31
0.0
210
0.0
220
0.0
230
1.0
 40
0.8516483516483464
 41
0.0112467747892216
 42
1.570796012878445
  0
ELLIPSE
  5
3061
330
1F
100
AcDbEntity
  8
AM_0
 48
0.5
100
AcDbEllipse
 10
-17.60577675481414
 20
-1.015310407464074
 30
0.0
 11
-0.4403225806451628
 21
0.0000000000000188
 31
0.0
210
0.0
220
0.0
230
1.0
 40
0.8516483516483461
 41
4.317028824483106
 42
6.257553905069376
  0
VIEWPORT
  5
110
330
101
100
AcDbEntity
 67
     1
  8
0
100
AcDbViewport
 10
420.5
 20
297.0
 30
0.0
 40
948.9782706766916
 41
628.452
 68
     1
 69
     1
1001
ACAD
1000
MVIEW
1002
{
1070
    16
1010
0.0
1020
0.0
1030
0.0
1010
0.0
1020
0.0
1030
1.0
1040
0.0
1040
628.452
1040
420.5
1040
297.0
1040
50.0
1040
0.0
1040
0.0
1070
     0
1070
   100
1070
     1
1070
     1
1070
     0
1070
     0
1070
     0
1070
     0
1040
0.0
1040
0.0
1040
0.0
1040
10.0
1040
10.0
1040
10.0
1040
10.0
1070
     0
1002
{
1002
}
1002
}
  0
ENDSEC
  0
SECTION
  2
OBJECTS
  0
DICTIONARY
  5
C
330
0
100
AcDbDictionary
  3
ACAD_GROUP
350
D
  3
ACAD_LAYOUT
350
1A
  3
ACAD_MLINESTYLE
350
17
  3
ACAD_PLOTSETTINGS
350
19
  3
ACAD_PLOTSTYLENAME
350
E
  3
ACDBVARIABLEDICTIONARY
350
34
  3
ACMDICTIONARY
350
43
  3
AMG
350
2B
  3
AMGSNAPSETTINGS
350
6E
  3
DWGPROPS
350
311F
  3
ACDBHEADERROUNDTRIPXREC
350
312C
  0
DICTIONARY
  5
74
330
1F
100
AcDbDictionary
280
     1
  3
ACAD_INDEX
360
3121
  3
ACAD_LAYOUTSELFREF
360
314F
  0
DICTIONARY
  5
3154
330
101
100
AcDbDictionary
280
     1
  3
ACAD_LAYOUTSELFREF
360
3155
  0
DICTIONARY
  5
D
102
{ACAD_REACTORS
330
C
102
}
330
C
100
AcDbDictionary
  0
DICTIONARY
  5
1A
102
{ACAD_REACTORS
330
C
102
}
330
C
100
AcDbDictionary
  0
DICTIONARY
  5
17
102
{ACAD_REACTORS
330
C
102
}
330
C
100
AcDbDictionary
  3
STANDARD
350
18
  0
DICTIONARY
  5
19
102
{ACAD_REACTORS
330
C
102
}
330
C
100
AcDbDictionary
  0
ACDBDICTIONARYWDFLT
  5
E
102
{ACAD_REACTORS
330
C
102
}
330
C
100
AcDbDictionary
281
     1
  3
Normal
350
F
100
AcDbDictionaryWithDefault
340
F
  0
DICTIONARY
  5
34
102
{ACAD_REACTORS
330
C
102
}
330
C
100
AcDbDictionary
  3
INDEXCTL
350
35
  3
SORTENTS
350
B5E
  0
DICTIONARY
  5
43
102
{ACAD_REACTORS
330
C
102
}
330
C
100
AcDbDictionary
  3
ACMSTDDICTIONARY
350
260
  0
DICTIONARY
  5
2B
102
{ACAD_REACTORS
330
C
102
}
330
C
100
AcDbDictionary
  3
ACMGSETTINGS
350
2C
  0
DICTIONARY
  5
6E
102
{ACAD_REACTORS
330
C
102
}
330
C
100
AcDbDictionary
  0
XRECORD
  5
311F
102
{ACAD_REACTORS
330
C
102
}
330
C
100
AcDbXrecord
  1
DWGPROPS COOKIE
  2

  3

  4

  6

  7

  8

  9

300
AmdtFileType=82
301
=
302
=
303
=
304
=
305
=
306
=
307
=
308
=
309
=
 40
0.0596079050925926
 41
2452800.443498622
 42
2452946.598487766
  1

 90
        1
  0
DICTIONARY
  5
312C
102
{ACAD_REACTORS
330
C
102
}
330
C
100
AcDbDictionary
  3
TSTACKALIGN
350
312D
  3
TSTACKSIZE
350
312E
  3
HYPERLINKBASE
350
312F
  3
STYLESHEET
350
3130
  3
LAYOUTDICT
350
3131
  3
PLOTSETDICT
350
3132
  3
PLOTSTYLNAMDICT
350
3133
  3
LWETCUNION
350
3134
  3
INSUNITS
350
3135
  3
CEPSNTYPE
350
3136
  3
FINGERPRINTGUID
350
3137
  3
VERSIONGUID
350
3138
  3
PSVPSCALE
350
3139
  3
DIMSTYLEDATA
350
313A
  3
PUCSORTHOREF
350
313B
  3
PUCSORTHOVIEW
350
313C
  3
PUCSBASE
350
313D
  3
PUCSORGTOP
350
313E
  3
PUCSORGBOTTOM
350
313F
  3
PUCSORGLEFT
350
3140
  3
PUCSORGRIGHT
350
3141
  3
PUCSORGFRONT
350
3142
  3
PUCSORGBACK
350
3143
  3
UCSORTHOREF
350
3144
  3
UCSORTHOVIEW
350
3145
  3
UCSBASE
350
3146
  3
UCSORGTOP
350
3147
  3
UCSORGBOTTOM
350
3148
  3
UCSORGLEFT
350
3149
  3
UCSORGRIGHT
350
314A
  3
UCSORGFRONT
350
314B
  3
UCSORGBACK
350
314C
  0
DICTIONARY
  5
3121
102
{ACAD_REACTORS
330
74
102
}
330
74
100
AcDbDictionary
  3
*A1
350
3122
  0
XRECORD
  5
314F
102
{ACAD_REACTORS
330
74
102
}
330
74
100
AcDbXrecord
340
1F
  0
XRECORD
  5
3155
102
{ACAD_REACTORS
330
3154
102
}
330
3154
100
AcDbXrecord
340
101
  0
MLINESTYLE
  5
18
102
{ACAD_REACTORS
330
17
102
}
330
17
100
AcDbMlineStyle
  2
STANDARD
 70
     0
  3

 62
   256
 51
90.0
 52
90.0
 71
     2
 49
0.5
 62
   256
  6
BYLAYER
 49
-0.5
 62
   256
  6
BYLAYER
  0
ACDBPLACEHOLDER
  5
F
102
{ACAD_REACTORS
330
E
102
}
330
E
100
AcDbPlaceHolder
280
     0
  0
DICTIONARYVAR
  5
35
102
{ACAD_REACTORS
330
34
102
}
330
34
100
DictionaryVariables
280
     0
  1
1
  0
DICTIONARYVAR
  5
B5E
102
{ACAD_REACTORS
330
34
102
}
330
34
100
DictionaryVariables
280
     0
  1
96
  0
DICTIONARY
  5
260
102
{ACAD_REACTORS
330
43
102
}
330
43
100
AcDbDictionary
  0
DICTIONARY
  5
2C
102
{ACAD_REACTORS
330
2B
102
}
330
2B
100
AcDbDictionary
  3
DWGSETTINGS
350
2D
  0
XRECORD
  5
312D
102
{ACAD_REACTORS
330
312C
102
}
330
312C
100
AcDbXrecord
 90
        1
  0
XRECORD
  5
312E
102
{ACAD_REACTORS
330
312C
102
}
330
312C
100
AcDbXrecord
 90
       70
  0
XRECORD
  5
312F
102
{ACAD_REACTORS
330
312C
102
}
330
312C
100
AcDbXrecord
  1

  0
XRECORD
  5
3130
102
{ACAD_REACTORS
330
312C
102
}
330
312C
100
AcDbXrecord
  1
ASAMI.ctb
  0
XRECORD
  5
3131
102
{ACAD_REACTORS
330
312C
102
}
330
312C
100
AcDbXrecord
340
1A
  0
XRECORD
  5
3132
102
{ACAD_REACTORS
330
312C
102
}
330
312C
100
AcDbXrecord
340
19
  0
XRECORD
  5
3133
102
{ACAD_REACTORS
330
312C
102
}
330
312C
100
AcDbXrecord
340
E
  0
XRECORD
  5
3134
102
{ACAD_REACTORS
330
312C
102
}
330
312C
100
AcDbXrecord
 90
    10781
  0
XRECORD
  5
3135
102
{ACAD_REACTORS
330
312C
102
}
330
312C
100
AcDbXrecord
 90
        4
  0
XRECORD
  5
3136
102
{ACAD_REACTORS
330
312C
102
}
330
312C
100
AcDbXrecord
 90
        0
  0
XRECORD
  5
3137
102
{ACAD_REACTORS
330
312C
102
}
330
312C
100
AcDbXrecord
  1
{AFB28963-8C59-40AE-9337-C84526B81ACE}
  0
XRECORD
  5
3138
102
{ACAD_REACTORS
330
312C
102
}
330
312C
100
AcDbXrecord
  1
{0371E13E-D661-47D2-B09A-437A55783D75}
  0
XRECORD
  5
3139
102
{ACAD_REACTORS
330
312C
102
}
330
312C
100
AcDbXrecord
 40
0.0
  0
XRECORD
  5
313A
102
{ACAD_REACTORS
330
312C
102
}
330
312C
100
AcDbXrecord
1000
DSTYLE
1002
{
1070
    79
 70
     2
1070
   341
340
59
1070
   342
340
59
1070
   371
 70
    -1
1070
   372
 70
    -1
1002
}
  0
XRECORD
  5
313B
102
{ACAD_REACTORS
330
312C
102
}
330
312C
100
AcDbXrecord
340
0
  0
XRECORD
  5
313C
102
{ACAD_REACTORS
330
312C
102
}
330
312C
100
AcDbXrecord
 70
     0
  0
XRECORD
  5
313D
102
{ACAD_REACTORS
330
312C
102
}
330
312C
100
AcDbXrecord
340
0
  0
XRECORD
  5
313E
102
{ACAD_REACTORS
330
312C
102
}
330
312C
100
AcDbXrecord
 10
0.0
 20
0.0
 30
0.0
  0
XRECORD
  5
313F
102
{ACAD_REACTORS
330
312C
102
}
330
312C
100
AcDbXrecord
 10
0.0
 20
0.0
 30
0.0
  0
XRECORD
  5
3140
102
{ACAD_REACTORS
330
312C
102
}
330
312C
100
AcDbXrecord
 10
0.0
 20
0.0
 30
0.0
  0
XRECORD
  5
3141
102
{ACAD_REACTORS
330
312C
102
}
330
312C
100
AcDbXrecord
 10
0.0
 20
0.0
 30
0.0
  0
XRECORD
  5
3142
102
{ACAD_REACTORS
330
312C
102
}
330
312C
100
AcDbXrecord
 10
0.0
 20
0.0
 30
0.0
  0
XRECORD
  5
3143
102
{ACAD_REACTORS
330
312C
102
}
330
312C
100
AcDbXrecord
 10
0.0
 20
0.0
 30
0.0
  0
XRECORD
  5
3144
102
{ACAD_REACTORS
330
312C
102
}
330
312C
100
AcDbXrecord
340
0
  0
XRECORD
  5
3145
102
{ACAD_REACTORS
330
312C
102
}
330
312C
100
AcDbXrecord
 70
     0
  0
XRECORD
  5
3146
102
{ACAD_REACTORS
330
312C
102
}
330
312C
100
AcDbXrecord
340
0
  0
XRECORD
  5
3147
102
{ACAD_REACTORS
330
312C
102
}
330
312C
100
AcDbXrecord
 10
0.0
 20
0.0
 30
0.0
  0
XRECORD
  5
3148
102
{ACAD_REACTORS
330
312C
102
}
330
312C
100
AcDbXrecord
 10
0.0
 20
0.0
 30
0.0
  0
XRECORD
  5
3149
102
{ACAD_REACTORS
330
312C
102
}
330
312C
100
AcDbXrecord
 10
0.0
 20
0.0
 30
0.0
  0
XRECORD
  5
314A
102
{ACAD_REACTORS
330
312C
102
}
330
312C
100
AcDbXrecord
 10
0.0
 20
0.0
 30
0.0
  0
XRECORD
  5
314B
102
{ACAD_REACTORS
330
312C
102
}
330
312C
100
AcDbXrecord
 10
0.0
 20
0.0
 30
0.0
  0
XRECORD
  5
314C
102
{ACAD_REACTORS
330
312C
102
}
330
312C
100
AcDbXrecord
 10
0.0
 20
0.0
 30
0.0
  0
LAYER_INDEX
  5
3122
102
{ACAD_REACTORS
330
3121
102
}
330
3121
100
AcDbIndex
 40
2453151.576419617
100
AcDbLayerIndex
  8
0
360
3123
 90
        0
  8
AM_0
360
3124
 90
       38
  8
AM_7
360
3125
 90
        1
  8
AM_11
360
3126
 90
       27
  8
AM_5
360
3127
 90
        4
  8
Defpoints
360
3128
 90
        0
  8
AM_6
360
3129
 90
        1
  8
AM_CL
360
312A
 90
        0
  0
XRECORD
  5
2D
102
{ACAD_REACTORS
330
2C
102
}
330
2C
100
AcDbXrecord
  1
VERSION
140
15.0
  1
PRODUCT
  2
AutoCAD Mechanical 2000
  0
IDBUFFER
  5
3123
330
0
100
AcDbIdBuffer
  0
IDBUFFER
  5
3124
330
0
100
AcDbIdBuffer
330
3048
330
3049
330
304E
330
304F
330
3050
330
3051
330
3052
330
3053
330
3054
330
3055
330
3056
330
3057
330
3058
330
3059
330
305A
330
305B
330
305C
330
305D
330
305E
330
305F
330
3060
330
3061
330
C1D
330
C20
330
C2E
330
C30
330
1B5C
330
1B60
330
1C1A
330
1C1E
330
1C85
330
1C86
330
25CA
330
25CB
330
3044
330
3045
330
3046
330
3047
  0
IDBUFFER
  5
3125
330
0
100
AcDbIdBuffer
330
C9F
  0
IDBUFFER
  5
3126
330
0
100
AcDbIdBuffer
330
1C25
330
1C26
330
1C27
330
1C28
330
1C29
330
1C2C
330
1C2D
330
304A
330
304B
330
304C
330
304D
330
144A
330
144B
330
144E
330
144F
330
1450
330
1451
330
1452
330
1453
330
1454
330
18B8
330
18B9
330
18BA
330
18BB
330
1C22
330
1C23
330
1C24
  0
IDBUFFER
  5
3127
330
0
100
AcDbIdBuffer
330
CC6
330
1C71
330
1DEF
330
2C50
  0
IDBUFFER
  5
3128
330
0
100
AcDbIdBuffer
  0
IDBUFFER
  5
3129
330
0
100
AcDbIdBuffer
330
19BD
  0
IDBUFFER
  5
312A
330
0
100
AcDbIdBuffer
  0
ENDSEC
  0
EOF
