  0
SECTION
  2
HEADER
  9
$ACADVER
  1
AC1014
  9
$ACADMAINTVER
 70
     9
  9
$DWGCODEPAGE
  3
ANSI_932
  9
$INSBASE
 10
0.0
 20
0.0
 30
0.0
  9
$EXTMIN
 10
-84.3420197698748
 20
-25.25000100000005
 30
-0.00000001
  9
$EXTMAX
 10
14.07187634378725
 20
13.72251105824148
 30
0.00000001
  9
$LIMMIN
 10
-103.134137649193
 20
-34.60724519099901
  9
$LIMMAX
 10
18.55390181307279
 20
25.8241434171262
  9
$ORTHOMODE
 70
     0
  9
$REGENMODE
 70
     1
  9
$FILLMODE
 70
     1
  9
$QTEXTMODE
 70
     0
  9
$MIRRTEXT
 70
     0
  9
$DRAGMODE
 70
     2
  9
$LTSCALE
 40
1.0
  9
$OSMODE
 70
    55
  9
$ATTMODE
 70
     1
  9
$TEXTSIZE
 40
2.5
  9
$TRACEWID
 40
1.0
  9
$TEXTSTYLE
  7
STANDARD
  9
$CLAYER
  8
AM_0
  9
$CELTYPE
  6
BYLAYER
  9
$CECOLOR
 62
   256
  9
$CELTSCALE
 40
1.0
  9
$DELOBJ
 70
     1
  9
$DISPSILH
 70
     0
  9
$DIMSCALE
 40
0.5
  9
$DIMASZ
 40
2.5
  9
$DIMEXO
 40
1.0
  9
$DIMDLI
 40
12.0
  9
$DIMRND
 40
0.0
  9
$DIMDLE
 40
0.0
  9
$DIMEXE
 40
1.0
  9
$DIMTP
 40
0.1
  9
$DIMTM
 40
0.1
  9
$DIMTXT
 40
3.2
  9
$DIMCEN
 40
0.0
  9
$DIMTSZ
 40
0.0
  9
$DIMTOL
 70
     0
  9
$DIMLIM
 70
     0
  9
$DIMTIH
 70
     0
  9
$DIMTOH
 70
     0
  9
$DIMSE1
 70
     0
  9
$DIMSE2
 70
     0
  9
$DIMTAD
 70
     3
  9
$DIMZIN
 70
     8
  9
$DIMBLK
  1
OPEN30
  9
$DIMASO
 70
     1
  9
$DIMSHO
 70
     1
  9
$DIMPOST
  1

  9
$DIMAPOST
  1
"
  9
$DIMALT
 70
     0
  9
$DIMALTD
 70
     2
  9
$DIMALTF
 40
0.0393701
  9
$DIMLFAC
 40
1.0
  9
$DIMTOFL
 70
     1
  9
$DIMTVP
 40
0.0
  9
$DIMTIX
 70
     0
  9
$DIMSOXD
 70
     0
  9
$DIMSAH
 70
     0
  9
$DIMBLK1
  1

  9
$DIMBLK2
  1

  9
$DIMSTYLE
  2
AM_JIS
  9
$DIMCLRD
 70
   256
  9
$DIMCLRE
 70
   256
  9
$DIMCLRT
 70
     2
  9
$DIMTFAC
 40
0.71
  9
$DIMGAP
 40
1.5
  9
$DIMJUST
 70
     0
  9
$DIMSD1
 70
     0
  9
$DIMSD2
 70
     0
  9
$DIMTOLJ
 70
     0
  9
$DIMTZIN
 70
     0
  9
$DIMALTZ
 70
     0
  9
$DIMALTTZ
 70
     0
  9
$DIMFIT
 70
     3
  9
$DIMUPT
 70
     0
  9
$DIMUNIT
 70
     2
  9
$DIMDEC
 70
     3
  9
$DIMTDEC
 70
     3
  9
$DIMALTU
 70
     2
  9
$DIMALTTD
 70
     2
  9
$DIMTXSTY
  7
ASAMI
  9
$DIMAUNIT
 70
     0
  9
$LUNITS
 70
     2
  9
$LUPREC
 70
     2
  9
$SKETCHINC
 40
1.0
  9
$FILLETRAD
 40
2.5
  9
$AUNITS
 70
     0
  9
$AUPREC
 70
     0
  9
$MENU
  1
.
  9
$ELEVATION
 40
0.0
  9
$PELEVATION
 40
0.0
  9
$THICKNESS
 40
0.0
  9
$LIMCHECK
 70
     0
  9
$BLIPMODE
 70
     0
  9
$CHAMFERA
 40
0.25
  9
$CHAMFERB
 40
0.25
  9
$CHAMFERC
 40
20.0
  9
$CHAMFERD
 40
0.0
  9
$SKPOLY
 70
     0
  9
$TDCREATE
 40
2452800.443498622
  9
$TDUPDATE
 40
2453151.576538437
  9
$TDINDWG
 40
0.0859072801
  9
$TDUSRTIMER
 40
0.0859072801
  9
$USRTIMER
 70
     1
  9
$ANGBASE
 50
0.0
  9
$ANGDIR
 70
     0
  9
$PDMODE
 70
     3
  9
$PDSIZE
 40
0.0
  9
$PLINEWID
 40
0.0
  9
$COORDS
 70
     1
  9
$SPLFRAME
 70
     0
  9
$SPLINETYPE
 70
     6
  9
$SPLINESEGS
 70
     8
  9
$ATTDIA
 70
     1
  9
$ATTREQ
 70
     1
  9
$HANDLING
 70
 12289
  9
$HANDSEED
  5
336A
  9
$SURFTAB1
 70
     6
  9
$SURFTAB2
 70
     6
  9
$SURFTYPE
 70
     6
  9
$SURFU
 70
     6
  9
$SURFV
 70
     6
  9
$UCSNAME
  2

  9
$UCSORG
 10
0.0
 20
0.0
 30
0.0
  9
$UCSXDIR
 10
1.0
 20
0.0
 30
0.0
  9
$UCSYDIR
 10
0.0
 20
1.0
 30
0.0
  9
$PUCSNAME
  2

  9
$PUCSORG
 10
0.0
 20
0.0
 30
0.0
  9
$PUCSXDIR
 10
1.0
 20
0.0
 30
0.0
  9
$PUCSYDIR
 10
0.0
 20
1.0
 30
0.0
  9
$USERI1
 70
     0
  9
$USERI2
 70
     0
  9
$USERI3
 70
     0
  9
$USERI4
 70
     0
  9
$USERI5
 70
     0
  9
$USERR1
 40
0.0
  9
$USERR2
 40
0.0
  9
$USERR3
 40
0.0
  9
$USERR4
 40
0.0
  9
$USERR5
 40
0.0
  9
$WORLDVIEW
 70
     1
  9
$SHADEDGE
 70
     3
  9
$SHADEDIF
 70
    70
  9
$TILEMODE
 70
     1
  9
$MAXACTVP
 70
    64
  9
$PINSBASE
 10
0.0
 20
0.0
 30
0.0
  9
$PLIMCHECK
 70
     0
  9
$PEXTMIN
 10
1.000000000000000E+20
 20
1.000000000000000E+20
 30
1.000000000000000E+20
  9
$PEXTMAX
 10
-1.000000000000000E+20
 20
-1.000000000000000E+20
 30
-1.000000000000000E+20
  9
$PLIMMIN
 10
0.0
 20
0.0
  9
$PLIMMAX
 10
841.0
 20
594.0
  9
$UNITMODE
 70
     0
  9
$VISRETAIN
 70
     1
  9
$PLINEGEN
 70
     0
  9
$PSLTSCALE
 70
     0
  9
$TREEDEPTH
 70
  3020
  9
$PICKSTYLE
 70
     0
  9
$CMLSTYLE
  2
STANDARD
  9
$CMLJUST
 70
     0
  9
$CMLSCALE
 40
20.0
  9
$PROXYGRAPHICS
 70
     1
  9
$MEASUREMENT
 70
     1
  0
ENDSEC
  0
SECTION
  2
CLASSES
  0
CLASS
  1
ACDBDICTIONARYWDFLT
  2
AcDbDictionaryWithDefault
  3
AutoCAD 2000
 90
        0
280
     0
281
     0
  0
CLASS
  1
ACDBPLACEHOLDER
  2
AcDbPlaceHolder
  3
AutoCAD 2000
 90
        0
280
     0
281
     0
  0
CLASS
  1
LAYOUT
  2
AcDbLayout
  3
AutoCAD 2000
 90
        0
280
     0
281
     0
  0
CLASS
  1
AMGSETTINGSOBJ
  2
AmgSettingsObj
  3
"AcadM|Product Description: AutoCAD Mechanical 2000|Company: Autodesk"
 90
        0
280
     0
281
     0
  0
CLASS
  1
ACME_DOCUMENT
  2
AcMeDbDoc
  3
AcMeServices
 90
        0
280
     0
281
     0
  0
CLASS
  1
ACMESCOPE
  2
AcMeScope
  3
AcMeServices
 90
        0
280
     0
281
     0
  0
CLASS
  1
ACMECOMMANDHISTORY
  2
AcMeCommandHistory
  3
AcMeServices
 90
        0
280
     0
281
     0
  0
CLASS
  1
DICTIONARYVAR
  2
AcDbDictionaryVar
  3
AutoCAD 2000
 90
        0
280
     0
281
     0
  0
CLASS
  1
ACIMSYSVARMAN
  2
AcImSysVarManager
  3
AcMeServices
 90
        0
280
     0
281
     0
  0
CLASS
  1
ACIMREALSYSVAR
  2
AcImRealSysVar
  3
AcMeServices
 90
        0
280
     0
281
     0
  0
CLASS
  1
ACIMINTSYSVAR
  2
AcImIntSysVar
  3
AcMeServices
 90
        0
280
     0
281
     0
  0
CLASS
  1
ACMEDRAWINGMAN
  2
AcMeDrawingMan
  3
AcMeServices
 90
        0
280
     0
281
     0
  0
CLASS
  1
ACMEVIEW
  2
AcMeView
  3
AcMeServices
 90
        0
280
     0
281
     0
  0
CLASS
  1
ACDBENTITYCACHE
  2
AcMeEntityCache
  3
AcMeServices
 90
        0
280
     0
281
     0
  0
CLASS
  1
GSMANAGER
  2
AcMeGSManager
  3
AcMeServices
 90
        0
280
     0
281
     0
  0
CLASS
  1
AmdtInternalReactor
  2
AmdtInternalReactor
  3
AcMeServices
 90
        0
280
     0
281
     0
  0
CLASS
  1
ACMESTATEMGR
  2
AcMeStateMgr
  3
AcMeServices
 90
        0
280
     0
281
     0
  0
CLASS
  1
ACME_DATABASE
  2
AcMeDbDatabase
  3
AcMeServices
 90
        0
280
     0
281
     0
  0
CLASS
  1
ACRFINSADJUSTERMGR
  2
AcRfInsAdjusterMgr
  3
AcMeServices
 90
        0
280
     0
281
     0
  0
CLASS
  1
ACMDATADICTIONARY
  2
AcmDataDictionary
  3
"AcmSymBB|Product Description: AutoCAD Mechanical 2000|Company: Autodesk"
 90
        0
280
     0
281
     0
  0
CLASS
  1
ACMDATAENTRYBLOCK
  2
AcmDataEntryBlock
  3
"AcmSymBB|Product Description: AutoCAD Mechanical 2000|Company: Autodesk"
 90
        0
280
     0
281
     0
  0
CLASS
  1
AMGOBJPROPCFG
  2
AmgObjPropCfg
  3
"AmgLay|Product Description: AutoCAD Mechanical 2000|Company: Autodesk"
 90
        1
280
     0
281
     0
  0
CLASS
  1
ACAMGFILTERDAT
  2
AcAmgFilterDat
  3
"AcadM|Product Description: AutoCAD Mechanical 2000|Company: Autodesk"
 90
        0
280
     0
281
     0
  0
CLASS
  1
LAYER_INDEX
  2
AcDbLayerIndex
  3
AutoCAD 2000
 90
        0
280
     0
281
     0
  0
CLASS
  1
IDBUFFER
  2
AcDbIdBuffer
  3
AutoCAD 2000
 90
        0
280
     0
281
     0
  0
CLASS
  1
ACIMSTRSYSVAR
  2
AcImStrSysVar
  3
AcMeServices
 90
        0
280
     0
281
     0
  0
CLASS
  1
ACMSTANDARDJIS
  2
AcmStandardJIS
  3
"AcmSymBB|Product Description: AutoCAD Mechanical 2000|Company: Autodesk"
 90
        0
280
     0
281
     0
  0
CLASS
  1
ACMSURFSTANDARDJIS
  2
AcmSurfTextStdJIS
  3
"AcmSymBB|Product Description: AutoCAD Mechanical 2000|Company: Autodesk"
 90
        0
280
     0
281
     0
  0
CLASS
  1
ACMFCFSTANDARDJIS
  2
AcmFCFStdJIS
  3
"AcmSymBB|Product Description: AutoCAD Mechanical 2000|Company: Autodesk"
 90
        0
280
     0
281
     0
  0
CLASS
  1
ACMWELDSTANDARDJIS
  2
AcmWeldingStdJIS
  3
"AcmSymBB|Product Description: AutoCAD Mechanical 2000|Company: Autodesk"
 90
        0
280
     0
281
     0
  0
CLASS
  1
ACMIDSTANDARDJIS
  2
AcmIdStdJIS
  3
"AcmSymBB|Product Description: AutoCAD Mechanical 2000|Company: Autodesk"
 90
        0
280
     0
281
     0
  0
CLASS
  1
ACMDATUMSTANDARDJIS
  2
AcmDatumStdJIS
  3
"AcmSymBB|Product Description: AutoCAD Mechanical 2000|Company: Autodesk"
 90
        0
280
     0
281
     0
  0
CLASS
  1
ACMBOMSTANDARDJIS
  2
AcmBOMStdJIS
  3
"AcmSymBB|Product Description: AutoCAD Mechanical 2000|Company: Autodesk"
 90
        0
280
     0
281
     0
  0
CLASS
  1
ACMSTANDARDANSI
  2
AcmStandardANSI
  3
"AcmSymBB|Product Description: AutoCAD Mechanical 2000|Company: Autodesk"
 90
        0
280
     0
281
     0
  0
CLASS
  1
ACMSURFSTANDARDANSI
  2
AcmSurfTextStdANSI
  3
"AcmSymBB|Product Description: AutoCAD Mechanical 2000|Company: Autodesk"
 90
        0
280
     0
281
     0
  0
CLASS
  1
ACMFCFSTANDARDANSI
  2
AcmFCFStdANSI
  3
"AcmSymBB|Product Description: AutoCAD Mechanical 2000|Company: Autodesk"
 90
        0
280
     0
281
     0
  0
CLASS
  1
ACMWELDSTANDARDANSI
  2
AcmWeldingStdANSI
  3
"AcmSymBB|Product Description: AutoCAD Mechanical 2000|Company: Autodesk"
 90
        0
280
     0
281
     0
  0
CLASS
  1
ACMIDSTANDARDANSI
  2
AcmIdStdANSI
  3
"AcmSymBB|Product Description: AutoCAD Mechanical 2000|Company: Autodesk"
 90
        0
280
     0
281
     0
  0
CLASS
  1
ACMDATUMSTANDARDANSI
  2
AcmDatumStdANSI
  3
"AcmSymBB|Product Description: AutoCAD Mechanical 2000|Company: Autodesk"
 90
        0
280
     0
281
     0
  0
CLASS
  1
ACMBOMSTANDARDANSI
  2
AcmBOMStdANSI
  3
"AcmSymBB|Product Description: AutoCAD Mechanical 2000|Company: Autodesk"
 90
        0
280
     0
281
     0
  0
CLASS
  1
ACMSTANDARDBSI
  2
AcmStandardBSI
  3
"AcmSymBB|Product Description: AutoCAD Mechanical 2000|Company: Autodesk"
 90
        0
280
     0
281
     0
  0
CLASS
  1
ACMSURFSTANDARDBSI
  2
AcmSurfTextStdBSI
  3
"AcmSymBB|Product Description: AutoCAD Mechanical 2000|Company: Autodesk"
 90
        0
280
     0
281
     0
  0
CLASS
  1
ACMFCFSTANDARDBSI
  2
AcmFCFStdBSI
  3
"AcmSymBB|Product Description: AutoCAD Mechanical 2000|Company: Autodesk"
 90
        0
280
     0
281
     0
  0
CLASS
  1
ACMWELDSTANDARDBSI
  2
AcmWeldingStdBSI
  3
"AcmSymBB|Product Description: AutoCAD Mechanical 2000|Company: Autodesk"
 90
        0
280
     0
281
     0
  0
CLASS
  1
ACMIDSTANDARDBSI
  2
AcmIdStdBSI
  3
"AcmSymBB|Product Description: AutoCAD Mechanical 2000|Company: Autodesk"
 90
        0
280
     0
281
     0
  0
CLASS
  1
ACMDATUMSTANDARDBSI
  2
AcmDatumStdBSI
  3
"AcmSymBB|Product Description: AutoCAD Mechanical 2000|Company: Autodesk"
 90
        0
280
     0
281
     0
  0
CLASS
  1
ACMBOMSTANDARDBSI
  2
AcmBOMStdBSI
  3
"AcmSymBB|Product Description: AutoCAD Mechanical 2000|Company: Autodesk"
 90
        0
280
     0
281
     0
  0
CLASS
  1
LONG_TRANSACTION
  2
AcDbLongTransaction
  3
AutoCAD 2000
 90
        0
280
     0
281
     0
  0
CLASS
  1
LWPOLYLINE
  2
AcDbPolyline
  3
AutoCAD 2000
 90
        0
280
     0
281
     1
  0
CLASS
  1
HATCH
  2
AcDbHatch
  3
AutoCAD 2000
 90
        0
280
     0
281
     1
  0
CLASS
  1
XRECORD
  2
AcDbXrecord
  3
AutoCAD 2000
 90
        0
280
     0
281
     0
  0
ENDSEC
  0
SECTION
  2
TABLES
  0
TABLE
  2
VPORT
  5
8
330
0
100
AcDbSymbolTable
 70
     3
  0
VPORT
  5
3334
330
8
100
AcDbSymbolTableRecord
100
AcDbViewportTableRecord
  2
*ACTIVE
 70
     0
 10
0.0
 20
0.0
 11
1.0
 21
1.0
 12
-33.29380501797239
 22
-5.765494367005857
 13
0.0
 23
0.0
 14
2.5
 24
2.5
 15
10.0
 25
10.0
 16
0.0
 26
0.0
 36
1.0
 17
0.0
 27
0.0
 37
0.0
 40
65.52678921362804
 41
1.56570841889117
 42
50.0
 43
0.0
 44
0.0
 50
0.0
 51
0.0
 71
     0
 72
   100
 73
     1
 74
     1
 75
     0
 76
     0
 77
     0
 78
     0
  0
ENDTAB
  0
TABLE
  2
LTYPE
  5
5
330
0
100
AcDbSymbolTable
 70
    10
  0
LTYPE
  5
14
330
5
100
AcDbSymbolTableRecord
100
AcDbLinetypeTableRecord
  2
BYBLOCK
 70
     0
  3

 72
    65
 73
     0
 40
0.0
  0
LTYPE
  5
15
330
5
100
AcDbSymbolTableRecord
100
AcDbLinetypeTableRecord
  2
BYLAYER
 70
     0
  3

 72
    65
 73
     0
 40
0.0
  0
LTYPE
  5
16
330
5
100
AcDbSymbolTableRecord
100
AcDbLinetypeTableRecord
  2
CONTINUOUS
 70
     0
  3
Solid line
 72
    65
 73
     0
 40
0.0
  0
LTYPE
  5
4B
330
5
100
AcDbSymbolTableRecord
100
AcDbLinetypeTableRecord
  2
AM_ISO02W050
 70
     0
  3
__ __ __ __ __ __ __ __ __ __ __ __ __ __ __
 72
    65
 73
     2
 40
7.5
 49
6.0
 74
     0
 49
-1.5
 74
     0
  0
LTYPE
  5
4C
330
5
100
AcDbSymbolTableRecord
100
AcDbLinetypeTableRecord
  2
AM_ISO08W050
 70
     0
  3
____ . ____ . ____ . ____ . ____ . ____ . ____
 72
    65
 73
     4
 40
18.0
 49
12.0
 74
     0
 49
-1.5
 74
     0
 49
3.0
 74
     0
 49
-1.5
 74
     0
  0
LTYPE
  5
4D
330
5
100
AcDbSymbolTableRecord
100
AcDbLinetypeTableRecord
  2
AM_ISO09W050
 70
     0
  3
_____ . . _____ . . _____ . . ____ .. ____
 72
    65
 73
     6
 40
22.5
 49
12.0
 74
     0
 49
-1.5
 74
     0
 49
3.0
 74
     0
 49
-1.5
 74
     0
 49
3.0
 74
     0
 49
-1.5
 74
     0
  0
LTYPE
  5
4E
330
5
100
AcDbSymbolTableRecord
100
AcDbLinetypeTableRecord
  2
AMCONSTR
 70
     0
  3
_______________________
 72
    65
 73
     2
 40
9999.0
 49
9999.0
 74
     0
 49
0.0
 74
     0
  0
LTYPE
  5
4F
330
5
100
AcDbSymbolTableRecord
100
AcDbLinetypeTableRecord
  2
AM_ISO02W050X2
 70
     0
  3
 _ _ _ _ _ _ _ _ _ _ _ _
 72
    65
 73
     2
 40
3.75
 49
3.0
 74
     0
 49
-0.75
 74
     0
  0
LTYPE
  5
50
330
5
100
AcDbSymbolTableRecord
100
AcDbLinetypeTableRecord
  2
AM_ISO08W050X2
 70
     0
  3
__ . __ . __ . __ . __ . __
 72
    65
 73
     4
 40
9.0
 49
6.0
 74
     0
 49
-0.75
 74
     0
 49
1.5
 74
     0
 49
-0.75
 74
     0
  0
LTYPE
  5
53
330
5
100
AcDbSymbolTableRecord
100
AcDbLinetypeTableRecord
  2
AMZIGZAG
 70
     0
  3
/\/-/\/-/\/-/\/-/\/-/\/
 72
    65
 73
     2
 40
11.00009999999999
 49
0.0001
 74
     4
 75
   135
340
52
 46
0.04
 50
0.0
 44
0.0
 45
0.0
 49
-11.0
 74
     0
  0
LTYPE
  5
166
330
5
100
AcDbSymbolTableRecord
100
AcDbLinetypeTableRecord
  2
ACJISTGL
 70
     0
  3
_ _ _ _ _
 72
    65
 73
     2
 40
3.0
 49
2.0
 74
     0
 49
-1.0
 74
     0
  0
LTYPE
  5
26A
330
5
100
AcDbSymbolTableRecord
100
AcDbLinetypeTableRecord
  2
ACJISTGB
 70
     0
  3
__ . . __ . .
 72
    65
 73
     6
 40
9.0
 49
4.0
 74
     0
 49
-1.0
 74
     0
 49
1.0
 74
     0
 49
-1.0
 74
     0
 49
1.0
 74
     0
 49
-1.0
 74
     0
  0
ENDTAB
  0
TABLE
  2
LAYER
  5
2
330
0
100
AcDbSymbolTable
 70
     8
  0
LAYER
  5
10
330
2
100
AcDbSymbolTableRecord
100
AcDbLayerTableRecord
  2
0
 70
     0
 62
     7
  6
CONTINUOUS
  0
LAYER
  5
3F9
330
2
100
AcDbSymbolTableRecord
100
AcDbLayerTableRecord
  2
AM_0
 70
     0
 62
     7
  6
CONTINUOUS
  0
LAYER
  5
C7C
330
2
100
AcDbSymbolTableRecord
100
AcDbLayerTableRecord
  2
AM_7
 70
     0
 62
     4
  6
AM_ISO08W050
  0
LAYER
  5
C97
330
2
100
AcDbSymbolTableRecord
100
AcDbLayerTableRecord
  2
AM_11
 70
     0
 62
     3
  6
AM_ISO09W050
  0
LAYER
  5
CC5
330
2
100
AcDbSymbolTableRecord
100
AcDbLayerTableRecord
  2
AM_5
 70
     0
 62
     3
  6
CONTINUOUS
  0
LAYER
  5
CC7
330
2
100
AcDbSymbolTableRecord
100
AcDbLayerTableRecord
  2
DEFPOINTS
 70
     0
 62
     7
  6
CONTINUOUS
  0
LAYER
  5
19BC
330
2
100
AcDbSymbolTableRecord
100
AcDbLayerTableRecord
  2
AM_6
 70
     0
 62
     2
  6
CONTINUOUS
  0
LAYER
  5
32CC
330
2
100
AcDbSymbolTableRecord
100
AcDbLayerTableRecord
  2
AM_CL
 70
     0
 62
     1
  6
AMCONSTR
  0
ENDTAB
  0
TABLE
  2
STYLE
  5
3
330
0
100
AcDbSymbolTable
 70
     5
  0
STYLE
  5
11
330
3
100
AcDbSymbolTableRecord
100
AcDbTextStyleTableRecord
  2
STANDARD
 70
     0
 40
0.0
 41
1.0
 50
0.0
 71
     0
 42
2.5
  3
simplex.shx
  4
EXTFONT.SHX
  0
STYLE
  5
52
330
3
100
AcDbSymbolTableRecord
100
AcDbTextStyleTableRecord
  2

 70
     1
 40
0.0
 41
1.0
 50
0.0
 71
     0
 42
2.5
  3
ltypeshp.shx
  4

  0
STYLE
  5
6B
330
3
100
AcDbSymbolTableRecord
100
AcDbTextStyleTableRecord
  2
ASAMI
 70
     0
 40
0.0
 41
1.0
 50
0.0
 71
     0
 42
2.5
  3
simplex.shx
  4
EXTFONT.SHX
  0
STYLE
  5
262
330
3
100
AcDbSymbolTableRecord
100
AcDbTextStyleTableRecord
  2
ACJISTS
 70
     0
 40
1.0
 41
1.0
 50
0.0
 71
     0
 42
2.5
  3
simplex.shx
  4
bigfont.shx
  0
STYLE
  5
269
330
3
100
AcDbSymbolTableRecord
100
AcDbTextStyleTableRecord
  2
ACJISGDT
 70
     0
 40
0.0
 41
1.0
 50
0.0
 71
     0
 42
2.5
  3
amgdtans.shx
  4

  0
ENDTAB
  0
TABLE
  2
VIEW
  5
6
330
0
100
AcDbSymbolTable
 70
     0
  0
ENDTAB
  0
TABLE
  2
UCS
  5
7
330
0
100
AcDbSymbolTable
 70
     0
  0
ENDTAB
  0
TABLE
  2
APPID
  5
9
330
0
100
AcDbSymbolTable
 70
    16
  0
APPID
  5
12
330
9
100
AcDbSymbolTableRecord
100
AcDbRegAppTableRecord
  2
ACAD
 70
     0
  0
APPID
  5
30
330
9
100
AcDbSymbolTableRecord
100
AcDbRegAppTableRecord
  2
MCAD_NO_VIS
 70
     0
  0
APPID
  5
31
330
9
100
AcDbSymbolTableRecord
100
AcDbRegAppTableRecord
  2
ACAD_TEMP_GRAPHIC
 70
     0
  0
APPID
  5
2C2
330
9
100
AcDbSymbolTableRecord
100
AcDbRegAppTableRecord
  2
GENIUS_GENDTOL_13
 70
     0
  0
APPID
  5
339
330
9
100
AcDbSymbolTableRecord
100
AcDbRegAppTableRecord
  2
GENIUS_GENODEF_13
 70
     0
  0
APPID
  5
33A
330
9
100
AcDbSymbolTableRecord
100
AcDbRegAppTableRecord
  2
GENIUS_GENOBJ-N-RSBK_13
 70
     0
  0
APPID
  5
33B
330
9
100
AcDbSymbolTableRecord
100
AcDbRegAppTableRecord
  2
GENIUS_GENOBJ-N-LIB_13
 70
     0
  0
APPID
  5
33C
330
9
100
AcDbSymbolTableRecord
100
AcDbRegAppTableRecord
  2
GENIUS_GENSCALE_13
 70
     0
  0
APPID
  5
378
330
9
100
AcDbSymbolTableRecord
100
AcDbRegAppTableRecord
  2
GENIUS_GENDIMSH_14
 70
     0
  0
APPID
  5
C82
330
9
100
AcDbSymbolTableRecord
100
AcDbRegAppTableRecord
  2
GENIUS_GENOBJ-N-CRS_13
 70
     0
  0
APPID
  5
C83
330
9
100
AcDbSymbolTableRecord
100
AcDbRegAppTableRecord
  2
GENIUS_GENOENT_13
 70
     0
  0
APPID
  5
C84
330
9
100
AcDbSymbolTableRecord
100
AcDbRegAppTableRecord
  2
GENIUS_GENOREF_13
 70
     0
  0
APPID
  5
C85
330
9
100
AcDbSymbolTableRecord
100
AcDbRegAppTableRecord
  2
GENIUS_GENOLIS_13
 70
     0
  0
APPID
  5
CA0
330
9
100
AcDbSymbolTableRecord
100
AcDbRegAppTableRecord
  2
GENIUS_GENOBJ-N-CEN_13
 70
     0
  0
APPID
  5
1CFA
330
9
100
AcDbSymbolTableRecord
100
AcDbRegAppTableRecord
  2
GENIUS_GENFIL_13
 70
     0
  0
APPID
  5
1CFB
330
9
100
AcDbSymbolTableRecord
100
AcDbRegAppTableRecord
  2
GENIUS_GENOBJ-N-CHA_13
 70
     0
  0
ENDTAB
  0
TABLE
  2
DIMSTYLE
  5
A
330
0
100
AcDbSymbolTable
 70
     9
  0
DIMSTYLE
105
58
330
A
100
AcDbSymbolTableRecord
100
AcDbDimStyleTableRecord
  2
AM_JIS
 70
     0
  3

  4
"
  5
OPEN30
  6

  7

 40
0.5
 41
2.5
 42
1.0
 43
12.0
 44
1.0
 45
0.0
 46
0.0
 47
0.1
 48
0.1
140
3.2
141
0.0
142
0.0
143
0.0393701
144
1.0
145
0.0
146
0.71
147
1.5
 71
     0
 72
     0
 73
     0
 74
     0
 75
     0
 76
     0
 77
     3
 78
     8
170
     0
171
     2
172
     1
173
     0
174
     0
175
     0
176
   256
177
   256
178
     2
270
     2
271
     3
272
     3
273
     2
274
     2
340
6B
275
     0
280
     0
281
     0
282
     0
283
     0
284
     0
285
     0
286
     0
287
     3
288
     0
  0
DIMSTYLE
105
5F
330
A
100
AcDbSymbolTableRecord
100
AcDbDimStyleTableRecord
  2
AM_JIS$3
 70
     0
  3

  4
"
  5
OPEN30
  6

  7

 40
0.5
 41
2.5
 42
1.0
 43
10.0
 44
1.0
 45
0.0
 46
0.0
 47
0.1
 48
0.1
140
3.2
141
0.0
142
0.0
143
0.0393701
144
1.0
145
0.0
146
0.71
147
1.5
 71
     0
 72
     0
 73
     0
 74
     1
 75
     0
 76
     0
 77
     3
 78
     8
170
     0
171
     2
172
     0
173
     0
174
     0
175
     0
176
   256
177
   256
178
     2
270
     2
271
     2
272
     3
273
     2
274
     2
340
6B
275
     0
280
     0
281
     0
282
     0
283
     0
284
     0
285
     0
286
     0
287
     0
288
     1
  0
DIMSTYLE
105
60
330
A
100
AcDbSymbolTableRecord
100
AcDbDimStyleTableRecord
  2
AM_JIS$4
 70
     0
  3

  4
"
  5
OPEN30
  6

  7

 40
0.5
 41
2.5
 42
1.0
 43
10.0
 44
1.0
 45
0.0
 46
0.0
 47
0.1
 48
0.1
140
3.2
141
0.0
142
0.0
143
0.0393701
144
1.0
145
0.0
146
0.71
147
1.5
 71
     0
 72
     0
 73
     0
 74
     1
 75
     0
 76
     0
 77
     3
 78
     8
170
     0
171
     2
172
     0
173
     0
174
     0
175
     0
176
   256
177
   256
178
     2
270
     2
271
     2
272
     3
273
     2
274
     2
340
6B
275
     0
280
     0
281
     0
282
     0
283
     0
284
     0
285
     0
286
     0
287
     0
288
     1
  0
DIMSTYLE
105
61
330
A
100
AcDbSymbolTableRecord
100
AcDbDimStyleTableRecord
  2
AM_JIS$6
 70
     0
  3

  4
"
  5
OPEN30
  6

  7

 40
0.5
 41
2.5
 42
1.0
 43
10.0
 44
1.0
 45
0.0
 46
0.0
 47
0.1
 48
0.1
140
3.2
141
0.0
142
0.0
143
0.0393701
144
1.0
145
0.0
146
0.71
147
1.5
 71
     0
 72
     0
 73
     0
 74
     0
 75
     0
 76
     0
 77
     0
 78
     8
170
     0
171
     2
172
     1
173
     0
174
     0
175
     0
176
   256
177
   256
178
     2
270
     2
271
     2
272
     2
273
     2
274
     2
340
6B
275
     0
280
     0
281
     0
282
     0
283
     0
284
     0
285
     0
286
     0
287
     3
288
     0
  0
DIMSTYLE
105
62
330
A
100
AcDbSymbolTableRecord
100
AcDbDimStyleTableRecord
  2
AM_JIS$7
 70
     0
  3

  4
"
  5
OPEN30
  6

  7

 40
0.5
 41
2.5
 42
1.0
 43
10.0
 44
1.0
 45
0.0
 46
0.0
 47
0.1
 48
0.1
140
3.2
141
0.0
142
0.0
143
0.0393701
144
1.0
145
0.0
146
0.71
147
1.5
 71
     0
 72
     0
 73
     0
 74
     0
 75
     0
 76
     0
 77
     3
 78
     8
170
     0
171
     2
172
     1
173
     0
174
     0
175
     0
176
   256
177
   256
178
     2
270
     2
271
     2
272
     3
273
     2
274
     2
340
6B
275
     0
280
     0
281
     0
282
     0
283
     0
284
     0
285
     0
286
     0
287
     3
288
     0
  0
DIMSTYLE
105
63
330
A
100
AcDbSymbolTableRecord
100
AcDbDimStyleTableRecord
  2
AM_JIS$SF
 70
     0
  3

  4
"
  5
OPEN30
  6

  7

 40
0.5
 41
2.5
 42
1.0
 43
10.0
 44
1.0
 45
0.0
 46
0.0
 47
0.1
 48
0.1
140
3.2
141
0.0
142
0.0
143
0.0393701
144
1.0
145
0.0
146
0.71
147
1.5
 71
     0
 72
     0
 73
     0
 74
     0
 75
     1
 76
     1
 77
     3
 78
     8
170
     0
171
     2
172
     1
173
     0
174
     0
175
     0
176
   256
177
   256
178
     2
270
     2
271
     2
272
     2
273
     2
274
     2
340
6B
275
     0
280
     0
281
     0
282
     0
283
     0
284
     0
285
     0
286
     0
287
     3
288
     0
  0
DIMSTYLE
105
68
330
A
100
AcDbSymbolTableRecord
100
AcDbDimStyleTableRecord
  2
AM_JIS$SH
 70
     0
  3

  4
"
  5

  6
GENAXEH
  7
OPEN30
 40
0.5
 41
2.5
 42
1.0
 43
10.0
 44
1.0
 45
0.0
 46
0.0
 47
0.1
 48
0.1
140
3.2
141
0.0
142
0.0
143
0.0393701
144
2.0
145
0.0
146
0.71
147
1.5
 71
     0
 72
     0
 73
     0
 74
     0
 75
     1
 76
     1
 77
     3
 78
     8
170
     0
171
     2
172
     1
173
     1
174
     0
175
     0
176
   256
177
   256
178
     2
270
     2
271
     2
272
     2
273
     2
274
     2
340
6B
275
     0
280
     0
281
     0
282
     0
283
     0
284
     0
285
     0
286
     0
287
     3
288
     0
  0
DIMSTYLE
105
B34
102
{ACAD_REACTORS
330
2FE5
102
}
330
A
100
AcDbSymbolTableRecord
100
AcDbDimStyleTableRecord
  2
AM_JIS$2
 70
     0
  3

  4
"
  5
OPEN30
  6

  7

 40
0.5
 41
2.5
 42
1.0
 43
12.0
 44
1.0
 45
0.0
 46
0.0
 47
0.1
 48
0.1
140
3.2
141
0.0
142
0.0
143
0.0393701
144
1.0
145
0.0
146
0.71
147
1.5
 71
     0
 72
     0
 73
     0
 74
     0
 75
     0
 76
     0
 77
     3
 78
     8
170
     0
171
     2
172
     1
173
     0
174
     0
175
     0
176
   256
177
   256
178
     2
270
     2
271
     3
272
     3
273
     2
274
     2
340
6B
275
     0
280
     0
281
     0
282
     0
283
     0
284
     0
285
     0
286
     0
287
     3
288
     0
  0
DIMSTYLE
105
BA5
102
{ACAD_REACTORS
330
223E
330
2259
330
282D
330
2ABE
102
}
330
A
100
AcDbSymbolTableRecord
100
AcDbDimStyleTableRecord
  2
AM_JIS$0
 70
     0
  3

  4
"
  5
OPEN30
  6

  7

 40
0.5
 41
2.5
 42
0.0
 43
10.0
 44
1.0
 45
0.0
 46
0.0
 47
0.1
 48
0.1000000001
140
3.799999999999999
141
0.0
142
0.0
143
0.0393701
144
1.0
145
0.0
146
0.71
147
1.5
 71
     0
 72
     0
 73
     0
 74
     0
 75
     0
 76
     0
 77
     3
 78
     1
170
     0
171
     2
172
     1
173
     0
174
     0
175
     0
176
     3
177
     3
178
     2
270
     2
271
     2
272
     2
273
     2
274
     2
340
11
275
     1
280
     0
281
     0
282
     0
283
     0
284
     8
285
     0
286
     0
287
     0
288
     0
  0
ENDTAB
  0
TABLE
  2
BLOCK_RECORD
  5
1
330
0
100
AcDbSymbolTable
 70
    10
  0
BLOCK_RECORD
  5
1F
102
{ACAD_XDICTIONARY
360
74
102
}
330
1
100
AcDbSymbolTableRecord
100
AcDbBlockTableRecord
  2
*MODEL_SPACE
  0
BLOCK_RECORD
  5
101
102
{ACAD_XDICTIONARY
360
335D
102
}
330
1
100
AcDbSymbolTableRecord
100
AcDbBlockTableRecord
  2
*PAPER_SPACE
  0
BLOCK_RECORD
  5
59
330
1
100
AcDbSymbolTableRecord
100
AcDbBlockTableRecord
  2
_OPEN30
  0
BLOCK_RECORD
  5
64
330
1
100
AcDbSymbolTableRecord
100
AcDbBlockTableRecord
  2
GENAXEH
  0
BLOCK_RECORD
  5
223F
330
1
100
AcDbSymbolTableRecord
100
AcDbBlockTableRecord
  2
*D5
  0
BLOCK_RECORD
  5
225A
330
1
100
AcDbSymbolTableRecord
100
AcDbBlockTableRecord
  2
*D6
  0
BLOCK_RECORD
  5
2833
330
1
100
AcDbSymbolTableRecord
100
AcDbBlockTableRecord
  2
*D7
  0
BLOCK_RECORD
  5
2ABF
330
1
100
AcDbSymbolTableRecord
100
AcDbBlockTableRecord
  2
*D8
  0
BLOCK_RECORD
  5
2FE6
330
1
100
AcDbSymbolTableRecord
100
AcDbBlockTableRecord
  2
*D9
  0
ENDTAB
  0
ENDSEC
  0
SECTION
  2
BLOCKS
  0
BLOCK
  5
20
330
1F
100
AcDbEntity
  8
0
100
AcDbBlockBegin
  2
*MODEL_SPACE
 70
     0
 10
0.0
 20
0.0
 30
0.0
  3
*MODEL_SPACE
  1

  0
ENDBLK
  5
21
330
1F
100
AcDbEntity
  8
0
100
AcDbBlockEnd
  0
BLOCK
  5
103
330
101
100
AcDbEntity
 67
     1
  8
0
100
AcDbBlockBegin
  2
*PAPER_SPACE
 70
     0
 10
0.0
 20
0.0
 30
0.0
  3
*PAPER_SPACE
  1

  0
ENDBLK
  5
104
330
101
100
AcDbEntity
 67
     1
  8
0
100
AcDbBlockEnd
  0
BLOCK
  5
5D
330
59
100
AcDbEntity
  8
0
100
AcDbBlockBegin
  2
_OPEN30
 70
     0
 10
0.0
 20
0.0
 30
0.0
  3
_OPEN30
  1

  0
LINE
  5
5A
330
59
100
AcDbEntity
  8
0
 62
     0
100
AcDbLine
 10
-1.0
 20
0.26794919
 30
0.0
 11
0.0
 21
0.0
 31
0.0
  0
LINE
  5
5B
330
59
100
AcDbEntity
  8
0
 62
     0
100
AcDbLine
 10
0.0
 20
0.0
 30
0.0
 11
-1.0
 21
-0.26794919
 31
0.0
  0
LINE
  5
5C
330
59
100
AcDbEntity
  8
0
 62
     0
100
AcDbLine
 10
0.0
 20
0.0
 30
0.0
 11
-1.0
 21
0.0
 31
0.0
  0
ENDBLK
  5
5E
330
59
100
AcDbEntity
  8
0
100
AcDbBlockEnd
  0
BLOCK
  5
66
330
64
100
AcDbEntity
  8
0
100
AcDbBlockBegin
  2
GENAXEH
 70
     0
 10
0.0
 20
0.0
 30
0.0
  3
GENAXEH
  1

  0
LINE
  5
65
330
64
100
AcDbEntity
  8
0
100
AcDbLine
 10
-1.0
 20
0.0
 30
0.0
 11
1.0
 21
0.0
 31
0.0
  0
ENDBLK
  5
67
330
64
100
AcDbEntity
  8
0
100
AcDbBlockEnd
  0
BLOCK
  5
2249
330
223F
100
AcDbEntity
  8
0
100
AcDbBlockBegin
  2
*D5
 70
     1
 10
0.0
 20
0.0
 30
0.0
  3
*D5
  1

  0
LINE
  5
32FB
330
223F
100
AcDbEntity
  8
AM_5
 62
     3
100
AcDbLine
 10
-25.00000000000019
 20
-2.000000000000044
 30
0.0
 11
-25.00000000000019
 21
-9.500000999999999
 31
0.0
  0
LINE
  5
32FC
330
223F
100
AcDbEntity
  8
AM_5
 62
     3
100
AcDbLine
 10
-1.000000000000115
 20
-1.549998765766864
 30
0.0
 11
-1.000000000000115
 21
-9.500000999999999
 31
0.0
  0
LINE
  5
32FD
330
223F
100
AcDbEntity
  8
AM_5
 62
     3
100
AcDbLine
 10
-23.75000000000019
 20
-9.000000999999999
 30
0.0
 11
-2.250000000000115
 21
-9.000000999999999
 31
0.0
  0
INSERT
  5
32FE
330
223F
100
AcDbEntity
  8
AM_5
 62
     3
100
AcDbBlockReference
  2
_OPEN30
 10
-25.00000000000019
 20
-9.000000999999999
 30
0.0
 41
1.25
 42
1.25
 43
1.25
 50
180.0
  0
INSERT
  5
32FF
330
223F
100
AcDbEntity
  8
AM_5
 62
     3
100
AcDbBlockReference
  2
_OPEN30
 10
-1.000000000000115
 20
-9.000000999999999
 30
0.0
 41
1.25
 42
1.25
 43
1.25
  0
MTEXT
  5
3300
330
223F
100
AcDbEntity
  8
AM_5
 62
     2
100
AcDbMText
 10
-13.00000000000015
 20
-7.300000999999999
 30
0.0
 40
1.9
 41
0.0
 71
     5
 72
     1
  1
24
1001
ACAD
1000
MTEXTBEGIN
1070
    73
1070
     1
1070
    44
1040
1.0
1070
    74
1070
     0
1000
MTEXTEND
  0
POINT
  5
3301
330
223F
100
AcDbEntity
  8
DEFPOINTS
 62
     0
100
AcDbPoint
 10
-25.00000000000019
 20
-2.000000000000044
 30
0.0
  0
POINT
  5
3302
330
223F
100
AcDbEntity
  8
DEFPOINTS
 62
     0
100
AcDbPoint
 10
-1.000000000000115
 20
-1.549998765766864
 30
0.0
  0
POINT
  5
3303
330
223F
100
AcDbEntity
  8
DEFPOINTS
 62
     0
100
AcDbPoint
 10
-1.000000000000115
 20
-9.000000999999999
 30
0.0
  0
ENDBLK
  5
224A
330
223F
100
AcDbEntity
  8
0
100
AcDbBlockEnd
  0
BLOCK
  5
2264
330
225A
100
AcDbEntity
  8
0
100
AcDbBlockBegin
  2
*D6
 70
     1
 10
0.0
 20
0.0
 30
0.0
  3
*D6
  1

  0
LINE
  5
32DE
330
225A
100
AcDbEntity
  8
AM_5
 62
     3
100
AcDbLine
 10
-73.00000000000011
 20
-1.531249841054207
 30
0.0
 11
-73.00000000000011
 21
-14.50000100000002
 31
0.0
  0
LINE
  5
32DF
330
225A
100
AcDbEntity
  8
AM_5
 62
     3
100
AcDbLine
 10
-1.000000000000115
 20
-1.549998765766864
 30
0.0
 11
-1.000000000000115
 21
-14.50000100000002
 31
0.0
  0
LINE
  5
32E0
330
225A
100
AcDbEntity
  8
AM_5
 62
     3
100
AcDbLine
 10
-71.75000000000011
 20
-14.00000100000002
 30
0.0
 11
-2.250000000000115
 21
-14.00000100000002
 31
0.0
  0
INSERT
  5
32E1
330
225A
100
AcDbEntity
  8
AM_5
 62
     3
100
AcDbBlockReference
  2
_OPEN30
 10
-73.00000000000011
 20
-14.00000100000002
 30
0.0
 41
1.25
 42
1.25
 43
1.25
 50
180.0
  0
INSERT
  5
32E2
330
225A
100
AcDbEntity
  8
AM_5
 62
     3
100
AcDbBlockReference
  2
_OPEN30
 10
-1.000000000000115
 20
-14.00000100000002
 30
0.0
 41
1.25
 42
1.25
 43
1.25
  0
MTEXT
  5
32E3
330
225A
100
AcDbEntity
  8
AM_5
 62
     2
100
AcDbMText
 10
-37.00000000000011
 20
-12.30000100000002
 30
0.0
 40
1.9
 41
0.0
 71
     5
 72
     1
  1
72
1001
ACAD
1000
MTEXTBEGIN
1070
    73
1070
     1
1070
    44
1040
1.0
1070
    74
1070
     0
1000
MTEXTEND
  0
POINT
  5
32E4
330
225A
100
AcDbEntity
  8
DEFPOINTS
 62
     0
100
AcDbPoint
 10
-73.00000000000011
 20
-1.531249841054207
 30
0.0
  0
POINT
  5
32E5
330
225A
100
AcDbEntity
  8
DEFPOINTS
 62
     0
100
AcDbPoint
 10
-1.000000000000115
 20
-1.549998765766864
 30
0.0
  0
POINT
  5
32E6
330
225A
100
AcDbEntity
  8
DEFPOINTS
 62
     0
100
AcDbPoint
 10
-1.000000000000115
 20
-14.00000100000002
 30
0.0
  0
ENDBLK
  5
2265
330
225A
100
AcDbEntity
  8
0
100
AcDbBlockEnd
  0
BLOCK
  5
283F
330
2833
100
AcDbEntity
  8
0
100
AcDbBlockBegin
  2
*D7
 70
     1
 10
0.0
 20
0.0
 30
0.0
  3
*D7
  1

  0
LINE
  5
32E7
330
2833
100
AcDbEntity
  8
AM_5
 62
     3
100
AcDbLine
 10
-72.74285714285728
 20
-1.999999999999974
 30
0.0
 11
-82.19201976987481
 21
-1.999999999999971
 31
0.0
  0
LINE
  5
32E8
330
2833
100
AcDbEntity
  8
AM_5
 62
     3
100
AcDbLine
 10
-72.74285714285726
 20
2.000000000000025
 30
0.0
 11
-82.19201976987481
 21
2.000000000000028
 31
0.0
  0
LINE
  5
32E9
330
2833
100
AcDbEntity
  8
AM_5
 62
     3
100
AcDbLine
 10
-81.6920197698748
 20
-0.7499999999999722
 30
0.0
 11
-81.6920197698748
 21
0.7500000000000284
 31
0.0
  0
INSERT
  5
32EA
330
2833
100
AcDbEntity
  8
AM_5
 62
     3
100
AcDbBlockReference
  2
_OPEN30
 10
-81.6920197698748
 20
-1.999999999999971
 30
0.0
 41
1.25
 42
1.25
 43
1.25
 50
270.0
  0
INSERT
  5
32EB
330
2833
100
AcDbEntity
  8
AM_5
 62
     3
100
AcDbBlockReference
  2
_OPEN30
 10
-81.6920197698748
 20
2.000000000000028
 30
0.0
 41
1.25
 42
1.25
 43
1.25
 50
90.0
  0
MTEXT
  5
32EC
330
2833
100
AcDbEntity
  8
AM_5
 62
     2
100
AcDbMText
 10
-83.3920197698748
 20
0.0000000000000152
 30
0.0
 40
1.9
 41
0.0
 71
     5
 72
     1
  1
%%c4
 11
0.0000000000000001
 21
1.0
 31
0.0
1001
ACAD
1000
MTEXTBEGIN
1070
    73
1070
     1
1070
    44
1040
1.0
1070
    74
1070
     0
1000
MTEXTEND
  0
POINT
  5
32ED
330
2833
100
AcDbEntity
  8
DEFPOINTS
 62
     0
100
AcDbPoint
 10
-72.74285714285728
 20
-1.999999999999974
 30
0.0
  0
POINT
  5
32EE
330
2833
100
AcDbEntity
  8
DEFPOINTS
 62
     0
100
AcDbPoint
 10
-72.74285714285726
 20
2.000000000000025
 30
0.0
  0
POINT
  5
32EF
330
2833
100
AcDbEntity
  8
DEFPOINTS
 62
     0
100
AcDbPoint
 10
-81.6920197698748
 20
2.000000000000028
 30
0.0
  0
ENDBLK
  5
2840
330
2833
100
AcDbEntity
  8
0
100
AcDbBlockEnd
  0
BLOCK
  5
2ACB
330
2ABF
100
AcDbEntity
  8
0
100
AcDbBlockBegin
  2
*D8
 70
     1
 10
0.0
 20
0.0
 30
0.0
  3
*D8
  1

  0
LINE
  5
3304
330
2ABF
100
AcDbEntity
  8
AM_5
 62
     3
100
AcDbLine
 10
-1.000000000000114
 20
-1.549998765766864
 30
0.0
 11
8.215865571920836
 21
-1.549998765766867
 31
0.0
  0
LINE
  5
3305
330
2ABF
100
AcDbEntity
  8
AM_5
 62
     3
100
AcDbLine
 10
-1.000000000000114
 20
1.550001234234226
 30
0.0
 11
8.215865571920835
 21
1.550001234234224
 31
0.0
  0
LINE
  5
3306
330
2ABF
100
AcDbEntity
  8
AM_5
 62
     3
100
AcDbLine
 10
7.715865571920835
 20
-2.799998765766867
 30
0.0
 11
7.715865571920835
 21
-4.049998765766867
 31
0.0
  0
LINE
  5
3307
330
2ABF
100
AcDbEntity
  8
AM_5
 62
     3
100
AcDbLine
 10
7.715865571920836
 20
2.800001234234224
 30
0.0
 11
7.715865571920838
 21
10.43571551994851
 31
0.0
  0
LINE
  5
3308
330
2ABF
100
AcDbEntity
  8
AM_5
 62
     3
100
AcDbLine
 10
7.715865571920835
 20
-1.549998765766867
 30
0.0
 11
7.715865571920835
 21
1.550001234234224
 31
0.0
  0
INSERT
  5
3309
330
2ABF
100
AcDbEntity
  8
AM_5
 62
     3
100
AcDbBlockReference
  2
_OPEN30
 10
7.715865571920835
 20
-1.549998765766867
 30
0.0
 41
1.25
 42
1.25
 43
1.25
 50
90.0
  0
INSERT
  5
330A
330
2ABF
100
AcDbEntity
  8
AM_5
 62
     3
100
AcDbBlockReference
  2
_OPEN30
 10
7.715865571920835
 20
1.550001234234224
 30
0.0
 41
1.25
 42
1.25
 43
1.25
 50
270.0
  0
MTEXT
  5
330B
330
2ABF
100
AcDbEntity
  8
AM_5
 62
     2
100
AcDbMText
 10
6.015865571920835
 20
7.242858377091369
 30
0.0
 40
1.9
 41
0.0
 71
     5
 72
     1
  1
%%c3.1
 11
0.0000000000000001
 21
1.0
 31
0.0
1001
ACAD
1000
MTEXTBEGIN
1070
    73
1070
     1
1070
    44
1040
1.0
1070
    74
1070
     0
1000
MTEXTEND
  0
POINT
  5
330C
330
2ABF
100
AcDbEntity
  8
DEFPOINTS
 62
     0
100
AcDbPoint
 10
-1.000000000000114
 20
-1.549998765766864
 30
0.0
  0
POINT
  5
330D
330
2ABF
100
AcDbEntity
  8
DEFPOINTS
 62
     0
100
AcDbPoint
 10
-1.000000000000114
 20
1.550001234234226
 30
0.0
  0
POINT
  5
330E
330
2ABF
100
AcDbEntity
  8
DEFPOINTS
 62
     0
100
AcDbPoint
 10
7.715865571920835
 20
1.550001234234224
 30
0.0
  0
ENDBLK
  5
2ACC
330
2ABF
100
AcDbEntity
  8
0
100
AcDbBlockEnd
  0
BLOCK
  5
2FF6
330
2FE6
100
AcDbEntity
  8
0
100
AcDbBlockBegin
  2
*D9
 70
     1
 10
0.0
 20
0.0
 30
0.0
  3
*D9
  1

  0
LINE
  5
335F
330
2FE6
100
AcDbEntity
  8
AM_5
100
AcDbLine
 10
0.17100752727629
 20
-0.4698463108496642
 30
0.0
 11
4.994583140029852
 21
-13.72251149804382
 31
0.0
  0
LINE
  5
3360
330
2FE6
100
AcDbEntity
  8
AM_5
100
AcDbLine
 10
0.1710073032922157
 20
0.4698477016270447
 30
0.0
 11
4.994592641252728
 21
13.72251105824148
 31
0.0
  0
ARC
  5
3361
330
2FE6
100
AcDbEntity
  8
AM_5
100
AcDbCircle
 10
-0.0000030924290439
 20
0.0000015091818379
 30
0.0
 40
14.1031933106066
100
AcDbArc
 50
295.079926512901
 51
64.92003381651979
  0
INSERT
  5
3362
330
2FE6
100
AcDbEntity
  8
AM_5
100
AcDbBlockReference
  2
_OPEN30
 10
4.823573069621785
 20
-13.25266518719417
 30
0.0
 41
1.25
 42
1.25
 43
1.25
 50
202.5399631799436
  0
INSERT
  5
3363
330
2FE6
100
AcDbEntity
  8
AM_5
100
AcDbBlockReference
  2
_OPEN30
 10
4.823582245531468
 20
13.25266486579628
 30
0.0
 41
1.25
 42
1.25
 43
1.25
 50
157.459997149477
  0
MTEXT
  5
3364
330
2FE6
100
AcDbEntity
  8
AM_5
 62
     2
100
AcDbMText
 10
12.55319021817671
 20
-0.0000033732183309
 30
0.0
 40
1.6
 41
0.0
 71
     5
 72
     1
  1
140°
  7
ASAMI
 11
0.0000000000000001
 21
1.0
 31
0.0
  0
POINT
  5
3365
330
2FE6
100
AcDbEntity
  8
DEFPOINTS
 62
     0
100
AcDbPoint
 10
12.94977873726863
 20
5.585985050114524
 30
0.0
  0
POINT
  5
3366
330
2FE6
100
AcDbEntity
  8
DEFPOINTS
 62
     0
100
AcDbPoint
 10
-0.0000031789144462
 20
0.000001271565658
 30
0.0
  0
POINT
  5
3367
330
2FE6
100
AcDbEntity
  8
DEFPOINTS
 62
     0
100
AcDbPoint
 10
-0.000002543131777
 20
-0.000000000000012
 30
0.0
  0
POINT
  5
3368
330
2FE6
100
AcDbEntity
  8
DEFPOINTS
 62
     0
100
AcDbPoint
 10
-0.1953284988368898
 20
0.5366536571924511
 30
0.0
  0
POINT
  5
3369
330
2FE6
100
AcDbEntity
  8
DEFPOINTS
 62
     0
100
AcDbPoint
 10
-0.1953317107826432
 20
-0.5366583074448092
 30
0.0
  0
ENDBLK
  5
2FF7
330
2FE6
100
AcDbEntity
  8
0
100
AcDbBlockEnd
  0
ENDSEC
  0
SECTION
  2
ENTITIES
  0
LINE
  5
C1D
330
1F
100
AcDbEntity
  8
AM_0
 48
0.5
100
AcDbLine
 10
0.0
 20
0.0
 30
0.0
 11
-0.1953284988368898
 21
0.5366536571924511
 31
0.0
  0
LINE
  5
C20
330
1F
100
AcDbEntity
  8
AM_0
 48
0.5
100
AcDbLine
 10
-0.0000000000000013
 20
-0.0000000000000036
 30
0.0
 11
-0.1953317107826432
 21
-0.5366583074448092
 31
0.0
  0
TEXT
  5
19BD
330
1F
100
AcDbEntity
  8
AM_6
100
AcDbText
 10
-48.01190476190487
 20
-25.25000100000005
 30
0.0
 40
2.5
  1
MDW031MHK
 50
0.0000000000001527
 72
     4
 11
-37.00000000000011
 21
-24.00000100000002
 31
0.0
100
AcDbText
  0
ELLIPSE
  5
21FC
330
1F
100
AcDbEntity
  8
AM_11
 48
0.5
100
AcDbEllipse
 10
-6.843618774414152
 20
7.729693494220401
 30
0.0
 11
-8.7905376434325
 21
0.000000000000022
 31
0.0
210
0.0
220
0.0
230
1.0
 40
0.9722222222222219
 41
1.130070686340307
 42
2.011520147323599
  0
ELLIPSE
  5
21FD
330
1F
100
AcDbEntity
  8
AM_11
 48
0.5
100
AcDbEllipse
 10
-6.843618774414185
 20
-7.729687927186598
 30
0.0
 11
8.790537643432497
 21
0.000000000000022
 31
0.0
210
0.0
220
0.0
230
1.0
 40
0.9722222222222226
 41
1.130071552591889
 42
2.011521013575197
  0
ELLIPSE
  5
2200
330
1F
100
AcDbEntity
  8
AM_11
 48
0.5
100
AcDbEllipse
 10
-14.34361877441418
 20
-7.729687927186583
 30
0.0
 11
-8.7905376434325
 21
0.0000000000000142
 31
0.0
210
0.0
220
0.0
230
1.0
 40
0.9722222222222219
 41
4.271664206181687
 42
5.153113667164993
  0
ELLIPSE
  5
2201
330
1F
100
AcDbEntity
  8
AM_11
 48
0.5
100
AcDbEllipse
 10
-14.34361877441415
 20
7.729693494220417
 30
0.0
 11
8.790537643432497
 21
0.0000000000000669
 31
0.0
210
0.0
220
0.0
230
1.0
 40
0.9722222222222224
 41
4.271663339930089
 42
5.153112800913382
  0
ELLIPSE
  5
2206
330
1F
100
AcDbEntity
  8
AM_11
 48
0.5
100
AcDbEllipse
 10
-29.34361877441204
 20
7.729693494220445
 30
0.0
 11
8.790537643432497
 21
0.0000000000000142
 31
0.0
210
0.0
220
0.0
230
1.0
 40
0.9722222222222224
 41
4.271663339930095
 42
5.153112800913389
  0
ELLIPSE
  5
2207
330
1F
100
AcDbEntity
  8
AM_11
 48
0.5
100
AcDbEllipse
 10
-29.34361877441207
 20
-7.729687927186556
 30
0.0
 11
-8.79053764343249
 21
0.0000000000000083
 31
0.0
210
0.0
220
0.0
230
1.0
 40
0.9722222222222233
 41
4.271664206181686
 42
5.153113667164993
  0
ELLIPSE
  5
220B
330
1F
100
AcDbEntity
  8
AM_11
 48
0.5
100
AcDbEllipse
 10
-21.84361877441205
 20
7.729693494220431
 30
0.0
 11
-8.790537643432497
 21
0.0000000000000005
 31
0.0
210
0.0
220
0.0
230
1.0
 40
0.9722222222222224
 41
1.130070686340304
 42
2.011520147323597
  0
ELLIPSE
  5
220C
330
1F
100
AcDbEntity
  8
AM_11
 48
0.5
100
AcDbEllipse
 10
-21.84361877441208
 20
-7.729687927186569
 30
0.0
 11
-8.790537643432495
 21
0.0000000000000044
 31
0.0
210
0.0
220
0.0
230
1.0
 40
0.9722222222222226
 41
4.271664206181685
 42
5.153113667164992
  0
ELLIPSE
  5
220D
330
1F
100
AcDbEntity
  8
AM_11
 48
0.5
100
AcDbEllipse
 10
-44.34358596277856
 20
7.729693494220434
 30
0.0
 11
8.79053764343249
 21
0.0000000000000669
 31
0.0
210
0.0
220
0.0
230
1.0
 40
0.9722222222222233
 41
4.271663339930089
 42
5.153112800913382
  0
ELLIPSE
  5
220E
330
1F
100
AcDbEntity
  8
AM_11
 48
0.5
100
AcDbEllipse
 10
-44.34358596277858
 20
-7.729687927186566
 30
0.0
 11
-8.79053764343249
 21
0.0000000000000083
 31
0.0
210
0.0
220
0.0
230
1.0
 40
0.9722222222222233
 41
4.271664206181686
 42
5.153113667164993
  0
ELLIPSE
  5
220F
330
1F
100
AcDbEntity
  8
AM_11
 48
0.5
100
AcDbEllipse
 10
-51.84356955696189
 20
-7.729687927186573
 30
0.0
 11
8.790537643432477
 21
0.0000000000000552
 31
0.0
210
0.0
220
0.0
230
1.0
 40
0.9722222222222244
 41
1.130071552591885
 42
2.011521013575192
  0
ELLIPSE
  5
2210
330
1F
100
AcDbEntity
  8
AM_11
 48
0.5
100
AcDbEllipse
 10
-51.84356955696188
 20
7.72969349422043
 30
0.0
 11
-8.790537643432493
 21
0.0000000000000669
 31
0.0
210
0.0
220
0.0
230
1.0
 40
0.972222222222223
 41
1.130070686340312
 42
2.011520147323604
  0
ELLIPSE
  5
2219
330
1F
100
AcDbEntity
  8
AM_11
 48
0.5
100
AcDbEllipse
 10
-59.34355315114512
 20
7.729693494220422
 30
0.0
 11
-8.790537643432497
 21
0.0000000000000005
 31
0.0
210
0.0
220
0.0
230
1.0
 40
0.9722222222222224
 41
1.130070686340304
 42
2.011520147323597
  0
ELLIPSE
  5
221A
330
1F
100
AcDbEntity
  8
AM_11
 48
0.5
100
AcDbEllipse
 10
-59.34355315114515
 20
-7.729687927186577
 30
0.0
 11
-8.79053764343249
 21
0.0000000000000083
 31
0.0
210
0.0
220
0.0
230
1.0
 40
0.9722222222222233
 41
4.271664206181686
 42
5.153113667164993
  0
ELLIPSE
  5
2228
330
1F
100
AcDbEntity
  8
AM_11
 48
0.5
100
AcDbEllipse
 10
-36.8436023685953
 20
7.729693494220438
 30
0.0
 11
8.790537643432491
 21
0.0000000000000747
 31
0.0
210
0.0
220
0.0
230
1.0
 40
0.972222222222223
 41
4.271663339930089
 42
5.153112800913382
  0
ELLIPSE
  5
2229
330
1F
100
AcDbEntity
  8
AM_11
 48
0.5
100
AcDbEllipse
 10
-36.84360236859533
 20
-7.729687927186561
 30
0.0
 11
-8.79053764343249
 21
0.0000000000000083
 31
0.0
210
0.0
220
0.0
230
1.0
 40
0.9722222222222233
 41
4.271664206181686
 42
5.153113667164993
  0
DIMENSION
  5
223E
330
1F
100
AcDbEntity
  8
AM_5
100
AcDbDimension
  2
*D5
 10
-1.000000000000115
 20
-9.000000999999999
 30
0.0
 11
-13.00000000000015
 21
-7.300000999999999
 31
0.0
 70
    32
  1
<>
  3
AM_JIS$0
100
AcDbAlignedDimension
 13
-25.00000000000019
 23
-2.000000000000044
 33
0.0
 14
-1.000000000000115
 24
-1.549998765766864
 34
0.0
 50
0.0000000000000384
100
AcDbRotatedDimension
1001
GENIUS_GENDTOL_13
1000

1000
h7
1000

1040
0.0
1001
ACAD
1000
DSTYLE
1002
{
1070
   271
1070
     0
1002
}
  0
LINE
  5
224B
330
1F
100
AcDbEntity
  8
AM_7
100
AcDbLine
 10
-74.6920187698748
 20
0.000000000000086
 30
0.0
 11
0.7158645719208357
 21
-0.0000000000000045
 31
0.0
1001
GENIUS_GENODEF_13
1002
{
1000
HIER
1070
     0
1002
}
1002
{
1000
MANEDIT
1070
     0
1002
}
1002
{
1000
NOSEL
1070
     0
1002
}
1002
{
1000
BEHIND
1070
     0
1002
}
1002
{
1000
REACTOR
1002
}
1001
GENIUS_GENOBJ-N-CEN_13
1002
{
1000
OWNER
1000
GEN
1002
}
  0
DIMENSION
  5
2259
330
1F
100
AcDbEntity
  8
AM_5
100
AcDbDimension
  2
*D6
 10
-1.000000000000115
 20
-14.00000100000002
 30
0.0
 11
-37.00000000000011
 21
-12.30000100000002
 31
0.0
 70
    32
  1
<>
  3
AM_JIS$0
100
AcDbAlignedDimension
 13
-73.00000000000011
 23
-1.531249841054207
 33
0.0
 14
-1.000000000000115
 24
-1.549998765766864
 34
0.0
100
AcDbRotatedDimension
1001
GENIUS_GENDTOL_13
1000

1000
h7
1000

1040
0.0
1001
ACAD
1000
DSTYLE
1002
{
1070
   271
1070
     0
1002
}
  0
ELLIPSE
  5
27F0
330
1F
100
AcDbEntity
  8
AM_11
 48
0.5
100
AcDbEllipse
 10
-66.84356049944494
 20
7.729699137863102
 30
0.0
 11
8.79053764343249
 21
0.0000000000000669
 31
0.0
210
0.0
220
0.0
230
1.0
 40
0.9722222222222233
 41
4.271663339930089
 42
5.153112800913382
  0
ELLIPSE
  5
27F1
330
1F
100
AcDbEntity
  8
AM_11
 48
0.5
100
AcDbEllipse
 10
-66.84356049944497
 20
-7.729682283543898
 30
0.0
 11
-8.79053764343249
 21
0.0000000000000083
 31
0.0
210
0.0
220
0.0
230
1.0
 40
0.9722222222222233
 41
4.271664206181686
 42
5.153113667164993
  0
ELLIPSE
  5
27F2
330
1F
100
AcDbEntity
  8
AM_11
 48
0.5
100
AcDbEllipse
 10
-74.34354409362828
 20
-7.729682283543905
 30
0.0
 11
8.790537643432477
 21
0.0000000000000552
 31
0.0
210
0.0
220
0.0
230
1.0
 40
0.9722222222222244
 41
1.130071552591885
 42
1.417355117759801
  0
ELLIPSE
  5
27F3
330
1F
100
AcDbEntity
  8
AM_11
 48
0.5
100
AcDbEllipse
 10
-74.34354409362825
 20
7.729699137863097
 30
0.0
 11
-8.790537643432493
 21
0.0000000000000669
 31
0.0
210
0.0
220
0.0
230
1.0
 40
0.972222222222223
 41
1.724237535829987
 42
2.011520147323604
  0
LINE
  5
27F8
330
1F
100
AcDbEntity
  8
AM_0
 48
0.5
100
AcDbLine
 10
-25.00000000000016
 20
-2.000000000000023
 30
0.0
 11
-25.00000000000011
 21
1.999999999999975
 31
0.0
  0
LINE
  5
2827
330
1F
100
AcDbEntity
  8
AM_0
100
AcDbLine
 10
-72.74285714285726
 20
2.000000000000021
 30
0.0
 11
-72.74285714285728
 21
-1.999999999999977
 31
0.0
  0
LINE
  5
2828
330
1F
100
AcDbEntity
  8
AM_0
 48
0.5
100
AcDbLine
 10
-73.00000000000013
 20
-1.749999999999974
 30
0.0
 11
-73.00000000000011
 21
1.750000000000026
 31
0.0
  0
LINE
  5
2829
330
1F
100
AcDbEntity
  8
AM_0
100
AcDbLine
 10
-73.00000000000013
 20
-1.749999999999974
 30
0.0
 11
-72.75000000000012
 21
-1.999999999999974
 31
0.0
1001
GENIUS_GENFIL_13
1070
     0
1040
0.25
1040
0.25
1040
20.0
1040
0.0
1002
{
1002
}
1001
GENIUS_GENODEF_13
1002
{
1000
HIER
1070
     0
1002
}
1002
{
1000
MANEDIT
1070
     0
1002
}
1002
{
1000
NOSEL
1070
     0
1002
}
1002
{
1000
BEHIND
1070
     0
1002
}
1002
{
1000
REACTOR
1002
}
1001
GENIUS_GENOBJ-N-CHA_13
1002
{
1000
OWNER
1000
GEN
1002
}
  0
LINE
  5
282B
330
1F
100
AcDbEntity
  8
AM_0
100
AcDbLine
 10
-72.75000000000012
 20
-1.999999999999974
 30
0.0
 11
-25.00000000000011
 21
-2.000000000000044
 31
0.0
1001
GENIUS_GENODEF_13
1002
{
1000
HIER
1070
     0
1002
}
1002
{
1000
MANEDIT
1070
     0
1002
}
1002
{
1000
NOSEL
1070
     0
1002
}
1002
{
1000
BEHIND
1070
     0
1002
}
1002
{
1000
REACTOR
1002
}
1001
GENIUS_GENOBJ-N-CEN_13
1002
{
1000
OWNER
1000
GEN
1002
}
  0
LINE
  5
282C
330
1F
100
AcDbEntity
  8
AM_0
100
AcDbLine
 10
-72.75000000000011
 20
2.000000000000026
 30
0.0
 11
-25.00000000000011
 21
1.999999999999954
 31
0.0
1001
GENIUS_GENODEF_13
1002
{
1000
HIER
1070
     0
1002
}
1002
{
1000
MANEDIT
1070
     0
1002
}
1002
{
1000
NOSEL
1070
     0
1002
}
1002
{
1000
BEHIND
1070
     0
1002
}
1002
{
1000
REACTOR
1002
}
1001
GENIUS_GENOBJ-N-CEN_13
1002
{
1000
OWNER
1000
GEN
1002
}
  0
DIMENSION
  5
282D
330
1F
100
AcDbEntity
  8
AM_5
100
AcDbDimension
  2
*D7
 10
-81.6920197698748
 20
2.000000000000028
 30
0.0
 11
-81.6920197698748
 21
0.000000000000015
 31
0.0
 70
   160
  1
%%c<>
  3
AM_JIS$0
100
AcDbAlignedDimension
 13
-72.74285714285728
 23
-1.999999999999974
 33
0.0
 14
-72.74285714285726
 24
2.000000000000025
 34
0.0
 50
270.0
100
AcDbRotatedDimension
1001
ACAD
1000
DSTYLE
1002
{
1070
   271
1070
     0
1002
}
1001
GENIUS_GENDTOL_13
1000

1000
h7
1000

1040
0.0
  0
LINE
  5
2830
330
1F
100
AcDbEntity
  8
AM_0
100
AcDbLine
 10
-25.00000000000015
 20
-2.000000000000023
 30
0.0
 11
-24.22057670570453
 21
-1.549999751225823
 31
0.0
  0
LINE
  5
2831
330
1F
100
AcDbEntity
  8
AM_0
100
AcDbLine
 10
-25.00000000000013
 20
1.999999999999975
 30
0.0
 11
-24.2209118083389
 21
1.550193222821917
 31
0.0
  0
LINE
  5
2964
330
1F
100
AcDbEntity
  8
AM_0
100
AcDbLine
 10
-73.00000000000011
 20
1.750000000000026
 30
0.0
 11
-72.75000000000011
 21
2.000000000000026
 31
0.0
1001
GENIUS_GENFIL_13
1070
     0
1040
0.25
1040
0.25
1040
20.0
1040
0.0
1002
{
1002
}
1001
GENIUS_GENODEF_13
1002
{
1000
HIER
1070
     0
1002
}
1002
{
1000
MANEDIT
1070
     0
1002
}
1002
{
1000
NOSEL
1070
     0
1002
}
1002
{
1000
BEHIND
1070
     0
1002
}
1002
{
1000
REACTOR
1002
}
1001
GENIUS_GENOBJ-N-CHA_13
1002
{
1000
OWNER
1000
GEN
1002
}
  0
DIMENSION
  5
2ABE
330
1F
100
AcDbEntity
  8
AM_5
100
AcDbDimension
  2
*D8
 10
7.715865571920835
 20
1.550001234234224
 30
0.0
 11
7.715865571920835
 21
7.242858377091368
 31
0.0
 70
   160
  1
%%c<>
  3
AM_JIS$0
100
AcDbAlignedDimension
 13
-1.000000000000114
 23
-1.549998765766864
 33
0.0
 14
-1.000000000000114
 24
1.550001234234226
 34
0.0
 50
89.99999999999991
100
AcDbRotatedDimension
1001
ACAD
1000
DSTYLE
1002
{
1070
   271
1070
     1
1002
}
1001
GENIUS_GENDTOL_13
1000

1000
h7
1000

1040
0.0
  0
ELLIPSE
  5
2B49
330
1F
100
AcDbEntity
  8
AM_0
 48
0.5
100
AcDbEllipse
 10
-3.774148196043204
 20
8.253224362190838
 30
0.0
 11
6.417160858914121
 21
6.417160858914121
 31
0.0
210
0.0
220
0.0
230
1.0
 40
0.9999999999999841
 41
4.260965999300951
 42
4.355893675251072
  0
LINE
  5
2B4A
330
1F
100
AcDbEntity
  8
AM_0
 48
0.5
100
AcDbLine
 10
-0.000000000000115
 20
-0.0000000000000036
 30
0.0
 11
-1.321150153023865
 21
0.5951531672717194
 31
0.0
  0
LINE
  5
2B4B
330
1F
100
AcDbEntity
  8
AM_0
 48
0.5
100
AcDbLine
 10
-2.13726644788487
 20
1.55000024877411
 30
0.0
 11
-1.000000000000115
 21
1.550001234234226
 31
0.0
  0
LINE
  5
2B4C
330
1F
100
AcDbEntity
  8
AM_0
 48
0.5
100
AcDbLine
 10
-2.137266447884885
 20
-1.54999975122589
 30
0.0
 11
-1.000000000000115
 21
-1.549998765766864
 31
0.0
  0
LINE
  5
2B4E
330
1F
100
AcDbEntity
  8
AM_0
 48
0.5
100
AcDbLine
 10
-0.6763614388631948
 20
1.27525622104965
 30
0.0
 11
-1.000000000000115
 21
1.550001234234226
 31
0.0
  0
LINE
  5
2B59
330
1F
100
AcDbEntity
  8
AM_0
100
AcDbLine
 10
-24.22057670570453
 20
-1.549999751225823
 30
0.0
 11
-20.3510311340932
 21
-1.549999751225824
 31
0.0
1001
GENIUS_GENODEF_13
1002
{
1000
HIER
1070
     0
1002
}
1002
{
1000
MANEDIT
1070
     0
1002
}
1002
{
1000
NOSEL
1070
     0
1002
}
1002
{
1000
BEHIND
1070
     0
1002
}
1002
{
1000
REACTOR
1002
}
1001
GENIUS_GENOBJ-N-CEN_13
1002
{
1000
OWNER
1000
GEN
1002
}
  0
LINE
  5
2B5C
330
1F
100
AcDbEntity
  8
AM_0
100
AcDbLine
 10
-24.2209118083389
 20
1.550193222821917
 30
0.0
 11
-19.50459478714619
 21
1.550211965005761
 31
0.0
1001
GENIUS_GENODEF_13
1002
{
1000
HIER
1070
     0
1002
}
1002
{
1000
MANEDIT
1070
     0
1002
}
1002
{
1000
NOSEL
1070
     0
1002
}
1002
{
1000
BEHIND
1070
     0
1002
}
1002
{
1000
REACTOR
1002
}
1001
GENIUS_GENOBJ-N-CEN_13
1002
{
1000
OWNER
1000
GEN
1002
}
  0
ELLIPSE
  5
2B5D
330
1F
100
AcDbEntity
  8
AM_0
 48
0.5
100
AcDbEllipse
 10
1.680206737217021
 20
-0.2027694608373402
 30
0.0
 11
-3.178007226574351
 21
0.0379377576447334
 31
0.0
210
0.0
220
0.0
230
1.0
 40
0.7956260581889301
 41
0.1964535827474563
 42
0.576857386456442
  0
ELLIPSE
  5
2B5E
330
1F
100
AcDbEntity
  8
AM_0
 48
0.5
100
AcDbEllipse
 10
-3.775544035775317
 20
2.601462167922761
 30
0.0
 11
-4.77398978233284
 21
0.0000000000008632
 31
0.0
210
0.0
220
0.0
230
1.0
 40
0.7828282828283199
 41
2.081379652023477
 42
2.169874429702984
  0
ELLIPSE
  5
2B5F
330
1F
100
AcDbEntity
  8
AM_0
 48
0.5
100
AcDbEllipse
 10
0.9159032603673239
 20
1.860870610102218
 30
0.0
 11
3.990580615997243
 21
0.0000000000000197
 31
0.0
210
0.0
220
0.0
230
1.0
 40
0.7828282828282828
 41
3.671960206823878
 42
4.080081137018773
  0
ELLIPSE
  5
2B69
330
1F
100
AcDbEntity
  8
AM_0
 48
0.5
100
AcDbEllipse
 10
-0.9379901722499642
 20
-0.4039520636954788
 30
0.0
 11
-0.0711787691353887
 21
0.2515046325192873
 31
0.0
210
0.0
220
0.0
230
1.0
 40
0.6238880224581506
 41
1.719030338923623
 42
4.854372228635599
  0
ELLIPSE
  5
2B6A
330
1F
100
AcDbEntity
  8
AM_0
 48
0.5
100
AcDbEllipse
 10
-0.9379901722499642
 20
-0.4039520636954788
 30
0.0
 11
-0.2932942599014086
 21
0.115665912033472
 31
0.0
210
0.0
220
0.0
230
0.9999999999999998
 40
0.4288242339354038
 41
4.370331907883885
 42
7.513772249213392
  0
SPLINE
  5
2B6D
330
1F
100
AcDbEntity
  8
AM_0
 48
0.5
100
AcDbSpline
210
0.0
220
0.0
230
1.0
 70
     8
 71
     3
 72
    10
 73
     6
 74
     0
 42
0.0000000001
 43
0.0000000001
 40
0.0
 40
0.0
 40
0.0
 40
0.0
 40
2.69986029516136
 40
4.147722969032201
 40
6.285750005020438
 40
6.285750005020438
 40
6.285750005020438
 40
6.285750005020438
 10
-2.526397154672004
 20
0.2805419866484314
 30
0.0
 10
-2.288892546120262
 20
0.1365362756656888
 30
0.0
 10
-1.92402058518713
 20
-0.0846958363015115
 30
0.0
 10
-1.061147411712961
 20
0.0224065047614474
 30
0.0
 10
-1.223651528491804
 20
0.3831413612106113
 30
0.0
 10
-1.331023866045758
 20
0.6030203665509149
 30
0.0
  0
ELLIPSE
  5
2B77
330
1F
100
AcDbEntity
  8
AM_0
 48
0.5
100
AcDbEllipse
 10
2.790269366572878
 20
2.009522195823087
 30
0.0
 11
3.463179528777598
 21
0.7508059886992438
 31
0.0
210
0.0
220
0.0
230
0.9999999999999998
 40
0.553472745456442
 41
3.132977998936413
 42
3.565569191650999
  0
LINE
  5
2B9A
330
1F
100
AcDbEntity
  8
AM_0
100
AcDbLine
 10
-24.2209118083389
 20
1.550193222821917
 30
0.0
 11
-24.22091180833889
 21
-1.549999751225823
 31
0.0
  0
ELLIPSE
  5
2D3A
330
1F
100
AcDbEntity
  8
AM_0
 48
0.5
100
AcDbEllipse
 10
2.790280582996925
 20
-2.009510617183255
 30
0.0
 11
3.463183719462436
 21
-0.750786658419818
 31
0.0
210
0.0
220
0.0
230
-1.0
 40
0.553472745456442
 41
3.132977998936413
 42
3.565569191650999
  0
LINE
  5
2D3B
330
1F
100
AcDbEntity
  8
AM_0
 48
0.5
100
AcDbLine
 10
-0.6763543208033082
 20
-1.275263991952815
 30
0.0
 11
-1.000000000000115
 21
-1.549998765766864
 31
0.0
  0
LINE
  5
2FB4
330
1F
100
AcDbEntity
  8
AM_11
 48
0.5
100
AcDbLine
 10
-8.429287103688112
 20
1.550000248774271
 30
0.0
 11
-2.13726644788487
 21
1.550000248774111
 31
0.0
  0
SPLINE
  5
2FB5
330
1F
100
AcDbEntity
  8
AM_0
 48
0.5
100
AcDbSpline
210
0.0
220
0.0
230
1.0
 70
     8
 71
     3
 72
    17
 73
    13
 74
     0
 42
0.0000000001
 43
0.0000000001
 40
0.0
 40
0.0
 40
0.0
 40
0.0
 40
1.010743614677189
 40
2.022833924044153
 40
3.037578959561199
 40
4.056212747067873
 40
5.079857613375832
 40
6.109500119648989
 40
7.14596120163808
 40
8.18989512056258
 40
9.241717674284874
 40
9.693948937866434
 40
9.693948937866434
 40
9.693948937866434
 40
9.693948937866434
 10
-2.137266447884877
 20
1.550000248774111
 30
0.0
 10
-2.248558380830397
 20
1.549078700916293
 30
0.0
 10
-2.471290529879426
 20
1.547234377348633
 30
0.0
 10
-2.805307274331434
 20
1.532352269392521
 30
0.0
 10
-3.139310267507924
 20
1.508702580979821
 30
0.0
 10
-3.473292488540722
 20
1.475553069534605
 30
0.0
 10
-3.807249959798299
 20
1.433353318522097
 30
0.0
 10
-4.141178602320302
 20
1.38229898109067
 30
0.0
 10
-4.475073934223105
 20
1.322718710894637
 30
0.0
 10
-4.80894891198588
 20
1.255013617657254
 30
0.0
 10
-5.078461500252545
 20
1.194021563056778
 30
0.0
 10
-5.236735093896784
 20
1.155892757890246
 30
0.0
 10
-5.284240335225505
 20
1.144221785874193
 30
0.0
  0
SPLINE
  5
2FB6
330
1F
100
AcDbEntity
  8
AM_0
 48
0.5
100
AcDbSpline
210
0.0
220
0.0
230
1.0
 70
     8
 71
     3
 72
    25
 73
    21
 74
     0
 42
0.0000000001
 43
0.0000000001
 40
6.846175049578289
 40
6.846175049578289
 40
6.846175049578289
 40
6.846175049578289
 40
7.604337694224321
 40
8.711974558287883
 40
9.814980593243754
 40
10.91239053451967
 40
12.0033633515982
 40
13.08720139956839
 40
14.16337181880432
 40
15.23152222380919
 40
16.29148850140128
 40
17.34331105512262
 40
18.38723020264746
 40
19.42369128463655
 40
20.45333379090873
 40
21.47697865721768
 40
22.49561244472435
 40
23.5103574802404
 40
24.52244778960836
 40
25.53320666051913
 40
25.53320666051913
 40
25.53320666051913
 40
25.53320666051913
 10
-2.526814370203781
 20
0.2805603963929177
 30
0.0
 10
-2.602691604701918
 20
0.3077756397280706
 30
0.0
 10
-2.789581286827564
 20
0.3744786262082582
 30
0.0
 10
-3.087761154522831
 20
0.4792263269063567
 30
0.0
 10
-3.421412606697218
 20
0.5934828314099468
 30
0.0
 10
-3.755080838419823
 20
0.7040888720273662
 30
0.0
 10
-4.088768716522594
 20
0.8103643806199832
 30
0.0
 10
-4.422479959112004
 20
0.911653690627652
 30
0.0
 10
-4.756217651968833
 20
1.007332160993012
 30
0.0
 10
-5.089983340122807
 20
1.096811778262626
 30
0.0
 10
-5.423781134711
 20
1.179535682201706
 30
0.0
 10
-5.757610583731321
 20
1.254996606723249
 30
0.0
 10
-6.091474085010703
 20
1.322723676448329
 30
0.0
 10
-6.425370460329447
 20
1.382297739101868
 30
0.0
 10
-6.759298405319584
 20
1.43335364830305
 30
0.0
 10
-7.093256061829039
 20
1.475552981804056
 30
0.0
 10
-7.427238233610787
 20
1.508702604537219
 30
0.0
 10
-7.761241239842321
 20
1.532352262379973
 30
0.0
 10
-8.095259658648403
 20
1.547234456679252
 30
0.0
 10
-8.317993489778716
 20
1.549078722707637
 30
0.0
 10
-8.429287103688112
 20
1.550000248774271
 30
0.0
  0
LINE
  5
2FB7
330
1F
100
AcDbEntity
  8
AM_11
 48
0.5
100
AcDbLine
 10
-8.429287103688198
 20
-1.549999751225728
 30
0.0
 11
-2.137266447884948
 21
-1.54999975122589
 31
0.0
  0
SPLINE
  5
2FB8
330
1F
100
AcDbEntity
  8
AM_0
100
AcDbSpline
210
0.0
220
0.0
230
1.0
 70
     8
 71
     3
 72
    55
 73
    51
 74
     0
 42
0.0000000001
 43
0.0000000001
 40
0.0
 40
0.0
 40
0.0
 40
0.0
 40
1.010743684496582
 40
2.022833576467832
 40
3.037578957496688
 40
4.056212745003489
 40
5.079857003664532
 40
6.109500240690281
 40
7.145961322679372
 40
8.189895241603872
 40
9.241717795325891
 40
10.30168407291828
 40
11.36983447792315
 40
12.44600489715814
 40
13.52984294512926
 40
14.62081576220742
 40
15.7182257034828
 40
16.82123173843959
 40
17.92886860250316
 40
19.0400688939571
 40
20.15368796660465
 40
21.26852814259644
 40
22.38336992938901
 40
23.49698739941135
 40
24.6081876908653
 40
25.71582455492886
 40
26.81883757994213
 40
27.91624752121713
 40
29.00722033829659
 40
30.09105838626677
 40
31.16722880550176
 40
32.23537921050758
 40
33.29534548809967
 40
34.347168041821
 40
35.39108718934584
 40
36.42754827133493
 40
37.45720575381954
 40
38.48085062012849
 40
39.49948440763516
 40
40.51422944315121
 40
41.52631975251916
 40
42.53706336719636
 40
43.54780698187354
 40
44.55989729124051
 40
45.57464232675757
 40
46.59327611426424
 40
47.6169209805722
 40
48.64656348684535
 40
49.68302456883444
 40
50.58557219878025
 40
50.58557219878025
 40
50.58557219878025
 40
50.58557219878025
 10
-2.137266447884948
 20
-1.549999751225888
 30
0.0
 10
-2.248558360576667
 20
-1.549077538776929
 30
0.0
 10
-2.471290415434141
 20
-1.54723188558612
 30
0.0
 10
-2.805307441280129
 20
-1.532353848862437
 30
0.0
 10
-3.139310209198677
 20
-1.508701657048588
 30
0.0
 10
-3.473292305625038
 20
-1.475552210660895
 30
0.0
 10
-3.80725039794362
 20
-1.433354748253981
 30
0.0
 10
-4.141177897907966
 20
-1.382296915218541
 30
0.0
 10
-4.475075922490725
 20
-1.322722655316466
 30
0.0
 10
-4.808941510691213
 20
-1.254996772811298
 30
0.0
 10
-5.142772388276349
 20
-1.17953510051309
 30
0.0
 10
-5.476570219208455
 20
-1.096811303538294
 30
0.0
 10
-5.810335897464711
 20
-1.007331657195564
 30
0.0
 10
-6.144073593179926
 20
-0.9116531950127646
 30
0.0
 10
-6.477784834329576
 20
-0.8103638816397202
 30
0.0
 10
-6.811472715330531
 20
-0.7040883782897114
 30
0.0
 10
-7.145140936826551
 20
-0.5934823199483683
 30
0.0
 10
-7.47879242726809
 20
-0.4792258815429096
 30
0.0
 10
-7.812430424780893
 20
-0.3620217846163849
 30
0.0
 10
-8.146058499433268
 20
-0.2425914064608324
 30
0.0
 10
-8.479679577461071
 20
-0.1216689559595745
 30
0.0
 10
-8.813298370110667
 20
-0.0000000674820238
 30
0.0
 10
-9.146915665091023
 20
0.1216710111113419
 30
0.0
 10
-9.480537861343956
 20
0.2425915785302057
 30
0.0
 10
-9.814165524128016
 20
0.3620223181947109
 30
0.0
 10
-10.14780411651367
 20
0.4792268616166025
 30
0.0
 10
-10.48145699110164
 20
0.5934823249375503
 30
0.0
 10
-10.81512573921426
 20
0.7040889442055088
 30
0.0
 10
-11.14881366838864
 20
0.8103643613770364
 30
0.0
 10
-11.4825248973956
 20
0.9116536960508446
 30
0.0
 10
-11.81626259396538
 20
1.007332158373607
 30
0.0
 10
-12.15002828072293
 20
1.096811783320404
 30
0.0
 10
-12.48382607720346
 20
1.179535664763811
 30
0.0
 10
-12.8176555201061
 20
1.254996670736413
 30
0.0
 10
-13.15151904373358
 20
1.322723440281673
 30
0.0
 10
-13.4854169444575
 20
1.382298898147169
 30
0.0
 10
-13.81934682877609
 20
1.433350899669313
 30
0.0
 10
-14.15330602439785
 20
1.475561423082883
 30
0.0
 10
-14.48728821983144
 20
1.508671575080569
 30
0.0
 10
-14.82129121982525
 20
1.532467398039208
 30
0.0
 10
-15.1553079624646
 20
1.546806140379757
 30
0.0
 10
-15.48933204491931
 20
1.551596239740358
 30
0.0
 10
-15.82335612688255
 20
1.546806140372264
 30
0.0
 10
-16.15737287099916
 20
1.532467398069367
 30
0.0
 10
-16.4913758655541
 20
1.508671574967067
 30
0.0
 10
-16.82535808137942
 20
1.475561423509624
 30
0.0
 10
-17.1593155722262
 20
1.433351103848042
 30
0.0
 10
-17.49324414098817
 20
1.382299420126382
 30
0.0
 10
-17.81196042878214
 20
1.325427788894344
 30
0.0
 10
-18.01874718594712
 20
1.283837027328519
 30
0.0
 10
-18.11468418886777
 20
1.263567820297957
 30
0.0
  0
SPLINE
  5
2FB9
330
1F
100
AcDbEntity
  8
AM_0
100
AcDbSpline
210
0.0
220
0.0
230
1.0
 70
     8
 71
     3
 72
    46
 73
    42
 74
     0
 42
0.0000000001
 43
0.0000000001
 40
0.0
 40
0.0
 40
0.0
 40
0.0
 40
0.5056245176053715
 40
0.759310862862336
 40
1.013969309739036
 40
1.269880374404297
 40
1.527291183660732
 40
1.786406454158005
 40
2.047386241038974
 40
2.310345544571907
 40
2.575337113970003
 40
2.842374715221223
 40
3.111417320030211
 40
3.382376832022752
 40
3.655120036292296
 40
3.929472521611371
 40
4.205224030350333
 40
4.482133246366229
 40
4.759933319229942
 40
5.038338087391601
 40
5.317048131389549
 40
5.595758175387723
 40
5.874162943549383
 40
6.151963016412869
 40
6.428872232428759
 40
6.704623741167955
 40
6.978976226486705
 40
7.251719430756336
 40
7.522680721168327
 40
7.791723325977311
 40
8.058760927228529
 40
8.32375249662655
 40
8.586708135057122
 40
8.84768792193809
 40
9.106803192435362
 40
9.364213819003406
 40
9.620125035580644
 40
9.87478726697307
 40
10.12847352585208
 40
10.38149610319407
 40
10.63418200686337
 40
10.63418200686337
 40
10.63418200686337
 40
10.63418200686337
 10
-1.202245738024957
 20
-1.549999751225913
 30
0.0
 10
-1.424988675215666
 20
-1.546468731409492
 30
0.0
 10
-1.759488142598657
 20
-1.541166097517665
 30
0.0
 10
-2.204286671309831
 20
-1.508518754791405
 30
0.0
 10
-2.538272356027286
 20
-1.475601548745194
 30
0.0
 10
-2.872229492919382
 20
-1.433341447692148
 30
0.0
 10
-3.206157202228653
 20
-1.382300399502954
 30
0.0
 10
-3.540053768502987
 20
-1.322722423870869
 30
0.0
 10
-3.873918632515783
 20
-1.254995633487274
 30
0.0
 10
-4.207750308450472
 20
-1.179535880870839
 30
0.0
 10
-4.541549463556536
 20
-1.096811195391039
 30
0.0
 10
-4.875315200015728
 20
-1.007331686505612
 30
0.0
 10
-5.209052879953177
 20
-0.9116531870650279
 30
0.0
 10
-5.542764125400716
 20
-0.8103638838240707
 30
0.0
 10
-5.876452005144479
 20
-0.7040883775740065
 30
0.0
 10
-6.210120227334734
 20
-0.5934823206122888
 30
0.0
 10
-6.543771716256672
 20
-0.4792258795952835
 30
0.0
 10
-6.87740971918111
 20
-0.3620217917798565
 30
0.0
 10
-7.211037773621968
 20
-0.2425913796496888
 30
0.0
 10
-7.544658927293348
 20
-0.1216690562871465
 30
0.0
 10
-7.878277276486394
 20
0.0000002487496393
 30
0.0
 10
-8.211895625606148
 20
0.1216695539342784
 30
0.0
 10
-8.54551677949737
 20
0.2425918768534811
 30
0.0
 10
-8.879144833134683
 20
0.3620222906038675
 30
0.0
 10
-9.212782839038696
 20
0.4792263724104869
 30
0.0
 10
-9.546434316912632
 20
0.5934828357075153
 30
0.0
 10
-9.880102580017402
 20
0.7040888101584847
 30
0.0
 10
-10.21379103384222
 20
0.8103648526549774
 30
0.0
 10
-10.54750357593066
 20
0.9116532356312701
 30
0.0
 10
-10.88124185120497
 20
1.007332225678432
 30
0.0
 10
-11.21500757989316
 20
1.096811761188778
 30
0.0
 10
-11.54880536379021
 20
1.179535686499409
 30
0.0
 10
-11.88263481547309
 20
1.254996606414301
 30
0.0
 10
-12.21649831667192
 20
1.322723673469248
 30
0.0
 10
-12.55039468970445
 20
1.38229775119738
 30
0.0
 10
-12.88432264382908
 20
1.433353603301881
 30
0.0
 10
-13.21828191206139
 20
1.475553356388736
 30
0.0
 10
-13.55226587583529
 20
1.508702293433316
 30
0.0
 10
-13.8862705030345
 20
1.532352314520217
 30
0.0
 10
-14.22028725435322
 20
1.54723436609688
 30
0.0
 10
-14.44301940248855
 20
1.54907869716759
 30
0.0
 10
-14.55431133497747
 20
1.55000024877443
 30
0.0
  0
SPLINE
  5
2FBA
330
1F
100
AcDbEntity
  8
AM_0
100
AcDbSpline
210
0.0
220
0.0
230
1.0
 70
     8
 71
     3
 72
    17
 73
    13
 74
     0
 42
0.0000000001
 43
0.0000000001
 40
1.580019955310467
 40
1.580019955310467
 40
1.580019955310467
 40
1.580019955310467
 40
2.030549285115227
 40
3.082371838836284
 40
4.126290986361125
 40
5.162752068350215
 40
6.192395305374981
 40
7.216039564037012
 40
8.234688489606833
 40
9.249433870634691
 40
10.26152376260694
 40
11.27226744710342
 40
11.27226744710342
 40
11.27226744710342
 40
11.27226744710352
 10
-5.283031325945949
 20
-1.143945393440868
 30
0.0
 10
-5.330289159852186
 20
-1.155727083236682
 30
0.0
 10
-5.48814620194468
 20
-1.194343145212093
 30
0.0
 10
-5.757647319704759
 20
-1.254913820127191
 30
0.0
 10
-6.091464322559695
 20
-1.322744940782437
 30
0.0
 10
-6.425373224922979
 20
-1.382291658668252
 30
0.0
 10
-6.75929742687562
 20
-1.433354002522664
 30
0.0
 10
-7.09325800927158
 20
-1.47556054239053
 30
0.0
 10
-7.42724166404588
 20
-1.508670424159335
 30
0.0
 10
-7.761246115316041
 20
-1.532469084716512
 30
0.0
 10
-8.095263134077336
 20
-1.546803329320271
 30
0.0
 10
-8.317995192464723
 20
-1.549999760094911
 30
0.0
 10
-8.429287103688162
 20
-1.549999751225728
 30
0.0
  0
SPLINE
  5
2FBB
330
1F
100
AcDbEntity
  8
AM_0
100
AcDbSpline
210
0.0
220
0.0
230
1.0
 70
     8
 71
     3
 72
    23
 73
    19
 74
     0
 42
0.0000000001
 43
0.0000000001
 40
16.03460024169435
 40
16.03460024169435
 40
16.03460024169435
 40
16.03460024169435
 40
16.35212704903564
 40
17.38177054169784
 40
18.41822485651776
 40
19.46214173629503
 40
20.51396345435107
 40
21.57393551351153
 40
22.64208202342361
 40
23.7182574881101
 40
24.80209208578934
 40
25.89306333925047
 40
26.99048218457928
 40
28.09348763352352
 40
29.20111863782268
 40
30.31232390128032
 40
31.42594612798585
 40
32.5407912310448
 40
32.5407912310486
 40
32.5407912310486
 40
32.5407912310486
 10
-19.50465046179461
 20
1.550220454404136
 30
0.0
 10
-19.47033431729673
 20
1.54498792735854
 30
0.0
 10
-19.3248874178579
 20
1.52220174480195
 30
0.0
 10
-19.06868113814063
 20
1.477555697692171
 30
0.0
 10
-18.73689333519779
 20
1.411167513884343
 30
0.0
 10
-18.40541371237257
 20
1.336624649258073
 30
0.0
 10
-18.0742226822697
 20
1.254358519893002
 30
0.0
 10
-17.74330849033258
 20
1.164827761302021
 30
0.0
 10
-17.41265201051403
 20
1.068544169057538
 30
0.0
 10
-17.08223021715355
 20
0.9660680895150475
 30
0.0
 10
-16.75202433449809
 20
0.8579798387382735
 30
0.0
 10
-16.4220078887447
 20
0.744908357073342
 30
0.0
 10
-16.0921541357509
 20
0.6275108648240496
 30
0.0
 10
-15.76244109830192
 20
0.5064623483546419
 30
0.0
 10
-15.43284118970836
 20
0.3824666882114653
 30
0.0
 10
-15.10332388203821
 20
0.2562479280794709
 30
0.0
 10
-14.77386234328085
 20
0.1285374714947769
 30
0.0
 10
-14.55428031294552
 20
0.0429145934903301
 30
0.0
 10
-14.44442941640365
 20
0.0000790858508919
 30
0.0
  0
LINE
  5
2FBC
330
1F
100
AcDbEntity
  8
AM_0
 48
0.5
100
AcDbLine
 10
-16.41878187915558
 20
0.7430507637751122
 30
0.0
 11
-21.00000000000011
 21
-0.1254353769817419
 31
0.0
  0
LINE
  5
2FBD
330
1F
100
AcDbEntity
  8
AM_0
 48
0.5
100
AcDbLine
 10
-15.48932952478321
 20
1.550000248774452
 30
0.0
 11
-8.429287103688112
 21
1.550000248774271
 31
0.0
  0
LINE
  5
2FBE
330
1F
100
AcDbEntity
  8
AM_11
 48
0.5
100
AcDbLine
 10
-19.50465046179461
 20
1.55022045440414
 30
0.0
 11
-15.48932410550283
 21
1.550000248774452
 31
0.0
  0
SPLINE
  5
2FBF
330
1F
100
AcDbEntity
  8
AM_0
100
AcDbSpline
210
0.0
220
0.0
230
1.0
 70
     8
 71
     3
 72
    13
 73
     9
 74
     0
 42
0.0000000001
 43
0.0000000001
 40
16.03460056234195
 40
16.03460056234195
 40
16.03460056234195
 40
16.03460056234195
 40
16.35212717791071
 40
17.38177067057215
 40
18.41822498539278
 40
19.46214186516937
 40
20.5139635832251
 40
21.34083983469381
 40
21.34083983469381
 40
21.34083983469381
 40
21.34083983469381
 10
-20.3394249277738
 20
-1.550079497515961
 30
0.0
 10
-20.24486050945275
 20
-1.54498809024186
 30
0.0
 10
-20.09941348965959
 20
-1.522202532864656
 30
0.0
 10
-19.84320734960432
 20
-1.477555964501805
 30
0.0
 10
-19.51141950490749
 20
-1.411167964772526
 30
0.0
 10
-19.17993989339008
 20
-1.336625050294687
 30
0.0
 10
-18.87321220612751
 20
-1.260435501274033
 30
0.0
 10
-18.67752534309929
 20
-1.207973574644528
 30
0.0
 10
-18.59167868912246
 20
-1.184260305774826
 30
0.0
  0
SPLINE
  5
2FC0
330
1F
100
AcDbEntity
  8
AM_0
 48
0.5
100
AcDbSpline
210
0.0
220
0.0
230
1.0
 70
     8
 71
     3
 72
    22
 73
    18
 74
     0
 42
0.0000000001
 43
0.0000000001
 40
0.0
 40
0.0
 40
0.0
 40
0.0
 40
1.010743684496582
 40
2.022833993863546
 40
3.037578683882831
 40
4.056212471389632
 40
5.079857945358201
 40
6.109499720892564
 40
7.145961650132166
 40
8.189873411961459
 40
9.241710626092514
 40
10.30166235592959
 40
11.36982472628033
 40
12.44598212828784
 40
13.52983440361964
 40
14.62080578343036
 40
14.90544694398022
 40
14.90544694398022
 40
14.90544694398022
 40
14.90544694398022
 10
-15.60297151776529
 20
-1.5500794975161
 30
0.0
 10
-15.71426345172299
 20
-1.54915756057998
 30
0.0
 10
-15.93699559509976
 20
-1.547312458401086
 30
0.0
 10
-16.27101227095863
 20
-1.532430277229023
 30
0.0
 10
-16.6050154003035
 20
-1.508782067345875
 30
0.0
 10
-16.93899767431982
 20
-1.475632590399185
 30
0.0
 10
-17.27295485704767
 20
-1.433431191152616
 30
0.0
 10
-17.60688346454578
 20
-1.382377649964111
 30
0.0
 10
-17.94077860357482
 20
-1.322801970775009
 30
0.0
 10
-18.27464257011431
 20
-1.255073736808727
 30
0.0
 10
-18.60847235722786
 20
-1.179615831835521
 30
0.0
 10
-18.94226970947713
 20
-1.096887501164899
 30
0.0
 10
-19.27603677862859
 20
-1.007415182988769
 30
0.0
 10
-19.609773313984
 20
-0.9117307864510385
 30
0.0
 10
-19.94348556770421
 20
-0.8104438644790837
 30
0.0
 10
-20.19429364766467
 20
-0.7305681676645654
 30
0.0
 10
-20.33405266211043
 20
-0.6849137869005878
 30
0.0
 10
-20.31387711653858
 20
-0.6915471826578893
 30
0.0
  0
ELLIPSE
  5
2FC1
330
1F
100
AcDbEntity
  8
AM_0
 48
0.5
100
AcDbEllipse
 10
-20.33942472039517
 20
-1.033412830849317
 30
0.0
 11
-0.6606170598911083
 21
0.0000000000000442
 31
0.0
210
0.0
220
0.0
230
1.0
 40
0.7820970695970651
 41
0.0112467747892127
 42
1.570796012878422
  0
SPLINE
  5
2FC2
330
1F
100
AcDbEntity
  8
AM_0
 48
0.5
100
AcDbSpline
210
0.0
220
0.0
230
1.0
 70
     8
 71
     3
 72
    26
 73
    22
 74
     0
 42
0.0000000001
 43
0.0000000001
 40
0.0
 40
0.0
 40
0.0
 40
0.0
 40
0.2526859211241313
 40
0.5057083941171959
 40
0.7593947393741639
 40
1.01405318625086
 40
1.26996425091637
 40
1.527375060172565
 40
1.786490330669834
 40
2.047470117551047
 40
2.310425755981314
 40
2.575417325379407
 40
2.842456731169063
 40
3.111495753801943
 40
3.382458822635121
 40
3.655202026904655
 40
3.929554512223505
 40
4.205306020962704
 40
4.482215236978595
 40
4.76001530984208
 40
5.029821427366006
 40
5.029821427366006
 40
5.029821427366006
 40
5.029821427366006
 10
-14.6679508079053
 20
-1.550079497516124
 30
0.0
 10
-14.7792427206104
 20
-1.549157285107354
 30
0.0
 10
-15.00197477549478
 20
-1.547311631996964
 30
0.0
 10
-15.33599180113941
 20
-1.532433594668968
 30
0.0
 10
-15.66999456982622
 20
-1.508781405161018
 30
0.0
 10
-16.00397666336477
 20
-1.475631950105578
 30
0.0
 10
-16.33793476654266
 20
-1.433434520292893
 30
0.0
 10
-16.67186222561904
 20
-1.382376564532274
 30
0.0
 10
-17.00575881844675
 20
-1.322803050183447
 30
0.0
 10
-17.33962226785843
 20
-1.255075796768944
 30
0.0
 10
-17.67345178456855
 20
-1.17961504058024
 30
0.0
 10
-18.00725011600649
 20
-1.09689045564045
 30
0.0
 10
-18.34101587902105
 20
-1.007412839596611
 30
0.0
 10
-18.67475285527219
 20
-0.9117310703336377
 30
0.0
 10
-19.00846550705342
 20
-0.8104446787931399
 30
0.0
 10
-19.34215455539232
 20
-0.7041680943280439
 30
0.0
 10
-19.67582248776542
 20
-0.5935615890305078
 30
0.0
 10
-20.00947543159173
 20
-0.479307581158111
 30
0.0
 10
-20.34310787288596
 20
-0.3620941553618314
 30
0.0
 10
-20.67331318415139
 20
-0.2439311008908268
 30
0.0
 10
-20.89208662648071
 20
-0.1645483320321089
 30
0.0
 10
-21.00000000000012
 20
-0.1254353769817419
 30
0.0
  0
LINE
  5
2FC3
330
1F
100
AcDbEntity
  8
AM_11
 48
0.5
100
AcDbLine
 10
-20.3510311340932
 20
-1.549999751225824
 30
0.0
 11
-15.61448853330111
 21
-1.549984008444775
 31
0.0
  0
ELLIPSE
  5
2FC4
330
1F
100
AcDbEntity
  8
AM_0
 48
0.5
100
AcDbEllipse
 10
-20.5046999479642
 20
-1.049154624163906
 30
0.0
 11
-0.4954627949183345
 21
0.0000000000000227
 31
0.0
210
0.0
220
0.0
230
1.0
 40
0.7820970695970613
 41
4.317028824483115
 42
6.257553905069389
  0
SPLINE
  5
2FC5
330
1F
100
AcDbEntity
  8
AM_0
100
AcDbSpline
210
0.0
220
0.0
230
1.0
 70
     8
 71
     3
 72
    22
 73
    18
 74
     0
 42
0.0000000001
 43
0.0000000001
 40
17.17441611292
 40
17.17441611292
 40
17.17441611292
 40
17.17441611292
 40
17.38177636558528
 40
18.41823744757437
 40
19.46215659509824
 40
20.51397914882054
 40
21.57394542641293
 40
22.64209583141747
 40
23.71826625065247
 40
24.80210429862395
 40
25.8930771157021
 40
26.99048705697709
 40
28.09349309193389
 40
29.20112995599786
 40
30.31233024745139
 40
31.42594771747373
 40
32.5407895042663
 40
32.54078950426994
 40
32.54078950426994
 40
32.54078950426994
 10
-9.704156097031779
 20
-1.391910969581735
 30
0.0
 10
-9.726522352780799
 20
-1.388322871608478
 30
0.0
 10
-9.860595841072496
 20
-1.366467374664593
 30
0.0
 10
-10.1062109166119
 20
-1.32264425873584
 30
0.0
 10
-10.44007439249881
 20
-1.254917294611038
 30
0.0
 10
-10.77390384839834
 20
-1.179456341472276
 30
0.0
 10
-11.10770164112774
 20
-1.096732445299819
 30
0.0
 10
-11.44146732976335
 20
-1.007252825886031
 30
0.0
 10
-11.77520502257375
 20
-0.9115743562505615
 30
0.0
 10
-12.10891626485828
 20
-0.8102850454831804
 30
0.0
 10
-12.44260414423947
 20
-0.7040095392133774
 30
0.0
 10
-12.77627237111499
 20
-0.5934034899988065
 30
0.0
 10
-13.10992384152369
 20
-0.4791470177809034
 30
0.0
 10
-13.44356191420712
 20
-0.3619430476837737
 30
0.0
 10
-13.77718954657637
 20
-0.2425122514562477
 30
0.0
 10
-14.11081168103467
 20
-0.1215915816643512
 30
0.0
 10
-14.33318277998707
 20
-0.0404926534194987
 30
0.0
 10
-14.44442941640513
 20
0.0000790858514461
 30
0.0
  0
LINE
  5
2FC6
330
1F
100
AcDbEntity
  8
AM_0
 48
0.5
100
AcDbLine
 10
-15.61170597615197
 20
-1.550007105703784
 30
0.0
 11
-8.429287103688198
 21
-1.549999751225728
 31
0.0
  0
SPLINE
  5
2FC7
330
1F
100
AcDbEntity
  8
AM_0
100
AcDbSpline
210
0.0
220
0.0
230
1.0
 70
     8
 71
     3
 72
    11
 73
     7
 74
     0
 42
0.0000000001
 43
0.0000000001
 40
11.27226913003534
 40
11.27226913003534
 40
11.27226913003534
 40
11.2722691300354
 40
12.28301561507924
 40
13.29510212255852
 40
14.30984805882082
 40
15.18258238371378
 40
15.18258238371378
 40
15.18258238371378
 40
15.18258238371378
 10
-8.42928710368819
 20
-1.549999751225728
 30
0.0
 10
-8.540155828274942
 20
-1.542413600798665
 30
0.0
 10
-8.761684157951437
 20
-1.524047860777498
 30
0.0
 10
-9.092832721470573
 20
-1.486999620399784
 30
0.0
 10
-9.407098547308644
 20
-1.442749559449735
 30
0.0
 10
-9.61034723642682
 20
-1.408733220631136
 30
0.0
 10
-9.704010019873615
 20
-1.391930088819881
 30
0.0
  0
DIMENSION
  5
2FE5
330
1F
100
AcDbEntity
  8
AM_5
100
AcDbDimension
  2
*D9
 10
-0.1953317107826432
 20
-0.5366583074448092
 30
0.0
 11
12.55319021817671
 21
-0.0000033732183329
 31
0.0
 70
    34
  1
<>
  3
AM_JIS$2
100
AcDb2LineAngularDimension
 13
-0.000002543131777
 23
-0.000000000000012
 33
0.0
 14
-0.1953284988368898
 24
0.5366536571924511
 34
0.0
 15
-0.0000031789144462
 25
0.000001271565658
 35
0.0
 16
12.94977873726863
 26
5.585985050114524
 36
0.0
1001
GENIUS_GENDTOL_13
1000

1000
h7
1000

1040
0.0
1001
ACAD
1000
DSTYLE
1002
{
1070
   271
1070
     0
1002
}
  0
ARC
  5
32AB
330
1F
100
AcDbEntity
  8
AM_11
 48
0.5
100
AcDbCircle
 10
0.0313882919104103
 20
6.625452971037006
 30
0.0
 40
7.325448036193749
100
AcDbArc
 50
244.7482808787518
 51
254.0147302238187
  0
VIEWPORT
  5
110
330
101
100
AcDbEntity
 67
     1
  8
0
100
AcDbViewport
 10
420.5
 20
297.0
 30
0.0
 40
948.9782706766916
 41
628.452
 68
     1
 69
     1
1001
ACAD
1000
MVIEW
1002
{
1070
    16
1010
0.0
1020
0.0
1030
0.0
1010
0.0
1020
0.0
1030
1.0
1040
0.0
1040
628.452
1040
420.5
1040
297.0
1040
50.0
1040
0.0
1040
0.0
1070
     0
1070
   100
1070
     1
1070
     1
1070
     0
1070
     0
1070
     0
1070
     0
1040
0.0
1040
0.0
1040
0.0
1040
10.0
1040
10.0
1040
10.0
1040
10.0
1070
     0
1002
{
1002
}
1002
}
  0
ENDSEC
  0
SECTION
  2
OBJECTS
  0
DICTIONARY
  5
C
330
0
100
AcDbDictionary
  3
ACAD_GROUP
350
D
  3
ACAD_LAYOUT
350
1A
  3
ACAD_MLINESTYLE
350
17
  3
ACAD_PLOTSETTINGS
350
19
  3
ACAD_PLOTSTYLENAME
350
E
  3
ACDBVARIABLEDICTIONARY
350
34
  3
ACMDICTIONARY
350
43
  3
AMG
350
2B
  3
AMGSNAPSETTINGS
350
6E
  3
DWGPROPS
350
3328
  3
ACDBHEADERROUNDTRIPXREC
350
3335
  0
DICTIONARY
  5
74
330
1F
100
AcDbDictionary
280
     1
  3
ACAD_INDEX
360
332A
  3
ACAD_LAYOUTSELFREF
360
3358
  0
DICTIONARY
  5
335D
330
101
100
AcDbDictionary
280
     1
  3
ACAD_LAYOUTSELFREF
360
335E
  0
DICTIONARY
  5
D
102
{ACAD_REACTORS
330
C
102
}
330
C
100
AcDbDictionary
  0
DICTIONARY
  5
1A
102
{ACAD_REACTORS
330
C
102
}
330
C
100
AcDbDictionary
  0
DICTIONARY
  5
17
102
{ACAD_REACTORS
330
C
102
}
330
C
100
AcDbDictionary
  3
STANDARD
350
18
  0
DICTIONARY
  5
19
102
{ACAD_REACTORS
330
C
102
}
330
C
100
AcDbDictionary
  0
ACDBDICTIONARYWDFLT
  5
E
102
{ACAD_REACTORS
330
C
102
}
330
C
100
AcDbDictionary
281
     1
  3
Normal
350
F
100
AcDbDictionaryWithDefault
340
F
  0
DICTIONARY
  5
34
102
{ACAD_REACTORS
330
C
102
}
330
C
100
AcDbDictionary
  3
INDEXCTL
350
35
  3
SORTENTS
350
B5E
  0
DICTIONARY
  5
43
102
{ACAD_REACTORS
330
C
102
}
330
C
100
AcDbDictionary
  3
ACMSTDDICTIONARY
350
260
  0
DICTIONARY
  5
2B
102
{ACAD_REACTORS
330
C
102
}
330
C
100
AcDbDictionary
  3
ACMGSETTINGS
350
2C
  0
DICTIONARY
  5
6E
102
{ACAD_REACTORS
330
C
102
}
330
C
100
AcDbDictionary
  0
XRECORD
  5
3328
102
{ACAD_REACTORS
330
C
102
}
330
C
100
AcDbXrecord
  1
DWGPROPS COOKIE
  2

  3

  4

  6

  7

  8

  9

300
AmdtFileType=82
301
=
302
=
303
=
304
=
305
=
306
=
307
=
308
=
309
=
 40
0.0858197569444445
 41
2452800.443498622
 42
2452946.599641736
  1

 90
        1
  0
DICTIONARY
  5
3335
102
{ACAD_REACTORS
330
C
102
}
330
C
100
AcDbDictionary
  3
TSTACKALIGN
350
3336
  3
TSTACKSIZE
350
3337
  3
HYPERLINKBASE
350
3338
  3
STYLESHEET
350
3339
  3
LAYOUTDICT
350
333A
  3
PLOTSETDICT
350
333B
  3
PLOTSTYLNAMDICT
350
333C
  3
LWETCUNION
350
333D
  3
INSUNITS
350
333E
  3
CEPSNTYPE
350
333F
  3
FINGERPRINTGUID
350
3340
  3
VERSIONGUID
350
3341
  3
PSVPSCALE
350
3342
  3
DIMSTYLEDATA
350
3343
  3
PUCSORTHOREF
350
3344
  3
PUCSORTHOVIEW
350
3345
  3
PUCSBASE
350
3346
  3
PUCSORGTOP
350
3347
  3
PUCSORGBOTTOM
350
3348
  3
PUCSORGLEFT
350
3349
  3
PUCSORGRIGHT
350
334A
  3
PUCSORGFRONT
350
334B
  3
PUCSORGBACK
350
334C
  3
UCSORTHOREF
350
334D
  3
UCSORTHOVIEW
350
334E
  3
UCSBASE
350
334F
  3
UCSORGTOP
350
3350
  3
UCSORGBOTTOM
350
3351
  3
UCSORGLEFT
350
3352
  3
UCSORGRIGHT
350
3353
  3
UCSORGFRONT
350
3354
  3
UCSORGBACK
350
3355
  0
DICTIONARY
  5
332A
102
{ACAD_REACTORS
330
74
102
}
330
74
100
AcDbDictionary
  3
*A1
350
332B
  0
XRECORD
  5
3358
102
{ACAD_REACTORS
330
74
102
}
330
74
100
AcDbXrecord
340
1F
  0
XRECORD
  5
335E
102
{ACAD_REACTORS
330
335D
102
}
330
335D
100
AcDbXrecord
340
101
  0
MLINESTYLE
  5
18
102
{ACAD_REACTORS
330
17
102
}
330
17
100
AcDbMlineStyle
  2
STANDARD
 70
     0
  3

 62
   256
 51
90.0
 52
90.0
 71
     2
 49
0.5
 62
   256
  6
BYLAYER
 49
-0.5
 62
   256
  6
BYLAYER
  0
ACDBPLACEHOLDER
  5
F
102
{ACAD_REACTORS
330
E
102
}
330
E
100
AcDbPlaceHolder
280
     0
  0
DICTIONARYVAR
  5
35
102
{ACAD_REACTORS
330
34
102
}
330
34
100
DictionaryVariables
280
     0
  1
1
  0
DICTIONARYVAR
  5
B5E
102
{ACAD_REACTORS
330
34
102
}
330
34
100
DictionaryVariables
280
     0
  1
96
  0
DICTIONARY
  5
260
102
{ACAD_REACTORS
330
43
102
}
330
43
100
AcDbDictionary
  0
DICTIONARY
  5
2C
102
{ACAD_REACTORS
330
2B
102
}
330
2B
100
AcDbDictionary
  3
DWGSETTINGS
350
2D
  0
XRECORD
  5
3336
102
{ACAD_REACTORS
330
3335
102
}
330
3335
100
AcDbXrecord
 90
        1
  0
XRECORD
  5
3337
102
{ACAD_REACTORS
330
3335
102
}
330
3335
100
AcDbXrecord
 90
       70
  0
XRECORD
  5
3338
102
{ACAD_REACTORS
330
3335
102
}
330
3335
100
AcDbXrecord
  1

  0
XRECORD
  5
3339
102
{ACAD_REACTORS
330
3335
102
}
330
3335
100
AcDbXrecord
  1
ASAMI.ctb
  0
XRECORD
  5
333A
102
{ACAD_REACTORS
330
3335
102
}
330
3335
100
AcDbXrecord
340
1A
  0
XRECORD
  5
333B
102
{ACAD_REACTORS
330
3335
102
}
330
3335
100
AcDbXrecord
340
19
  0
XRECORD
  5
333C
102
{ACAD_REACTORS
330
3335
102
}
330
3335
100
AcDbXrecord
340
E
  0
XRECORD
  5
333D
102
{ACAD_REACTORS
330
3335
102
}
330
3335
100
AcDbXrecord
 90
    10781
  0
XRECORD
  5
333E
102
{ACAD_REACTORS
330
3335
102
}
330
3335
100
AcDbXrecord
 90
        4
  0
XRECORD
  5
333F
102
{ACAD_REACTORS
330
3335
102
}
330
3335
100
AcDbXrecord
 90
        0
  0
XRECORD
  5
3340
102
{ACAD_REACTORS
330
3335
102
}
330
3335
100
AcDbXrecord
  1
{AFB28963-8C59-40AE-9337-C84526B81ACE}
  0
XRECORD
  5
3341
102
{ACAD_REACTORS
330
3335
102
}
330
3335
100
AcDbXrecord
  1
{21C4C7D7-AA50-4F8E-AD06-99AF32588259}
  0
XRECORD
  5
3342
102
{ACAD_REACTORS
330
3335
102
}
330
3335
100
AcDbXrecord
 40
0.0
  0
XRECORD
  5
3343
102
{ACAD_REACTORS
330
3335
102
}
330
3335
100
AcDbXrecord
1000
DSTYLE
1002
{
1070
    79
 70
     2
1070
   341
340
59
1070
   342
340
59
1070
   371
 70
    -1
1070
   372
 70
    -1
1002
}
  0
XRECORD
  5
3344
102
{ACAD_REACTORS
330
3335
102
}
330
3335
100
AcDbXrecord
340
0
  0
XRECORD
  5
3345
102
{ACAD_REACTORS
330
3335
102
}
330
3335
100
AcDbXrecord
 70
     0
  0
XRECORD
  5
3346
102
{ACAD_REACTORS
330
3335
102
}
330
3335
100
AcDbXrecord
340
0
  0
XRECORD
  5
3347
102
{ACAD_REACTORS
330
3335
102
}
330
3335
100
AcDbXrecord
 10
0.0
 20
0.0
 30
0.0
  0
XRECORD
  5
3348
102
{ACAD_REACTORS
330
3335
102
}
330
3335
100
AcDbXrecord
 10
0.0
 20
0.0
 30
0.0
  0
XRECORD
  5
3349
102
{ACAD_REACTORS
330
3335
102
}
330
3335
100
AcDbXrecord
 10
0.0
 20
0.0
 30
0.0
  0
XRECORD
  5
334A
102
{ACAD_REACTORS
330
3335
102
}
330
3335
100
AcDbXrecord
 10
0.0
 20
0.0
 30
0.0
  0
XRECORD
  5
334B
102
{ACAD_REACTORS
330
3335
102
}
330
3335
100
AcDbXrecord
 10
0.0
 20
0.0
 30
0.0
  0
XRECORD
  5
334C
102
{ACAD_REACTORS
330
3335
102
}
330
3335
100
AcDbXrecord
 10
0.0
 20
0.0
 30
0.0
  0
XRECORD
  5
334D
102
{ACAD_REACTORS
330
3335
102
}
330
3335
100
AcDbXrecord
340
0
  0
XRECORD
  5
334E
102
{ACAD_REACTORS
330
3335
102
}
330
3335
100
AcDbXrecord
 70
     0
  0
XRECORD
  5
334F
102
{ACAD_REACTORS
330
3335
102
}
330
3335
100
AcDbXrecord
340
0
  0
XRECORD
  5
3350
102
{ACAD_REACTORS
330
3335
102
}
330
3335
100
AcDbXrecord
 10
0.0
 20
0.0
 30
0.0
  0
XRECORD
  5
3351
102
{ACAD_REACTORS
330
3335
102
}
330
3335
100
AcDbXrecord
 10
0.0
 20
0.0
 30
0.0
  0
XRECORD
  5
3352
102
{ACAD_REACTORS
330
3335
102
}
330
3335
100
AcDbXrecord
 10
0.0
 20
0.0
 30
0.0
  0
XRECORD
  5
3353
102
{ACAD_REACTORS
330
3335
102
}
330
3335
100
AcDbXrecord
 10
0.0
 20
0.0
 30
0.0
  0
XRECORD
  5
3354
102
{ACAD_REACTORS
330
3335
102
}
330
3335
100
AcDbXrecord
 10
0.0
 20
0.0
 30
0.0
  0
XRECORD
  5
3355
102
{ACAD_REACTORS
330
3335
102
}
330
3335
100
AcDbXrecord
 10
0.0
 20
0.0
 30
0.0
  0
LAYER_INDEX
  5
332B
102
{ACAD_REACTORS
330
332A
102
}
330
332A
100
AcDbIndex
 40
2453151.576538437
100
AcDbLayerIndex
  8
0
360
332C
 90
        0
  8
AM_0
360
332D
 90
       44
  8
AM_7
360
332E
 90
        1
  8
AM_11
360
332F
 90
       25
  8
AM_5
360
3330
 90
        5
  8
Defpoints
360
3331
 90
        0
  8
AM_6
360
3332
 90
        1
  8
AM_CL
360
3333
 90
        0
  0
XRECORD
  5
2D
102
{ACAD_REACTORS
330
2C
102
}
330
2C
100
AcDbXrecord
  1
VERSION
140
15.0
  1
PRODUCT
  2
AutoCAD Mechanical 2000
  0
IDBUFFER
  5
332C
330
0
100
AcDbIdBuffer
  0
IDBUFFER
  5
332D
330
0
100
AcDbIdBuffer
330
2B59
330
2B5C
330
2B5D
330
2B5E
330
2B5F
330
2B69
330
2B6A
330
2B6D
330
2B77
330
2B9A
330
2D3A
330
2D3B
330
2FB5
330
2FB6
330
2FB8
330
2FB9
330
2FBA
330
2FBB
330
2FBC
330
2FBD
330
2FBF
330
2FC0
330
2FC1
330
2FC2
330
2FC4
330
2FC5
330
2FC6
330
2FC7
330
C1D
330
C20
330
27F8
330
2827
330
2828
330
2829
330
282B
330
282C
330
2830
330
2831
330
2964
330
2B49
330
2B4A
330
2B4B
330
2B4C
330
2B4E
  0
IDBUFFER
  5
332E
330
0
100
AcDbIdBuffer
330
224B
  0
IDBUFFER
  5
332F
330
0
100
AcDbIdBuffer
330
27F0
330
27F1
330
27F2
330
27F3
330
2FB4
330
2FB7
330
2FBE
330
2FC3
330
32AB
330
21FC
330
21FD
330
2200
330
2201
330
2206
330
2207
330
220B
330
220C
330
220D
330
220E
330
220F
330
2210
330
2219
330
221A
330
2228
330
2229
  0
IDBUFFER
  5
3330
330
0
100
AcDbIdBuffer
330
223E
330
2259
330
282D
330
2ABE
330
2FE5
  0
IDBUFFER
  5
3331
330
0
100
AcDbIdBuffer
  0
IDBUFFER
  5
3332
330
0
100
AcDbIdBuffer
330
19BD
  0
IDBUFFER
  5
3333
330
0
100
AcDbIdBuffer
  0
ENDSEC
  0
EOF
