  0
SECTION
  2
HEADER
  9
$ACADVER
  1
AC1014
  9
$ACADMAINTVER
 70
     9
  9
$DWGCODEPAGE
  3
ANSI_932
  9
$INSBASE
 10
0.0
 20
0.0
 30
0.0
  9
$EXTMIN
 10
-84.3420197698747
 20
-25.25000100000005
 30
-0.00000001
  9
$EXTMAX
 10
14.07187634378737
 20
13.72251105824149
 30
0.00000001
  9
$LIMMIN
 10
-103.134137649193
 20
-34.60724519099901
  9
$LIMMAX
 10
18.55390181307279
 20
25.8241434171262
  9
$ORTHOMODE
 70
     0
  9
$REGENMODE
 70
     1
  9
$FILLMODE
 70
     1
  9
$QTEXTMODE
 70
     0
  9
$MIRRTEXT
 70
     0
  9
$DRAGMODE
 70
     2
  9
$LTSCALE
 40
1.0
  9
$OSMODE
 70
    55
  9
$ATTMODE
 70
     1
  9
$TEXTSIZE
 40
2.5
  9
$TRACEWID
 40
1.0
  9
$TEXTSTYLE
  7
STANDARD
  9
$CLAYER
  8
AM_0
  9
$CELTYPE
  6
BYLAYER
  9
$CECOLOR
 62
   256
  9
$CELTSCALE
 40
1.0
  9
$DELOBJ
 70
     1
  9
$DISPSILH
 70
     0
  9
$DIMSCALE
 40
0.5
  9
$DIMASZ
 40
2.5
  9
$DIMEXO
 40
1.0
  9
$DIMDLI
 40
12.0
  9
$DIMRND
 40
0.0
  9
$DIMDLE
 40
0.0
  9
$DIMEXE
 40
1.0
  9
$DIMTP
 40
0.1
  9
$DIMTM
 40
0.1
  9
$DIMTXT
 40
3.2
  9
$DIMCEN
 40
0.0
  9
$DIMTSZ
 40
0.0
  9
$DIMTOL
 70
     0
  9
$DIMLIM
 70
     0
  9
$DIMTIH
 70
     0
  9
$DIMTOH
 70
     0
  9
$DIMSE1
 70
     0
  9
$DIMSE2
 70
     0
  9
$DIMTAD
 70
     3
  9
$DIMZIN
 70
     8
  9
$DIMBLK
  1
OPEN30
  9
$DIMASO
 70
     1
  9
$DIMSHO
 70
     1
  9
$DIMPOST
  1

  9
$DIMAPOST
  1
"
  9
$DIMALT
 70
     0
  9
$DIMALTD
 70
     2
  9
$DIMALTF
 40
0.0393701
  9
$DIMLFAC
 40
1.0
  9
$DIMTOFL
 70
     1
  9
$DIMTVP
 40
0.0
  9
$DIMTIX
 70
     0
  9
$DIMSOXD
 70
     0
  9
$DIMSAH
 70
     0
  9
$DIMBLK1
  1

  9
$DIMBLK2
  1

  9
$DIMSTYLE
  2
AM_JIS
  9
$DIMCLRD
 70
   256
  9
$DIMCLRE
 70
   256
  9
$DIMCLRT
 70
     2
  9
$DIMTFAC
 40
0.71
  9
$DIMGAP
 40
1.5
  9
$DIMJUST
 70
     0
  9
$DIMSD1
 70
     0
  9
$DIMSD2
 70
     0
  9
$DIMTOLJ
 70
     0
  9
$DIMTZIN
 70
     0
  9
$DIMALTZ
 70
     0
  9
$DIMALTTZ
 70
     0
  9
$DIMFIT
 70
     3
  9
$DIMUPT
 70
     0
  9
$DIMUNIT
 70
     2
  9
$DIMDEC
 70
     3
  9
$DIMTDEC
 70
     3
  9
$DIMALTU
 70
     2
  9
$DIMALTTD
 70
     2
  9
$DIMTXSTY
  7
ASAMI
  9
$DIMAUNIT
 70
     0
  9
$LUNITS
 70
     2
  9
$LUPREC
 70
     2
  9
$SKETCHINC
 40
1.0
  9
$FILLETRAD
 40
2.5
  9
$AUNITS
 70
     0
  9
$AUPREC
 70
     0
  9
$MENU
  1
.
  9
$ELEVATION
 40
0.0
  9
$PELEVATION
 40
0.0
  9
$THICKNESS
 40
0.0
  9
$LIMCHECK
 70
     0
  9
$BLIPMODE
 70
     0
  9
$CHAMFERA
 40
0.25
  9
$CHAMFERB
 40
0.25
  9
$CHAMFERC
 40
20.0
  9
$CHAMFERD
 40
0.0
  9
$SKPOLY
 70
     0
  9
$TDCREATE
 40
2452800.443498622
  9
$TDUPDATE
 40
2453151.576916944
  9
$TDINDWG
 40
0.0874529745
  9
$TDUSRTIMER
 40
0.0874529745
  9
$USRTIMER
 70
     1
  9
$ANGBASE
 50
0.0
  9
$ANGDIR
 70
     0
  9
$PDMODE
 70
     3
  9
$PDSIZE
 40
0.0
  9
$PLINEWID
 40
0.0
  9
$COORDS
 70
     1
  9
$SPLFRAME
 70
     0
  9
$SPLINETYPE
 70
     6
  9
$SPLINESEGS
 70
     8
  9
$ATTDIA
 70
     1
  9
$ATTREQ
 70
     1
  9
$HANDLING
 70
 12289
  9
$HANDSEED
  5
34E1
  9
$SURFTAB1
 70
     6
  9
$SURFTAB2
 70
     6
  9
$SURFTYPE
 70
     6
  9
$SURFU
 70
     6
  9
$SURFV
 70
     6
  9
$UCSNAME
  2

  9
$UCSORG
 10
0.0
 20
0.0
 30
0.0
  9
$UCSXDIR
 10
1.0
 20
0.0
 30
0.0
  9
$UCSYDIR
 10
0.0
 20
1.0
 30
0.0
  9
$PUCSNAME
  2

  9
$PUCSORG
 10
0.0
 20
0.0
 30
0.0
  9
$PUCSXDIR
 10
1.0
 20
0.0
 30
0.0
  9
$PUCSYDIR
 10
0.0
 20
1.0
 30
0.0
  9
$USERI1
 70
     0
  9
$USERI2
 70
     0
  9
$USERI3
 70
     0
  9
$USERI4
 70
     0
  9
$USERI5
 70
     0
  9
$USERR1
 40
0.0
  9
$USERR2
 40
0.0
  9
$USERR3
 40
0.0
  9
$USERR4
 40
0.0
  9
$USERR5
 40
0.0
  9
$WORLDVIEW
 70
     1
  9
$SHADEDGE
 70
     3
  9
$SHADEDIF
 70
    70
  9
$TILEMODE
 70
     1
  9
$MAXACTVP
 70
    64
  9
$PINSBASE
 10
0.0
 20
0.0
 30
0.0
  9
$PLIMCHECK
 70
     0
  9
$PEXTMIN
 10
1.000000000000000E+20
 20
1.000000000000000E+20
 30
1.000000000000000E+20
  9
$PEXTMAX
 10
-1.000000000000000E+20
 20
-1.000000000000000E+20
 30
-1.000000000000000E+20
  9
$PLIMMIN
 10
0.0
 20
0.0
  9
$PLIMMAX
 10
841.0
 20
594.0
  9
$UNITMODE
 70
     0
  9
$VISRETAIN
 70
     1
  9
$PLINEGEN
 70
     0
  9
$PSLTSCALE
 70
     0
  9
$TREEDEPTH
 70
  3020
  9
$PICKSTYLE
 70
     0
  9
$CMLSTYLE
  2
STANDARD
  9
$CMLJUST
 70
     0
  9
$CMLSCALE
 40
20.0
  9
$PROXYGRAPHICS
 70
     1
  9
$MEASUREMENT
 70
     1
  0
ENDSEC
  0
SECTION
  2
CLASSES
  0
CLASS
  1
ACDBDICTIONARYWDFLT
  2
AcDbDictionaryWithDefault
  3
AutoCAD 2000
 90
        0
280
     0
281
     0
  0
CLASS
  1
ACDBPLACEHOLDER
  2
AcDbPlaceHolder
  3
AutoCAD 2000
 90
        0
280
     0
281
     0
  0
CLASS
  1
LAYOUT
  2
AcDbLayout
  3
AutoCAD 2000
 90
        0
280
     0
281
     0
  0
CLASS
  1
AMGSETTINGSOBJ
  2
AmgSettingsObj
  3
"AcadM|Product Description: AutoCAD Mechanical 2000|Company: Autodesk"
 90
        0
280
     0
281
     0
  0
CLASS
  1
ACME_DOCUMENT
  2
AcMeDbDoc
  3
AcMeServices
 90
        0
280
     0
281
     0
  0
CLASS
  1
ACMESCOPE
  2
AcMeScope
  3
AcMeServices
 90
        0
280
     0
281
     0
  0
CLASS
  1
ACMECOMMANDHISTORY
  2
AcMeCommandHistory
  3
AcMeServices
 90
        0
280
     0
281
     0
  0
CLASS
  1
DICTIONARYVAR
  2
AcDbDictionaryVar
  3
AutoCAD 2000
 90
        0
280
     0
281
     0
  0
CLASS
  1
ACIMSYSVARMAN
  2
AcImSysVarManager
  3
AcMeServices
 90
        0
280
     0
281
     0
  0
CLASS
  1
ACIMREALSYSVAR
  2
AcImRealSysVar
  3
AcMeServices
 90
        0
280
     0
281
     0
  0
CLASS
  1
ACIMINTSYSVAR
  2
AcImIntSysVar
  3
AcMeServices
 90
        0
280
     0
281
     0
  0
CLASS
  1
ACMEDRAWINGMAN
  2
AcMeDrawingMan
  3
AcMeServices
 90
        0
280
     0
281
     0
  0
CLASS
  1
ACMEVIEW
  2
AcMeView
  3
AcMeServices
 90
        0
280
     0
281
     0
  0
CLASS
  1
ACDBENTITYCACHE
  2
AcMeEntityCache
  3
AcMeServices
 90
        0
280
     0
281
     0
  0
CLASS
  1
GSMANAGER
  2
AcMeGSManager
  3
AcMeServices
 90
        0
280
     0
281
     0
  0
CLASS
  1
AmdtInternalReactor
  2
AmdtInternalReactor
  3
AcMeServices
 90
        0
280
     0
281
     0
  0
CLASS
  1
ACMESTATEMGR
  2
AcMeStateMgr
  3
AcMeServices
 90
        0
280
     0
281
     0
  0
CLASS
  1
ACME_DATABASE
  2
AcMeDbDatabase
  3
AcMeServices
 90
        0
280
     0
281
     0
  0
CLASS
  1
ACRFINSADJUSTERMGR
  2
AcRfInsAdjusterMgr
  3
AcMeServices
 90
        0
280
     0
281
     0
  0
CLASS
  1
ACMDATADICTIONARY
  2
AcmDataDictionary
  3
"AcmSymBB|Product Description: AutoCAD Mechanical 2000|Company: Autodesk"
 90
        0
280
     0
281
     0
  0
CLASS
  1
ACMDATAENTRYBLOCK
  2
AcmDataEntryBlock
  3
"AcmSymBB|Product Description: AutoCAD Mechanical 2000|Company: Autodesk"
 90
        0
280
     0
281
     0
  0
CLASS
  1
AMGOBJPROPCFG
  2
AmgObjPropCfg
  3
"AmgLay|Product Description: AutoCAD Mechanical 2000|Company: Autodesk"
 90
        1
280
     0
281
     0
  0
CLASS
  1
ACAMGFILTERDAT
  2
AcAmgFilterDat
  3
"AcadM|Product Description: AutoCAD Mechanical 2000|Company: Autodesk"
 90
        0
280
     0
281
     0
  0
CLASS
  1
LAYER_INDEX
  2
AcDbLayerIndex
  3
AutoCAD 2000
 90
        0
280
     0
281
     0
  0
CLASS
  1
IDBUFFER
  2
AcDbIdBuffer
  3
AutoCAD 2000
 90
        0
280
     0
281
     0
  0
CLASS
  1
ACIMSTRSYSVAR
  2
AcImStrSysVar
  3
AcMeServices
 90
        0
280
     0
281
     0
  0
CLASS
  1
ACMSTANDARDJIS
  2
AcmStandardJIS
  3
"AcmSymBB|Product Description: AutoCAD Mechanical 2000|Company: Autodesk"
 90
        0
280
     0
281
     0
  0
CLASS
  1
ACMSURFSTANDARDJIS
  2
AcmSurfTextStdJIS
  3
"AcmSymBB|Product Description: AutoCAD Mechanical 2000|Company: Autodesk"
 90
        0
280
     0
281
     0
  0
CLASS
  1
ACMFCFSTANDARDJIS
  2
AcmFCFStdJIS
  3
"AcmSymBB|Product Description: AutoCAD Mechanical 2000|Company: Autodesk"
 90
        0
280
     0
281
     0
  0
CLASS
  1
ACMWELDSTANDARDJIS
  2
AcmWeldingStdJIS
  3
"AcmSymBB|Product Description: AutoCAD Mechanical 2000|Company: Autodesk"
 90
        0
280
     0
281
     0
  0
CLASS
  1
ACMIDSTANDARDJIS
  2
AcmIdStdJIS
  3
"AcmSymBB|Product Description: AutoCAD Mechanical 2000|Company: Autodesk"
 90
        0
280
     0
281
     0
  0
CLASS
  1
ACMDATUMSTANDARDJIS
  2
AcmDatumStdJIS
  3
"AcmSymBB|Product Description: AutoCAD Mechanical 2000|Company: Autodesk"
 90
        0
280
     0
281
     0
  0
CLASS
  1
ACMBOMSTANDARDJIS
  2
AcmBOMStdJIS
  3
"AcmSymBB|Product Description: AutoCAD Mechanical 2000|Company: Autodesk"
 90
        0
280
     0
281
     0
  0
CLASS
  1
ACMSTANDARDANSI
  2
AcmStandardANSI
  3
"AcmSymBB|Product Description: AutoCAD Mechanical 2000|Company: Autodesk"
 90
        0
280
     0
281
     0
  0
CLASS
  1
ACMSURFSTANDARDANSI
  2
AcmSurfTextStdANSI
  3
"AcmSymBB|Product Description: AutoCAD Mechanical 2000|Company: Autodesk"
 90
        0
280
     0
281
     0
  0
CLASS
  1
ACMFCFSTANDARDANSI
  2
AcmFCFStdANSI
  3
"AcmSymBB|Product Description: AutoCAD Mechanical 2000|Company: Autodesk"
 90
        0
280
     0
281
     0
  0
CLASS
  1
ACMWELDSTANDARDANSI
  2
AcmWeldingStdANSI
  3
"AcmSymBB|Product Description: AutoCAD Mechanical 2000|Company: Autodesk"
 90
        0
280
     0
281
     0
  0
CLASS
  1
ACMIDSTANDARDANSI
  2
AcmIdStdANSI
  3
"AcmSymBB|Product Description: AutoCAD Mechanical 2000|Company: Autodesk"
 90
        0
280
     0
281
     0
  0
CLASS
  1
ACMDATUMSTANDARDANSI
  2
AcmDatumStdANSI
  3
"AcmSymBB|Product Description: AutoCAD Mechanical 2000|Company: Autodesk"
 90
        0
280
     0
281
     0
  0
CLASS
  1
ACMBOMSTANDARDANSI
  2
AcmBOMStdANSI
  3
"AcmSymBB|Product Description: AutoCAD Mechanical 2000|Company: Autodesk"
 90
        0
280
     0
281
     0
  0
CLASS
  1
ACMSTANDARDBSI
  2
AcmStandardBSI
  3
"AcmSymBB|Product Description: AutoCAD Mechanical 2000|Company: Autodesk"
 90
        0
280
     0
281
     0
  0
CLASS
  1
ACMSURFSTANDARDBSI
  2
AcmSurfTextStdBSI
  3
"AcmSymBB|Product Description: AutoCAD Mechanical 2000|Company: Autodesk"
 90
        0
280
     0
281
     0
  0
CLASS
  1
ACMFCFSTANDARDBSI
  2
AcmFCFStdBSI
  3
"AcmSymBB|Product Description: AutoCAD Mechanical 2000|Company: Autodesk"
 90
        0
280
     0
281
     0
  0
CLASS
  1
ACMWELDSTANDARDBSI
  2
AcmWeldingStdBSI
  3
"AcmSymBB|Product Description: AutoCAD Mechanical 2000|Company: Autodesk"
 90
        0
280
     0
281
     0
  0
CLASS
  1
ACMIDSTANDARDBSI
  2
AcmIdStdBSI
  3
"AcmSymBB|Product Description: AutoCAD Mechanical 2000|Company: Autodesk"
 90
        0
280
     0
281
     0
  0
CLASS
  1
ACMDATUMSTANDARDBSI
  2
AcmDatumStdBSI
  3
"AcmSymBB|Product Description: AutoCAD Mechanical 2000|Company: Autodesk"
 90
        0
280
     0
281
     0
  0
CLASS
  1
ACMBOMSTANDARDBSI
  2
AcmBOMStdBSI
  3
"AcmSymBB|Product Description: AutoCAD Mechanical 2000|Company: Autodesk"
 90
        0
280
     0
281
     0
  0
CLASS
  1
LONG_TRANSACTION
  2
AcDbLongTransaction
  3
AutoCAD 2000
 90
        0
280
     0
281
     0
  0
CLASS
  1
LWPOLYLINE
  2
AcDbPolyline
  3
AutoCAD 2000
 90
        0
280
     0
281
     1
  0
CLASS
  1
HATCH
  2
AcDbHatch
  3
AutoCAD 2000
 90
        0
280
     0
281
     1
  0
CLASS
  1
XRECORD
  2
AcDbXrecord
  3
AutoCAD 2000
 90
        0
280
     0
281
     0
  0
ENDSEC
  0
SECTION
  2
TABLES
  0
TABLE
  2
VPORT
  5
8
330
0
100
AcDbSymbolTable
 70
     3
  0
VPORT
  5
34AB
330
8
100
AcDbSymbolTableRecord
100
AcDbViewportTableRecord
  2
*ACTIVE
 70
     0
 10
0.0
 20
0.0
 11
1.0
 21
1.0
 12
-33.29526604445314
 22
-5.76374497087928
 13
0.0
 23
0.0
 14
2.5
 24
2.5
 15
10.0
 25
10.0
 16
0.0
 26
0.0
 36
1.0
 17
0.0
 27
0.0
 37
0.0
 40
65.51863446279265
 41
1.56570841889117
 42
50.0
 43
0.0
 44
0.0
 50
0.0
 51
0.0
 71
     0
 72
   100
 73
     1
 74
     1
 75
     0
 76
     0
 77
     0
 78
     0
  0
ENDTAB
  0
TABLE
  2
LTYPE
  5
5
330
0
100
AcDbSymbolTable
 70
    10
  0
LTYPE
  5
14
330
5
100
AcDbSymbolTableRecord
100
AcDbLinetypeTableRecord
  2
BYBLOCK
 70
     0
  3

 72
    65
 73
     0
 40
0.0
  0
LTYPE
  5
15
330
5
100
AcDbSymbolTableRecord
100
AcDbLinetypeTableRecord
  2
BYLAYER
 70
     0
  3

 72
    65
 73
     0
 40
0.0
  0
LTYPE
  5
16
330
5
100
AcDbSymbolTableRecord
100
AcDbLinetypeTableRecord
  2
CONTINUOUS
 70
     0
  3
Solid line
 72
    65
 73
     0
 40
0.0
  0
LTYPE
  5
4B
330
5
100
AcDbSymbolTableRecord
100
AcDbLinetypeTableRecord
  2
AM_ISO02W050
 70
     0
  3
__ __ __ __ __ __ __ __ __ __ __ __ __ __ __
 72
    65
 73
     2
 40
7.5
 49
6.0
 74
     0
 49
-1.5
 74
     0
  0
LTYPE
  5
4C
330
5
100
AcDbSymbolTableRecord
100
AcDbLinetypeTableRecord
  2
AM_ISO08W050
 70
     0
  3
____ . ____ . ____ . ____ . ____ . ____ . ____
 72
    65
 73
     4
 40
18.0
 49
12.0
 74
     0
 49
-1.5
 74
     0
 49
3.0
 74
     0
 49
-1.5
 74
     0
  0
LTYPE
  5
4D
330
5
100
AcDbSymbolTableRecord
100
AcDbLinetypeTableRecord
  2
AM_ISO09W050
 70
     0
  3
_____ . . _____ . . _____ . . ____ .. ____
 72
    65
 73
     6
 40
22.5
 49
12.0
 74
     0
 49
-1.5
 74
     0
 49
3.0
 74
     0
 49
-1.5
 74
     0
 49
3.0
 74
     0
 49
-1.5
 74
     0
  0
LTYPE
  5
4E
330
5
100
AcDbSymbolTableRecord
100
AcDbLinetypeTableRecord
  2
AMCONSTR
 70
     0
  3
_______________________
 72
    65
 73
     2
 40
9999.0
 49
9999.0
 74
     0
 49
0.0
 74
     0
  0
LTYPE
  5
4F
330
5
100
AcDbSymbolTableRecord
100
AcDbLinetypeTableRecord
  2
AM_ISO02W050X2
 70
     0
  3
 _ _ _ _ _ _ _ _ _ _ _ _
 72
    65
 73
     2
 40
3.75
 49
3.0
 74
     0
 49
-0.75
 74
     0
  0
LTYPE
  5
50
330
5
100
AcDbSymbolTableRecord
100
AcDbLinetypeTableRecord
  2
AM_ISO08W050X2
 70
     0
  3
__ . __ . __ . __ . __ . __
 72
    65
 73
     4
 40
9.0
 49
6.0
 74
     0
 49
-0.75
 74
     0
 49
1.5
 74
     0
 49
-0.75
 74
     0
  0
LTYPE
  5
53
330
5
100
AcDbSymbolTableRecord
100
AcDbLinetypeTableRecord
  2
AMZIGZAG
 70
     0
  3
/\/-/\/-/\/-/\/-/\/-/\/
 72
    65
 73
     2
 40
11.00009999999999
 49
0.0001
 74
     4
 75
   135
340
52
 46
0.04
 50
0.0
 44
0.0
 45
0.0
 49
-11.0
 74
     0
  0
LTYPE
  5
166
330
5
100
AcDbSymbolTableRecord
100
AcDbLinetypeTableRecord
  2
ACJISTGL
 70
     0
  3
_ _ _ _ _
 72
    65
 73
     2
 40
3.0
 49
2.0
 74
     0
 49
-1.0
 74
     0
  0
LTYPE
  5
26A
330
5
100
AcDbSymbolTableRecord
100
AcDbLinetypeTableRecord
  2
ACJISTGB
 70
     0
  3
__ . . __ . .
 72
    65
 73
     6
 40
9.0
 49
4.0
 74
     0
 49
-1.0
 74
     0
 49
1.0
 74
     0
 49
-1.0
 74
     0
 49
1.0
 74
     0
 49
-1.0
 74
     0
  0
ENDTAB
  0
TABLE
  2
LAYER
  5
2
330
0
100
AcDbSymbolTable
 70
     7
  0
LAYER
  5
10
330
2
100
AcDbSymbolTableRecord
100
AcDbLayerTableRecord
  2
0
 70
     0
 62
     7
  6
CONTINUOUS
  0
LAYER
  5
3F9
330
2
100
AcDbSymbolTableRecord
100
AcDbLayerTableRecord
  2
AM_0
 70
     0
 62
     7
  6
CONTINUOUS
  0
LAYER
  5
C7C
330
2
100
AcDbSymbolTableRecord
100
AcDbLayerTableRecord
  2
AM_7
 70
     0
 62
     4
  6
AM_ISO08W050
  0
LAYER
  5
C97
330
2
100
AcDbSymbolTableRecord
100
AcDbLayerTableRecord
  2
AM_11
 70
     0
 62
     3
  6
AM_ISO09W050
  0
LAYER
  5
CC5
330
2
100
AcDbSymbolTableRecord
100
AcDbLayerTableRecord
  2
AM_5
 70
     0
 62
     3
  6
CONTINUOUS
  0
LAYER
  5
CC7
330
2
100
AcDbSymbolTableRecord
100
AcDbLayerTableRecord
  2
DEFPOINTS
 70
     0
 62
     7
  6
CONTINUOUS
  0
LAYER
  5
19BC
330
2
100
AcDbSymbolTableRecord
100
AcDbLayerTableRecord
  2
AM_6
 70
     0
 62
     2
  6
CONTINUOUS
  0
ENDTAB
  0
TABLE
  2
STYLE
  5
3
330
0
100
AcDbSymbolTable
 70
     5
  0
STYLE
  5
11
330
3
100
AcDbSymbolTableRecord
100
AcDbTextStyleTableRecord
  2
STANDARD
 70
     0
 40
0.0
 41
1.0
 50
0.0
 71
     0
 42
2.5
  3
simplex.shx
  4
EXTFONT.SHX
  0
STYLE
  5
52
330
3
100
AcDbSymbolTableRecord
100
AcDbTextStyleTableRecord
  2

 70
     1
 40
0.0
 41
1.0
 50
0.0
 71
     0
 42
2.5
  3
ltypeshp.shx
  4

  0
STYLE
  5
6B
330
3
100
AcDbSymbolTableRecord
100
AcDbTextStyleTableRecord
  2
ASAMI
 70
     0
 40
0.0
 41
1.0
 50
0.0
 71
     0
 42
2.5
  3
simplex.shx
  4
EXTFONT.SHX
  0
STYLE
  5
262
330
3
100
AcDbSymbolTableRecord
100
AcDbTextStyleTableRecord
  2
ACJISTS
 70
     0
 40
1.0
 41
1.0
 50
0.0
 71
     0
 42
2.5
  3
simplex.shx
  4
bigfont.shx
  0
STYLE
  5
269
330
3
100
AcDbSymbolTableRecord
100
AcDbTextStyleTableRecord
  2
ACJISGDT
 70
     0
 40
0.0
 41
1.0
 50
0.0
 71
     0
 42
2.5
  3
amgdtans.shx
  4

  0
ENDTAB
  0
TABLE
  2
VIEW
  5
6
330
0
100
AcDbSymbolTable
 70
     0
  0
ENDTAB
  0
TABLE
  2
UCS
  5
7
330
0
100
AcDbSymbolTable
 70
     0
  0
ENDTAB
  0
TABLE
  2
APPID
  5
9
330
0
100
AcDbSymbolTable
 70
    16
  0
APPID
  5
12
330
9
100
AcDbSymbolTableRecord
100
AcDbRegAppTableRecord
  2
ACAD
 70
     0
  0
APPID
  5
30
330
9
100
AcDbSymbolTableRecord
100
AcDbRegAppTableRecord
  2
MCAD_NO_VIS
 70
     0
  0
APPID
  5
31
330
9
100
AcDbSymbolTableRecord
100
AcDbRegAppTableRecord
  2
ACAD_TEMP_GRAPHIC
 70
     0
  0
APPID
  5
2C2
330
9
100
AcDbSymbolTableRecord
100
AcDbRegAppTableRecord
  2
GENIUS_GENDTOL_13
 70
     0
  0
APPID
  5
339
330
9
100
AcDbSymbolTableRecord
100
AcDbRegAppTableRecord
  2
GENIUS_GENODEF_13
 70
     0
  0
APPID
  5
33A
330
9
100
AcDbSymbolTableRecord
100
AcDbRegAppTableRecord
  2
GENIUS_GENOBJ-N-RSBK_13
 70
     0
  0
APPID
  5
33B
330
9
100
AcDbSymbolTableRecord
100
AcDbRegAppTableRecord
  2
GENIUS_GENOBJ-N-LIB_13
 70
     0
  0
APPID
  5
33C
330
9
100
AcDbSymbolTableRecord
100
AcDbRegAppTableRecord
  2
GENIUS_GENSCALE_13
 70
     0
  0
APPID
  5
378
330
9
100
AcDbSymbolTableRecord
100
AcDbRegAppTableRecord
  2
GENIUS_GENDIMSH_14
 70
     0
  0
APPID
  5
C82
330
9
100
AcDbSymbolTableRecord
100
AcDbRegAppTableRecord
  2
GENIUS_GENOBJ-N-CRS_13
 70
     0
  0
APPID
  5
C83
330
9
100
AcDbSymbolTableRecord
100
AcDbRegAppTableRecord
  2
GENIUS_GENOENT_13
 70
     0
  0
APPID
  5
C84
330
9
100
AcDbSymbolTableRecord
100
AcDbRegAppTableRecord
  2
GENIUS_GENOREF_13
 70
     0
  0
APPID
  5
C85
330
9
100
AcDbSymbolTableRecord
100
AcDbRegAppTableRecord
  2
GENIUS_GENOLIS_13
 70
     0
  0
APPID
  5
CA0
330
9
100
AcDbSymbolTableRecord
100
AcDbRegAppTableRecord
  2
GENIUS_GENOBJ-N-CEN_13
 70
     0
  0
APPID
  5
1CFA
330
9
100
AcDbSymbolTableRecord
100
AcDbRegAppTableRecord
  2
GENIUS_GENFIL_13
 70
     0
  0
APPID
  5
1CFB
330
9
100
AcDbSymbolTableRecord
100
AcDbRegAppTableRecord
  2
GENIUS_GENOBJ-N-CHA_13
 70
     0
  0
ENDTAB
  0
TABLE
  2
DIMSTYLE
  5
A
330
0
100
AcDbSymbolTable
 70
     9
  0
DIMSTYLE
105
58
330
A
100
AcDbSymbolTableRecord
100
AcDbDimStyleTableRecord
  2
AM_JIS
 70
     0
  3

  4
"
  5
OPEN30
  6

  7

 40
0.5
 41
2.5
 42
1.0
 43
12.0
 44
1.0
 45
0.0
 46
0.0
 47
0.1
 48
0.1
140
3.2
141
0.0
142
0.0
143
0.0393701
144
1.0
145
0.0
146
0.71
147
1.5
 71
     0
 72
     0
 73
     0
 74
     0
 75
     0
 76
     0
 77
     3
 78
     8
170
     0
171
     2
172
     1
173
     0
174
     0
175
     0
176
   256
177
   256
178
     2
270
     2
271
     3
272
     3
273
     2
274
     2
340
6B
275
     0
280
     0
281
     0
282
     0
283
     0
284
     0
285
     0
286
     0
287
     3
288
     0
  0
DIMSTYLE
105
5F
330
A
100
AcDbSymbolTableRecord
100
AcDbDimStyleTableRecord
  2
AM_JIS$3
 70
     0
  3

  4
"
  5
OPEN30
  6

  7

 40
0.5
 41
2.5
 42
1.0
 43
10.0
 44
1.0
 45
0.0
 46
0.0
 47
0.1
 48
0.1
140
3.2
141
0.0
142
0.0
143
0.0393701
144
1.0
145
0.0
146
0.71
147
1.5
 71
     0
 72
     0
 73
     0
 74
     1
 75
     0
 76
     0
 77
     3
 78
     8
170
     0
171
     2
172
     0
173
     0
174
     0
175
     0
176
   256
177
   256
178
     2
270
     2
271
     2
272
     3
273
     2
274
     2
340
6B
275
     0
280
     0
281
     0
282
     0
283
     0
284
     0
285
     0
286
     0
287
     0
288
     1
  0
DIMSTYLE
105
60
330
A
100
AcDbSymbolTableRecord
100
AcDbDimStyleTableRecord
  2
AM_JIS$4
 70
     0
  3

  4
"
  5
OPEN30
  6

  7

 40
0.5
 41
2.5
 42
1.0
 43
10.0
 44
1.0
 45
0.0
 46
0.0
 47
0.1
 48
0.1
140
3.2
141
0.0
142
0.0
143
0.0393701
144
1.0
145
0.0
146
0.71
147
1.5
 71
     0
 72
     0
 73
     0
 74
     1
 75
     0
 76
     0
 77
     3
 78
     8
170
     0
171
     2
172
     0
173
     0
174
     0
175
     0
176
   256
177
   256
178
     2
270
     2
271
     2
272
     3
273
     2
274
     2
340
6B
275
     0
280
     0
281
     0
282
     0
283
     0
284
     0
285
     0
286
     0
287
     0
288
     1
  0
DIMSTYLE
105
61
330
A
100
AcDbSymbolTableRecord
100
AcDbDimStyleTableRecord
  2
AM_JIS$6
 70
     0
  3

  4
"
  5
OPEN30
  6

  7

 40
0.5
 41
2.5
 42
1.0
 43
10.0
 44
1.0
 45
0.0
 46
0.0
 47
0.1
 48
0.1
140
3.2
141
0.0
142
0.0
143
0.0393701
144
1.0
145
0.0
146
0.71
147
1.5
 71
     0
 72
     0
 73
     0
 74
     0
 75
     0
 76
     0
 77
     0
 78
     8
170
     0
171
     2
172
     1
173
     0
174
     0
175
     0
176
   256
177
   256
178
     2
270
     2
271
     2
272
     2
273
     2
274
     2
340
6B
275
     0
280
     0
281
     0
282
     0
283
     0
284
     0
285
     0
286
     0
287
     3
288
     0
  0
DIMSTYLE
105
62
330
A
100
AcDbSymbolTableRecord
100
AcDbDimStyleTableRecord
  2
AM_JIS$7
 70
     0
  3

  4
"
  5
OPEN30
  6

  7

 40
0.5
 41
2.5
 42
1.0
 43
10.0
 44
1.0
 45
0.0
 46
0.0
 47
0.1
 48
0.1
140
3.2
141
0.0
142
0.0
143
0.0393701
144
1.0
145
0.0
146
0.71
147
1.5
 71
     0
 72
     0
 73
     0
 74
     0
 75
     0
 76
     0
 77
     3
 78
     8
170
     0
171
     2
172
     1
173
     0
174
     0
175
     0
176
   256
177
   256
178
     2
270
     2
271
     2
272
     3
273
     2
274
     2
340
6B
275
     0
280
     0
281
     0
282
     0
283
     0
284
     0
285
     0
286
     0
287
     3
288
     0
  0
DIMSTYLE
105
63
330
A
100
AcDbSymbolTableRecord
100
AcDbDimStyleTableRecord
  2
AM_JIS$SF
 70
     0
  3

  4
"
  5
OPEN30
  6

  7

 40
0.5
 41
2.5
 42
1.0
 43
10.0
 44
1.0
 45
0.0
 46
0.0
 47
0.1
 48
0.1
140
3.2
141
0.0
142
0.0
143
0.0393701
144
1.0
145
0.0
146
0.71
147
1.5
 71
     0
 72
     0
 73
     0
 74
     0
 75
     1
 76
     1
 77
     3
 78
     8
170
     0
171
     2
172
     1
173
     0
174
     0
175
     0
176
   256
177
   256
178
     2
270
     2
271
     2
272
     2
273
     2
274
     2
340
6B
275
     0
280
     0
281
     0
282
     0
283
     0
284
     0
285
     0
286
     0
287
     3
288
     0
  0
DIMSTYLE
105
68
330
A
100
AcDbSymbolTableRecord
100
AcDbDimStyleTableRecord
  2
AM_JIS$SH
 70
     0
  3

  4
"
  5

  6
GENAXEH
  7
OPEN30
 40
0.5
 41
2.5
 42
1.0
 43
10.0
 44
1.0
 45
0.0
 46
0.0
 47
0.1
 48
0.1
140
3.2
141
0.0
142
0.0
143
0.0393701
144
2.0
145
0.0
146
0.71
147
1.5
 71
     0
 72
     0
 73
     0
 74
     0
 75
     1
 76
     1
 77
     3
 78
     8
170
     0
171
     2
172
     1
173
     1
174
     0
175
     0
176
   256
177
   256
178
     2
270
     2
271
     2
272
     2
273
     2
274
     2
340
6B
275
     0
280
     0
281
     0
282
     0
283
     0
284
     0
285
     0
286
     0
287
     3
288
     0
  0
DIMSTYLE
105
B34
102
{ACAD_REACTORS
330
2FE5
102
}
330
A
100
AcDbSymbolTableRecord
100
AcDbDimStyleTableRecord
  2
AM_JIS$2
 70
     0
  3

  4
"
  5
OPEN30
  6

  7

 40
0.5
 41
2.5
 42
1.0
 43
12.0
 44
1.0
 45
0.0
 46
0.0
 47
0.1
 48
0.1
140
3.2
141
0.0
142
0.0
143
0.0393701
144
1.0
145
0.0
146
0.71
147
1.5
 71
     0
 72
     0
 73
     0
 74
     0
 75
     0
 76
     0
 77
     3
 78
     8
170
     0
171
     2
172
     1
173
     0
174
     0
175
     0
176
   256
177
   256
178
     2
270
     2
271
     3
272
     3
273
     2
274
     2
340
6B
275
     0
280
     0
281
     0
282
     0
283
     0
284
     0
285
     0
286
     0
287
     3
288
     0
  0
DIMSTYLE
105
BA5
102
{ACAD_REACTORS
330
223E
330
2259
330
282D
330
2ABE
102
}
330
A
100
AcDbSymbolTableRecord
100
AcDbDimStyleTableRecord
  2
AM_JIS$0
 70
     0
  3

  4
"
  5
OPEN30
  6

  7

 40
0.5
 41
2.5
 42
0.0
 43
10.0
 44
1.0
 45
0.0
 46
0.0
 47
0.1
 48
0.1000000001
140
3.799999999999999
141
0.0
142
0.0
143
0.0393701
144
1.0
145
0.0
146
0.71
147
1.5
 71
     0
 72
     0
 73
     0
 74
     0
 75
     0
 76
     0
 77
     3
 78
     1
170
     0
171
     2
172
     1
173
     0
174
     0
175
     0
176
     3
177
     3
178
     2
270
     2
271
     2
272
     2
273
     2
274
     2
340
11
275
     1
280
     0
281
     0
282
     0
283
     0
284
     8
285
     0
286
     0
287
     0
288
     0
  0
ENDTAB
  0
TABLE
  2
BLOCK_RECORD
  5
1
330
0
100
AcDbSymbolTable
 70
    10
  0
BLOCK_RECORD
  5
1F
102
{ACAD_XDICTIONARY
360
74
102
}
330
1
100
AcDbSymbolTableRecord
100
AcDbBlockTableRecord
  2
*MODEL_SPACE
  0
BLOCK_RECORD
  5
101
102
{ACAD_XDICTIONARY
360
34D4
102
}
330
1
100
AcDbSymbolTableRecord
100
AcDbBlockTableRecord
  2
*PAPER_SPACE
  0
BLOCK_RECORD
  5
59
330
1
100
AcDbSymbolTableRecord
100
AcDbBlockTableRecord
  2
_OPEN30
  0
BLOCK_RECORD
  5
64
330
1
100
AcDbSymbolTableRecord
100
AcDbBlockTableRecord
  2
GENAXEH
  0
BLOCK_RECORD
  5
223F
330
1
100
AcDbSymbolTableRecord
100
AcDbBlockTableRecord
  2
*D5
  0
BLOCK_RECORD
  5
225A
330
1
100
AcDbSymbolTableRecord
100
AcDbBlockTableRecord
  2
*D6
  0
BLOCK_RECORD
  5
2833
330
1
100
AcDbSymbolTableRecord
100
AcDbBlockTableRecord
  2
*D7
  0
BLOCK_RECORD
  5
2ABF
330
1
100
AcDbSymbolTableRecord
100
AcDbBlockTableRecord
  2
*D8
  0
BLOCK_RECORD
  5
2FE6
330
1
100
AcDbSymbolTableRecord
100
AcDbBlockTableRecord
  2
*D9
  0
ENDTAB
  0
ENDSEC
  0
SECTION
  2
BLOCKS
  0
BLOCK
  5
20
330
1F
100
AcDbEntity
  8
0
100
AcDbBlockBegin
  2
*MODEL_SPACE
 70
     0
 10
0.0
 20
0.0
 30
0.0
  3
*MODEL_SPACE
  1

  0
ENDBLK
  5
21
330
1F
100
AcDbEntity
  8
0
100
AcDbBlockEnd
  0
BLOCK
  5
103
330
101
100
AcDbEntity
 67
     1
  8
0
100
AcDbBlockBegin
  2
*PAPER_SPACE
 70
     0
 10
0.0
 20
0.0
 30
0.0
  3
*PAPER_SPACE
  1

  0
ENDBLK
  5
104
330
101
100
AcDbEntity
 67
     1
  8
0
100
AcDbBlockEnd
  0
BLOCK
  5
5D
330
59
100
AcDbEntity
  8
0
100
AcDbBlockBegin
  2
_OPEN30
 70
     0
 10
0.0
 20
0.0
 30
0.0
  3
_OPEN30
  1

  0
LINE
  5
5A
330
59
100
AcDbEntity
  8
0
 62
     0
100
AcDbLine
 10
-1.0
 20
0.26794919
 30
0.0
 11
0.0
 21
0.0
 31
0.0
  0
LINE
  5
5B
330
59
100
AcDbEntity
  8
0
 62
     0
100
AcDbLine
 10
0.0
 20
0.0
 30
0.0
 11
-1.0
 21
-0.26794919
 31
0.0
  0
LINE
  5
5C
330
59
100
AcDbEntity
  8
0
 62
     0
100
AcDbLine
 10
0.0
 20
0.0
 30
0.0
 11
-1.0
 21
0.0
 31
0.0
  0
ENDBLK
  5
5E
330
59
100
AcDbEntity
  8
0
100
AcDbBlockEnd
  0
BLOCK
  5
66
330
64
100
AcDbEntity
  8
0
100
AcDbBlockBegin
  2
GENAXEH
 70
     0
 10
0.0
 20
0.0
 30
0.0
  3
GENAXEH
  1

  0
LINE
  5
65
330
64
100
AcDbEntity
  8
0
100
AcDbLine
 10
-1.0
 20
0.0
 30
0.0
 11
1.0
 21
0.0
 31
0.0
  0
ENDBLK
  5
67
330
64
100
AcDbEntity
  8
0
100
AcDbBlockEnd
  0
BLOCK
  5
2249
330
223F
100
AcDbEntity
  8
0
100
AcDbBlockBegin
  2
*D5
 70
     1
 10
0.0
 20
0.0
 30
0.0
  3
*D5
  1

  0
LINE
  5
3474
330
223F
100
AcDbEntity
  8
AM_5
 62
     3
100
AcDbLine
 10
-25.00000000000007
 20
-2.000000000000043
 30
0.0
 11
-25.00000000000007
 21
-9.500000999999999
 31
0.0
  0
LINE
  5
3475
330
223F
100
AcDbEntity
  8
AM_5
 62
     3
100
AcDbLine
 10
-1.0
 20
-1.699998646324944
 30
0.0
 11
-1.0
 21
-9.500000999999999
 31
0.0
  0
LINE
  5
3476
330
223F
100
AcDbEntity
  8
AM_5
 62
     3
100
AcDbLine
 10
-23.75000000000007
 20
-9.000000999999999
 30
0.0
 11
-2.25
 21
-9.000000999999999
 31
0.0
  0
INSERT
  5
3477
330
223F
100
AcDbEntity
  8
AM_5
 62
     3
100
AcDbBlockReference
  2
_OPEN30
 10
-25.00000000000007
 20
-9.000000999999999
 30
0.0
 41
1.25
 42
1.25
 43
1.25
 50
180.0
  0
INSERT
  5
3478
330
223F
100
AcDbEntity
  8
AM_5
 62
     3
100
AcDbBlockReference
  2
_OPEN30
 10
-1.0
 20
-9.000000999999999
 30
0.0
 41
1.25
 42
1.25
 43
1.25
  0
MTEXT
  5
3479
330
223F
100
AcDbEntity
  8
AM_5
 62
     2
100
AcDbMText
 10
-13.00000000000004
 20
-7.300000999999999
 30
0.0
 40
1.9
 41
0.0
 71
     5
 72
     1
  1
24
1001
ACAD
1000
MTEXTBEGIN
1070
    73
1070
     1
1070
    44
1040
1.0
1070
    74
1070
     0
1000
MTEXTEND
  0
POINT
  5
347A
330
223F
100
AcDbEntity
  8
DEFPOINTS
 62
     0
100
AcDbPoint
 10
-25.00000000000007
 20
-2.000000000000043
 30
0.0
  0
POINT
  5
347B
330
223F
100
AcDbEntity
  8
DEFPOINTS
 62
     0
100
AcDbPoint
 10
-1.0
 20
-1.699998646324944
 30
0.0
  0
POINT
  5
347C
330
223F
100
AcDbEntity
  8
DEFPOINTS
 62
     0
100
AcDbPoint
 10
-1.0
 20
-9.000000999999999
 30
0.0
  0
ENDBLK
  5
224A
330
223F
100
AcDbEntity
  8
0
100
AcDbBlockEnd
  0
BLOCK
  5
2264
330
225A
100
AcDbEntity
  8
0
100
AcDbBlockBegin
  2
*D6
 70
     1
 10
0.0
 20
0.0
 30
0.0
  3
*D6
  1

  0
LINE
  5
3457
330
225A
100
AcDbEntity
  8
AM_5
 62
     3
100
AcDbLine
 10
-73.0
 20
-1.531249841054207
 30
0.0
 11
-73.0
 21
-14.50000100000002
 31
0.0
  0
LINE
  5
3458
330
225A
100
AcDbEntity
  8
AM_5
 62
     3
100
AcDbLine
 10
-1.0
 20
-1.699998646324944
 30
0.0
 11
-1.000000000000001
 21
-14.50000100000002
 31
0.0
  0
LINE
  5
3459
330
225A
100
AcDbEntity
  8
AM_5
 62
     3
100
AcDbLine
 10
-71.75
 20
-14.00000100000002
 30
0.0
 11
-2.25
 21
-14.00000100000002
 31
0.0
  0
INSERT
  5
345A
330
225A
100
AcDbEntity
  8
AM_5
 62
     3
100
AcDbBlockReference
  2
_OPEN30
 10
-73.0
 20
-14.00000100000002
 30
0.0
 41
1.25
 42
1.25
 43
1.25
 50
180.0
  0
INSERT
  5
345B
330
225A
100
AcDbEntity
  8
AM_5
 62
     3
100
AcDbBlockReference
  2
_OPEN30
 10
-1.000000000000001
 20
-14.00000100000002
 30
0.0
 41
1.25
 42
1.25
 43
1.25
  0
MTEXT
  5
345C
330
225A
100
AcDbEntity
  8
AM_5
 62
     2
100
AcDbMText
 10
-37.0
 20
-12.30000100000002
 30
0.0
 40
1.9
 41
0.0
 71
     5
 72
     1
  1
72
1001
ACAD
1000
MTEXTBEGIN
1070
    73
1070
     1
1070
    44
1040
1.0
1070
    74
1070
     0
1000
MTEXTEND
  0
POINT
  5
345D
330
225A
100
AcDbEntity
  8
DEFPOINTS
 62
     0
100
AcDbPoint
 10
-73.0
 20
-1.531249841054207
 30
0.0
  0
POINT
  5
345E
330
225A
100
AcDbEntity
  8
DEFPOINTS
 62
     0
100
AcDbPoint
 10
-1.0
 20
-1.699998646324944
 30
0.0
  0
POINT
  5
345F
330
225A
100
AcDbEntity
  8
DEFPOINTS
 62
     0
100
AcDbPoint
 10
-1.000000000000001
 20
-14.00000100000002
 30
0.0
  0
ENDBLK
  5
2265
330
225A
100
AcDbEntity
  8
0
100
AcDbBlockEnd
  0
BLOCK
  5
283F
330
2833
100
AcDbEntity
  8
0
100
AcDbBlockBegin
  2
*D7
 70
     1
 10
0.0
 20
0.0
 30
0.0
  3
*D7
  1

  0
LINE
  5
3460
330
2833
100
AcDbEntity
  8
AM_5
 62
     3
100
AcDbLine
 10
-72.74285714285716
 20
-1.999999999999973
 30
0.0
 11
-82.19201976987468
 21
-1.999999999999971
 31
0.0
  0
LINE
  5
3461
330
2833
100
AcDbEntity
  8
AM_5
 62
     3
100
AcDbLine
 10
-72.74285714285714
 20
2.000000000000026
 30
0.0
 11
-82.19201976987468
 21
2.000000000000029
 31
0.0
  0
LINE
  5
3462
330
2833
100
AcDbEntity
  8
AM_5
 62
     3
100
AcDbLine
 10
-81.69201976987469
 20
-0.7499999999999715
 30
0.0
 11
-81.69201976987469
 21
0.7500000000000293
 31
0.0
  0
INSERT
  5
3463
330
2833
100
AcDbEntity
  8
AM_5
 62
     3
100
AcDbBlockReference
  2
_OPEN30
 10
-81.69201976987469
 20
-1.999999999999971
 30
0.0
 41
1.25
 42
1.25
 43
1.25
 50
270.0
  0
INSERT
  5
3464
330
2833
100
AcDbEntity
  8
AM_5
 62
     3
100
AcDbBlockReference
  2
_OPEN30
 10
-81.69201976987469
 20
2.000000000000029
 30
0.0
 41
1.25
 42
1.25
 43
1.25
 50
90.0
  0
MTEXT
  5
3465
330
2833
100
AcDbEntity
  8
AM_5
 62
     2
100
AcDbMText
 10
-83.39201976987469
 20
0.000000000000016
 30
0.0
 40
1.9
 41
0.0
 71
     5
 72
     1
  1
%%c4
 11
0.0000000000000001
 21
1.0
 31
0.0
1001
ACAD
1000
MTEXTBEGIN
1070
    73
1070
     1
1070
    44
1040
1.0
1070
    74
1070
     0
1000
MTEXTEND
  0
POINT
  5
3466
330
2833
100
AcDbEntity
  8
DEFPOINTS
 62
     0
100
AcDbPoint
 10
-72.74285714285716
 20
-1.999999999999973
 30
0.0
  0
POINT
  5
3467
330
2833
100
AcDbEntity
  8
DEFPOINTS
 62
     0
100
AcDbPoint
 10
-72.74285714285714
 20
2.000000000000026
 30
0.0
  0
POINT
  5
3468
330
2833
100
AcDbEntity
  8
DEFPOINTS
 62
     0
100
AcDbPoint
 10
-81.69201976987469
 20
2.000000000000029
 30
0.0
  0
ENDBLK
  5
2840
330
2833
100
AcDbEntity
  8
0
100
AcDbBlockEnd
  0
BLOCK
  5
2ACB
330
2ABF
100
AcDbEntity
  8
0
100
AcDbBlockBegin
  2
*D8
 70
     1
 10
0.0
 20
0.0
 30
0.0
  3
*D8
  1

  0
LINE
  5
347D
330
2ABF
100
AcDbEntity
  8
AM_5
 62
     3
100
AcDbLine
 10
-1.0
 20
-1.699998646324944
 30
0.0
 11
8.21586557192095
 21
-1.699998646324946
 31
0.0
  0
LINE
  5
347E
330
2ABF
100
AcDbEntity
  8
AM_5
 62
     3
100
AcDbLine
 10
-1.0
 20
1.700001353676252
 30
0.0
 11
8.21586557192095
 21
1.70000135367625
 31
0.0
  0
LINE
  5
347F
330
2ABF
100
AcDbEntity
  8
AM_5
 62
     3
100
AcDbLine
 10
7.715865571920949
 20
-2.949998646324946
 30
0.0
 11
7.715865571920949
 21
-4.199998646324946
 31
0.0
  0
LINE
  5
3480
330
2ABF
100
AcDbEntity
  8
AM_5
 62
     3
100
AcDbLine
 10
7.715865571920951
 20
2.95000135367625
 30
0.0
 11
7.715865571920953
 21
11.49047754415243
 31
0.0
  0
LINE
  5
3481
330
2ABF
100
AcDbEntity
  8
AM_5
 62
     3
100
AcDbLine
 10
7.71586557192095
 20
-1.699998646324946
 30
0.0
 11
7.71586557192095
 21
1.70000135367625
 31
0.0
  0
INSERT
  5
3482
330
2ABF
100
AcDbEntity
  8
AM_5
 62
     3
100
AcDbBlockReference
  2
_OPEN30
 10
7.71586557192095
 20
-1.699998646324946
 30
0.0
 41
1.25
 42
1.25
 43
1.25
 50
90.0
  0
INSERT
  5
3483
330
2ABF
100
AcDbEntity
  8
AM_5
 62
     3
100
AcDbBlockReference
  2
_OPEN30
 10
7.71586557192095
 20
1.70000135367625
 30
0.0
 41
1.25
 42
1.25
 43
1.25
 50
270.0
  0
MTEXT
  5
3484
330
2ABF
100
AcDbEntity
  8
AM_5
 62
     2
100
AcDbMText
 10
6.015865571920951
 20
7.845239448914346
 30
0.0
 40
1.9
 41
0.0
 71
     5
 72
     1
  1
%%c3.4
 11
0.0000000000000001
 21
1.0
 31
0.0
1001
ACAD
1000
MTEXTBEGIN
1070
    73
1070
     1
1070
    44
1040
1.0
1070
    74
1070
     0
1000
MTEXTEND
  0
POINT
  5
3485
330
2ABF
100
AcDbEntity
  8
DEFPOINTS
 62
     0
100
AcDbPoint
 10
-1.0
 20
-1.699998646324944
 30
0.0
  0
POINT
  5
3486
330
2ABF
100
AcDbEntity
  8
DEFPOINTS
 62
     0
100
AcDbPoint
 10
-1.0
 20
1.700001353676252
 30
0.0
  0
POINT
  5
3487
330
2ABF
100
AcDbEntity
  8
DEFPOINTS
 62
     0
100
AcDbPoint
 10
7.71586557192095
 20
1.70000135367625
 30
0.0
  0
ENDBLK
  5
2ACC
330
2ABF
100
AcDbEntity
  8
0
100
AcDbBlockEnd
  0
BLOCK
  5
2FF6
330
2FE6
100
AcDbEntity
  8
0
100
AcDbBlockBegin
  2
*D9
 70
     1
 10
0.0
 20
0.0
 30
0.0
  3
*D9
  1

  0
LINE
  5
34D6
330
2FE6
100
AcDbEntity
  8
AM_5
100
AcDbLine
 10
0.171007527276405
 20
-0.4698463108496636
 30
0.0
 11
4.994583140029966
 21
-13.72251149804382
 31
0.0
  0
LINE
  5
34D7
330
2FE6
100
AcDbEntity
  8
AM_5
100
AcDbLine
 10
0.1710073032923307
 20
0.4698477016270452
 30
0.0
 11
4.994592641252842
 21
13.72251105824149
 31
0.0
  0
ARC
  5
34D8
330
2FE6
100
AcDbEntity
  8
AM_5
100
AcDbCircle
 10
-0.0000030924289289
 20
0.0000015091818385
 30
0.0
 40
14.1031933106066
100
AcDbArc
 50
295.079926512901
 51
64.92003381651979
  0
INSERT
  5
34D9
330
2FE6
100
AcDbEntity
  8
AM_5
100
AcDbBlockReference
  2
_OPEN30
 10
4.823573069621899
 20
-13.25266518719417
 30
0.0
 41
1.25
 42
1.25
 43
1.25
 50
202.5399631799436
  0
INSERT
  5
34DA
330
2FE6
100
AcDbEntity
  8
AM_5
100
AcDbBlockReference
  2
_OPEN30
 10
4.823582245531583
 20
13.25266486579628
 30
0.0
 41
1.25
 42
1.25
 43
1.25
 50
157.459997149477
  0
MTEXT
  5
34DB
330
2FE6
100
AcDbEntity
  8
AM_5
 62
     2
100
AcDbMText
 10
12.55319021817683
 20
-0.0000033732183303
 30
0.0
 40
1.6
 41
0.0
 71
     5
 72
     1
  1
140°
  7
ASAMI
 11
0.0000000000000001
 21
1.0
 31
0.0
  0
POINT
  5
34DC
330
2FE6
100
AcDbEntity
  8
DEFPOINTS
 62
     0
100
AcDbPoint
 10
12.94977873726874
 20
5.585985050114524
 30
0.0
  0
POINT
  5
34DD
330
2FE6
100
AcDbEntity
  8
DEFPOINTS
 62
     0
100
AcDbPoint
 10
-0.0000031789143312
 20
0.0000012715656586
 30
0.0
  0
POINT
  5
34DE
330
2FE6
100
AcDbEntity
  8
DEFPOINTS
 62
     0
100
AcDbPoint
 10
-0.000002543131662
 20
-0.0000000000000114
 30
0.0
  0
POINT
  5
34DF
330
2FE6
100
AcDbEntity
  8
DEFPOINTS
 62
     0
100
AcDbPoint
 10
-0.1953284988367748
 20
0.5366536571924517
 30
0.0
  0
POINT
  5
34E0
330
2FE6
100
AcDbEntity
  8
DEFPOINTS
 62
     0
100
AcDbPoint
 10
-0.1953317107825281
 20
-0.5366583074448086
 30
0.0
  0
ENDBLK
  5
2FF7
330
2FE6
100
AcDbEntity
  8
0
100
AcDbBlockEnd
  0
ENDSEC
  0
SECTION
  2
ENTITIES
  0
LINE
  5
C1D
330
1F
100
AcDbEntity
  8
AM_0
 48
0.5
100
AcDbLine
 10
0.000000000000115
 20
0.0000000000000006
 30
0.0
 11
-0.1953284988367748
 21
0.5366536571924517
 31
0.0
  0
LINE
  5
C20
330
1F
100
AcDbEntity
  8
AM_0
 48
0.5
100
AcDbLine
 10
0.0000000000001137
 20
-0.000000000000003
 30
0.0
 11
-0.1953317107825281
 21
-0.5366583074448086
 31
0.0
  0
TEXT
  5
19BD
330
1F
100
AcDbEntity
  8
AM_6
100
AcDbText
 10
-48.25
 20
-25.25000100000005
 30
0.0
 40
2.5
  1
MDW034MHK
 50
0.0000000000001527
 72
     4
 11
-37.0
 21
-24.00000100000002
 31
0.0
100
AcDbText
  0
ELLIPSE
  5
21FC
330
1F
100
AcDbEntity
  8
AM_11
 48
0.5
100
AcDbEllipse
 10
-6.843618774414037
 20
7.729693494220401
 30
0.0
 11
-8.7905376434325
 21
0.000000000000022
 31
0.0
210
0.0
220
0.0
230
1.0
 40
0.9722222222222219
 41
1.130070686340307
 42
2.011520147323599
  0
ELLIPSE
  5
21FD
330
1F
100
AcDbEntity
  8
AM_11
 48
0.5
100
AcDbEllipse
 10
-6.84361877441407
 20
-7.729687927186598
 30
0.0
 11
8.790537643432497
 21
0.000000000000022
 31
0.0
210
0.0
220
0.0
230
1.0
 40
0.9722222222222226
 41
1.130071552591889
 42
2.011521013575197
  0
ELLIPSE
  5
2200
330
1F
100
AcDbEntity
  8
AM_11
 48
0.5
100
AcDbEllipse
 10
-14.34361877441407
 20
-7.729687927186583
 30
0.0
 11
-8.7905376434325
 21
0.0000000000000142
 31
0.0
210
0.0
220
0.0
230
1.0
 40
0.9722222222222219
 41
4.271664206181687
 42
5.153113667164993
  0
ELLIPSE
  5
2201
330
1F
100
AcDbEntity
  8
AM_11
 48
0.5
100
AcDbEllipse
 10
-14.34361877441403
 20
7.729693494220417
 30
0.0
 11
8.790537643432497
 21
0.0000000000000669
 31
0.0
210
0.0
220
0.0
230
1.0
 40
0.9722222222222224
 41
4.271663339930089
 42
5.153112800913382
  0
ELLIPSE
  5
2206
330
1F
100
AcDbEntity
  8
AM_11
 48
0.5
100
AcDbEllipse
 10
-29.34361877441192
 20
7.729693494220445
 30
0.0
 11
8.790537643432497
 21
0.0000000000000142
 31
0.0
210
0.0
220
0.0
230
1.0
 40
0.9722222222222224
 41
4.271663339930095
 42
5.153112800913389
  0
ELLIPSE
  5
2207
330
1F
100
AcDbEntity
  8
AM_11
 48
0.5
100
AcDbEllipse
 10
-29.34361877441196
 20
-7.729687927186556
 30
0.0
 11
-8.79053764343249
 21
0.0000000000000083
 31
0.0
210
0.0
220
0.0
230
1.0
 40
0.9722222222222233
 41
4.271664206181686
 42
5.153113667164993
  0
ELLIPSE
  5
220B
330
1F
100
AcDbEntity
  8
AM_11
 48
0.5
100
AcDbEllipse
 10
-21.84361877441193
 20
7.729693494220431
 30
0.0
 11
-8.790537643432497
 21
0.0000000000000005
 31
0.0
210
0.0
220
0.0
230
1.0
 40
0.9722222222222224
 41
1.130070686340304
 42
2.011520147323597
  0
ELLIPSE
  5
220C
330
1F
100
AcDbEntity
  8
AM_11
 48
0.5
100
AcDbEllipse
 10
-21.84361877441197
 20
-7.729687927186569
 30
0.0
 11
-8.790537643432495
 21
0.0000000000000044
 31
0.0
210
0.0
220
0.0
230
1.0
 40
0.9722222222222226
 41
4.271664206181685
 42
5.153113667164992
  0
ELLIPSE
  5
220D
330
1F
100
AcDbEntity
  8
AM_11
 48
0.5
100
AcDbEllipse
 10
-44.34358596277844
 20
7.729693494220434
 30
0.0
 11
8.79053764343249
 21
0.0000000000000669
 31
0.0
210
0.0
220
0.0
230
1.0
 40
0.9722222222222233
 41
4.271663339930089
 42
5.153112800913382
  0
ELLIPSE
  5
220E
330
1F
100
AcDbEntity
  8
AM_11
 48
0.5
100
AcDbEllipse
 10
-44.34358596277847
 20
-7.729687927186566
 30
0.0
 11
-8.79053764343249
 21
0.0000000000000083
 31
0.0
210
0.0
220
0.0
230
1.0
 40
0.9722222222222233
 41
4.271664206181686
 42
5.153113667164993
  0
ELLIPSE
  5
220F
330
1F
100
AcDbEntity
  8
AM_11
 48
0.5
100
AcDbEllipse
 10
-51.84356955696178
 20
-7.729687927186573
 30
0.0
 11
8.790537643432477
 21
0.0000000000000552
 31
0.0
210
0.0
220
0.0
230
1.0
 40
0.9722222222222244
 41
1.130071552591885
 42
2.011521013575192
  0
ELLIPSE
  5
2210
330
1F
100
AcDbEntity
  8
AM_11
 48
0.5
100
AcDbEllipse
 10
-51.84356955696176
 20
7.72969349422043
 30
0.0
 11
-8.790537643432493
 21
0.0000000000000669
 31
0.0
210
0.0
220
0.0
230
1.0
 40
0.972222222222223
 41
1.130070686340312
 42
2.011520147323604
  0
ELLIPSE
  5
2219
330
1F
100
AcDbEntity
  8
AM_11
 48
0.5
100
AcDbEllipse
 10
-59.343553151145
 20
7.729693494220422
 30
0.0
 11
-8.790537643432497
 21
0.0000000000000005
 31
0.0
210
0.0
220
0.0
230
1.0
 40
0.9722222222222224
 41
1.130070686340304
 42
2.011520147323597
  0
ELLIPSE
  5
221A
330
1F
100
AcDbEntity
  8
AM_11
 48
0.5
100
AcDbEllipse
 10
-59.34355315114504
 20
-7.729687927186577
 30
0.0
 11
-8.79053764343249
 21
0.0000000000000083
 31
0.0
210
0.0
220
0.0
230
1.0
 40
0.9722222222222233
 41
4.271664206181686
 42
5.153113667164993
  0
ELLIPSE
  5
2228
330
1F
100
AcDbEntity
  8
AM_11
 48
0.5
100
AcDbEllipse
 10
-36.84360236859518
 20
7.729693494220438
 30
0.0
 11
8.790537643432491
 21
0.0000000000000747
 31
0.0
210
0.0
220
0.0
230
1.0
 40
0.972222222222223
 41
4.271663339930089
 42
5.153112800913382
  0
ELLIPSE
  5
2229
330
1F
100
AcDbEntity
  8
AM_11
 48
0.5
100
AcDbEllipse
 10
-36.84360236859522
 20
-7.729687927186561
 30
0.0
 11
-8.79053764343249
 21
0.0000000000000083
 31
0.0
210
0.0
220
0.0
230
1.0
 40
0.9722222222222233
 41
4.271664206181686
 42
5.153113667164993
  0
DIMENSION
  5
223E
330
1F
100
AcDbEntity
  8
AM_5
100
AcDbDimension
  2
*D5
 10
-1.0
 20
-9.000000999999999
 30
0.0
 11
-13.00000000000004
 21
-7.300000999999999
 31
0.0
 70
    32
  1
<>
  3
AM_JIS$0
100
AcDbAlignedDimension
 13
-25.00000000000007
 23
-2.000000000000043
 33
0.0
 14
-1.0
 24
-1.699998646324944
 34
0.0
 50
0.0000000000000384
100
AcDbRotatedDimension
1001
GENIUS_GENDTOL_13
1000

1000
h7
1000

1040
0.0
1001
ACAD
1000
DSTYLE
1002
{
1070
   271
1070
     0
1002
}
  0
LINE
  5
224B
330
1F
100
AcDbEntity
  8
AM_7
100
AcDbLine
 10
-74.69201876987469
 20
0.0000000000000866
 30
0.0
 11
0.7158645719209506
 21
-0.0000000000000039
 31
0.0
1001
GENIUS_GENODEF_13
1002
{
1000
HIER
1070
     0
1002
}
1002
{
1000
MANEDIT
1070
     0
1002
}
1002
{
1000
NOSEL
1070
     0
1002
}
1002
{
1000
BEHIND
1070
     0
1002
}
1002
{
1000
REACTOR
1002
}
1001
GENIUS_GENOBJ-N-CEN_13
1002
{
1000
OWNER
1000
GEN
1002
}
  0
DIMENSION
  5
2259
330
1F
100
AcDbEntity
  8
AM_5
100
AcDbDimension
  2
*D6
 10
-1.000000000000001
 20
-14.00000100000002
 30
0.0
 11
-37.0
 21
-12.30000100000002
 31
0.0
 70
    32
  1
<>
  3
AM_JIS$0
100
AcDbAlignedDimension
 13
-73.0
 23
-1.531249841054207
 33
0.0
 14
-1.0
 24
-1.699998646324944
 34
0.0
100
AcDbRotatedDimension
1001
GENIUS_GENDTOL_13
1000

1000
h7
1000

1040
0.0
1001
ACAD
1000
DSTYLE
1002
{
1070
   271
1070
     0
1002
}
  0
ELLIPSE
  5
27F0
330
1F
100
AcDbEntity
  8
AM_11
 48
0.5
100
AcDbEllipse
 10
-66.84356049944483
 20
7.729699137863102
 30
0.0
 11
8.79053764343249
 21
0.0000000000000669
 31
0.0
210
0.0
220
0.0
230
1.0
 40
0.9722222222222233
 41
4.271663339930089
 42
5.153112800913382
  0
ELLIPSE
  5
27F1
330
1F
100
AcDbEntity
  8
AM_11
 48
0.5
100
AcDbEllipse
 10
-66.84356049944486
 20
-7.729682283543898
 30
0.0
 11
-8.79053764343249
 21
0.0000000000000083
 31
0.0
210
0.0
220
0.0
230
1.0
 40
0.9722222222222233
 41
4.271664206181686
 42
5.153113667164993
  0
ELLIPSE
  5
27F2
330
1F
100
AcDbEntity
  8
AM_11
 48
0.5
100
AcDbEllipse
 10
-74.34354409362817
 20
-7.729682283543905
 30
0.0
 11
8.790537643432477
 21
0.0000000000000552
 31
0.0
210
0.0
220
0.0
230
1.0
 40
0.9722222222222244
 41
1.130071552591885
 42
1.417355117759801
  0
ELLIPSE
  5
27F3
330
1F
100
AcDbEntity
  8
AM_11
 48
0.5
100
AcDbEllipse
 10
-74.34354409362814
 20
7.729699137863097
 30
0.0
 11
-8.790537643432493
 21
0.0000000000000669
 31
0.0
210
0.0
220
0.0
230
1.0
 40
0.972222222222223
 41
1.724237535829987
 42
2.011520147323604
  0
LINE
  5
27F8
330
1F
100
AcDbEntity
  8
AM_0
 48
0.5
100
AcDbLine
 10
-25.00000000000005
 20
-2.000000000000022
 30
0.0
 11
-25.0
 21
1.999999999999976
 31
0.0
  0
LINE
  5
2827
330
1F
100
AcDbEntity
  8
AM_0
100
AcDbLine
 10
-72.74285714285714
 20
2.000000000000022
 30
0.0
 11
-72.74285714285716
 21
-1.999999999999977
 31
0.0
  0
LINE
  5
2828
330
1F
100
AcDbEntity
  8
AM_0
 48
0.5
100
AcDbLine
 10
-73.00000000000001
 20
-1.749999999999973
 30
0.0
 11
-73.0
 21
1.750000000000027
 31
0.0
  0
LINE
  5
2829
330
1F
100
AcDbEntity
  8
AM_0
100
AcDbLine
 10
-73.00000000000001
 20
-1.749999999999973
 30
0.0
 11
-72.75000000000002
 21
-1.999999999999973
 31
0.0
1001
GENIUS_GENFIL_13
1070
     0
1040
0.25
1040
0.25
1040
20.0
1040
0.0
1002
{
1002
}
1001
GENIUS_GENODEF_13
1002
{
1000
HIER
1070
     0
1002
}
1002
{
1000
MANEDIT
1070
     0
1002
}
1002
{
1000
NOSEL
1070
     0
1002
}
1002
{
1000
BEHIND
1070
     0
1002
}
1002
{
1000
REACTOR
1002
}
1001
GENIUS_GENOBJ-N-CHA_13
1002
{
1000
OWNER
1000
GEN
1002
}
  0
LINE
  5
282B
330
1F
100
AcDbEntity
  8
AM_0
100
AcDbLine
 10
-72.75000000000002
 20
-1.999999999999973
 30
0.0
 11
-25.0
 21
-2.000000000000043
 31
0.0
1001
GENIUS_GENODEF_13
1002
{
1000
HIER
1070
     0
1002
}
1002
{
1000
MANEDIT
1070
     0
1002
}
1002
{
1000
NOSEL
1070
     0
1002
}
1002
{
1000
BEHIND
1070
     0
1002
}
1002
{
1000
REACTOR
1002
}
1001
GENIUS_GENOBJ-N-CEN_13
1002
{
1000
OWNER
1000
GEN
1002
}
  0
LINE
  5
282C
330
1F
100
AcDbEntity
  8
AM_0
100
AcDbLine
 10
-72.75
 20
2.000000000000026
 30
0.0
 11
-25.0
 21
1.999999999999955
 31
0.0
1001
GENIUS_GENODEF_13
1002
{
1000
HIER
1070
     0
1002
}
1002
{
1000
MANEDIT
1070
     0
1002
}
1002
{
1000
NOSEL
1070
     0
1002
}
1002
{
1000
BEHIND
1070
     0
1002
}
1002
{
1000
REACTOR
1002
}
1001
GENIUS_GENOBJ-N-CEN_13
1002
{
1000
OWNER
1000
GEN
1002
}
  0
DIMENSION
  5
282D
330
1F
100
AcDbEntity
  8
AM_5
100
AcDbDimension
  2
*D7
 10
-81.69201976987469
 20
2.000000000000029
 30
0.0
 11
-81.69201976987469
 21
0.0000000000000158
 31
0.0
 70
   160
  1
%%c<>
  3
AM_JIS$0
100
AcDbAlignedDimension
 13
-72.74285714285716
 23
-1.999999999999973
 33
0.0
 14
-72.74285714285714
 24
2.000000000000026
 34
0.0
 50
270.0
100
AcDbRotatedDimension
1001
ACAD
1000
DSTYLE
1002
{
1070
   271
1070
     0
1002
}
1001
GENIUS_GENDTOL_13
1000

1000
h7
1000

1040
0.0
  0
LINE
  5
2830
330
1F
100
AcDbEntity
  8
AM_0
100
AcDbLine
 10
-25.00000000000004
 20
-2.000000000000022
 30
0.0
 11
-24.48074985551947
 21
-1.700210789307436
 31
0.0
  0
LINE
  5
2831
330
1F
100
AcDbEntity
  8
AM_0
100
AcDbLine
 10
-25.00000000000002
 20
1.999999999999976
 30
0.0
 11
-24.48074985551947
 21
1.700210789307399
 31
0.0
  0
LINE
  5
2964
330
1F
100
AcDbEntity
  8
AM_0
100
AcDbLine
 10
-73.0
 20
1.750000000000027
 30
0.0
 11
-72.75
 21
2.000000000000026
 31
0.0
1001
GENIUS_GENFIL_13
1070
     0
1040
0.25
1040
0.25
1040
20.0
1040
0.0
1002
{
1002
}
1001
GENIUS_GENODEF_13
1002
{
1000
HIER
1070
     0
1002
}
1002
{
1000
MANEDIT
1070
     0
1002
}
1002
{
1000
NOSEL
1070
     0
1002
}
1002
{
1000
BEHIND
1070
     0
1002
}
1002
{
1000
REACTOR
1002
}
1001
GENIUS_GENOBJ-N-CHA_13
1002
{
1000
OWNER
1000
GEN
1002
}
  0
DIMENSION
  5
2ABE
330
1F
100
AcDbEntity
  8
AM_5
100
AcDbDimension
  2
*D8
 10
7.71586557192095
 20
1.70000135367625
 30
0.0
 11
7.715865571920951
 21
7.845239448914345
 31
0.0
 70
   160
  1
%%c<>
  3
AM_JIS$0
100
AcDbAlignedDimension
 13
-1.0
 23
-1.699998646324944
 33
0.0
 14
-1.0
 24
1.700001353676252
 34
0.0
 50
89.99999999999991
100
AcDbRotatedDimension
1001
ACAD
1000
DSTYLE
1002
{
1070
   271
1070
     1
1002
}
1001
GENIUS_GENDTOL_13
1000

1000
h7
1000

1040
0.0
  0
LINE
  5
2B4E
330
1F
100
AcDbEntity
  8
AM_0
 48
0.5
100
AcDbLine
 10
-0.6763614388630798
 20
1.27525622104965
 30
0.0
 11
-1.0
 21
1.700001353676252
 31
0.0
  0
ELLIPSE
  5
2B77
330
1F
100
AcDbEntity
  8
AM_0
 48
0.5
100
AcDbEllipse
 10
2.790269366572993
 20
2.009522195823088
 30
0.0
 11
3.463179528777598
 21
0.7508059886992438
 31
0.0
210
0.0
220
0.0
230
0.9999999999999998
 40
0.553472745456442
 41
3.132977998936413
 42
3.565569191650999
  0
LINE
  5
2B9A
330
1F
100
AcDbEntity
  8
AM_0
100
AcDbLine
 10
-24.48074985551948
 20
1.700210789307399
 30
0.0
 11
-24.48074985551947
 21
-1.700210789307436
 31
0.0
  0
ELLIPSE
  5
2D3A
330
1F
100
AcDbEntity
  8
AM_0
 48
0.5
100
AcDbEllipse
 10
2.79028058299704
 20
-2.009510617183254
 30
0.0
 11
3.463183719462436
 21
-0.750786658419818
 31
0.0
210
0.0
220
0.0
230
-1.0
 40
0.553472745456442
 41
3.132977998936413
 42
3.565569191650999
  0
LINE
  5
2D3B
330
1F
100
AcDbEntity
  8
AM_0
 48
0.5
100
AcDbLine
 10
-0.6763543208031932
 20
-1.275263991952814
 30
0.0
 11
-1.0
 21
-1.699998646324944
 31
0.0
  0
DIMENSION
  5
2FE5
330
1F
100
AcDbEntity
  8
AM_5
100
AcDbDimension
  2
*D9
 10
-0.1953317107825281
 20
-0.5366583074448086
 30
0.0
 11
12.55319021817683
 21
-0.0000033732183323
 31
0.0
 70
    34
  1
<>
  3
AM_JIS$2
100
AcDb2LineAngularDimension
 13
-0.000002543131662
 23
-0.0000000000000114
 33
0.0
 14
-0.1953284988367748
 24
0.5366536571924517
 34
0.0
 15
-0.0000031789143312
 25
0.0000012715656586
 35
0.0
 16
12.94977873726874
 26
5.585985050114524
 36
0.0
1001
GENIUS_GENDTOL_13
1000

1000
h7
1000

1040
0.0
1001
ACAD
1000
DSTYLE
1002
{
1070
   271
1070
     0
1002
}
  0
ARC
  5
32F9
330
1F
100
AcDbEntity
  8
AM_11
 48
0.5
100
AcDbCircle
 10
0.0313795118176992
 20
6.625451430235441
 30
0.0
 40
7.325448036193749
100
AcDbArc
 50
244.7482808787518
 51
254.0147302238187
  0
LINE
  5
33FE
330
1F
100
AcDbEntity
  8
AM_0
100
AcDbLine
 10
-24.48038428514079
 20
-1.699999727150898
 30
0.0
 11
-20.35103113409308
 21
-1.699999727150899
 31
0.0
1001
GENIUS_GENODEF_13
1002
{
1000
HIER
1070
     0
1002
}
1002
{
1000
MANEDIT
1070
     0
1002
}
1002
{
1000
NOSEL
1070
     0
1002
}
1002
{
1000
BEHIND
1070
     0
1002
}
1002
{
1000
REACTOR
1002
}
1001
GENIUS_GENOBJ-N-CEN_13
1002
{
1000
OWNER
1000
GEN
1002
}
  0
LINE
  5
33FF
330
1F
100
AcDbEntity
  8
AM_0
100
AcDbLine
 10
-24.48074985551948
 20
1.700210789307399
 30
0.0
 11
-19.50459478714607
 21
1.700232477748258
 31
0.0
1001
GENIUS_GENODEF_13
1002
{
1000
HIER
1070
     0
1002
}
1002
{
1000
MANEDIT
1070
     0
1002
}
1002
{
1000
NOSEL
1070
     0
1002
}
1002
{
1000
BEHIND
1070
     0
1002
}
1002
{
1000
REACTOR
1002
}
1001
GENIUS_GENOBJ-N-CEN_13
1002
{
1000
OWNER
1000
GEN
1002
}
  0
LINE
  5
3400
330
1F
100
AcDbEntity
  8
AM_0
 48
0.5
100
AcDbLine
 10
-2.137266447884755
 20
1.700000272849028
 30
0.0
 11
-1.0
 21
1.700001353676252
 31
0.0
  0
LINE
  5
3401
330
1F
100
AcDbEntity
  8
AM_0
 48
0.5
100
AcDbLine
 10
-2.13726644788477
 20
-1.699999727150971
 30
0.0
 11
-1.0
 21
-1.699998646324944
 31
0.0
  0
LINE
  5
3402
330
1F
100
AcDbEntity
  8
AM_0
 48
0.5
100
AcDbLine
 10
0.0
 20
0.0
 30
0.0
 11
-1.32115015302375
 21
0.6527486350722122
 31
0.0
  0
LINE
  5
3403
330
1F
100
AcDbEntity
  8
AM_11
 48
0.5
100
AcDbLine
 10
-19.50465046179449
 20
1.700241788701319
 30
0.0
 11
-15.48932410550271
 21
1.700000272849403
 31
0.0
  0
LINE
  5
3404
330
1F
100
AcDbEntity
  8
AM_11
 48
0.5
100
AcDbLine
 10
-20.35103113409308
 20
-1.699999727150899
 30
0.0
 11
-15.614488533301
 21
-1.699982460874911
 31
0.0
  0
LINE
  5
3405
330
1F
100
AcDbEntity
  8
AM_0
 48
0.5
100
AcDbLine
 10
-16.41878187915547
 20
0.8149589022049655
 30
0.0
 11
-21.0
 21
-0.1375742844315839
 31
0.0
  0
LINE
  5
3406
330
1F
100
AcDbEntity
  8
AM_0
 48
0.5
100
AcDbLine
 10
-15.61170597615185
 20
-1.700007793352533
 30
0.0
 11
-8.429287103688082
 21
-1.699999727150795
 31
0.0
  0
LINE
  5
3407
330
1F
100
AcDbEntity
  8
AM_0
 48
0.5
100
AcDbLine
 10
-15.48932952478309
 20
1.700000272849403
 30
0.0
 11
-8.429287103687997
 21
1.700000272849204
 31
0.0
  0
LINE
  5
3408
330
1F
100
AcDbEntity
  8
AM_11
 48
0.5
100
AcDbLine
 10
-8.429287103687997
 20
1.700000272849204
 30
0.0
 11
-2.137266447884755
 21
1.700000272849029
 31
0.0
  0
LINE
  5
3409
330
1F
100
AcDbEntity
  8
AM_11
 48
0.5
100
AcDbLine
 10
-8.429287103688082
 20
-1.699999727150795
 30
0.0
 11
-2.137266447884833
 21
-1.699999727150972
 31
0.0
  0
SPLINE
  5
340A
330
1F
100
AcDbEntity
  8
AM_0
 48
0.5
100
AcDbSpline
210
0.0
220
0.0
230
1.0
 70
     8
 71
     3
 72
    10
 73
     6
 74
     0
 42
0.0000000001
 43
0.0000000001
 40
0.0
 40
0.0
 40
0.0
 40
0.0
 40
2.69986029516136
 40
4.147722969032201
 40
6.285750005020438
 40
6.285750005020438
 40
6.285750005020438
 40
6.285750005020438
 10
-2.526397154671889
 20
0.3076912111627997
 30
0.0
 10
-2.288892546120147
 20
0.1497494636333401
 30
0.0
 10
-1.924020585187015
 20
-0.0928922075564925
 30
0.0
 10
-1.061147411712846
 20
0.0245748761899786
 30
0.0
 10
-1.223651528491689
 20
0.4202195574568034
 30
0.0
 10
-1.331023866045643
 20
0.6613771762171363
 30
0.0
  0
SPLINE
  5
340B
330
1F
100
AcDbEntity
  8
AM_0
 48
0.5
100
AcDbSpline
210
0.0
220
0.0
230
1.0
 70
     8
 71
     3
 72
    17
 73
    13
 74
     0
 42
0.0000000001
 43
0.0000000001
 40
0.0
 40
0.0
 40
0.0
 40
0.0
 40
1.010743614677189
 40
2.022833924044153
 40
3.037578959561199
 40
4.056212747067873
 40
5.079857613375832
 40
6.109500119648989
 40
7.14596120163808
 40
8.18989512056258
 40
9.241717674284874
 40
9.693948937866434
 40
9.693948937866434
 40
9.693948937866434
 40
9.693948937866434
 10
-2.137266447884762
 20
1.700000272849029
 30
0.0
 10
-2.248558380830282
 20
1.698989542940454
 30
0.0
 10
-2.471290529879311
 20
1.696966736446892
 30
0.0
 10
-2.805307274331319
 20
1.680644424495027
 30
0.0
 10
-3.139310267507809
 20
1.654706056558518
 30
0.0
 10
-3.473292488540607
 20
1.618348527876667
 30
0.0
 10
-3.807249959798184
 20
1.572064929991982
 30
0.0
 10
-4.141178602320188
 20
1.51606985022848
 30
0.0
 10
-4.47507393422299
 20
1.450723747432831
 30
0.0
 10
-4.808948911985766
 20
1.376466548398283
 30
0.0
 10
-5.07846150025243
 20
1.309572036900987
 30
0.0
 10
-5.236735093896669
 20
1.267753347363499
 30
0.0
 10
-5.284240335225391
 20
1.254952926442668
 30
0.0
  0
SPLINE
  5
340C
330
1F
100
AcDbEntity
  8
AM_0
 48
0.5
100
AcDbSpline
210
0.0
220
0.0
230
1.0
 70
     8
 71
     3
 72
    25
 73
    21
 74
     0
 42
0.0000000001
 43
0.0000000001
 40
6.846175049578289
 40
6.846175049578289
 40
6.846175049578289
 40
6.846175049578289
 40
7.604337694224321
 40
8.711974558287883
 40
9.814980593243754
 40
10.91239053451967
 40
12.0033633515982
 40
13.08720139956839
 40
14.16337181880432
 40
15.23152222380919
 40
16.29148850140128
 40
17.34331105512262
 40
18.38723020264746
 40
19.42369128463655
 40
20.45333379090873
 40
21.47697865721768
 40
22.49561244472435
 40
23.5103574802404
 40
24.52244778960836
 40
25.53320666051913
 40
25.53320666051913
 40
25.53320666051913
 40
25.53320666051913
 10
-2.526814370203666
 20
0.3077114024954621
 30
0.0
 10
-2.602691604701803
 20
0.3375603790565975
 30
0.0
 10
-2.789581286827448
 20
0.4107184932606743
 30
0.0
 10
-3.087761154522716
 20
0.5256030682198789
 30
0.0
 10
-3.421412606697103
 20
0.6509166538044616
 30
0.0
 10
-3.755080838419708
 20
0.772226504804212
 30
0.0
 10
-4.08876871652248
 20
0.8887867400348239
 30
0.0
 10
-4.422479959111889
 20
0.9998782413335577
 30
0.0
 10
-4.756217651968718
 20
1.104815918508469
 30
0.0
 10
-5.089983340122692
 20
1.202954853578368
 30
0.0
 10
-5.423781134710885
 20
1.293684296608326
 30
0.0
 10
-5.757610583731207
 20
1.376447891244858
 30
0.0
 10
-6.091474085010588
 20
1.450729193523978
 30
0.0
 10
-6.425370460329332
 20
1.516068488047214
 30
0.0
 10
-6.759298405319469
 20
1.57206529168722
 30
0.0
 10
-7.093256061828924
 20
1.618348431656066
 30
0.0
 10
-7.427238233610673
 20
1.654706082395664
 30
0.0
 10
-7.761241239842206
 20
1.680644416803845
 30
0.0
 10
-8.095259658648288
 20
1.696966823454667
 30
0.0
 10
-8.317993489778601
 20
1.698989566840638
 30
0.0
 10
-8.429287103687997
 20
1.700000272849204
 30
0.0
  0
SPLINE
  5
340D
330
1F
100
AcDbEntity
  8
AM_0
100
AcDbSpline
210
0.0
220
0.0
230
1.0
 70
     8
 71
     3
 72
    55
 73
    51
 74
     0
 42
0.0000000001
 43
0.0000000001
 40
0.0
 40
0.0
 40
0.0
 40
0.0
 40
1.010743684496582
 40
2.022833576467832
 40
3.037578957496688
 40
4.056212745003489
 40
5.079857003664532
 40
6.109500240690281
 40
7.145961322679372
 40
8.189895241603872
 40
9.241717795325891
 40
10.30168407291828
 40
11.36983447792315
 40
12.44600489715814
 40
13.52984294512926
 40
14.62081576220742
 40
15.7182257034828
 40
16.82123173843959
 40
17.92886860250316
 40
19.0400688939571
 40
20.15368796660465
 40
21.26852814259644
 40
22.38336992938901
 40
23.49698739941135
 40
24.6081876908653
 40
25.71582455492886
 40
26.81883757994213
 40
27.91624752121713
 40
29.00722033829659
 40
30.09105838626677
 40
31.16722880550176
 40
32.23537921050758
 40
33.29534548809967
 40
34.347168041821
 40
35.39108718934584
 40
36.42754827133493
 40
37.45720575381954
 40
38.48085062012849
 40
39.49948440763516
 40
40.51422944315121
 40
41.52631975251916
 40
42.53706336719636
 40
43.54780698187354
 40
44.55989729124051
 40
45.57464232675757
 40
46.59327611426424
 40
47.6169209805722
 40
48.64656348684535
 40
49.68302456883444
 40
50.58557219878025
 40
50.58557219878025
 40
50.58557219878025
 40
50.58557219878025
 10
-2.137266447884833
 20
-1.69999972715097
 30
0.0
 10
-2.248558360576552
 20
-1.698988268335983
 30
0.0
 10
-2.471290415434026
 20
-1.696964003546063
 30
0.0
 10
-2.805307441280014
 20
-1.680646156816862
 30
0.0
 10
-3.139310209198562
 20
-1.654705043214576
 30
0.0
 10
-3.473292305624923
 20
-1.618347585886139
 30
0.0
 10
-3.807250397943505
 20
-1.572066498085007
 30
0.0
 10
-4.141177897907851
 20
-1.516067584433234
 30
0.0
 10
-4.47507592249061
 20
-1.450728073572894
 30
0.0
 10
-4.808941510691099
 20
-1.376448073405935
 30
0.0
 10
-5.142772388276235
 20
-1.293683658627257
 30
0.0
 10
-5.47657021920834
 20
-1.202954332912963
 30
0.0
 10
-5.810335897464597
 20
-1.104815365956421
 30
0.0
 10
-6.144073593179811
 20
-0.9998776977559314
 30
0.0
 10
-6.477784834329462
 20
-0.8887861927661408
 30
0.0
 10
-6.811472715330417
 20
-0.772225963285486
 30
0.0
 10
-7.145140936826436
 20
-0.6509160928465936
 30
0.0
 10
-7.478792427267975
 20
-0.5256025797567357
 30
0.0
 10
-7.812430424780778
 20
-0.3970561508695795
 30
0.0
 10
-8.146058499433152
 20
-0.2660679941828444
 30
0.0
 10
-8.479679577460956
 20
-0.1334433710524326
 30
0.0
 10
-8.813298370110551
 20
-0.0000000740125382
 30
0.0
 10
-9.146915665090908
 20
0.1334456250898629
 30
0.0
 10
-9.48053786134384
 20
0.2660681829041005
 30
0.0
 10
-9.814165524127901
 20
0.3970567360845255
 30
0.0
 10
-10.14780411651355
 20
0.5256036546762776
 30
0.0
 10
-10.48145699110152
 20
0.6509160983186073
 30
0.0
 10
-10.81512573921415
 20
0.7722265839673362
 30
0.0
 10
-11.14881366838852
 20
0.8887867189296565
 30
0.0
 10
-11.48252489739549
 20
0.9998782472815753
 30
0.0
 10
-11.81626259396526
 20
1.104815915635573
 30
0.0
 10
-12.15002828072282
 20
1.202954859125608
 30
0.0
 10
-12.48382607720334
 20
1.293684277482893
 30
0.0
 10
-12.81765552010598
 20
1.376447961452845
 30
0.0
 10
-13.15151904373346
 20
1.450728934502484
 30
0.0
 10
-13.48541694445738
 20
1.516069759258189
 30
0.0
 10
-13.81934682877597
 20
1.57206227705667
 30
0.0
 10
-14.15330602439773
 20
1.618357689832843
 30
0.0
 10
-14.48728821983132
 20
1.65467205008837
 30
0.0
 10
-14.82129121982514
 20
1.680770694623652
 30
0.0
 10
-15.15530796246449
 20
1.696497057190705
 30
0.0
 10
-15.4893320449192
 20
1.701750714553945
 30
0.0
 10
-15.82335612688243
 20
1.696497057182487
 30
0.0
 10
-16.15737287099905
 20
1.68077069465673
 30
0.0
 10
-16.49137586555399
 20
1.654672049963884
 30
0.0
 10
-16.82535808137931
 20
1.618357690300882
 30
0.0
 10
-17.15931557222609
 20
1.572062500994631
 30
0.0
 10
-17.49324414098806
 20
1.51607033175152
 30
0.0
 10
-17.81196042878202
 20
1.45369499427122
 30
0.0
 10
-18.01874718594701
 20
1.408079320295799
 30
0.0
 10
-18.11468418886765
 20
1.385848577100989
 30
0.0
  0
SPLINE
  5
340E
330
1F
100
AcDbEntity
  8
AM_0
100
AcDbSpline
210
0.0
220
0.0
230
1.0
 70
     8
 71
     3
 72
    46
 73
    42
 74
     0
 42
0.0000000001
 43
0.0000000001
 40
0.0
 40
0.0
 40
0.0
 40
0.0
 40
0.5056245176053715
 40
0.759310862862336
 40
1.013969309739036
 40
1.269880374404297
 40
1.527291183660732
 40
1.786406454158005
 40
2.047386241038974
 40
2.310345544571907
 40
2.575337113970003
 40
2.842374715221223
 40
3.111417320030211
 40
3.382376832022752
 40
3.655120036292296
 40
3.929472521611371
 40
4.205224030350333
 40
4.482133246366229
 40
4.759933319229942
 40
5.038338087391601
 40
5.317048131389549
 40
5.595758175387723
 40
5.874162943549383
 40
6.151963016412869
 40
6.428872232428759
 40
6.704623741167955
 40
6.978976226486705
 40
7.251719430756336
 40
7.522680721168327
 40
7.791723325977311
 40
8.058760927228529
 40
8.32375249662655
 40
8.586708135057122
 40
8.84768792193809
 40
9.106803192435362
 40
9.364213819003406
 40
9.620125035580644
 40
9.87478726697307
 40
10.12847352585208
 40
10.38149610319407
 40
10.63418200686337
 40
10.63418200686337
 40
10.63418200686337
 40
10.63418200686337
 10
-1.202245738024842
 20
-1.699999727150997
 30
0.0
 10
-1.424988675215551
 20
-1.696126995739438
 30
0.0
 10
-1.759488142598542
 20
-1.690311203729048
 30
0.0
 10
-2.204286671309716
 20
-1.654504440738956
 30
0.0
 10
-2.538272356027171
 20
-1.618401698623757
 30
0.0
 10
-2.872229492919267
 20
-1.57205191037203
 30
0.0
 10
-3.206157202228538
 20
-1.516071405906461
 30
0.0
 10
-3.540053768502872
 20
-1.450727819729336
 30
0.0
 10
-3.873918632515668
 20
-1.376446823824748
 30
0.0
 10
-4.207750308450357
 20
-1.293684514503496
 30
0.0
 10
-4.541549463556421
 20
-1.202954214299845
 30
0.0
 10
-4.875315200015613
 20
-1.104815398102925
 30
0.0
 10
-5.209052879953063
 20
-0.9998776890390589
 30
0.0
 10
-5.542764125400601
 20
-0.88878619516188
 30
0.0
 10
-5.876452005144365
 20
-0.7722259625005194
 30
0.0
 10
-6.21012022733462
 20
-0.6509160935747645
 30
0.0
 10
-6.543771716256557
 20
-0.5256025776206295
 30
0.0
 10
-6.877409719180995
 20
-0.3970561587262902
 30
0.0
 10
-7.211037773621853
 20
-0.2660679647770741
 30
0.0
 10
-7.544658927293234
 20
-0.1334434810891245
 30
0.0
 10
-7.878277276486279
 20
0.000000272822189
 30
0.0
 10
-8.211895625606032
 20
0.1334440268956642
 30
0.0
 10
-8.545516779497255
 20
0.2660685100973704
 30
0.0
 10
-8.879144833134567
 20
0.3970567058236005
 30
0.0
 10
-9.212782839038581
 20
0.5256031181276346
 30
0.0
 10
-9.546434316912517
 20
0.6509166585179239
 30
0.0
 10
-9.880102580017286
 20
0.7722264369480192
 30
0.0
 10
-10.2137910338421
 20
0.8887872577506241
 30
0.0
 10
-10.54750357593054
 20
0.9998777423052677
 30
0.0
 10
-10.88124185120486
 20
1.104815989453768
 30
0.0
 10
-11.21500757989304
 20
1.202954834852212
 30
0.0
 10
-11.5488053637901
 20
1.293684301321937
 30
0.0
 10
-11.88263481547298
 20
1.376447890906012
 30
0.0
 10
-12.21649831667181
 20
1.450729190256598
 30
0.0
 10
-12.55039468970434
 20
1.51606850131326
 30
0.0
 10
-12.88432264382896
 20
1.572065242331099
 30
0.0
 10
-13.21828191206128
 20
1.618348842490876
 30
0.0
 10
-13.55226587583517
 20
1.654705741184931
 30
0.0
 10
-13.88627050303439
 20
1.680644473989919
 30
0.0
 10
-14.22028725435311
 20
1.696966724106259
 30
0.0
 10
-14.44301940248843
 20
1.698989538828974
 30
0.0
 10
-14.55431133497735
 20
1.700000272849379
 30
0.0
  0
SPLINE
  5
340F
330
1F
100
AcDbEntity
  8
AM_0
100
AcDbSpline
210
0.0
220
0.0
230
1.0
 70
     8
 71
     3
 72
    17
 73
    13
 74
     0
 42
0.0000000001
 43
0.0000000001
 40
1.580019955310467
 40
1.580019955310467
 40
1.580019955310467
 40
1.580019955310467
 40
2.030549285115227
 40
3.082371838836284
 40
4.126290986361125
 40
5.162752068350215
 40
6.192395305374981
 40
7.216039564037012
 40
8.234688489606833
 40
9.249433870634691
 40
10.26152376260694
 40
11.27226744710342
 40
11.27226744710342
 40
11.27226744710342
 40
11.27226744710352
 10
-5.283031325945835
 20
-1.254649786354496
 30
0.0
 10
-5.330289159852071
 20
-1.267571639678937
 30
0.0
 10
-5.488146201944566
 20
-1.309924739910033
 30
0.0
 10
-5.757647319704645
 20
-1.376357093042722
 30
0.0
 10
-6.091464322559581
 20
-1.450752515696862
 30
0.0
 10
-6.425373224922864
 20
-1.516061819184531
 30
0.0
 10
-6.759297426875505
 20
-1.572065680186143
 30
0.0
 10
-7.093258009271465
 20
-1.61835672391219
 30
0.0
 10
-7.427241664045766
 20
-1.654670787787654
 30
0.0
 10
-7.761246115315927
 20
-1.680772544527783
 30
0.0
 10
-8.095263134077221
 20
-1.696493974093197
 30
0.0
 10
-8.317995192464607
 20
-1.699999736878285
 30
0.0
 10
-8.429287103688047
 20
-1.699999727150795
 30
0.0
  0
SPLINE
  5
3410
330
1F
100
AcDbEntity
  8
AM_0
100
AcDbSpline
210
0.0
220
0.0
230
1.0
 70
     8
 71
     3
 72
    23
 73
    19
 74
     0
 42
0.0000000001
 43
0.0000000001
 40
16.03460024169435
 40
16.03460024169435
 40
16.03460024169435
 40
16.03460024169435
 40
16.35212704903564
 40
17.38177054169784
 40
18.41822485651776
 40
19.46214173629503
 40
20.51396345435107
 40
21.57393551351153
 40
22.64208202342361
 40
23.7182574881101
 40
24.80209208578934
 40
25.89306333925047
 40
26.99048218457928
 40
28.09348763352352
 40
29.20111863782268
 40
30.31232390128032
 40
31.42594612798585
 40
32.5407912310448
 40
32.5407912310486
 40
32.5407912310486
 40
32.5407912310486
 10
-19.50465046179449
 20
1.700241788701315
 30
0.0
 10
-19.47033431729662
 20
1.694502888070661
 30
0.0
 10
-19.32488741785778
 20
1.66951159107311
 30
0.0
 10
-19.06868113814051
 20
1.620544958759159
 30
0.0
 10
-18.73689333519767
 20
1.547732112002187
 30
0.0
 10
-18.40541371237246
 20
1.465975421766923
 30
0.0
 10
-18.07422268226958
 20
1.3757480540762
 30
0.0
 10
-17.74330849033247
 20
1.277553028524801
 30
0.0
 10
-17.41265201051391
 20
1.171951669288917
 30
0.0
 10
-17.08223021715343
 20
1.0595585497907
 30
0.0
 10
-16.75202433449798
 20
0.9410101457129492
 30
0.0
 10
-16.42200788874459
 20
0.8169962625965723
 30
0.0
 10
-16.09215413575078
 20
0.6882377227102518
 30
0.0
 10
-15.76244109830181
 20
0.5554748336792885
 30
0.0
 10
-15.43284118970825
 20
0.4194795935222563
 30
0.0
 10
-15.10332388203809
 20
0.2810461146678107
 30
0.0
 10
-14.77386234328073
 20
0.1409765816394366
 30
0.0
 10
-14.5542803129454
 20
0.0470676186668176
 30
0.0
 10
-14.44442941640353
 20
0.000086739320337
 30
0.0
  0
SPLINE
  5
3411
330
1F
100
AcDbEntity
  8
AM_0
100
AcDbSpline
210
0.0
220
0.0
230
1.0
 70
     8
 71
     3
 72
    22
 73
    18
 74
     0
 42
0.0000000001
 43
0.0000000001
 40
17.17441611292
 40
17.17441611292
 40
17.17441611292
 40
17.17441611292
 40
17.38177636558528
 40
18.41823744757437
 40
19.46215659509824
 40
20.51397914882054
 40
21.57394542641293
 40
22.64209583141747
 40
23.71826625065247
 40
24.80210429862395
 40
25.8930771157021
 40
26.99048705697709
 40
28.09349309193389
 40
29.20112995599786
 40
30.31233024745139
 40
31.42594771747373
 40
32.5407895042663
 40
32.54078950426994
 40
32.54078950426994
 40
32.54078950426994
 10
-9.704156097031663
 20
-1.526612031154157
 30
0.0
 10
-9.726522352780683
 20
-1.522676697893165
 30
0.0
 10
-9.860595841072381
 20
-1.498706152857936
 30
0.0
 10
-10.10621091661178
 20
-1.450642090226401
 30
0.0
 10
-10.44007439249869
 20
-1.376360903766941
 30
0.0
 10
-10.77390384839823
 20
-1.293597277743782
 30
0.0
 10
-11.10770164112763
 20
-1.202867843232056
 30
0.0
 10
-11.44146732976324
 20
-1.104728905810481
 30
0.0
 10
-11.77520502257363
 20
-0.9997912294360958
 30
0.0
 10
-12.10891626485816
 20
-0.8886997273041295
 30
0.0
 10
-12.44260414423936
 20
-0.7721394946211197
 30
0.0
 10
-12.77627237111487
 20
-0.6508296341922355
 30
0.0
 10
-13.10992384152358
 20
-0.5255160840177611
 30
0.0
 10
-13.443561914207
 20
-0.3969697942338124
 30
0.0
 10
-13.77718954657626
 20
-0.2659811790165257
 30
0.0
 10
-14.11081168103456
 20
-0.1333585089221876
 30
0.0
 10
-14.33318277998696
 20
-0.0444112972988011
 30
0.0
 10
-14.44442941640501
 20
0.0000867393209449
 30
0.0
  0
SPLINE
  5
3412
330
1F
100
AcDbEntity
  8
AM_0
100
AcDbSpline
210
0.0
220
0.0
230
1.0
 70
     8
 71
     3
 72
    11
 73
     7
 74
     0
 42
0.0000000001
 43
0.0000000001
 40
11.27226913003534
 40
11.27226913003534
 40
11.27226913003534
 40
11.2722691300354
 40
12.28301561507924
 40
13.29510212255852
 40
14.30984805882082
 40
15.18258238371378
 40
15.18258238371378
 40
15.18258238371378
 40
15.18258238371378
 10
-8.429287103688075
 20
-1.699999727150795
 30
0.0
 10
-8.540155828274826
 20
-1.691679433134016
 30
0.0
 10
-8.761684157951322
 20
-1.671536363433381
 30
0.0
 10
-9.092832721470458
 20
-1.630902809470726
 30
0.0
 10
-9.407098547308528
 20
-1.58237048455777
 30
0.0
 10
-9.610347236426704
 20
-1.545062241982532
 30
0.0
 10
-9.7040100198735
 20
-1.526633000641156
 30
0.0
  0
SPLINE
  5
3413
330
1F
100
AcDbEntity
  8
AM_0
 48
0.5
100
AcDbSpline
210
0.0
220
0.0
230
1.0
 70
     8
 71
     3
 72
    26
 73
    22
 74
     0
 42
0.0000000001
 43
0.0000000001
 40
0.0
 40
0.0
 40
0.0
 40
0.0
 40
0.2526859211241313
 40
0.5057083941171959
 40
0.7593947393741639
 40
1.01405318625086
 40
1.26996425091637
 40
1.527375060172565
 40
1.786490330669834
 40
2.047470117551047
 40
2.310425755981314
 40
2.575417325379407
 40
2.842456731169063
 40
3.111495753801943
 40
3.382458822635121
 40
3.655202026904655
 40
3.929554512223505
 40
4.205306020962704
 40
4.482215236978595
 40
4.76001530984208
 40
5.029821427366006
 40
5.029821427366006
 40
5.029821427366006
 40
5.029821427366006
 10
-14.66795080790518
 20
-1.700087190824132
 30
0.0
 10
-14.77924272061029
 20
-1.699075732053223
 30
0.0
 10
-15.00197477549466
 20
-1.697051467351505
 30
0.0
 10
-15.33599180113929
 20
-1.680733619959509
 30
0.0
 10
-15.6699945698261
 20
-1.654792508886274
 30
0.0
 10
-16.00397666336466
 20
-1.618435042051275
 30
0.0
 10
-16.33793476654255
 20
-1.572153989998653
 30
0.0
 10
-16.67186222561893
 20
-1.516154941745071
 30
0.0
 10
-17.00575881844663
 20
-1.450816248588293
 30
0.0
 10
-17.33962226785832
 20
-1.376534744843354
 30
0.0
 10
-17.67345178456843
 20
-1.293771334829936
 30
0.0
 10
-18.00725011600638
 20
-1.203041144895973
 30
0.0
 10
-18.34101587902093
 20
-1.10490440471886
 30
0.0
 10
-18.67475285527208
 20
-0.9999631093981793
 30
0.0
 10
-19.0084655070533
 20
-0.8888748089989238
 30
0.0
 10
-19.34215455539221
 20
-0.7723133937791409
 30
0.0
 10
-19.67582248776531
 20
-0.6510030331302305
 30
0.0
 10
-20.00947543159161
 20
-0.5256921857863113
 30
0.0
 10
-20.34310787288584
 20
-0.3971355252355531
 30
0.0
 10
-20.67331318415128
 20
-0.2675373364609028
 30
0.0
 10
-20.89208662648059
 20
-0.1804723641642445
 30
0.0
 10
-21.0
 20
-0.1375742844315839
 30
0.0
  0
SPLINE
  5
3414
330
1F
100
AcDbEntity
  8
AM_0
 48
0.5
100
AcDbSpline
210
0.0
220
0.0
230
1.0
 70
     8
 71
     3
 72
    22
 73
    18
 74
     0
 42
0.0000000001
 43
0.0000000001
 40
0.0
 40
0.0
 40
0.0
 40
0.0
 40
1.010743684496582
 40
2.022833993863546
 40
3.037578683882831
 40
4.056212471389632
 40
5.079857945358201
 40
6.109499720892564
 40
7.145961650132166
 40
8.189873411961459
 40
9.241710626092514
 40
10.30166235592959
 40
11.36982472628033
 40
12.44598212828784
 40
13.52983440361964
 40
14.62080578343036
 40
14.90544694398022
 40
14.90544694398022
 40
14.90544694398022
 40
14.90544694398022
 10
-15.60297151776517
 20
-1.700087190824105
 30
0.0
 10
-15.71426345172287
 20
-1.69907603418449
 30
0.0
 10
-15.93699559509964
 20
-1.697052373730219
 30
0.0
 10
-16.27101227095852
 20
-1.680729981476989
 30
0.0
 10
-16.60501540030339
 20
-1.654793235153536
 30
0.0
 10
-16.9389976743197
 20
-1.618435744308779
 30
0.0
 10
-17.27295485704756
 20
-1.57215033868351
 30
0.0
 10
-17.60688346454566
 20
-1.516156132218698
 30
0.0
 10
-17.94077860357471
 20
-1.450815064720973
 30
0.0
 10
-18.2746425701142
 20
-1.376532485532148
 30
0.0
 10
-18.60847235722775
 20
-1.29377220265831
 30
0.0
 10
-18.94226970947701
 20
-1.203037904503433
 30
0.0
 10
-19.27603677862848
 20
-1.104906974890904
 30
0.0
 10
-19.60977331398388
 20
-0.9999627980430705
 30
0.0
 10
-19.9434855677041
 20
-0.8888739158802815
 30
0.0
 10
-20.19429364766455
 20
-0.8012683129224225
 30
0.0
 10
-20.33405266211031
 20
-0.7511957662780601
 30
0.0
 10
-20.31387711653847
 20
-0.7584711035602618
 30
0.0
  0
SPLINE
  5
3415
330
1F
100
AcDbEntity
  8
AM_0
100
AcDbSpline
210
0.0
220
0.0
230
1.0
 70
     8
 71
     3
 72
    13
 73
     9
 74
     0
 42
0.0000000001
 43
0.0000000001
 40
16.03460056234195
 40
16.03460056234195
 40
16.03460056234195
 40
16.03460056234195
 40
16.35212717791071
 40
17.38177067057215
 40
18.41822498539278
 40
19.46214186516937
 40
20.5139635832251
 40
21.34083983469381
 40
21.34083983469381
 40
21.34083983469381
 40
21.34083983469381
 10
-20.33942492777369
 20
-1.700087190823953
 30
0.0
 10
-20.24486050945264
 20
-1.694503066716875
 30
0.0
 10
-20.09941348965947
 20
-1.66951245539994
 30
0.0
 10
-19.8432073496042
 20
-1.620545251389073
 30
0.0
 10
-19.51141950490738
 20
-1.547732606524701
 30
0.0
 10
-19.17993989338997
 20
-1.465975861613524
 30
0.0
 10
-18.87321220612739
 20
-1.382413130429581
 30
0.0
 10
-18.67752534309918
 20
-1.324874243158511
 30
0.0
 10
-18.59167868912235
 20
-1.298866141817547
 30
0.0
  0
ELLIPSE
  5
3416
330
1F
100
AcDbEntity
  8
AM_0
 48
0.5
100
AcDbEllipse
 10
-3.774148196043089
 20
9.05192349401576
 30
0.0
 11
0.0000000000036146
 21
9.953484555890625
 31
0.0
210
0.0
220
0.0
230
1.0
 40
0.9117647058823934
 41
3.475567835903873
 42
3.570495511853986
  0
ELLIPSE
  5
3417
330
1F
100
AcDbEntity
  8
AM_0
 48
0.5
100
AcDbEllipse
 10
1.680206737217137
 20
-0.222392311886111
 30
0.0
 11
-3.177659812636422
 21
0.0640044757982101
 31
0.0
210
0.0
220
0.0
230
1.0
 40
0.8725833199639673
 41
0.204529786159225
 42
0.584933589868208
  0
ELLIPSE
  5
3418
330
1F
100
AcDbEntity
  8
AM_0
 48
0.5
100
AcDbEllipse
 10
-3.775544035775202
 20
2.853216571270129
 30
0.0
 11
-4.773989782332761
 21
0.000000000001672
 31
0.0
210
0.0
220
0.0
230
1.0
 40
0.8585858585859094
 41
2.081379652023644
 42
2.169874429703153
  0
ELLIPSE
  5
3419
330
1F
100
AcDbEntity
  8
AM_0
 48
0.5
100
AcDbEllipse
 10
0.9159032603674388
 20
2.040954862692759
 30
0.0
 11
3.990580615997235
 21
0.000000000000103
 31
0.0
210
0.0
220
0.0
230
1.0
 40
0.8585858585858577
 41
3.671960206823854
 42
4.080081137018753
  0
ELLIPSE
  5
341A
330
1F
100
AcDbEntity
  8
AM_0
 48
0.5
100
AcDbEllipse
 10
-0.9379901722498491
 20
-0.4430441988918114
 30
0.0
 11
-0.0645684835116493
 21
0.2776360657839255
 31
0.0
210
0.0
220
0.0
230
1.0
 40
0.5753737270281048
 41
1.760774956586962
 42
4.896116846298938
  0
ELLIPSE
  5
341B
330
1F
100
AcDbEntity
  8
AM_0
 48
0.5
100
AcDbEllipse
 10
-0.9379901722498491
 20
-0.4430441988918114
 30
0.0
 11
-0.2912860849409866
 21
0.1318149214894873
 31
0.0
210
0.0
220
0.0
230
0.9999999999999998
 40
0.4573365274968647
 41
4.406878614569731
 42
7.550318955899237
  0
ELLIPSE
  5
341C
330
1F
100
AcDbEntity
  8
AM_0
 48
0.5
100
AcDbEllipse
 10
-20.33942472039506
 20
-1.133420524157311
 30
0.0
 11
-0.6606170598911083
 21
0.0000000000000762
 31
0.0
210
0.0
220
0.0
230
1.0
 40
0.8577838827838776
 41
0.0112467747892613
 42
1.570796012878469
  0
ELLIPSE
  5
341D
330
1F
100
AcDbEntity
  8
AM_0
 48
0.5
100
AcDbEllipse
 10
-20.50469994796409
 20
-1.150685716824925
 30
0.0
 11
-0.4954627949183347
 21
0.0000000000000424
 31
0.0
210
0.0
220
0.0
230
1.0
 40
0.8577838827838744
 41
4.317028824483152
 42
6.257553905069432
  0
VIEWPORT
  5
110
330
101
100
AcDbEntity
 67
     1
  8
0
100
AcDbViewport
 10
420.5
 20
297.0
 30
0.0
 40
948.9782706766916
 41
628.452
 68
     1
 69
     1
1001
ACAD
1000
MVIEW
1002
{
1070
    16
1010
0.0
1020
0.0
1030
0.0
1010
0.0
1020
0.0
1030
1.0
1040
0.0
1040
628.452
1040
420.5
1040
297.0
1040
50.0
1040
0.0
1040
0.0
1070
     0
1070
   100
1070
     1
1070
     1
1070
     0
1070
     0
1070
     0
1070
     0
1040
0.0
1040
0.0
1040
0.0
1040
10.0
1040
10.0
1040
10.0
1040
10.0
1070
     0
1002
{
1002
}
1002
}
  0
ENDSEC
  0
SECTION
  2
OBJECTS
  0
DICTIONARY
  5
C
330
0
100
AcDbDictionary
  3
ACAD_GROUP
350
D
  3
ACAD_LAYOUT
350
1A
  3
ACAD_MLINESTYLE
350
17
  3
ACAD_PLOTSETTINGS
350
19
  3
ACAD_PLOTSTYLENAME
350
E
  3
ACDBVARIABLEDICTIONARY
350
34
  3
ACMDICTIONARY
350
43
  3
AMG
350
2B
  3
AMGSNAPSETTINGS
350
6E
  3
DWGPROPS
350
34A0
  3
ACDBHEADERROUNDTRIPXREC
350
34AC
  0
DICTIONARY
  5
74
330
1F
100
AcDbDictionary
280
     1
  3
ACAD_INDEX
360
34A2
  3
ACAD_LAYOUTSELFREF
360
34CF
  0
DICTIONARY
  5
34D4
330
101
100
AcDbDictionary
280
     1
  3
ACAD_LAYOUTSELFREF
360
34D5
  0
DICTIONARY
  5
D
102
{ACAD_REACTORS
330
C
102
}
330
C
100
AcDbDictionary
  0
DICTIONARY
  5
1A
102
{ACAD_REACTORS
330
C
102
}
330
C
100
AcDbDictionary
  0
DICTIONARY
  5
17
102
{ACAD_REACTORS
330
C
102
}
330
C
100
AcDbDictionary
  3
STANDARD
350
18
  0
DICTIONARY
  5
19
102
{ACAD_REACTORS
330
C
102
}
330
C
100
AcDbDictionary
  0
ACDBDICTIONARYWDFLT
  5
E
102
{ACAD_REACTORS
330
C
102
}
330
C
100
AcDbDictionary
281
     1
  3
Normal
350
F
100
AcDbDictionaryWithDefault
340
F
  0
DICTIONARY
  5
34
102
{ACAD_REACTORS
330
C
102
}
330
C
100
AcDbDictionary
  3
INDEXCTL
350
35
  3
SORTENTS
350
B5E
  0
DICTIONARY
  5
43
102
{ACAD_REACTORS
330
C
102
}
330
C
100
AcDbDictionary
  3
ACMSTDDICTIONARY
350
260
  0
DICTIONARY
  5
2B
102
{ACAD_REACTORS
330
C
102
}
330
C
100
AcDbDictionary
  3
ACMGSETTINGS
350
2C
  0
DICTIONARY
  5
6E
102
{ACAD_REACTORS
330
C
102
}
330
C
100
AcDbDictionary
  0
XRECORD
  5
34A0
102
{ACAD_REACTORS
330
C
102
}
330
C
100
AcDbXrecord
  1
DWGPROPS COOKIE
  2

  3

  4

  6

  7

  8

  9

300
AmdtFileType=82
301
=
302
=
303
=
304
=
305
=
306
=
307
=
308
=
309
=
 40
0.0873623611111111
 41
2452800.443498622
 42
2452946.60036603
  1

 90
        1
  0
DICTIONARY
  5
34AC
102
{ACAD_REACTORS
330
C
102
}
330
C
100
AcDbDictionary
  3
TSTACKALIGN
350
34AD
  3
TSTACKSIZE
350
34AE
  3
HYPERLINKBASE
350
34AF
  3
STYLESHEET
350
34B0
  3
LAYOUTDICT
350
34B1
  3
PLOTSETDICT
350
34B2
  3
PLOTSTYLNAMDICT
350
34B3
  3
LWETCUNION
350
34B4
  3
INSUNITS
350
34B5
  3
CEPSNTYPE
350
34B6
  3
FINGERPRINTGUID
350
34B7
  3
VERSIONGUID
350
34B8
  3
PSVPSCALE
350
34B9
  3
DIMSTYLEDATA
350
34BA
  3
PUCSORTHOREF
350
34BB
  3
PUCSORTHOVIEW
350
34BC
  3
PUCSBASE
350
34BD
  3
PUCSORGTOP
350
34BE
  3
PUCSORGBOTTOM
350
34BF
  3
PUCSORGLEFT
350
34C0
  3
PUCSORGRIGHT
350
34C1
  3
PUCSORGFRONT
350
34C2
  3
PUCSORGBACK
350
34C3
  3
UCSORTHOREF
350
34C4
  3
UCSORTHOVIEW
350
34C5
  3
UCSBASE
350
34C6
  3
UCSORGTOP
350
34C7
  3
UCSORGBOTTOM
350
34C8
  3
UCSORGLEFT
350
34C9
  3
UCSORGRIGHT
350
34CA
  3
UCSORGFRONT
350
34CB
  3
UCSORGBACK
350
34CC
  0
DICTIONARY
  5
34A2
102
{ACAD_REACTORS
330
74
102
}
330
74
100
AcDbDictionary
  3
*A1
350
34A3
  0
XRECORD
  5
34CF
102
{ACAD_REACTORS
330
74
102
}
330
74
100
AcDbXrecord
340
1F
  0
XRECORD
  5
34D5
102
{ACAD_REACTORS
330
34D4
102
}
330
34D4
100
AcDbXrecord
340
101
  0
MLINESTYLE
  5
18
102
{ACAD_REACTORS
330
17
102
}
330
17
100
AcDbMlineStyle
  2
STANDARD
 70
     0
  3

 62
   256
 51
90.0
 52
90.0
 71
     2
 49
0.5
 62
   256
  6
BYLAYER
 49
-0.5
 62
   256
  6
BYLAYER
  0
ACDBPLACEHOLDER
  5
F
102
{ACAD_REACTORS
330
E
102
}
330
E
100
AcDbPlaceHolder
280
     0
  0
DICTIONARYVAR
  5
35
102
{ACAD_REACTORS
330
34
102
}
330
34
100
DictionaryVariables
280
     0
  1
1
  0
DICTIONARYVAR
  5
B5E
102
{ACAD_REACTORS
330
34
102
}
330
34
100
DictionaryVariables
280
     0
  1
96
  0
DICTIONARY
  5
260
102
{ACAD_REACTORS
330
43
102
}
330
43
100
AcDbDictionary
  0
DICTIONARY
  5
2C
102
{ACAD_REACTORS
330
2B
102
}
330
2B
100
AcDbDictionary
  3
DWGSETTINGS
350
2D
  0
XRECORD
  5
34AD
102
{ACAD_REACTORS
330
34AC
102
}
330
34AC
100
AcDbXrecord
 90
        1
  0
XRECORD
  5
34AE
102
{ACAD_REACTORS
330
34AC
102
}
330
34AC
100
AcDbXrecord
 90
       70
  0
XRECORD
  5
34AF
102
{ACAD_REACTORS
330
34AC
102
}
330
34AC
100
AcDbXrecord
  1

  0
XRECORD
  5
34B0
102
{ACAD_REACTORS
330
34AC
102
}
330
34AC
100
AcDbXrecord
  1
ASAMI.ctb
  0
XRECORD
  5
34B1
102
{ACAD_REACTORS
330
34AC
102
}
330
34AC
100
AcDbXrecord
340
1A
  0
XRECORD
  5
34B2
102
{ACAD_REACTORS
330
34AC
102
}
330
34AC
100
AcDbXrecord
340
19
  0
XRECORD
  5
34B3
102
{ACAD_REACTORS
330
34AC
102
}
330
34AC
100
AcDbXrecord
340
E
  0
XRECORD
  5
34B4
102
{ACAD_REACTORS
330
34AC
102
}
330
34AC
100
AcDbXrecord
 90
    10781
  0
XRECORD
  5
34B5
102
{ACAD_REACTORS
330
34AC
102
}
330
34AC
100
AcDbXrecord
 90
        4
  0
XRECORD
  5
34B6
102
{ACAD_REACTORS
330
34AC
102
}
330
34AC
100
AcDbXrecord
 90
        0
  0
XRECORD
  5
34B7
102
{ACAD_REACTORS
330
34AC
102
}
330
34AC
100
AcDbXrecord
  1
{AFB28963-8C59-40AE-9337-C84526B81ACE}
  0
XRECORD
  5
34B8
102
{ACAD_REACTORS
330
34AC
102
}
330
34AC
100
AcDbXrecord
  1
{23DEE0C3-AB28-49EB-9ADB-FB9A7F693396}
  0
XRECORD
  5
34B9
102
{ACAD_REACTORS
330
34AC
102
}
330
34AC
100
AcDbXrecord
 40
0.0
  0
XRECORD
  5
34BA
102
{ACAD_REACTORS
330
34AC
102
}
330
34AC
100
AcDbXrecord
1000
DSTYLE
1002
{
1070
    79
 70
     2
1070
   341
340
59
1070
   342
340
59
1070
   371
 70
    -1
1070
   372
 70
    -1
1002
}
  0
XRECORD
  5
34BB
102
{ACAD_REACTORS
330
34AC
102
}
330
34AC
100
AcDbXrecord
340
0
  0
XRECORD
  5
34BC
102
{ACAD_REACTORS
330
34AC
102
}
330
34AC
100
AcDbXrecord
 70
     0
  0
XRECORD
  5
34BD
102
{ACAD_REACTORS
330
34AC
102
}
330
34AC
100
AcDbXrecord
340
0
  0
XRECORD
  5
34BE
102
{ACAD_REACTORS
330
34AC
102
}
330
34AC
100
AcDbXrecord
 10
0.0
 20
0.0
 30
0.0
  0
XRECORD
  5
34BF
102
{ACAD_REACTORS
330
34AC
102
}
330
34AC
100
AcDbXrecord
 10
0.0
 20
0.0
 30
0.0
  0
XRECORD
  5
34C0
102
{ACAD_REACTORS
330
34AC
102
}
330
34AC
100
AcDbXrecord
 10
0.0
 20
0.0
 30
0.0
  0
XRECORD
  5
34C1
102
{ACAD_REACTORS
330
34AC
102
}
330
34AC
100
AcDbXrecord
 10
0.0
 20
0.0
 30
0.0
  0
XRECORD
  5
34C2
102
{ACAD_REACTORS
330
34AC
102
}
330
34AC
100
AcDbXrecord
 10
0.0
 20
0.0
 30
0.0
  0
XRECORD
  5
34C3
102
{ACAD_REACTORS
330
34AC
102
}
330
34AC
100
AcDbXrecord
 10
0.0
 20
0.0
 30
0.0
  0
XRECORD
  5
34C4
102
{ACAD_REACTORS
330
34AC
102
}
330
34AC
100
AcDbXrecord
340
0
  0
XRECORD
  5
34C5
102
{ACAD_REACTORS
330
34AC
102
}
330
34AC
100
AcDbXrecord
 70
     0
  0
XRECORD
  5
34C6
102
{ACAD_REACTORS
330
34AC
102
}
330
34AC
100
AcDbXrecord
340
0
  0
XRECORD
  5
34C7
102
{ACAD_REACTORS
330
34AC
102
}
330
34AC
100
AcDbXrecord
 10
0.0
 20
0.0
 30
0.0
  0
XRECORD
  5
34C8
102
{ACAD_REACTORS
330
34AC
102
}
330
34AC
100
AcDbXrecord
 10
0.0
 20
0.0
 30
0.0
  0
XRECORD
  5
34C9
102
{ACAD_REACTORS
330
34AC
102
}
330
34AC
100
AcDbXrecord
 10
0.0
 20
0.0
 30
0.0
  0
XRECORD
  5
34CA
102
{ACAD_REACTORS
330
34AC
102
}
330
34AC
100
AcDbXrecord
 10
0.0
 20
0.0
 30
0.0
  0
XRECORD
  5
34CB
102
{ACAD_REACTORS
330
34AC
102
}
330
34AC
100
AcDbXrecord
 10
0.0
 20
0.0
 30
0.0
  0
XRECORD
  5
34CC
102
{ACAD_REACTORS
330
34AC
102
}
330
34AC
100
AcDbXrecord
 10
0.0
 20
0.0
 30
0.0
  0
LAYER_INDEX
  5
34A3
102
{ACAD_REACTORS
330
34A2
102
}
330
34A2
100
AcDbIndex
 40
2453151.576916944
100
AcDbLayerIndex
  8
0
360
34A4
 90
        0
  8
AM_0
360
34A5
 90
       44
  8
AM_7
360
34A6
 90
        1
  8
AM_11
360
34A7
 90
       25
  8
AM_5
360
34A8
 90
        5
  8
Defpoints
360
34A9
 90
        0
  8
AM_6
360
34AA
 90
        1
  0
XRECORD
  5
2D
102
{ACAD_REACTORS
330
2C
102
}
330
2C
100
AcDbXrecord
  1
VERSION
140
15.0
  1
PRODUCT
  2
AutoCAD Mechanical 2000
  0
IDBUFFER
  5
34A4
330
0
100
AcDbIdBuffer
  0
IDBUFFER
  5
34A5
330
0
100
AcDbIdBuffer
330
33FE
330
33FF
330
3400
330
3401
330
3402
330
3405
330
3406
330
3407
330
340A
330
340B
330
340C
330
340D
330
340E
330
340F
330
3410
330
3411
330
3412
330
3413
330
3414
330
3415
330
3416
330
3417
330
3418
330
3419
330
341A
330
341B
330
341C
330
341D
330
C1D
330
C20
330
27F8
330
2827
330
2828
330
2829
330
282B
330
282C
330
2830
330
2831
330
2964
330
2B4E
330
2B77
330
2B9A
330
2D3A
330
2D3B
  0
IDBUFFER
  5
34A6
330
0
100
AcDbIdBuffer
330
224B
  0
IDBUFFER
  5
34A7
330
0
100
AcDbIdBuffer
330
27F0
330
27F1
330
27F2
330
27F3
330
32F9
330
3403
330
3404
330
3408
330
3409
330
21FC
330
21FD
330
2200
330
2201
330
2206
330
2207
330
220B
330
220C
330
220D
330
220E
330
220F
330
2210
330
2219
330
221A
330
2228
330
2229
  0
IDBUFFER
  5
34A8
330
0
100
AcDbIdBuffer
330
223E
330
2259
330
282D
330
2ABE
330
2FE5
  0
IDBUFFER
  5
34A9
330
0
100
AcDbIdBuffer
  0
IDBUFFER
  5
34AA
330
0
100
AcDbIdBuffer
330
19BD
  0
ENDSEC
  0
EOF
