  0
SECTION
  2
HEADER
  9
$ACADVER
  1
AC1014
  9
$ACADMAINTVER
 70
     9
  9
$DWGCODEPAGE
  3
ANSI_932
  9
$INSBASE
 10
0.0
 20
0.0
 30
0.0
  9
$EXTMIN
 10
-84.22930486890818
 20
-20.25011058668113
 30
-0.00000001
  9
$EXTMAX
 10
13.63270128954024
 20
13.22258374571213
 30
0.00000001
  9
$LIMMIN
 10
-103.134137649193
 20
-34.60724519099901
  9
$LIMMAX
 10
18.55390181307279
 20
25.8241434171262
  9
$ORTHOMODE
 70
     0
  9
$REGENMODE
 70
     1
  9
$FILLMODE
 70
     1
  9
$QTEXTMODE
 70
     0
  9
$MIRRTEXT
 70
     0
  9
$DRAGMODE
 70
     2
  9
$LTSCALE
 40
1.0
  9
$OSMODE
 70
    55
  9
$ATTMODE
 70
     1
  9
$TEXTSIZE
 40
2.5
  9
$TRACEWID
 40
1.0
  9
$TEXTSTYLE
  7
STANDARD
  9
$CLAYER
  8
AM_0
  9
$CELTYPE
  6
BYLAYER
  9
$CECOLOR
 62
   256
  9
$CELTSCALE
 40
1.0
  9
$DELOBJ
 70
     1
  9
$DISPSILH
 70
     0
  9
$DIMSCALE
 40
0.5
  9
$DIMASZ
 40
2.5
  9
$DIMEXO
 40
1.0
  9
$DIMDLI
 40
12.0
  9
$DIMRND
 40
0.0
  9
$DIMDLE
 40
0.0
  9
$DIMEXE
 40
1.0
  9
$DIMTP
 40
0.1
  9
$DIMTM
 40
0.1
  9
$DIMTXT
 40
3.2
  9
$DIMCEN
 40
0.0
  9
$DIMTSZ
 40
0.0
  9
$DIMTOL
 70
     0
  9
$DIMLIM
 70
     0
  9
$DIMTIH
 70
     0
  9
$DIMTOH
 70
     0
  9
$DIMSE1
 70
     0
  9
$DIMSE2
 70
     0
  9
$DIMTAD
 70
     3
  9
$DIMZIN
 70
     8
  9
$DIMBLK
  1
OPEN30
  9
$DIMASO
 70
     1
  9
$DIMSHO
 70
     1
  9
$DIMPOST
  1

  9
$DIMAPOST
  1
"
  9
$DIMALT
 70
     0
  9
$DIMALTD
 70
     2
  9
$DIMALTF
 40
0.0393701
  9
$DIMLFAC
 40
1.0
  9
$DIMTOFL
 70
     1
  9
$DIMTVP
 40
0.0
  9
$DIMTIX
 70
     0
  9
$DIMSOXD
 70
     0
  9
$DIMSAH
 70
     0
  9
$DIMBLK1
  1

  9
$DIMBLK2
  1

  9
$DIMSTYLE
  2
AM_JIS
  9
$DIMCLRD
 70
   256
  9
$DIMCLRE
 70
   256
  9
$DIMCLRT
 70
     2
  9
$DIMTFAC
 40
0.71
  9
$DIMGAP
 40
1.5
  9
$DIMJUST
 70
     0
  9
$DIMSD1
 70
     0
  9
$DIMSD2
 70
     0
  9
$DIMTOLJ
 70
     0
  9
$DIMTZIN
 70
     0
  9
$DIMALTZ
 70
     0
  9
$DIMALTTZ
 70
     0
  9
$DIMFIT
 70
     3
  9
$DIMUPT
 70
     0
  9
$DIMUNIT
 70
     2
  9
$DIMDEC
 70
     3
  9
$DIMTDEC
 70
     3
  9
$DIMALTU
 70
     2
  9
$DIMALTTD
 70
     2
  9
$DIMTXSTY
  7
ASAMI
  9
$DIMAUNIT
 70
     0
  9
$LUNITS
 70
     2
  9
$LUPREC
 70
     2
  9
$SKETCHINC
 40
1.0
  9
$FILLETRAD
 40
2.5
  9
$AUNITS
 70
     0
  9
$AUPREC
 70
     0
  9
$MENU
  1
.
  9
$ELEVATION
 40
0.0
  9
$PELEVATION
 40
0.0
  9
$THICKNESS
 40
0.0
  9
$LIMCHECK
 70
     0
  9
$BLIPMODE
 70
     0
  9
$CHAMFERA
 40
0.25
  9
$CHAMFERB
 40
0.25
  9
$CHAMFERC
 40
20.0
  9
$CHAMFERD
 40
0.0
  9
$SKPOLY
 70
     0
  9
$TDCREATE
 40
2452800.443498622
  9
$TDUPDATE
 40
2453151.577657858
  9
$TDINDWG
 40
0.0996547569
  9
$TDUSRTIMER
 40
0.0996547569
  9
$USRTIMER
 70
     1
  9
$ANGBASE
 50
0.0
  9
$ANGDIR
 70
     0
  9
$PDMODE
 70
     3
  9
$PDSIZE
 40
0.0
  9
$PLINEWID
 40
0.0
  9
$COORDS
 70
     1
  9
$SPLFRAME
 70
     0
  9
$SPLINETYPE
 70
     6
  9
$SPLINESEGS
 70
     8
  9
$ATTDIA
 70
     1
  9
$ATTREQ
 70
     1
  9
$HANDLING
 70
 12289
  9
$HANDSEED
  5
3A6A
  9
$SURFTAB1
 70
     6
  9
$SURFTAB2
 70
     6
  9
$SURFTYPE
 70
     6
  9
$SURFU
 70
     6
  9
$SURFV
 70
     6
  9
$UCSNAME
  2

  9
$UCSORG
 10
0.0
 20
0.0
 30
0.0
  9
$UCSXDIR
 10
1.0
 20
0.0
 30
0.0
  9
$UCSYDIR
 10
0.0
 20
1.0
 30
0.0
  9
$PUCSNAME
  2

  9
$PUCSORG
 10
0.0
 20
0.0
 30
0.0
  9
$PUCSXDIR
 10
1.0
 20
0.0
 30
0.0
  9
$PUCSYDIR
 10
0.0
 20
1.0
 30
0.0
  9
$USERI1
 70
     0
  9
$USERI2
 70
     0
  9
$USERI3
 70
     0
  9
$USERI4
 70
     0
  9
$USERI5
 70
     0
  9
$USERR1
 40
0.0
  9
$USERR2
 40
0.0
  9
$USERR3
 40
0.0
  9
$USERR4
 40
0.0
  9
$USERR5
 40
0.0
  9
$WORLDVIEW
 70
     1
  9
$SHADEDGE
 70
     3
  9
$SHADEDIF
 70
    70
  9
$TILEMODE
 70
     1
  9
$MAXACTVP
 70
    64
  9
$PINSBASE
 10
0.0
 20
0.0
 30
0.0
  9
$PLIMCHECK
 70
     0
  9
$PEXTMIN
 10
1.000000000000000E+20
 20
1.000000000000000E+20
 30
1.000000000000000E+20
  9
$PEXTMAX
 10
-1.000000000000000E+20
 20
-1.000000000000000E+20
 30
-1.000000000000000E+20
  9
$PLIMMIN
 10
0.0
 20
0.0
  9
$PLIMMAX
 10
841.0
 20
594.0
  9
$UNITMODE
 70
     0
  9
$VISRETAIN
 70
     1
  9
$PLINEGEN
 70
     0
  9
$PSLTSCALE
 70
     0
  9
$TREEDEPTH
 70
  3020
  9
$PICKSTYLE
 70
     0
  9
$CMLSTYLE
  2
STANDARD
  9
$CMLJUST
 70
     0
  9
$CMLSCALE
 40
20.0
  9
$PROXYGRAPHICS
 70
     1
  9
$MEASUREMENT
 70
     1
  0
ENDSEC
  0
SECTION
  2
CLASSES
  0
CLASS
  1
ACDBDICTIONARYWDFLT
  2
AcDbDictionaryWithDefault
  3
AutoCAD 2000
 90
        0
280
     0
281
     0
  0
CLASS
  1
ACDBPLACEHOLDER
  2
AcDbPlaceHolder
  3
AutoCAD 2000
 90
        0
280
     0
281
     0
  0
CLASS
  1
LAYOUT
  2
AcDbLayout
  3
AutoCAD 2000
 90
        0
280
     0
281
     0
  0
CLASS
  1
AMGSETTINGSOBJ
  2
AmgSettingsObj
  3
"AcadM|Product Description: AutoCAD Mechanical 2000|Company: Autodesk"
 90
        0
280
     0
281
     0
  0
CLASS
  1
ACME_DOCUMENT
  2
AcMeDbDoc
  3
AcMeServices
 90
        0
280
     0
281
     0
  0
CLASS
  1
ACMESCOPE
  2
AcMeScope
  3
AcMeServices
 90
        0
280
     0
281
     0
  0
CLASS
  1
ACMECOMMANDHISTORY
  2
AcMeCommandHistory
  3
AcMeServices
 90
        0
280
     0
281
     0
  0
CLASS
  1
DICTIONARYVAR
  2
AcDbDictionaryVar
  3
AutoCAD 2000
 90
        0
280
     0
281
     0
  0
CLASS
  1
ACIMSYSVARMAN
  2
AcImSysVarManager
  3
AcMeServices
 90
        0
280
     0
281
     0
  0
CLASS
  1
ACIMREALSYSVAR
  2
AcImRealSysVar
  3
AcMeServices
 90
        0
280
     0
281
     0
  0
CLASS
  1
ACIMINTSYSVAR
  2
AcImIntSysVar
  3
AcMeServices
 90
        0
280
     0
281
     0
  0
CLASS
  1
ACMEDRAWINGMAN
  2
AcMeDrawingMan
  3
AcMeServices
 90
        0
280
     0
281
     0
  0
CLASS
  1
ACMEVIEW
  2
AcMeView
  3
AcMeServices
 90
        0
280
     0
281
     0
  0
CLASS
  1
ACDBENTITYCACHE
  2
AcMeEntityCache
  3
AcMeServices
 90
        0
280
     0
281
     0
  0
CLASS
  1
GSMANAGER
  2
AcMeGSManager
  3
AcMeServices
 90
        0
280
     0
281
     0
  0
CLASS
  1
AmdtInternalReactor
  2
AmdtInternalReactor
  3
AcMeServices
 90
        0
280
     0
281
     0
  0
CLASS
  1
ACMESTATEMGR
  2
AcMeStateMgr
  3
AcMeServices
 90
        0
280
     0
281
     0
  0
CLASS
  1
ACME_DATABASE
  2
AcMeDbDatabase
  3
AcMeServices
 90
        0
280
     0
281
     0
  0
CLASS
  1
ACRFINSADJUSTERMGR
  2
AcRfInsAdjusterMgr
  3
AcMeServices
 90
        0
280
     0
281
     0
  0
CLASS
  1
ACMDATADICTIONARY
  2
AcmDataDictionary
  3
"AcmSymBB|Product Description: AutoCAD Mechanical 2000|Company: Autodesk"
 90
        0
280
     0
281
     0
  0
CLASS
  1
ACMDATAENTRYBLOCK
  2
AcmDataEntryBlock
  3
"AcmSymBB|Product Description: AutoCAD Mechanical 2000|Company: Autodesk"
 90
        0
280
     0
281
     0
  0
CLASS
  1
AMGOBJPROPCFG
  2
AmgObjPropCfg
  3
"AmgLay|Product Description: AutoCAD Mechanical 2000|Company: Autodesk"
 90
        1
280
     0
281
     0
  0
CLASS
  1
ACAMGFILTERDAT
  2
AcAmgFilterDat
  3
"AcadM|Product Description: AutoCAD Mechanical 2000|Company: Autodesk"
 90
        0
280
     0
281
     0
  0
CLASS
  1
LAYER_INDEX
  2
AcDbLayerIndex
  3
AutoCAD 2000
 90
        0
280
     0
281
     0
  0
CLASS
  1
IDBUFFER
  2
AcDbIdBuffer
  3
AutoCAD 2000
 90
        0
280
     0
281
     0
  0
CLASS
  1
ACIMSTRSYSVAR
  2
AcImStrSysVar
  3
AcMeServices
 90
        0
280
     0
281
     0
  0
CLASS
  1
ACMSTANDARDJIS
  2
AcmStandardJIS
  3
"AcmSymBB|Product Description: AutoCAD Mechanical 2000|Company: Autodesk"
 90
        0
280
     0
281
     0
  0
CLASS
  1
ACMSURFSTANDARDJIS
  2
AcmSurfTextStdJIS
  3
"AcmSymBB|Product Description: AutoCAD Mechanical 2000|Company: Autodesk"
 90
        0
280
     0
281
     0
  0
CLASS
  1
ACMFCFSTANDARDJIS
  2
AcmFCFStdJIS
  3
"AcmSymBB|Product Description: AutoCAD Mechanical 2000|Company: Autodesk"
 90
        0
280
     0
281
     0
  0
CLASS
  1
ACMWELDSTANDARDJIS
  2
AcmWeldingStdJIS
  3
"AcmSymBB|Product Description: AutoCAD Mechanical 2000|Company: Autodesk"
 90
        0
280
     0
281
     0
  0
CLASS
  1
ACMIDSTANDARDJIS
  2
AcmIdStdJIS
  3
"AcmSymBB|Product Description: AutoCAD Mechanical 2000|Company: Autodesk"
 90
        0
280
     0
281
     0
  0
CLASS
  1
ACMDATUMSTANDARDJIS
  2
AcmDatumStdJIS
  3
"AcmSymBB|Product Description: AutoCAD Mechanical 2000|Company: Autodesk"
 90
        0
280
     0
281
     0
  0
CLASS
  1
ACMBOMSTANDARDJIS
  2
AcmBOMStdJIS
  3
"AcmSymBB|Product Description: AutoCAD Mechanical 2000|Company: Autodesk"
 90
        0
280
     0
281
     0
  0
CLASS
  1
ACMSTANDARDANSI
  2
AcmStandardANSI
  3
"AcmSymBB|Product Description: AutoCAD Mechanical 2000|Company: Autodesk"
 90
        0
280
     0
281
     0
  0
CLASS
  1
ACMSURFSTANDARDANSI
  2
AcmSurfTextStdANSI
  3
"AcmSymBB|Product Description: AutoCAD Mechanical 2000|Company: Autodesk"
 90
        0
280
     0
281
     0
  0
CLASS
  1
ACMFCFSTANDARDANSI
  2
AcmFCFStdANSI
  3
"AcmSymBB|Product Description: AutoCAD Mechanical 2000|Company: Autodesk"
 90
        0
280
     0
281
     0
  0
CLASS
  1
ACMWELDSTANDARDANSI
  2
AcmWeldingStdANSI
  3
"AcmSymBB|Product Description: AutoCAD Mechanical 2000|Company: Autodesk"
 90
        0
280
     0
281
     0
  0
CLASS
  1
ACMIDSTANDARDANSI
  2
AcmIdStdANSI
  3
"AcmSymBB|Product Description: AutoCAD Mechanical 2000|Company: Autodesk"
 90
        0
280
     0
281
     0
  0
CLASS
  1
ACMDATUMSTANDARDANSI
  2
AcmDatumStdANSI
  3
"AcmSymBB|Product Description: AutoCAD Mechanical 2000|Company: Autodesk"
 90
        0
280
     0
281
     0
  0
CLASS
  1
ACMBOMSTANDARDANSI
  2
AcmBOMStdANSI
  3
"AcmSymBB|Product Description: AutoCAD Mechanical 2000|Company: Autodesk"
 90
        0
280
     0
281
     0
  0
CLASS
  1
ACMSTANDARDBSI
  2
AcmStandardBSI
  3
"AcmSymBB|Product Description: AutoCAD Mechanical 2000|Company: Autodesk"
 90
        0
280
     0
281
     0
  0
CLASS
  1
ACMSURFSTANDARDBSI
  2
AcmSurfTextStdBSI
  3
"AcmSymBB|Product Description: AutoCAD Mechanical 2000|Company: Autodesk"
 90
        0
280
     0
281
     0
  0
CLASS
  1
ACMFCFSTANDARDBSI
  2
AcmFCFStdBSI
  3
"AcmSymBB|Product Description: AutoCAD Mechanical 2000|Company: Autodesk"
 90
        0
280
     0
281
     0
  0
CLASS
  1
ACMWELDSTANDARDBSI
  2
AcmWeldingStdBSI
  3
"AcmSymBB|Product Description: AutoCAD Mechanical 2000|Company: Autodesk"
 90
        0
280
     0
281
     0
  0
CLASS
  1
ACMIDSTANDARDBSI
  2
AcmIdStdBSI
  3
"AcmSymBB|Product Description: AutoCAD Mechanical 2000|Company: Autodesk"
 90
        0
280
     0
281
     0
  0
CLASS
  1
ACMDATUMSTANDARDBSI
  2
AcmDatumStdBSI
  3
"AcmSymBB|Product Description: AutoCAD Mechanical 2000|Company: Autodesk"
 90
        0
280
     0
281
     0
  0
CLASS
  1
ACMBOMSTANDARDBSI
  2
AcmBOMStdBSI
  3
"AcmSymBB|Product Description: AutoCAD Mechanical 2000|Company: Autodesk"
 90
        0
280
     0
281
     0
  0
CLASS
  1
LONG_TRANSACTION
  2
AcDbLongTransaction
  3
AutoCAD 2000
 90
        0
280
     0
281
     0
  0
CLASS
  1
LWPOLYLINE
  2
AcDbPolyline
  3
AutoCAD 2000
 90
        0
280
     0
281
     1
  0
CLASS
  1
HATCH
  2
AcDbHatch
  3
AutoCAD 2000
 90
        0
280
     0
281
     1
  0
CLASS
  1
XRECORD
  2
AcDbXrecord
  3
AutoCAD 2000
 90
        0
280
     0
281
     0
  0
ENDSEC
  0
SECTION
  2
TABLES
  0
TABLE
  2
VPORT
  5
8
330
0
100
AcDbSymbolTable
 70
     3
  0
VPORT
  5
3A34
330
8
100
AcDbSymbolTableRecord
100
AcDbViewportTableRecord
  2
*ACTIVE
 70
     0
 10
0.0
 20
0.0
 11
1.0
 21
1.0
 12
-33.23007586183412
 22
-3.218891026670831
 13
0.0
 23
0.0
 14
2.5
 24
2.5
 15
10.0
 25
10.0
 16
0.0
 26
0.0
 36
1.0
 17
0.0
 27
0.0
 37
0.0
 40
102.9569490629322
 41
1.56570841889117
 42
50.0
 43
0.0
 44
0.0
 50
0.0
 51
0.0
 71
     0
 72
   100
 73
     1
 74
     1
 75
     0
 76
     0
 77
     0
 78
     0
  0
ENDTAB
  0
TABLE
  2
LTYPE
  5
5
330
0
100
AcDbSymbolTable
 70
    10
  0
LTYPE
  5
14
330
5
100
AcDbSymbolTableRecord
100
AcDbLinetypeTableRecord
  2
BYBLOCK
 70
     0
  3

 72
    65
 73
     0
 40
0.0
  0
LTYPE
  5
15
330
5
100
AcDbSymbolTableRecord
100
AcDbLinetypeTableRecord
  2
BYLAYER
 70
     0
  3

 72
    65
 73
     0
 40
0.0
  0
LTYPE
  5
16
330
5
100
AcDbSymbolTableRecord
100
AcDbLinetypeTableRecord
  2
CONTINUOUS
 70
     0
  3
Solid line
 72
    65
 73
     0
 40
0.0
  0
LTYPE
  5
4B
330
5
100
AcDbSymbolTableRecord
100
AcDbLinetypeTableRecord
  2
AM_ISO02W050
 70
     0
  3
__ __ __ __ __ __ __ __ __ __ __ __ __ __ __
 72
    65
 73
     2
 40
7.5
 49
6.0
 74
     0
 49
-1.5
 74
     0
  0
LTYPE
  5
4C
330
5
100
AcDbSymbolTableRecord
100
AcDbLinetypeTableRecord
  2
AM_ISO08W050
 70
     0
  3
____ . ____ . ____ . ____ . ____ . ____ . ____
 72
    65
 73
     4
 40
18.0
 49
12.0
 74
     0
 49
-1.5
 74
     0
 49
3.0
 74
     0
 49
-1.5
 74
     0
  0
LTYPE
  5
4D
330
5
100
AcDbSymbolTableRecord
100
AcDbLinetypeTableRecord
  2
AM_ISO09W050
 70
     0
  3
_____ . . _____ . . _____ . . ____ .. ____
 72
    65
 73
     6
 40
22.5
 49
12.0
 74
     0
 49
-1.5
 74
     0
 49
3.0
 74
     0
 49
-1.5
 74
     0
 49
3.0
 74
     0
 49
-1.5
 74
     0
  0
LTYPE
  5
4E
330
5
100
AcDbSymbolTableRecord
100
AcDbLinetypeTableRecord
  2
AMCONSTR
 70
     0
  3
_______________________
 72
    65
 73
     2
 40
9999.0
 49
9999.0
 74
     0
 49
0.0
 74
     0
  0
LTYPE
  5
4F
330
5
100
AcDbSymbolTableRecord
100
AcDbLinetypeTableRecord
  2
AM_ISO02W050X2
 70
     0
  3
 _ _ _ _ _ _ _ _ _ _ _ _
 72
    65
 73
     2
 40
3.75
 49
3.0
 74
     0
 49
-0.75
 74
     0
  0
LTYPE
  5
50
330
5
100
AcDbSymbolTableRecord
100
AcDbLinetypeTableRecord
  2
AM_ISO08W050X2
 70
     0
  3
__ . __ . __ . __ . __ . __
 72
    65
 73
     4
 40
9.0
 49
6.0
 74
     0
 49
-0.75
 74
     0
 49
1.5
 74
     0
 49
-0.75
 74
     0
  0
LTYPE
  5
53
330
5
100
AcDbSymbolTableRecord
100
AcDbLinetypeTableRecord
  2
AMZIGZAG
 70
     0
  3
/\/-/\/-/\/-/\/-/\/-/\/
 72
    65
 73
     2
 40
11.00009999999999
 49
0.0001
 74
     4
 75
   135
340
52
 46
0.04
 50
0.0
 44
0.0
 45
0.0
 49
-11.0
 74
     0
  0
LTYPE
  5
166
330
5
100
AcDbSymbolTableRecord
100
AcDbLinetypeTableRecord
  2
ACJISTGL
 70
     0
  3
_ _ _ _ _
 72
    65
 73
     2
 40
3.0
 49
2.0
 74
     0
 49
-1.0
 74
     0
  0
LTYPE
  5
26A
330
5
100
AcDbSymbolTableRecord
100
AcDbLinetypeTableRecord
  2
ACJISTGB
 70
     0
  3
__ . . __ . .
 72
    65
 73
     6
 40
9.0
 49
4.0
 74
     0
 49
-1.0
 74
     0
 49
1.0
 74
     0
 49
-1.0
 74
     0
 49
1.0
 74
     0
 49
-1.0
 74
     0
  0
ENDTAB
  0
TABLE
  2
LAYER
  5
2
330
0
100
AcDbSymbolTable
 70
     7
  0
LAYER
  5
10
330
2
100
AcDbSymbolTableRecord
100
AcDbLayerTableRecord
  2
0
 70
     0
 62
     7
  6
CONTINUOUS
  0
LAYER
  5
3F9
330
2
100
AcDbSymbolTableRecord
100
AcDbLayerTableRecord
  2
AM_0
 70
     0
 62
     7
  6
CONTINUOUS
  0
LAYER
  5
C7C
330
2
100
AcDbSymbolTableRecord
100
AcDbLayerTableRecord
  2
AM_7
 70
     0
 62
     4
  6
AM_ISO08W050
  0
LAYER
  5
C97
330
2
100
AcDbSymbolTableRecord
100
AcDbLayerTableRecord
  2
AM_11
 70
     0
 62
     3
  6
AM_ISO09W050
  0
LAYER
  5
CC5
330
2
100
AcDbSymbolTableRecord
100
AcDbLayerTableRecord
  2
AM_5
 70
     0
 62
     3
  6
CONTINUOUS
  0
LAYER
  5
CC7
330
2
100
AcDbSymbolTableRecord
100
AcDbLayerTableRecord
  2
DEFPOINTS
 70
     0
 62
     7
  6
CONTINUOUS
  0
LAYER
  5
19BC
330
2
100
AcDbSymbolTableRecord
100
AcDbLayerTableRecord
  2
AM_6
 70
     0
 62
     2
  6
CONTINUOUS
  0
ENDTAB
  0
TABLE
  2
STYLE
  5
3
330
0
100
AcDbSymbolTable
 70
     5
  0
STYLE
  5
11
330
3
100
AcDbSymbolTableRecord
100
AcDbTextStyleTableRecord
  2
STANDARD
 70
     0
 40
0.0
 41
1.0
 50
0.0
 71
     0
 42
2.5
  3
simplex.shx
  4
EXTFONT.SHX
  0
STYLE
  5
52
330
3
100
AcDbSymbolTableRecord
100
AcDbTextStyleTableRecord
  2

 70
     1
 40
0.0
 41
1.0
 50
0.0
 71
     0
 42
2.5
  3
ltypeshp.shx
  4

  0
STYLE
  5
6B
330
3
100
AcDbSymbolTableRecord
100
AcDbTextStyleTableRecord
  2
ASAMI
 70
     0
 40
0.0
 41
1.0
 50
0.0
 71
     0
 42
2.5
  3
simplex.shx
  4
EXTFONT.SHX
  0
STYLE
  5
262
330
3
100
AcDbSymbolTableRecord
100
AcDbTextStyleTableRecord
  2
ACJISTS
 70
     0
 40
1.0
 41
1.0
 50
0.0
 71
     0
 42
2.5
  3
simplex.shx
  4
bigfont.shx
  0
STYLE
  5
269
330
3
100
AcDbSymbolTableRecord
100
AcDbTextStyleTableRecord
  2
ACJISGDT
 70
     0
 40
0.0
 41
1.0
 50
0.0
 71
     0
 42
2.5
  3
amgdtans.shx
  4

  0
ENDTAB
  0
TABLE
  2
VIEW
  5
6
330
0
100
AcDbSymbolTable
 70
     0
  0
ENDTAB
  0
TABLE
  2
UCS
  5
7
330
0
100
AcDbSymbolTable
 70
     0
  0
ENDTAB
  0
TABLE
  2
APPID
  5
9
330
0
100
AcDbSymbolTable
 70
    16
  0
APPID
  5
12
330
9
100
AcDbSymbolTableRecord
100
AcDbRegAppTableRecord
  2
ACAD
 70
     0
  0
APPID
  5
30
330
9
100
AcDbSymbolTableRecord
100
AcDbRegAppTableRecord
  2
MCAD_NO_VIS
 70
     0
  0
APPID
  5
31
330
9
100
AcDbSymbolTableRecord
100
AcDbRegAppTableRecord
  2
ACAD_TEMP_GRAPHIC
 70
     0
  0
APPID
  5
2C2
330
9
100
AcDbSymbolTableRecord
100
AcDbRegAppTableRecord
  2
GENIUS_GENDTOL_13
 70
     0
  0
APPID
  5
339
330
9
100
AcDbSymbolTableRecord
100
AcDbRegAppTableRecord
  2
GENIUS_GENODEF_13
 70
     0
  0
APPID
  5
33A
330
9
100
AcDbSymbolTableRecord
100
AcDbRegAppTableRecord
  2
GENIUS_GENOBJ-N-RSBK_13
 70
     0
  0
APPID
  5
33B
330
9
100
AcDbSymbolTableRecord
100
AcDbRegAppTableRecord
  2
GENIUS_GENOBJ-N-LIB_13
 70
     0
  0
APPID
  5
33C
330
9
100
AcDbSymbolTableRecord
100
AcDbRegAppTableRecord
  2
GENIUS_GENSCALE_13
 70
     0
  0
APPID
  5
378
330
9
100
AcDbSymbolTableRecord
100
AcDbRegAppTableRecord
  2
GENIUS_GENDIMSH_14
 70
     0
  0
APPID
  5
C82
330
9
100
AcDbSymbolTableRecord
100
AcDbRegAppTableRecord
  2
GENIUS_GENOBJ-N-CRS_13
 70
     0
  0
APPID
  5
C83
330
9
100
AcDbSymbolTableRecord
100
AcDbRegAppTableRecord
  2
GENIUS_GENOENT_13
 70
     0
  0
APPID
  5
C84
330
9
100
AcDbSymbolTableRecord
100
AcDbRegAppTableRecord
  2
GENIUS_GENOREF_13
 70
     0
  0
APPID
  5
C85
330
9
100
AcDbSymbolTableRecord
100
AcDbRegAppTableRecord
  2
GENIUS_GENOLIS_13
 70
     0
  0
APPID
  5
CA0
330
9
100
AcDbSymbolTableRecord
100
AcDbRegAppTableRecord
  2
GENIUS_GENOBJ-N-CEN_13
 70
     0
  0
APPID
  5
1CFA
330
9
100
AcDbSymbolTableRecord
100
AcDbRegAppTableRecord
  2
GENIUS_GENFIL_13
 70
     0
  0
APPID
  5
1CFB
330
9
100
AcDbSymbolTableRecord
100
AcDbRegAppTableRecord
  2
GENIUS_GENOBJ-N-CHA_13
 70
     0
  0
ENDTAB
  0
TABLE
  2
DIMSTYLE
  5
A
330
0
100
AcDbSymbolTable
 70
     9
  0
DIMSTYLE
105
58
330
A
100
AcDbSymbolTableRecord
100
AcDbDimStyleTableRecord
  2
AM_JIS
 70
     0
  3

  4
"
  5
OPEN30
  6

  7

 40
0.5
 41
2.5
 42
1.0
 43
12.0
 44
1.0
 45
0.0
 46
0.0
 47
0.1
 48
0.1
140
3.2
141
0.0
142
0.0
143
0.0393701
144
1.0
145
0.0
146
0.71
147
1.5
 71
     0
 72
     0
 73
     0
 74
     0
 75
     0
 76
     0
 77
     3
 78
     8
170
     0
171
     2
172
     1
173
     0
174
     0
175
     0
176
   256
177
   256
178
     2
270
     2
271
     3
272
     3
273
     2
274
     2
340
6B
275
     0
280
     0
281
     0
282
     0
283
     0
284
     0
285
     0
286
     0
287
     3
288
     0
  0
DIMSTYLE
105
5F
330
A
100
AcDbSymbolTableRecord
100
AcDbDimStyleTableRecord
  2
AM_JIS$3
 70
     0
  3

  4
"
  5
OPEN30
  6

  7

 40
0.5
 41
2.5
 42
1.0
 43
10.0
 44
1.0
 45
0.0
 46
0.0
 47
0.1
 48
0.1
140
3.2
141
0.0
142
0.0
143
0.0393701
144
1.0
145
0.0
146
0.71
147
1.5
 71
     0
 72
     0
 73
     0
 74
     1
 75
     0
 76
     0
 77
     3
 78
     8
170
     0
171
     2
172
     0
173
     0
174
     0
175
     0
176
   256
177
   256
178
     2
270
     2
271
     2
272
     3
273
     2
274
     2
340
6B
275
     0
280
     0
281
     0
282
     0
283
     0
284
     0
285
     0
286
     0
287
     0
288
     1
  0
DIMSTYLE
105
60
330
A
100
AcDbSymbolTableRecord
100
AcDbDimStyleTableRecord
  2
AM_JIS$4
 70
     0
  3

  4
"
  5
OPEN30
  6

  7

 40
0.5
 41
2.5
 42
1.0
 43
10.0
 44
1.0
 45
0.0
 46
0.0
 47
0.1
 48
0.1
140
3.2
141
0.0
142
0.0
143
0.0393701
144
1.0
145
0.0
146
0.71
147
1.5
 71
     0
 72
     0
 73
     0
 74
     1
 75
     0
 76
     0
 77
     3
 78
     8
170
     0
171
     2
172
     0
173
     0
174
     0
175
     0
176
   256
177
   256
178
     2
270
     2
271
     2
272
     3
273
     2
274
     2
340
6B
275
     0
280
     0
281
     0
282
     0
283
     0
284
     0
285
     0
286
     0
287
     0
288
     1
  0
DIMSTYLE
105
61
330
A
100
AcDbSymbolTableRecord
100
AcDbDimStyleTableRecord
  2
AM_JIS$6
 70
     0
  3

  4
"
  5
OPEN30
  6

  7

 40
0.5
 41
2.5
 42
1.0
 43
10.0
 44
1.0
 45
0.0
 46
0.0
 47
0.1
 48
0.1
140
3.2
141
0.0
142
0.0
143
0.0393701
144
1.0
145
0.0
146
0.71
147
1.5
 71
     0
 72
     0
 73
     0
 74
     0
 75
     0
 76
     0
 77
     0
 78
     8
170
     0
171
     2
172
     1
173
     0
174
     0
175
     0
176
   256
177
   256
178
     2
270
     2
271
     2
272
     2
273
     2
274
     2
340
6B
275
     0
280
     0
281
     0
282
     0
283
     0
284
     0
285
     0
286
     0
287
     3
288
     0
  0
DIMSTYLE
105
62
330
A
100
AcDbSymbolTableRecord
100
AcDbDimStyleTableRecord
  2
AM_JIS$7
 70
     0
  3

  4
"
  5
OPEN30
  6

  7

 40
0.5
 41
2.5
 42
1.0
 43
10.0
 44
1.0
 45
0.0
 46
0.0
 47
0.1
 48
0.1
140
3.2
141
0.0
142
0.0
143
0.0393701
144
1.0
145
0.0
146
0.71
147
1.5
 71
     0
 72
     0
 73
     0
 74
     0
 75
     0
 76
     0
 77
     3
 78
     8
170
     0
171
     2
172
     1
173
     0
174
     0
175
     0
176
   256
177
   256
178
     2
270
     2
271
     2
272
     3
273
     2
274
     2
340
6B
275
     0
280
     0
281
     0
282
     0
283
     0
284
     0
285
     0
286
     0
287
     3
288
     0
  0
DIMSTYLE
105
63
330
A
100
AcDbSymbolTableRecord
100
AcDbDimStyleTableRecord
  2
AM_JIS$SF
 70
     0
  3

  4
"
  5
OPEN30
  6

  7

 40
0.5
 41
2.5
 42
1.0
 43
10.0
 44
1.0
 45
0.0
 46
0.0
 47
0.1
 48
0.1
140
3.2
141
0.0
142
0.0
143
0.0393701
144
1.0
145
0.0
146
0.71
147
1.5
 71
     0
 72
     0
 73
     0
 74
     0
 75
     1
 76
     1
 77
     3
 78
     8
170
     0
171
     2
172
     1
173
     0
174
     0
175
     0
176
   256
177
   256
178
     2
270
     2
271
     2
272
     2
273
     2
274
     2
340
6B
275
     0
280
     0
281
     0
282
     0
283
     0
284
     0
285
     0
286
     0
287
     3
288
     0
  0
DIMSTYLE
105
68
330
A
100
AcDbSymbolTableRecord
100
AcDbDimStyleTableRecord
  2
AM_JIS$SH
 70
     0
  3

  4
"
  5

  6
GENAXEH
  7
OPEN30
 40
0.5
 41
2.5
 42
1.0
 43
10.0
 44
1.0
 45
0.0
 46
0.0
 47
0.1
 48
0.1
140
3.2
141
0.0
142
0.0
143
0.0393701
144
2.0
145
0.0
146
0.71
147
1.5
 71
     0
 72
     0
 73
     0
 74
     0
 75
     1
 76
     1
 77
     3
 78
     8
170
     0
171
     2
172
     1
173
     1
174
     0
175
     0
176
   256
177
   256
178
     2
270
     2
271
     2
272
     2
273
     2
274
     2
340
6B
275
     0
280
     0
281
     0
282
     0
283
     0
284
     0
285
     0
286
     0
287
     3
288
     0
  0
DIMSTYLE
105
B34
102
{ACAD_REACTORS
330
2FE5
102
}
330
A
100
AcDbSymbolTableRecord
100
AcDbDimStyleTableRecord
  2
AM_JIS$2
 70
     0
  3

  4
"
  5
OPEN30
  6

  7

 40
0.5
 41
2.5
 42
1.0
 43
12.0
 44
1.0
 45
0.0
 46
0.0
 47
0.1
 48
0.1
140
3.2
141
0.0
142
0.0
143
0.0393701
144
1.0
145
0.0
146
0.71
147
1.5
 71
     0
 72
     0
 73
     0
 74
     0
 75
     0
 76
     0
 77
     3
 78
     8
170
     0
171
     2
172
     1
173
     0
174
     0
175
     0
176
   256
177
   256
178
     2
270
     2
271
     3
272
     3
273
     2
274
     2
340
6B
275
     0
280
     0
281
     0
282
     0
283
     0
284
     0
285
     0
286
     0
287
     3
288
     0
  0
DIMSTYLE
105
BA5
102
{ACAD_REACTORS
330
2259
330
282D
330
2ABE
102
}
330
A
100
AcDbSymbolTableRecord
100
AcDbDimStyleTableRecord
  2
AM_JIS$0
 70
     0
  3

  4
"
  5
OPEN30
  6

  7

 40
0.5
 41
2.5
 42
0.0
 43
10.0
 44
1.0
 45
0.0
 46
0.0
 47
0.1
 48
0.1000000001
140
3.799999999999999
141
0.0
142
0.0
143
0.0393701
144
1.0
145
0.0
146
0.71
147
1.5
 71
     0
 72
     0
 73
     0
 74
     0
 75
     0
 76
     0
 77
     3
 78
     1
170
     0
171
     2
172
     1
173
     0
174
     0
175
     0
176
     3
177
     3
178
     2
270
     2
271
     2
272
     2
273
     2
274
     2
340
11
275
     1
280
     0
281
     0
282
     0
283
     0
284
     8
285
     0
286
     0
287
     0
288
     0
  0
ENDTAB
  0
TABLE
  2
BLOCK_RECORD
  5
1
330
0
100
AcDbSymbolTable
 70
     9
  0
BLOCK_RECORD
  5
1F
102
{ACAD_XDICTIONARY
360
74
102
}
330
1
100
AcDbSymbolTableRecord
100
AcDbBlockTableRecord
  2
*MODEL_SPACE
  0
BLOCK_RECORD
  5
101
102
{ACAD_XDICTIONARY
360
3A5D
102
}
330
1
100
AcDbSymbolTableRecord
100
AcDbBlockTableRecord
  2
*PAPER_SPACE
  0
BLOCK_RECORD
  5
59
330
1
100
AcDbSymbolTableRecord
100
AcDbBlockTableRecord
  2
_OPEN30
  0
BLOCK_RECORD
  5
64
330
1
100
AcDbSymbolTableRecord
100
AcDbBlockTableRecord
  2
GENAXEH
  0
BLOCK_RECORD
  5
225A
330
1
100
AcDbSymbolTableRecord
100
AcDbBlockTableRecord
  2
*D5
  0
BLOCK_RECORD
  5
2833
330
1
100
AcDbSymbolTableRecord
100
AcDbBlockTableRecord
  2
*D6
  0
BLOCK_RECORD
  5
2ABF
330
1
100
AcDbSymbolTableRecord
100
AcDbBlockTableRecord
  2
*D7
  0
BLOCK_RECORD
  5
2FE6
330
1
100
AcDbSymbolTableRecord
100
AcDbBlockTableRecord
  2
*D8
  0
ENDTAB
  0
ENDSEC
  0
SECTION
  2
BLOCKS
  0
BLOCK
  5
20
330
1F
100
AcDbEntity
  8
0
100
AcDbBlockBegin
  2
*MODEL_SPACE
 70
     0
 10
0.0
 20
0.0
 30
0.0
  3
*MODEL_SPACE
  1

  0
ENDBLK
  5
21
330
1F
100
AcDbEntity
  8
0
100
AcDbBlockEnd
  0
BLOCK
  5
103
330
101
100
AcDbEntity
 67
     1
  8
0
100
AcDbBlockBegin
  2
*PAPER_SPACE
 70
     0
 10
0.0
 20
0.0
 30
0.0
  3
*PAPER_SPACE
  1

  0
ENDBLK
  5
104
330
101
100
AcDbEntity
 67
     1
  8
0
100
AcDbBlockEnd
  0
BLOCK
  5
5D
330
59
100
AcDbEntity
  8
0
100
AcDbBlockBegin
  2
_OPEN30
 70
     0
 10
0.0
 20
0.0
 30
0.0
  3
_OPEN30
  1

  0
LINE
  5
5A
330
59
100
AcDbEntity
  8
0
 62
     0
100
AcDbLine
 10
-1.0
 20
0.26794919
 30
0.0
 11
0.0
 21
0.0
 31
0.0
  0
LINE
  5
5B
330
59
100
AcDbEntity
  8
0
 62
     0
100
AcDbLine
 10
0.0
 20
0.0
 30
0.0
 11
-1.0
 21
-0.26794919
 31
0.0
  0
LINE
  5
5C
330
59
100
AcDbEntity
  8
0
 62
     0
100
AcDbLine
 10
0.0
 20
0.0
 30
0.0
 11
-1.0
 21
0.0
 31
0.0
  0
ENDBLK
  5
5E
330
59
100
AcDbEntity
  8
0
100
AcDbBlockEnd
  0
BLOCK
  5
66
330
64
100
AcDbEntity
  8
0
100
AcDbBlockBegin
  2
GENAXEH
 70
     0
 10
0.0
 20
0.0
 30
0.0
  3
GENAXEH
  1

  0
LINE
  5
65
330
64
100
AcDbEntity
  8
0
100
AcDbLine
 10
-1.0
 20
0.0
 30
0.0
 11
1.0
 21
0.0
 31
0.0
  0
ENDBLK
  5
67
330
64
100
AcDbEntity
  8
0
100
AcDbBlockEnd
  0
BLOCK
  5
2264
330
225A
100
AcDbEntity
  8
0
100
AcDbBlockBegin
  2
*D5
 70
     1
 10
0.0
 20
0.0
 30
0.0
  3
*D5
  1

  0
LINE
  5
39CE
330
225A
100
AcDbEntity
  8
AM_5
 62
     3
100
AcDbLine
 10
-72.88728509903347
 20
-1.531256840295348
 30
0.0
 11
-72.88728509903347
 21
-9.500110586681106
 31
0.0
  0
LINE
  5
39CF
330
225A
100
AcDbEntity
  8
AM_5
 62
     3
100
AcDbLine
 10
-0.8872850990334843
 20
-2.000005406682242
 30
0.0
 11
-0.8872850990334846
 21
-9.500110586681106
 31
0.0
  0
LINE
  5
39D0
330
225A
100
AcDbEntity
  8
AM_5
 62
     3
100
AcDbLine
 10
-71.63728509903347
 20
-9.000110586681106
 30
0.0
 11
-2.137285099033484
 21
-9.000110586681106
 31
0.0
  0
INSERT
  5
39D1
330
225A
100
AcDbEntity
  8
AM_5
 62
     3
100
AcDbBlockReference
  2
_OPEN30
 10
-72.88728509903347
 20
-9.000110586681106
 30
0.0
 41
1.25
 42
1.25
 43
1.25
 50
180.0
  0
INSERT
  5
39D2
330
225A
100
AcDbEntity
  8
AM_5
 62
     3
100
AcDbBlockReference
  2
_OPEN30
 10
-0.8872850990334846
 20
-9.000110586681106
 30
0.0
 41
1.25
 42
1.25
 43
1.25
  0
MTEXT
  5
39D3
330
225A
100
AcDbEntity
  8
AM_5
 62
     2
100
AcDbMText
 10
-36.88728509903348
 20
-7.300110586681106
 30
0.0
 40
1.9
 41
0.0
 71
     5
 72
     1
  1
72
1001
ACAD
1000
MTEXTBEGIN
1070
    73
1070
     1
1070
    44
1040
1.0
1070
    74
1070
     0
1000
MTEXTEND
  0
POINT
  5
39D4
330
225A
100
AcDbEntity
  8
DEFPOINTS
 62
     0
100
AcDbPoint
 10
-72.88728509903347
 20
-1.531256840295348
 30
0.0
  0
POINT
  5
39D5
330
225A
100
AcDbEntity
  8
DEFPOINTS
 62
     0
100
AcDbPoint
 10
-0.8872850990334843
 20
-2.000005406682242
 30
0.0
  0
POINT
  5
39D6
330
225A
100
AcDbEntity
  8
DEFPOINTS
 62
     0
100
AcDbPoint
 10
-0.8872850990334846
 20
-9.000110586681106
 30
0.0
  0
ENDBLK
  5
2265
330
225A
100
AcDbEntity
  8
0
100
AcDbBlockEnd
  0
BLOCK
  5
283F
330
2833
100
AcDbEntity
  8
0
100
AcDbBlockBegin
  2
*D6
 70
     1
 10
0.0
 20
0.0
 30
0.0
  3
*D6
  1

  0
LINE
  5
2C8F
330
2833
100
AcDbEntity
  8
AM_5
 62
     3
100
AcDbLine
 10
-72.63014224189063
 20
-2.000006999241114
 30
0.0
 11
-82.07930486890816
 21
-2.000006999241112
 31
0.0
  0
LINE
  5
2C90
330
2833
100
AcDbEntity
  8
AM_5
 62
     3
100
AcDbLine
 10
-72.63014224189062
 20
1.999993000758885
 30
0.0
 11
-82.07930486890816
 21
1.999993000758888
 31
0.0
  0
LINE
  5
2C91
330
2833
100
AcDbEntity
  8
AM_5
 62
     3
100
AcDbLine
 10
-81.57930486890817
 20
-0.7500069992411122
 30
0.0
 11
-81.57930486890817
 21
0.7499930007588881
 31
0.0
  0
INSERT
  5
2C92
330
2833
100
AcDbEntity
  8
AM_5
 62
     3
100
AcDbBlockReference
  2
_OPEN30
 10
-81.57930486890817
 20
-2.000006999241112
 30
0.0
 41
1.25
 42
1.25
 43
1.25
 50
270.0
  0
INSERT
  5
2C93
330
2833
100
AcDbEntity
  8
AM_5
 62
     3
100
AcDbBlockReference
  2
_OPEN30
 10
-81.57930486890817
 20
1.999993000758888
 30
0.0
 41
1.25
 42
1.25
 43
1.25
 50
90.0
  0
MTEXT
  5
2C94
330
2833
100
AcDbEntity
  8
AM_5
 62
     2
100
AcDbMText
 10
-83.27930486890817
 20
-0.0000069992411249
 30
0.0
 40
1.9
 41
0.0
 71
     5
 72
     1
  1
%%c4
 11
0.0000000000000001
 21
1.0
 31
0.0
1001
ACAD
1000
MTEXTBEGIN
1070
    73
1070
     1
1070
    44
1040
1.0
1070
    74
1070
     0
1000
MTEXTEND
  0
POINT
  5
2C95
330
2833
100
AcDbEntity
  8
DEFPOINTS
 62
     0
100
AcDbPoint
 10
-72.63014224189063
 20
-2.000006999241114
 30
0.0
  0
POINT
  5
2C96
330
2833
100
AcDbEntity
  8
DEFPOINTS
 62
     0
100
AcDbPoint
 10
-72.63014224189062
 20
1.999993000758885
 30
0.0
  0
POINT
  5
2C97
330
2833
100
AcDbEntity
  8
DEFPOINTS
 62
     0
100
AcDbPoint
 10
-81.57930486890817
 20
1.999993000758888
 30
0.0
  0
ENDBLK
  5
2840
330
2833
100
AcDbEntity
  8
0
100
AcDbBlockEnd
  0
BLOCK
  5
2ACB
330
2ABF
100
AcDbEntity
  8
0
100
AcDbBlockBegin
  2
*D7
 70
     1
 10
0.0
 20
0.0
 30
0.0
  3
*D7
  1

  0
LINE
  5
39A4
330
2ABF
100
AcDbEntity
  8
AM_5
 62
     3
100
AcDbLine
 10
-0.8872850990334837
 20
-2.000005406682242
 30
0.0
 11
8.328580472887475
 21
-2.000005406682244
 31
0.0
  0
LINE
  5
39A5
330
2ABF
100
AcDbEntity
  8
AM_5
 62
     3
100
AcDbLine
 10
-0.8872850990334766
 20
1.99999459331916
 30
0.0
 11
8.328580472887477
 21
1.999994593319157
 31
0.0
  0
LINE
  5
39A6
330
2ABF
100
AcDbEntity
  8
AM_5
 62
     3
100
AcDbLine
 10
7.828580472887475
 20
-3.250005406682244
 30
0.0
 11
7.828580472887475
 21
-4.500005406682245
 31
0.0
  0
LINE
  5
39A7
330
2ABF
100
AcDbEntity
  8
AM_5
 62
     3
100
AcDbLine
 10
7.828580472887477
 20
3.249994593319157
 30
0.0
 11
7.828580472887478
 21
9.076185069509634
 31
0.0
  0
LINE
  5
39A8
330
2ABF
100
AcDbEntity
  8
AM_5
 62
     3
100
AcDbLine
 10
7.828580472887475
 20
-2.000005406682244
 30
0.0
 11
7.828580472887476
 21
1.999994593319157
 31
0.0
  0
INSERT
  5
39A9
330
2ABF
100
AcDbEntity
  8
AM_5
 62
     3
100
AcDbBlockReference
  2
_OPEN30
 10
7.828580472887475
 20
-2.000005406682244
 30
0.0
 41
1.25
 42
1.25
 43
1.25
 50
90.0
  0
INSERT
  5
39AA
330
2ABF
100
AcDbEntity
  8
AM_5
 62
     3
100
AcDbBlockReference
  2
_OPEN30
 10
7.828580472887476
 20
1.999994593319157
 30
0.0
 41
1.25
 42
1.25
 43
1.25
 50
270.0
  0
MTEXT
  5
39AB
330
2ABF
100
AcDbEntity
  8
AM_5
 62
     2
100
AcDbMText
 10
6.128580472887476
 20
6.788089831414398
 30
0.0
 40
1.9
 41
0.0
 71
     5
 72
     1
  1
%%c4
 11
0.0000000000000001
 21
1.0
 31
0.0
1001
ACAD
1000
MTEXTBEGIN
1070
    73
1070
     1
1070
    44
1040
1.0
1070
    74
1070
     0
1000
MTEXTEND
  0
POINT
  5
39AC
330
2ABF
100
AcDbEntity
  8
DEFPOINTS
 62
     0
100
AcDbPoint
 10
-0.8872850990334837
 20
-2.000005406682242
 30
0.0
  0
POINT
  5
39AD
330
2ABF
100
AcDbEntity
  8
DEFPOINTS
 62
     0
100
AcDbPoint
 10
-0.8872850990334766
 20
1.99999459331916
 30
0.0
  0
POINT
  5
39AE
330
2ABF
100
AcDbEntity
  8
DEFPOINTS
 62
     0
100
AcDbPoint
 10
7.828580472887476
 20
1.999994593319157
 30
0.0
  0
ENDBLK
  5
2ACC
330
2ABF
100
AcDbEntity
  8
0
100
AcDbBlockEnd
  0
BLOCK
  5
2FF6
330
2FE6
100
AcDbEntity
  8
0
100
AcDbBlockBegin
  2
*D8
 70
     1
 10
0.0
 20
0.0
 30
0.0
  3
*D8
  1

  0
LINE
  5
3A5F
330
2FE6
100
AcDbEntity
  8
AM_5
100
AcDbLine
 10
0.2837224282429282
 20
-0.4698533100908043
 30
0.0
 11
4.925341883112312
 21
-13.22259805801342
 31
0.0
  0
LINE
  5
3A60
330
2FE6
100
AcDbEntity
  8
AM_5
100
AcDbLine
 10
0.2837222042588539
 20
0.4698407023859044
 30
0.0
 11
4.925351038199206
 21
13.22258374571213
 31
0.0
  0
ARC
  5
3A61
330
2FE6
100
AcDbEntity
  8
AM_5
100
AcDbCircle
 10
0.1127118085375943
 20
-0.0000054900593023
 30
0.0
 40
13.57118909164455
100
AcDbArc
 50
295.2792030704465
 51
64.72075725897425
  0
INSERT
  5
3A62
330
2FE6
100
AcDbEntity
  8
AM_5
100
AcDbBlockReference
  2
_OPEN30
 10
4.754331812704245
 20
-12.75275174716377
 30
0.0
 41
1.25
 42
1.25
 43
1.25
 50
202.6396014587164
  0
INSERT
  5
3A63
330
2FE6
100
AcDbEntity
  8
AM_5
100
AcDbBlockReference
  2
_OPEN30
 10
4.754340642477947
 20
12.75273755326693
 30
0.0
 41
1.25
 42
1.25
 43
1.25
 50
157.3603588707043
  0
MTEXT
  5
3A64
330
2FE6
100
AcDbEntity
  8
AM_5
 62
     2
100
AcDbMText
 10
12.13390090018133
 20
-0.0000101882843392
 30
0.0
 40
1.6
 41
0.0
 71
     5
 72
     1
  1
140°
  7
ASAMI
 11
0.0000000000000001
 21
1.0
 31
0.0
  0
POINT
  5
3A65
330
2FE6
100
AcDbEntity
  8
DEFPOINTS
 62
     0
100
AcDbPoint
 10
12.57399869837962
 20
5.375262169343646
 30
0.0
  0
POINT
  5
3A66
330
2FE6
100
AcDbEntity
  8
DEFPOINTS
 62
     0
100
AcDbPoint
 10
0.112711722052192
 20
-0.0000057276754822
 30
0.0
  0
POINT
  5
3A67
330
2FE6
100
AcDbEntity
  8
DEFPOINTS
 62
     0
100
AcDbPoint
 10
0.1127123578348612
 20
-0.0000069992411522
 30
0.0
  0
POINT
  5
3A68
330
2FE6
100
AcDbEntity
  8
DEFPOINTS
 62
     0
100
AcDbPoint
 10
-0.0826135978702517
 20
0.5366466579513109
 30
0.0
  0
POINT
  5
3A69
330
2FE6
100
AcDbEntity
  8
DEFPOINTS
 62
     0
100
AcDbPoint
 10
-0.082616809816005
 20
-0.5366653066859494
 30
0.0
  0
ENDBLK
  5
2FF7
330
2FE6
100
AcDbEntity
  8
0
100
AcDbBlockEnd
  0
ENDSEC
  0
SECTION
  2
ENTITIES
  0
LINE
  5
C1D
330
1F
100
AcDbEntity
  8
AM_0
 48
0.5
100
AcDbLine
 10
0.1127149009666381
 20
-0.0000069992411402
 30
0.0
 11
-0.0826135978702517
 21
0.5366466579513109
 31
0.0
  0
LINE
  5
C20
330
1F
100
AcDbEntity
  8
AM_0
 48
0.5
100
AcDbLine
 10
0.1127149009666368
 20
-0.0000069992411438
 30
0.0
 11
-0.082616809816005
 21
-0.5366653066859494
 31
0.0
  0
TEXT
  5
19BD
330
1F
100
AcDbEntity
  8
AM_6
100
AcDbText
 10
-48.13728509903348
 20
-20.25011058668113
 30
0.0
 40
2.5
  1
MDW040MHK
 50
0.0000000000001527
 72
     4
 11
-36.88728509903347
 21
-19.0001105866811
 31
0.0
100
AcDbText
  0
ELLIPSE
  5
2206
330
1F
100
AcDbEntity
  8
AM_11
 48
0.5
100
AcDbEllipse
 10
-29.2309038734454
 20
7.729686494979304
 30
0.0
 11
8.790537643432497
 21
0.0000000000000142
 31
0.0
210
0.0
220
0.0
230
1.0
 40
0.9722222222222224
 41
4.271663339930095
 42
5.153112800913389
  0
ELLIPSE
  5
2207
330
1F
100
AcDbEntity
  8
AM_11
 48
0.5
100
AcDbEllipse
 10
-29.23090387344544
 20
-7.729694926427696
 30
0.0
 11
-8.79053764343249
 21
0.0000000000000083
 31
0.0
210
0.0
220
0.0
230
1.0
 40
0.9722222222222233
 41
4.271664206181686
 42
5.153113667164993
  0
ELLIPSE
  5
220B
330
1F
100
AcDbEntity
  8
AM_11
 48
0.5
100
AcDbEllipse
 10
-21.73090387344541
 20
7.729686494979291
 30
0.0
 11
-8.790537643432497
 21
0.0000000000000005
 31
0.0
210
0.0
220
0.0
230
1.0
 40
0.9722222222222224
 41
1.130070686340304
 42
2.011520147323597
  0
ELLIPSE
  5
220C
330
1F
100
AcDbEntity
  8
AM_11
 48
0.5
100
AcDbEllipse
 10
-21.73090387344544
 20
-7.729694926427709
 30
0.0
 11
-8.790537643432495
 21
0.0000000000000044
 31
0.0
210
0.0
220
0.0
230
1.0
 40
0.9722222222222226
 41
4.271664206181685
 42
5.153113667164992
  0
ELLIPSE
  5
220D
330
1F
100
AcDbEntity
  8
AM_11
 48
0.5
100
AcDbEllipse
 10
-44.23087106181191
 20
7.729686494979294
 30
0.0
 11
8.79053764343249
 21
0.0000000000000669
 31
0.0
210
0.0
220
0.0
230
1.0
 40
0.9722222222222233
 41
4.271663339930089
 42
5.153112800913382
  0
ELLIPSE
  5
220E
330
1F
100
AcDbEntity
  8
AM_11
 48
0.5
100
AcDbEllipse
 10
-44.23087106181195
 20
-7.729694926427707
 30
0.0
 11
-8.79053764343249
 21
0.0000000000000083
 31
0.0
210
0.0
220
0.0
230
1.0
 40
0.9722222222222233
 41
4.271664206181686
 42
5.153113667164993
  0
ELLIPSE
  5
220F
330
1F
100
AcDbEntity
  8
AM_11
 48
0.5
100
AcDbEllipse
 10
-51.73085465599526
 20
-7.729694926427713
 30
0.0
 11
8.790537643432477
 21
0.0000000000000552
 31
0.0
210
0.0
220
0.0
230
1.0
 40
0.9722222222222244
 41
1.130071552591885
 42
2.011521013575192
  0
ELLIPSE
  5
2210
330
1F
100
AcDbEntity
  8
AM_11
 48
0.5
100
AcDbEllipse
 10
-51.73085465599523
 20
7.729686494979289
 30
0.0
 11
-8.790537643432493
 21
0.0000000000000669
 31
0.0
210
0.0
220
0.0
230
1.0
 40
0.972222222222223
 41
1.130070686340312
 42
2.011520147323604
  0
ELLIPSE
  5
2219
330
1F
100
AcDbEntity
  8
AM_11
 48
0.5
100
AcDbEllipse
 10
-59.23083825017847
 20
7.729686494979281
 30
0.0
 11
-8.790537643432497
 21
0.0000000000000005
 31
0.0
210
0.0
220
0.0
230
1.0
 40
0.9722222222222224
 41
1.130070686340304
 42
2.011520147323597
  0
ELLIPSE
  5
221A
330
1F
100
AcDbEntity
  8
AM_11
 48
0.5
100
AcDbEllipse
 10
-59.23083825017851
 20
-7.729694926427717
 30
0.0
 11
-8.79053764343249
 21
0.0000000000000083
 31
0.0
210
0.0
220
0.0
230
1.0
 40
0.9722222222222233
 41
4.271664206181686
 42
5.153113667164993
  0
ELLIPSE
  5
2228
330
1F
100
AcDbEntity
  8
AM_11
 48
0.5
100
AcDbEllipse
 10
-36.73088746762866
 20
7.729686494979298
 30
0.0
 11
8.790537643432491
 21
0.0000000000000747
 31
0.0
210
0.0
220
0.0
230
1.0
 40
0.972222222222223
 41
4.271663339930089
 42
5.153112800913382
  0
ELLIPSE
  5
2229
330
1F
100
AcDbEntity
  8
AM_11
 48
0.5
100
AcDbEllipse
 10
-36.7308874676287
 20
-7.729694926427701
 30
0.0
 11
-8.79053764343249
 21
0.0000000000000083
 31
0.0
210
0.0
220
0.0
230
1.0
 40
0.9722222222222233
 41
4.271664206181686
 42
5.153113667164993
  0
LINE
  5
224B
330
1F
100
AcDbEntity
  8
AM_7
100
AcDbLine
 10
-74.57930386890817
 20
-0.0000069992410542
 30
0.0
 11
0.8285794728874737
 21
-0.0000069992411447
 31
0.0
1001
GENIUS_GENODEF_13
1002
{
1000
HIER
1070
     0
1002
}
1002
{
1000
MANEDIT
1070
     0
1002
}
1002
{
1000
NOSEL
1070
     0
1002
}
1002
{
1000
BEHIND
1070
     0
1002
}
1002
{
1000
REACTOR
1002
}
1001
GENIUS_GENOBJ-N-CEN_13
1002
{
1000
OWNER
1000
GEN
1002
}
  0
DIMENSION
  5
2259
330
1F
100
AcDbEntity
  8
AM_5
100
AcDbDimension
  2
*D5
 10
-0.8872850990334846
 20
-9.000110586681106
 30
0.0
 11
-36.88728509903348
 21
-7.300110586681106
 31
0.0
 70
    32
  1
<>
  3
AM_JIS$0
100
AcDbAlignedDimension
 13
-72.88728509903347
 23
-1.531256840295348
 33
0.0
 14
-0.8872850990334843
 24
-2.000005406682242
 34
0.0
100
AcDbRotatedDimension
1001
GENIUS_GENDTOL_13
1000

1000
h7
1000

1040
0.0
1001
ACAD
1000
DSTYLE
1002
{
1070
   271
1070
     0
1002
}
  0
ELLIPSE
  5
27F0
330
1F
100
AcDbEntity
  8
AM_11
 48
0.5
100
AcDbEllipse
 10
-66.73084559847831
 20
7.729692138621961
 30
0.0
 11
8.79053764343249
 21
0.0000000000000669
 31
0.0
210
0.0
220
0.0
230
1.0
 40
0.9722222222222233
 41
4.271663339930089
 42
5.153112800913382
  0
ELLIPSE
  5
27F1
330
1F
100
AcDbEntity
  8
AM_11
 48
0.5
100
AcDbEllipse
 10
-66.73084559847834
 20
-7.729689282785039
 30
0.0
 11
-8.79053764343249
 21
0.0000000000000083
 31
0.0
210
0.0
220
0.0
230
1.0
 40
0.9722222222222233
 41
4.271664206181686
 42
5.153113667164993
  0
ELLIPSE
  5
27F2
330
1F
100
AcDbEntity
  8
AM_11
 48
0.5
100
AcDbEllipse
 10
-74.23082919266164
 20
-7.729689282785045
 30
0.0
 11
8.790537643432477
 21
0.0000000000000552
 31
0.0
210
0.0
220
0.0
230
1.0
 40
0.9722222222222244
 41
1.130071552591885
 42
1.417355117759801
  0
ELLIPSE
  5
27F3
330
1F
100
AcDbEntity
  8
AM_11
 48
0.5
100
AcDbEllipse
 10
-74.23082919266161
 20
7.729692138621957
 30
0.0
 11
-8.790537643432493
 21
0.0000000000000669
 31
0.0
210
0.0
220
0.0
230
1.0
 40
0.972222222222223
 41
1.724237535829987
 42
2.011520147323604
  0
LINE
  5
2827
330
1F
100
AcDbEntity
  8
AM_0
100
AcDbLine
 10
-72.63014224189062
 20
1.999993000758881
 30
0.0
 11
-72.63014224189063
 21
-2.000006999241118
 31
0.0
  0
LINE
  5
2828
330
1F
100
AcDbEntity
  8
AM_0
 48
0.5
100
AcDbLine
 10
-72.88728509903349
 20
-1.750006999241114
 30
0.0
 11
-72.88728509903347
 21
1.749993000758886
 31
0.0
  0
LINE
  5
2829
330
1F
100
AcDbEntity
  8
AM_0
100
AcDbLine
 10
-72.88728509903349
 20
-1.750006999241114
 30
0.0
 11
-72.63728509903349
 21
-2.000006999241114
 31
0.0
1001
GENIUS_GENFIL_13
1070
     0
1040
0.25
1040
0.25
1040
20.0
1040
0.0
1002
{
1002
}
1001
GENIUS_GENODEF_13
1002
{
1000
HIER
1070
     0
1002
}
1002
{
1000
MANEDIT
1070
     0
1002
}
1002
{
1000
NOSEL
1070
     0
1002
}
1002
{
1000
BEHIND
1070
     0
1002
}
1002
{
1000
REACTOR
1002
}
1001
GENIUS_GENOBJ-N-CHA_13
1002
{
1000
OWNER
1000
GEN
1002
}
  0
LINE
  5
282B
330
1F
100
AcDbEntity
  8
AM_0
100
AcDbLine
 10
-72.63728509903349
 20
-2.000006999241114
 30
0.0
 11
-22.65717474409338
 21
-2.000006999241187
 31
0.0
1001
GENIUS_GENODEF_13
1002
{
1000
HIER
1070
     0
1002
}
1002
{
1000
MANEDIT
1070
     0
1002
}
1002
{
1000
NOSEL
1070
     0
1002
}
1002
{
1000
BEHIND
1070
     0
1002
}
1002
{
1000
REACTOR
1002
}
1001
GENIUS_GENOBJ-N-CEN_13
1002
{
1000
OWNER
1000
GEN
1002
}
  0
LINE
  5
282C
330
1F
100
AcDbEntity
  8
AM_0
100
AcDbLine
 10
-72.63728509903348
 20
1.999993000758886
 30
0.0
 11
-21.82839097820902
 21
1.999993000758809
 31
0.0
1001
GENIUS_GENODEF_13
1002
{
1000
HIER
1070
     0
1002
}
1002
{
1000
MANEDIT
1070
     0
1002
}
1002
{
1000
NOSEL
1070
     0
1002
}
1002
{
1000
BEHIND
1070
     0
1002
}
1002
{
1000
REACTOR
1002
}
1001
GENIUS_GENOBJ-N-CEN_13
1002
{
1000
OWNER
1000
GEN
1002
}
  0
DIMENSION
  5
282D
330
1F
100
AcDbEntity
  8
AM_5
100
AcDbDimension
  2
*D6
 10
-81.57930486890817
 20
1.999993000758888
 30
0.0
 11
-81.57930486890817
 21
-0.0000069992411251
 31
0.0
 70
   160
  1
%%c<>
  3
AM_JIS$0
100
AcDbAlignedDimension
 13
-72.63014224189063
 23
-2.000006999241114
 33
0.0
 14
-72.63014224189062
 24
1.999993000758885
 34
0.0
 50
270.0
100
AcDbRotatedDimension
1001
ACAD
1000
DSTYLE
1002
{
1070
   271
1070
     0
1002
}
1001
GENIUS_GENDTOL_13
1000

1000
h7
1000

1040
0.0
  0
LINE
  5
2964
330
1F
100
AcDbEntity
  8
AM_0
100
AcDbLine
 10
-72.88728509903347
 20
1.749993000758886
 30
0.0
 11
-72.63728509903348
 21
1.999993000758886
 31
0.0
1001
GENIUS_GENFIL_13
1070
     0
1040
0.25
1040
0.25
1040
20.0
1040
0.0
1002
{
1002
}
1001
GENIUS_GENODEF_13
1002
{
1000
HIER
1070
     0
1002
}
1002
{
1000
MANEDIT
1070
     0
1002
}
1002
{
1000
NOSEL
1070
     0
1002
}
1002
{
1000
BEHIND
1070
     0
1002
}
1002
{
1000
REACTOR
1002
}
1001
GENIUS_GENOBJ-N-CHA_13
1002
{
1000
OWNER
1000
GEN
1002
}
  0
DIMENSION
  5
2ABE
330
1F
100
AcDbEntity
  8
AM_5
100
AcDbDimension
  2
*D7
 10
7.828580472887476
 20
1.999994593319157
 30
0.0
 11
7.828580472887476
 21
6.788089831414397
 31
0.0
 70
   160
  1
%%c<>
  3
AM_JIS$0
100
AcDbAlignedDimension
 13
-0.8872850990334837
 23
-2.000005406682242
 33
0.0
 14
-0.8872850990334766
 24
1.99999459331916
 34
0.0
 50
89.99999999999991
100
AcDbRotatedDimension
1001
GENIUS_GENDTOL_13
1000

1000
h7
1000

1040
0.0
1001
ACAD
1000
DSTYLE
1002
{
1070
   271
1070
     0
1002
}
  0
LINE
  5
2B4E
330
1F
100
AcDbEntity
  8
AM_0
 48
0.5
100
AcDbLine
 10
-0.5636465378965566
 20
1.275249221808509
 30
0.0
 11
-0.8872850990334766
 21
1.99999459331916
 31
0.0
  0
ELLIPSE
  5
2B77
330
1F
100
AcDbEntity
  8
AM_0
 48
0.5
100
AcDbEllipse
 10
2.902984267539516
 20
2.009515196581947
 30
0.0
 11
3.463179528777598
 21
0.7508059886992438
 31
0.0
210
0.0
220
0.0
230
0.9999999999999998
 40
0.553472745456442
 41
3.132977998936413
 42
3.565569191650999
  0
ELLIPSE
  5
2D3A
330
1F
100
AcDbEntity
  8
AM_0
 48
0.5
100
AcDbEllipse
 10
2.902995483963563
 20
-2.009517616424395
 30
0.0
 11
3.463183719462436
 21
-0.750786658419818
 31
0.0
210
0.0
220
0.0
230
-1.0
 40
0.553472745456442
 41
3.132977998936413
 42
3.565569191650999
  0
LINE
  5
2D3B
330
1F
100
AcDbEntity
  8
AM_0
 48
0.5
100
AcDbLine
 10
-0.56363941983667
 20
-1.275270991193955
 30
0.0
 11
-0.8872850990334837
 21
-2.000005406682242
 31
0.0
  0
DIMENSION
  5
2FE5
330
1F
100
AcDbEntity
  8
AM_5
100
AcDbDimension
  2
*D8
 10
-0.082616809816005
 20
-0.5366653066859494
 30
0.0
 11
12.13390090018133
 21
-0.0000101882843411
 31
0.0
 70
    34
  1
<>
  3
AM_JIS$2
100
AcDb2LineAngularDimension
 13
0.1127123578348612
 23
-0.0000069992411522
 33
0.0
 14
-0.0826135978702517
 24
0.5366466579513109
 34
0.0
 15
0.112711722052192
 25
-0.0000057276754822
 35
0.0
 16
12.57399869837962
 26
5.375262169343646
 36
0.0
1001
GENIUS_GENDTOL_13
1000

1000
h7
1000

1040
0.0
1001
ACAD
1000
DSTYLE
1002
{
1070
   271
1070
     0
1002
}
  0
ELLIPSE
  5
36A9
330
1F
100
AcDbEntity
  8
AM_11
 48
0.5
100
AcDbEllipse
 10
0.1440944127842223
 20
6.814743043286743
 30
0.0
 11
-0.0000000000013683
 21
7.534746551513586
 31
0.0
210
0.0
220
0.0
230
1.0
 40
0.9722222222222322
 41
2.700867013135022
 42
2.862597064175711
  0
ELLIPSE
  5
36B3
330
1F
100
AcDbEntity
  8
AM_11
 48
0.5
100
AcDbEllipse
 10
-6.730903873447514
 20
7.950534880528416
 30
0.0
 11
-6.21584877794673
 21
6.215848777946733
 31
0.0
210
0.0
220
0.0
230
1.0
 40
0.9999999999999998
 41
1.915468849737753
 42
2.796918310721046
  0
ELLIPSE
  5
36B4
330
1F
100
AcDbEntity
  8
AM_11
 48
0.5
100
AcDbEllipse
 10
-6.730903873447547
 20
-7.950543152918782
 30
0.0
 11
6.215848777946732
 21
6.215848777946731
 31
0.0
210
0.0
220
0.0
230
1.0
 40
1.0
 41
0.3446733891944436
 42
1.226122850177751
  0
ELLIPSE
  5
36B5
330
1F
100
AcDbEntity
  8
AM_11
 48
0.5
100
AcDbEllipse
 10
-14.23090387344754
 20
-7.950543152918767
 30
0.0
 11
6.215848777946733
 21
6.21584877794673
 31
0.0
210
0.0
220
0.0
230
1.0
 40
1.0
 41
0.344673389194444
 42
1.22612285017775
  0
ELLIPSE
  5
36B6
330
1F
100
AcDbEntity
  8
AM_11
 48
0.5
100
AcDbEllipse
 10
-14.23090387344751
 20
7.950534880528432
 30
0.0
 11
6.215848777946733
 21
6.21584877794673
 31
0.0
210
0.0
220
0.0
230
1.0
 40
0.9999999999999996
 41
3.486265176532648
 42
4.367714637515941
  0
LINE
  5
3953
330
1F
100
AcDbEntity
  8
AM_0
 48
0.5
100
AcDbLine
 10
-2.291709852903844
 20
1.99999332175772
 30
0.0
 11
-0.8872850990334766
 21
1.99999459331916
 31
0.0
  0
LINE
  5
3954
330
1F
100
AcDbEntity
  8
AM_0
 48
0.5
100
AcDbLine
 10
-2.291709852903932
 20
-2.000006678242279
 30
0.0
 11
-0.8872850990334766
 21
-2.000005406682246
 31
0.0
  0
LINE
  5
3955
330
1F
100
AcDbEntity
  8
AM_0
 48
0.5
100
AcDbLine
 10
0.1127149009665231
 20
-0.0000069992411366
 30
0.0
 11
-1.380369222068762
 21
0.7679325714320538
 31
0.0
  0
LINE
  5
3956
330
1F
100
AcDbEntity
  8
AM_11
 48
0.5
100
AcDbLine
 10
-21.8300168685523
 20
2.000277458054532
 30
0.0
 11
-17.31277471772405
 21
1.99999332175816
 31
0.0
  0
LINE
  5
3957
330
1F
100
AcDbEntity
  8
AM_11
 48
0.5
100
AcDbLine
 10
-22.65722531378498
 20
-2.000006201843134
 30
0.0
 11
-17.45358469899711
 21
-1.999986364976325
 31
0.0
  0
LINE
  5
3958
330
1F
100
AcDbEntity
  8
AM_0
 48
0.5
100
AcDbLine
 10
-17.45045432220433
 20
-2.000016167891175
 30
0.0
 11
-9.370233090682587
 21
-2.000006678242071
 31
0.0
  0
LINE
  5
3959
330
1F
100
AcDbEntity
  8
AM_0
 48
0.5
100
AcDbLine
 10
-17.31278081441447
 20
1.99999332175816
 30
0.0
 11
-9.370233090682491
 21
1.999993321757926
 31
0.0
  0
LINE
  5
395A
330
1F
100
AcDbEntity
  8
AM_0
 48
0.5
100
AcDbLine
 10
-18.23341471308337
 20
0.9587681798235283
 30
0.0
 11
-23.38728509903346
 21
-0.1618590985724117
 31
0.0
  0
LINE
  5
395B
330
1F
100
AcDbEntity
  8
AM_11
 48
0.5
100
AcDbLine
 10
-9.370233090682587
 20
-2.000006678242071
 30
0.0
 11
-2.291709852903932
 21
-2.000006678242279
 31
0.0
  0
LINE
  5
395C
330
1F
100
AcDbEntity
  8
AM_11
 48
0.5
100
AcDbLine
 10
-9.370233090682491
 20
1.999993321757926
 30
0.0
 11
-2.291709852903844
 21
1.99999332175772
 31
0.0
  0
ELLIPSE
  5
395D
330
1F
100
AcDbEntity
  8
AM_0
 48
0.5
100
AcDbEllipse
 10
-0.825275271283326
 20
-0.5212354685256204
 30
0.0
 11
-0.2853015956832273
 21
0.1675083451832517
 31
0.0
210
0.0
220
0.0
230
0.9999999999999998
 40
0.5024869611267926
 41
4.489687630537423
 42
7.633127971866931
  0
ELLIPSE
  5
395E
330
1F
100
AcDbEntity
  8
AM_0
 48
0.5
100
AcDbEllipse
 10
-0.825275271283326
 20
-0.5212354685256204
 30
0.0
 11
-0.0569361234587315
 21
0.3283331458629342
 31
0.0
210
0.0
220
0.0
230
1.0
 40
0.495293435393543
 41
1.808118288903458
 42
4.943460178615435
  0
ELLIPSE
  5
395F
330
1F
100
AcDbEntity
  8
AM_0
 48
0.5
100
AcDbEllipse
 10
-3.661433295076566
 20
10.64931475842446
 30
0.0
 11
-0.0000000000008155
 21
11.70998183045932
 31
0.0
210
0.0
220
0.0
230
1.0
 40
0.7749999999999475
 41
3.475567835903431
 42
3.570495511853558
  0
SPLINE
  5
3960
330
1F
100
AcDbEntity
  8
AM_0
 48
0.5
100
AcDbSpline
210
0.0
220
0.0
230
1.0
 70
     8
 71
     3
 72
    10
 73
     6
 74
     0
 42
0.0000000001
 43
0.0000000001
 40
0.0
 40
0.0
 40
0.0
 40
0.0
 40
2.69986029516136
 40
4.147722969032201
 40
6.285750005020438
 40
6.285750005020438
 40
6.285750005020438
 40
6.285750005020438
 10
-2.72948189803937
 20
0.3619826609503923
 30
0.0
 10
-2.46228921341866
 20
0.1761688403274987
 30
0.0
 10
-2.051808257368886
 20
-0.1092919493075983
 30
0.0
 10
-1.081075937210446
 20
0.028904619805897
 30
0.0
 10
-1.263893068586644
 20
0.4943689507080437
 30
0.0
 10
-1.384686948334844
 20
0.7780837963084353
 30
0.0
  0
SPLINE
  5
3961
330
1F
100
AcDbEntity
  8
AM_0
100
AcDbSpline
210
0.0
220
0.0
230
1.0
 70
     8
 71
     3
 72
    11
 73
     7
 74
     0
 42
0.0000000001
 43
0.0000000001
 40
11.27226913003534
 40
11.27226913003534
 40
11.27226913003534
 40
11.2722691300354
 40
12.28301561507924
 40
13.29510212255852
 40
14.30984805882082
 40
15.18258238371378
 40
15.18258238371378
 40
15.18258238371378
 40
15.18258238371378
 10
-9.370233090682578
 20
-2.000006678242071
 30
0.0
 10
-9.494960405842675
 20
-1.990218097045861
 30
0.0
 10
-9.744179776728731
 20
-1.966520367986291
 30
0.0
 10
-10.11672191068776
 20
-1.918716186853755
 30
0.0
 10
-10.47027096475558
 20
-1.861619334014983
 30
0.0
 10
-10.69892574001353
 20
-1.817727283926468
 30
0.0
 10
-10.80429637139118
 20
-1.796045823524849
 30
0.0
  0
SPLINE
  5
3962
330
1F
100
AcDbEntity
  8
AM_0
100
AcDbSpline
210
0.0
220
0.0
230
1.0
 70
     8
 71
     3
 72
    22
 73
    18
 74
     0
 42
0.0000000001
 43
0.0000000001
 40
17.17441611292
 40
17.17441611292
 40
17.17441611292
 40
17.17441611292
 40
17.38177636558528
 40
18.41823744757437
 40
19.46215659509824
 40
20.51397914882054
 40
21.57394542641293
 40
22.64209583141747
 40
23.71826625065247
 40
24.80210429862395
 40
25.8930771157021
 40
26.99048705697709
 40
28.09349309193389
 40
29.20112995599786
 40
30.31233024745139
 40
31.42594771747373
 40
32.5407895042663
 40
32.54078950426994
 40
32.54078950426994
 40
32.54078950426994
 10
-10.80446070819411
 20
-1.796021153540144
 30
0.0
 10
-10.82962274591176
 20
-1.791391349703683
 30
0.0
 10
-10.98045542023992
 20
-1.763190708485767
 30
0.0
 10
-11.25677238022175
 20
-1.706644752448667
 30
0.0
 10
-11.63236879059452
 20
-1.619255121319891
 30
0.0
 10
-12.0079269284815
 20
-1.521886149527939
 30
0.0
 10
-12.38344944530208
 20
-1.415145638337672
 30
0.0
 10
-12.75893584501714
 20
-1.299688064900526
 30
0.0
 10
-13.13439074942883
 20
-1.176231975048307
 30
0.0
 10
-13.50981589699893
 20
-1.045536090187171
 30
0.0
 10
-13.88521476130277
 20
-0.9084064046777474
 30
0.0
 10
-14.26059151653773
 20
-0.7656889218202369
 30
0.0
 10
-14.63594942074752
 20
-0.6182612157326198
 30
0.0
 10
-15.01129225251638
 20
-0.4670302865750334
 30
0.0
 10
-15.38662333893178
 20
-0.3129260333782255
 30
0.0
 10
-15.76194824019737
 20
-0.1568993626790043
 30
0.0
 10
-16.01211572651882
 20
-0.0522555842985496
 30
0.0
 10
-16.13726819248913
 20
0.0000950470187985
 30
0.0
  0
SPLINE
  5
3963
330
1F
100
AcDbEntity
  8
AM_0
100
AcDbSpline
210
0.0
220
0.0
230
1.0
 70
     8
 71
     3
 72
    17
 73
    13
 74
     0
 42
0.0000000001
 43
0.0000000001
 40
1.580019955310467
 40
1.580019955310467
 40
1.580019955310467
 40
1.580019955310467
 40
2.030549285115227
 40
3.082371838836284
 40
4.126290986361125
 40
5.162752068350215
 40
6.192395305374981
 40
7.216039564037012
 40
8.234688489606833
 40
9.249433870634691
 40
10.26152376260694
 40
11.27226744710342
 40
11.27226744710342
 40
11.27226744710342
 40
11.27226744710352
 10
-5.830695340722559
 20
-1.476065571422896
 30
0.0
 10
-5.883860403867075
 20
-1.491267751804592
 30
0.0
 10
-6.061449576221131
 20
-1.541094928547058
 30
0.0
 10
-6.36463833370122
 20
-1.619250638114926
 30
0.0
 10
-6.740182461913023
 20
-1.706774664766856
 30
0.0
 10
-7.115829977071717
 20
-1.783609139458231
 30
0.0
 10
-7.491494704268438
 20
-1.849496034754246
 30
0.0
 10
-7.867200359463893
 20
-1.903956086196654
 30
0.0
 10
-8.242931971084979
 20
-1.946678514285435
 30
0.0
 10
-8.618686978763911
 20
-1.977386463391469
 30
0.0
 10
-8.994456124870366
 20
-1.995882262880191
 30
0.0
 10
-9.245029690556178
 20
-2.000006689686178
 30
0.0
 10
-9.370233090682546
 20
-2.000006678242071
 30
0.0
  0
SPLINE
  5
3964
330
1F
100
AcDbEntity
  8
AM_0
100
AcDbSpline
210
0.0
220
0.0
230
1.0
 70
     8
 71
     3
 72
    23
 73
    19
 74
     0
 42
0.0000000001
 43
0.0000000001
 40
16.03460024169435
 40
16.03460024169435
 40
16.03460024169435
 40
16.03460024169435
 40
16.35212704903564
 40
17.38177054169784
 40
18.41822485651776
 40
19.46214173629503
 40
20.51396345435107
 40
21.57393551351153
 40
22.64208202342361
 40
23.7182574881101
 40
24.80209208578934
 40
25.89306333925047
 40
26.99048218457928
 40
28.09348763352352
 40
29.20111863782268
 40
30.31232390128032
 40
31.42594612798585
 40
32.5407912310448
 40
32.5407912310486
 40
32.5407912310486
 40
32.5407912310486
 10
-21.8300168685523
 20
2.000277458054528
 30
0.0
 10
-21.79141120599219
 20
1.993525810253758
 30
0.0
 10
-21.6277834441235
 20
1.964124284374287
 30
0.0
 10
-21.33955137944158
 20
1.906516481651991
 30
0.0
 10
-20.96629010113088
 20
1.82085430899673
 30
0.0
 10
-20.59337552545251
 20
1.724669967543477
 30
0.0
 10
-20.22078561658677
 20
1.618520123201452
 30
0.0
 10
-19.84850715065753
 20
1.502996563729217
 30
0.0
 10
-19.47651861086164
 20
1.37875967051053
 30
0.0
 10
-19.10479409333111
 20
1.246532471100864
 30
0.0
 10
-18.73331247534372
 20
1.107063760421156
 30
0.0
 10
-18.36204397387116
 20
0.9611650744018895
 30
0.0
 10
-17.99095850175312
 20
0.8096844392415121
 30
0.0
 10
-17.62003133462303
 20
0.653492805087438
 30
0.0
 10
-17.24923143745527
 20
0.4934984049026941
 30
0.0
 10
-16.87852446632635
 20
0.3306354886033466
 30
0.0
 10
-16.50788023522432
 20
0.1658478026876123
 30
0.0
 10
-16.26085045109707
 20
0.0553666697786488
 30
0.0
 10
-16.13726819248747
 20
0.0000950470180834
 30
0.0
  0
SPLINE
  5
3965
330
1F
100
AcDbEntity
  8
AM_0
100
AcDbSpline
210
0.0
220
0.0
230
1.0
 70
     8
 71
     3
 72
    46
 73
    42
 74
     0
 42
0.0000000001
 43
0.0000000001
 40
0.0
 40
0.0
 40
0.0
 40
0.0
 40
0.5056245176053715
 40
0.759310862862336
 40
1.013969309739036
 40
1.269880374404297
 40
1.527291183660732
 40
1.786406454158005
 40
2.047386241038974
 40
2.310345544571907
 40
2.575337113970003
 40
2.842374715221223
 40
3.111417320030211
 40
3.382376832022752
 40
3.655120036292296
 40
3.929472521611371
 40
4.205224030350333
 40
4.482133246366229
 40
4.759933319229942
 40
5.038338087391601
 40
5.317048131389549
 40
5.595758175387723
 40
5.874162943549383
 40
6.151963016412869
 40
6.428872232428759
 40
6.704623741167955
 40
6.978976226486705
 40
7.251719430756336
 40
7.522680721168327
 40
7.791723325977311
 40
8.058760927228529
 40
8.32375249662655
 40
8.586708135057122
 40
8.84768792193809
 40
9.106803192435362
 40
9.364213819003406
 40
9.620125035580644
 40
9.87478726697307
 40
10.12847352585208
 40
10.38149610319407
 40
10.63418200686337
 40
10.63418200686337
 40
10.63418200686337
 40
10.63418200686337
 10
-1.239811554311442
 20
-2.000006678242309
 30
0.0
 10
-1.49039735865099
 20
-1.995450523640475
 30
0.0
 10
-1.866709259456854
 20
-1.988608415392957
 30
0.0
 10
-2.367107604256926
 20
-1.946482811875202
 30
0.0
 10
-2.742841499564062
 20
-1.904008997622027
 30
0.0
 10
-3.11854327856767
 20
-1.849479834972935
 30
0.0
 10
-3.4942119515406
 20
-1.78362041795462
 30
0.0
 10
-3.869845588599226
 20
-1.706745610687415
 30
0.0
 10
-4.245443560613621
 20
-1.61935620374084
 30
0.0
 10
-4.621004196040146
 20
-1.521988781009955
 30
0.0
 10
-4.996528245534468
 20
-1.415247251358601
 30
0.0
 10
-5.372014699051059
 20
-1.299789820538695
 30
0.0
 10
-5.74746958898069
 20
-1.176333692228264
 30
0.0
 10
-6.122894740109171
 20
-1.045637817078642
 30
0.0
 10
-6.498293604820905
 20
-0.9085081315946885
 30
0.0
 10
-6.873670354784942
 20
-0.7657906387408592
 30
0.0
 10
-7.249028279822121
 20
-0.6183629729124651
 30
0.0
 10
-7.624371033112114
 20
-0.4671318918603015
 30
0.0
 10
-7.999702594358081
 20
-0.3130281342729884
 30
0.0
 10
-8.375026392238382
 20
-0.1569993299342242
 30
0.0
 10
-8.750347035080558
 20
-0.0000066782738554
 30
0.0
 10
-9.125667677840281
 20
0.1569859735772918
 30
0.0
 10
-9.500991475967907
 20
0.3130147773440048
 30
0.0
 10
-9.876323036309884
 20
0.4671185370219228
 30
0.0
 10
-10.25166579295189
 20
0.6183496103207864
 30
0.0
 10
-10.62702370556007
 20
0.7657773048975973
 30
0.0
 10
-11.00240050155294
 20
0.9084946912859445
 30
0.0
 10
-11.37780001210586
 20
1.045625068700773
 30
0.0
 10
-11.75322662195536
 20
1.176319756412118
 30
0.0
 10
-12.12868218163896
 20
1.299776517763295
 30
0.0
 10
-12.50416862641317
 20
1.415233982937936
 30
0.0
 10
-12.87969113329736
 20
1.521974531725847
 30
0.0
 10
-13.2552492664406
 20
1.619343460648289
 30
0.0
 10
-13.63084570528928
 20
1.706733224590155
 30
0.0
 10
-14.00647912495087
 20
1.783603002303874
 30
0.0
 10
-14.38214807334108
 20
1.849481521148391
 30
0.0
 10
-14.75785225010243
 20
1.903932815454011
 30
0.0
 10
-15.13358420934806
 20
1.946705637447016
 30
0.0
 10
-15.50933941494718
 20
1.977221793688179
 30
0.0
 10
-15.88510826018074
 20
1.996424440883873
 30
0.0
 10
-16.13568192683298
 20
1.998804222910597
 30
0.0
 10
-16.26088535088302
 20
1.999993321758132
 30
0.0
  0
SPLINE
  5
3966
330
1F
100
AcDbEntity
  8
AM_0
100
AcDbSpline
210
0.0
220
0.0
230
1.0
 70
     8
 71
     3
 72
    55
 73
    51
 74
     0
 42
0.0000000001
 43
0.0000000001
 40
0.0
 40
0.0
 40
0.0
 40
0.0
 40
1.010743684496582
 40
2.022833576467832
 40
3.037578957496688
 40
4.056212745003489
 40
5.079857003664532
 40
6.109500240690281
 40
7.145961322679372
 40
8.189895241603872
 40
9.241717795325891
 40
10.30168407291828
 40
11.36983447792315
 40
12.44600489715814
 40
13.52984294512926
 40
14.62081576220742
 40
15.7182257034828
 40
16.82123173843959
 40
17.92886860250316
 40
19.0400688939571
 40
20.15368796660465
 40
21.26852814259644
 40
22.38336992938901
 40
23.49698739941135
 40
24.6081876908653
 40
25.71582455492886
 40
26.81883757994213
 40
27.91624752121713
 40
29.00722033829659
 40
30.09105838626677
 40
31.16722880550176
 40
32.23537921050758
 40
33.29534548809967
 40
34.347168041821
 40
35.39108718934584
 40
36.42754827133493
 40
37.45720575381954
 40
38.48085062012849
 40
39.49948440763516
 40
40.51422944315121
 40
41.52631975251916
 40
42.53706336719636
 40
43.54780698187354
 40
44.55989729124051
 40
45.57464232675757
 40
46.59327611426424
 40
47.6169209805722
 40
48.64656348684535
 40
49.68302456883444
 40
50.58557219878025
 40
50.58557219878025
 40
50.58557219878025
 40
50.58557219878025
 10
-2.291709852903932
 20
-2.000006678242277
 30
0.0
 10
-2.416913254682116
 20
-1.998816726695233
 30
0.0
 10
-2.667486816396774
 20
-1.996435238707092
 30
0.0
 10
-3.04325597047351
 20
-1.977237771966856
 30
0.0
 10
-3.419009084381877
 20
-1.946718814787696
 30
0.0
 10
-3.794738942861533
 20
-1.90394533557777
 30
0.0
 10
-4.170441796719938
 20
-1.849496996988203
 30
0.0
 10
-4.546110234179828
 20
-1.783615922103765
 30
0.0
 10
-4.921745511835431
 20
-1.706745909326894
 30
0.0
 10
-5.297344298560981
 20
-1.619357673836354
 30
0.0
 10
-5.672904035844259
 20
-1.521987774096732
 30
0.0
 10
-6.048426595642878
 20
-1.415247390903446
 30
0.0
 10
-6.423912983681166
 20
-1.299789782719279
 30
0.0
 10
-6.799367891360782
 20
-1.176333702483408
 30
0.0
 10
-7.174793037654139
 20
-1.045637814260125
 30
0.0
 10
-7.550191903780214
 20
-0.9085081325181784
 30
0.0
 10
-7.925568652963236
 20
-0.7657906378841877
 30
0.0
 10
-8.300926579709965
 20
-0.6183629754255313
 30
0.0
 10
-8.676269326911869
 20
-0.4671318826171122
 30
0.0
 10
-9.051600910895791
 20
-0.3130281688680122
 30
0.0
 10
-9.42692462367707
 20
-0.1569992004792925
 30
0.0
 10
-9.802245765407864
 20
-0.000007086314711
 30
0.0
 10
-10.17756522226076
 20
0.1569878538057609
 30
0.0
 10
-10.55289019304531
 20
0.3130143924107462
 30
0.0
 10
-10.92822131367738
 20
0.467118572623011
 30
0.0
 10
-11.30356473011124
 20
0.618350241554484
 30
0.0
 10
-11.67892421402271
 20
0.7657766458395777
 30
0.0
 10
-12.05430155564941
 20
0.9084948642498467
 30
0.0
 10
-12.42970047597058
 20
1.045624434793753
 30
0.0
 10
-12.80512560860342
 20
1.176320350501892
 30
0.0
 10
-13.18058051724442
 20
1.29977643091836
 30
0.0
 10
-13.55606691484666
 20
1.415234011494873
 30
0.0
 10
-13.93158943588725
 20
1.521974503679914
 30
0.0
 10
-14.30714755915273
 20
1.619343543644563
 30
0.0
 10
-14.68274402323364
 20
1.706732923702962
 30
0.0
 10
-15.05837916154805
 20
1.783604482239085
 30
0.0
 10
-15.43405028140647
 20
1.849478032590239
 30
0.0
 10
-15.80975437648094
 20
1.903943224091619
 30
0.0
 10
-16.18548434634373
 20
1.946666000862827
 30
0.0
 10
-16.56123772133678
 20
1.977370288551394
 30
0.0
 10
-16.93700655680604
 20
1.995871891571457
 30
0.0
 10
-17.31278364956759
 20
2.002052664939975
 30
0.0
 10
-17.68856074177623
 20
1.995871891561789
 30
0.0
 10
-18.06432957890743
 20
1.977370288590309
 30
0.0
 10
-18.44008294778173
 20
1.946666000716373
 30
0.0
 10
-18.81581294058522
 20
1.903943224642253
 30
0.0
 10
-19.19151511778784
 20
1.849478296046664
 30
0.0
 10
-19.56718475764506
 20
1.783605155760651
 30
0.0
 10
-19.92574058141327
 20
1.710222405783827
 30
0.0
 10
-20.15837568322388
 20
1.656556906989215
 30
0.0
 10
-20.2663048115096
 20
1.630403091465909
 30
0.0
  0
SPLINE
  5
3967
330
1F
100
AcDbEntity
  8
AM_0
 48
0.5
100
AcDbSpline
210
0.0
220
0.0
230
1.0
 70
     8
 71
     3
 72
    25
 73
    21
 74
     0
 42
0.0000000001
 43
0.0000000001
 40
6.846175049578289
 40
6.846175049578289
 40
6.846175049578289
 40
6.846175049578289
 40
7.604337694224321
 40
8.711974558287883
 40
9.814980593243754
 40
10.91239053451967
 40
12.0033633515982
 40
13.08720139956839
 40
14.16337181880432
 40
15.23152222380919
 40
16.29148850140128
 40
17.34331105512262
 40
18.38723020264746
 40
19.42369128463655
 40
20.45333379090873
 40
21.47697865721768
 40
22.49561244472435
 40
23.5103574802404
 40
24.52244778960836
 40
25.53320666051913
 40
25.53320666051913
 40
25.53320666051913
 40
25.53320666051913
 10
-2.729951265512619
 20
0.3620064154594069
 30
0.0
 10
-2.815313154323023
 20
0.3971228584725073
 30
0.0
 10
-3.025564046714374
 20
0.4831912281243623
 30
0.0
 10
-3.361016397871551
 20
0.6183495516057797
 30
0.0
 10
-3.736374281567735
 20
0.7657772993523472
 30
0.0
 10
-4.111751042255666
 20
0.9084947711167595
 30
0.0
 10
-4.487149905121285
 20
1.045624459623361
 30
0.0
 10
-4.86257505303437
 20
1.176320343504225
 30
0.0
 10
-5.238029957498302
 20
1.299776434298238
 30
0.0
 10
-5.613516356671524
 20
1.415234004968707
 30
0.0
 10
-5.989038875583241
 20
1.521974526180423
 30
0.0
 10
-6.364597005731102
 20
1.619343461046931
 30
0.0
 10
-6.740193444670406
 20
1.706733228434131
 30
0.0
 10
-7.115826866903994
 20
1.783602986696762
 30
0.0
 10
-7.491495805017898
 20
1.849481579214416
 30
0.0
 10
-7.867198168591034
 20
1.90393233211894
 30
0.0
 10
-8.2429281118455
 20
1.946706038871408
 30
0.0
 10
-8.618681493855975
 20
1.977221726410445
 30
0.0
 10
-8.994452215012817
 20
1.996424557764353
 30
0.0
 10
-9.24502777503442
 20
1.998804255865495
 30
0.0
 10
-9.370233090682491
 20
1.999993321757926
 30
0.0
  0
SPLINE
  5
3968
330
1F
100
AcDbEntity
  8
AM_0
 48
0.5
100
AcDbSpline
210
0.0
220
0.0
230
1.0
 70
     8
 71
     3
 72
    17
 73
    13
 74
     0
 42
0.0000000001
 43
0.0000000001
 40
0.0
 40
0.0
 40
0.0
 40
0.0
 40
1.010743614677189
 40
2.022833924044153
 40
3.037578959561199
 40
4.056212747067873
 40
5.079857613375832
 40
6.109500119648989
 40
7.14596120163808
 40
8.18989512056258
 40
9.241717674284874
 40
9.693948937866434
 40
9.693948937866434
 40
9.693948937866434
 40
9.693948937866434
 10
-2.291709852903852
 20
1.99999332175772
 30
0.0
 10
-2.416913277467561
 20
1.998804227747632
 30
0.0
 10
-2.66748694514772
 20
1.996424455402265
 30
0.0
 10
-3.043255782656228
 20
1.977221735458895
 30
0.0
 10
-3.41900914997978
 20
1.946706008474766
 30
0.0
 10
-3.794739148641678
 20
1.903932445319647
 30
0.0
 10
-4.170441303806452
 20
1.849481153690606
 30
0.0
 10
-4.546111026643706
 20
1.783604589262957
 30
0.0
 10
-4.921743275034359
 20
1.706726821268076
 30
0.0
 10
-5.297352625017481
 20
1.619365410639196
 30
0.0
 10
-5.600554286817478
 20
1.540665985348259
 30
0.0
 10
-5.778612079667247
 20
1.491467527068862
 30
0.0
 10
-5.832055476162059
 20
1.476408208338472
 30
0.0
  0
ELLIPSE
  5
3969
330
1F
100
AcDbEntity
  8
AM_0
 48
0.5
100
AcDbEllipse
 10
1.143106068879873
 20
2.401116368632696
 30
0.0
 11
-4.457479738624495
 21
1.135252205909385
 31
0.0
210
0.0
220
0.0
230
1.0
 40
0.9005645981561194
 41
0.7862962803428913
 42
1.189394399465056
  0
ELLIPSE
  5
396A
330
1F
100
AcDbEntity
  8
AM_0
 48
0.5
100
AcDbEllipse
 10
2.002947480335784
 20
-0.2616450132247966
 30
0.0
 11
-3.556880714146979
 21
0.2665328571208575
 31
0.0
210
0.0
220
0.0
230
1.0
 40
0.8592453212533259
 41
0.2973045215640055
 42
0.6894131167986673
  0
ELLIPSE
  5
396B
330
1F
100
AcDbEntity
  8
AM_0
 48
0.5
100
AcDbEllipse
 10
-3.662829134808679
 20
3.35671837872372
 30
0.0
 11
-2.565243781571557
 21
4.067937457895406
 31
0.0
210
0.0
220
0.0
230
1.0
 40
0.717506687820813
 41
3.021737761809671
 42
3.185884610159538
  0
SPLINE
  5
396C
330
1F
100
AcDbEntity
  8
AM_0
 48
0.5
100
AcDbSpline
210
0.0
220
0.0
230
1.0
 70
     8
 71
     3
 72
    26
 73
    22
 74
     0
 42
0.0000000001
 43
0.0000000001
 40
0.0
 40
0.0
 40
0.0
 40
0.0
 40
0.2526859211241313
 40
0.5057083941171959
 40
0.7593947393741639
 40
1.01405318625086
 40
1.26996425091637
 40
1.527375060172565
 40
1.786490330669834
 40
2.047470117551047
 40
2.310425755981314
 40
2.575417325379407
 40
2.842456731169063
 40
3.111495753801943
 40
3.382458822635121
 40
3.655202026904655
 40
3.929554512223505
 40
4.205306020962704
 40
4.482215236978595
 40
4.76001530984208
 40
5.029821427366006
 40
5.029821427366006
 40
5.029821427366006
 40
5.029821427366006
 10
-16.2637297579268
 20
-2.000109576681292
 30
0.0
 10
-16.38893315972004
 20
-1.998919625186104
 30
0.0
 10
-16.63950672146496
 20
-1.99653813730173
 30
0.0
 10
-17.01527587531517
 20
-1.977340669781735
 30
0.0
 10
-17.39102899008783
 20
-1.946821715577929
 30
0.0
 10
-17.7667588453187
 20
-1.904048225183813
 30
0.0
 10
-18.14246171139384
 20
-1.849599928651316
 30
0.0
 10
-18.51813010285476
 20
-1.783718695411807
 30
0.0
 10
-18.89376376978593
 20
-1.706849644639127
 30
0.0
 10
-19.26936015037408
 20
-1.619459640233317
 30
0.0
 10
-19.64491835667295
 20
-1.522090922570473
 30
0.0
 10
-20.02044147954064
 20
-1.415349522648163
 30
0.0
 10
-20.39592796293202
 20
-1.299894534204501
 30
0.0
 10
-20.77138206121456
 20
-1.176434186768406
 30
0.0
 10
-21.14680879446843
 20
-1.045742068651634
 30
0.0
 10
-21.52220897384971
 20
-0.9086109919224783
 30
0.0
 10
-21.89758539776943
 20
-0.7658929205708193
 30
0.0
 10
-22.27294495957403
 20
-0.6184683942838556
 30
0.0
 10
-22.64828145603004
 20
-0.4672252642241401
 30
0.0
 10
-23.01976243120365
 20
-0.3147568068421986
 30
0.0
 10
-23.26588255382413
 20
-0.2123274276696595
 30
0.0
 10
-23.38728509903347
 20
-0.1618590985724117
 30
0.0
  0
SPLINE
  5
396D
330
1F
100
AcDbEntity
  8
AM_0
100
AcDbSpline
210
0.0
220
0.0
230
1.0
 70
     8
 71
     3
 72
    13
 73
     9
 74
     0
 42
0.0000000001
 43
0.0000000001
 40
16.03460056234195
 40
16.03460056234195
 40
16.03460056234195
 40
16.03460056234195
 40
16.35212717791071
 40
17.38177067057215
 40
18.41822498539278
 40
19.46214186516937
 40
20.5139635832251
 40
21.34083983469381
 40
21.34083983469381
 40
21.34083983469381
 40
21.34083983469381
 10
-22.64413814277887
 20
-2.000109576681081
 30
0.0
 10
-22.53775317216768
 20
-1.993540018908048
 30
0.0
 10
-22.37412527490037
 20
-1.964139299711654
 30
0.0
 10
-22.08589336733819
 20
-1.906530824404751
 30
0.0
 10
-21.71263204205426
 20
-1.820868889270197
 30
0.0
 10
-21.33971747909718
 20
-1.724684483492341
 30
0.0
 10
-20.99464883092678
 20
-1.626375387981819
 30
0.0
 10
-20.77450111002004
 20
-1.558682579427619
 30
0.0
 10
-20.67792362429611
 20
-1.528084813144133
 30
0.0
  0
ELLIPSE
  5
396E
330
1F
100
AcDbEntity
  8
AM_0
 48
0.5
100
AcDbEllipse
 10
-22.64413790947791
 20
-1.333442910014443
 30
0.0
 11
-0.7431941923774978
 21
0.0000000000001423
 31
0.0
210
0.0
220
0.0
230
1.0
 40
0.8970288970288898
 41
0.0112467747893397
 42
1.570796012878544
  0
ELLIPSE
  5
396F
330
1F
100
AcDbEntity
  8
AM_0
 48
0.5
100
AcDbEllipse
 10
-22.83007254049306
 20
-1.353754901388107
 30
0.0
 11
-0.5573956442831263
 21
0.0000000000000658
 31
0.0
210
0.0
220
0.0
230
1.0
 40
0.8970288970288908
 41
4.31702882448318
 42
6.257553905069466
  0
SPLINE
  5
3970
330
1F
100
AcDbEntity
  8
AM_0
 48
0.5
100
AcDbSpline
210
0.0
220
0.0
230
1.0
 70
     8
 71
     3
 72
    22
 73
    18
 74
     0
 42
0.0000000001
 43
0.0000000001
 40
0.0
 40
0.0
 40
0.0
 40
0.0
 40
1.010743684496582
 40
2.022833993863546
 40
3.037578683882831
 40
4.056212471389632
 40
5.079857945358201
 40
6.109499720892564
 40
7.145961650132166
 40
8.189873411961459
 40
9.241710626092514
 40
10.30166235592959
 40
11.36982472628033
 40
12.44598212828784
 40
13.52983440361964
 40
14.62080578343036
 40
14.90544694398022
 40
14.90544694398022
 40
14.90544694398022
 40
14.90544694398022
 10
-17.30254367131448
 20
-2.000109576681259
 30
0.0
 10
-17.4408314822217
 20
-1.998919980634654
 30
0.0
 10
-17.69140514352057
 20
-1.996539203629629
 30
0.0
 10
-18.0671739038618
 20
-1.977336389214065
 30
0.0
 10
-18.44292742437478
 20
-1.946822570010002
 30
0.0
 10
-18.81865748264313
 20
-1.904049051369112
 30
0.0
 10
-19.19435931321197
 20
-1.849595632986442
 30
0.0
 10
-19.57002899664734
 20
-1.783720095969016
 30
0.0
 10
-19.94566102805502
 20
-1.706848251854046
 30
0.0
 10
-20.32125799041194
 20
-1.619456982220135
 30
0.0
 10
-20.69681650091469
 20
-1.52209194354503
 30
0.0
 10
-21.07233852219511
 20
-1.415345710421646
 30
0.0
 10
-21.4478264749905
 20
-1.299897557936318
 30
0.0
 10
-21.82328007726533
 20
-1.176433820468278
 30
0.0
 10
-22.19870636270058
 20
-1.04574101792382
 30
0.0
 10
-22.48086545265609
 20
-0.9426756026792803
 30
0.0
 10
-22.63809434390757
 20
-0.8837667242741479
 30
0.0
 10
-22.61539685513924
 20
-0.89232594460615
 30
0.0
  0
VIEWPORT
  5
110
330
101
100
AcDbEntity
 67
     1
  8
0
100
AcDbViewport
 10
420.5
 20
297.0
 30
0.0
 40
948.9782706766916
 41
628.452
 68
     1
 69
     1
1001
ACAD
1000
MVIEW
1002
{
1070
    16
1010
0.0
1020
0.0
1030
0.0
1010
0.0
1020
0.0
1030
1.0
1040
0.0
1040
628.452
1040
420.5
1040
297.0
1040
50.0
1040
0.0
1040
0.0
1070
     0
1070
   100
1070
     1
1070
     1
1070
     0
1070
     0
1070
     0
1070
     0
1040
0.0
1040
0.0
1040
0.0
1040
10.0
1040
10.0
1040
10.0
1040
10.0
1070
     0
1002
{
1002
}
1002
}
  0
ENDSEC
  0
SECTION
  2
OBJECTS
  0
DICTIONARY
  5
C
330
0
100
AcDbDictionary
  3
ACAD_GROUP
350
D
  3
ACAD_LAYOUT
350
1A
  3
ACAD_MLINESTYLE
350
17
  3
ACAD_PLOTSETTINGS
350
19
  3
ACAD_PLOTSTYLENAME
350
E
  3
ACDBVARIABLEDICTIONARY
350
34
  3
ACMDICTIONARY
350
43
  3
AMG
350
2B
  3
AMGSNAPSETTINGS
350
6E
  3
DWGPROPS
350
3A29
  3
ACDBHEADERROUNDTRIPXREC
350
3A35
  0
DICTIONARY
  5
74
330
1F
100
AcDbDictionary
280
     1
  3
ACAD_INDEX
360
3A2B
  3
ACAD_LAYOUTSELFREF
360
3A58
  0
DICTIONARY
  5
3A5D
330
101
100
AcDbDictionary
280
     1
  3
ACAD_LAYOUTSELFREF
360
3A5E
  0
DICTIONARY
  5
D
102
{ACAD_REACTORS
330
C
102
}
330
C
100
AcDbDictionary
  0
DICTIONARY
  5
1A
102
{ACAD_REACTORS
330
C
102
}
330
C
100
AcDbDictionary
  0
DICTIONARY
  5
17
102
{ACAD_REACTORS
330
C
102
}
330
C
100
AcDbDictionary
  3
STANDARD
350
18
  0
DICTIONARY
  5
19
102
{ACAD_REACTORS
330
C
102
}
330
C
100
AcDbDictionary
  0
ACDBDICTIONARYWDFLT
  5
E
102
{ACAD_REACTORS
330
C
102
}
330
C
100
AcDbDictionary
281
     1
  3
Normal
350
F
100
AcDbDictionaryWithDefault
340
F
  0
DICTIONARY
  5
34
102
{ACAD_REACTORS
330
C
102
}
330
C
100
AcDbDictionary
  3
INDEXCTL
350
35
  3
SORTENTS
350
B5E
  0
DICTIONARY
  5
43
102
{ACAD_REACTORS
330
C
102
}
330
C
100
AcDbDictionary
  3
ACMSTDDICTIONARY
350
260
  0
DICTIONARY
  5
2B
102
{ACAD_REACTORS
330
C
102
}
330
C
100
AcDbDictionary
  3
ACMGSETTINGS
350
2C
  0
DICTIONARY
  5
6E
102
{ACAD_REACTORS
330
C
102
}
330
C
100
AcDbDictionary
  0
XRECORD
  5
3A29
102
{ACAD_REACTORS
330
C
102
}
330
C
100
AcDbXrecord
  1
DWGPROPS COOKIE
  2

  3

  4

  6

  7

  8

  9

300
AmdtFileType=82
301
=
302
=
303
=
304
=
305
=
306
=
307
=
308
=
309
=
 40
0.0995659606481482
 41
2452800.443498622
 42
2452946.602108102
  1

 90
        1
  0
DICTIONARY
  5
3A35
102
{ACAD_REACTORS
330
C
102
}
330
C
100
AcDbDictionary
  3
TSTACKALIGN
350
3A36
  3
TSTACKSIZE
350
3A37
  3
HYPERLINKBASE
350
3A38
  3
STYLESHEET
350
3A39
  3
LAYOUTDICT
350
3A3A
  3
PLOTSETDICT
350
3A3B
  3
PLOTSTYLNAMDICT
350
3A3C
  3
LWETCUNION
350
3A3D
  3
INSUNITS
350
3A3E
  3
CEPSNTYPE
350
3A3F
  3
FINGERPRINTGUID
350
3A40
  3
VERSIONGUID
350
3A41
  3
PSVPSCALE
350
3A42
  3
DIMSTYLEDATA
350
3A43
  3
PUCSORTHOREF
350
3A44
  3
PUCSORTHOVIEW
350
3A45
  3
PUCSBASE
350
3A46
  3
PUCSORGTOP
350
3A47
  3
PUCSORGBOTTOM
350
3A48
  3
PUCSORGLEFT
350
3A49
  3
PUCSORGRIGHT
350
3A4A
  3
PUCSORGFRONT
350
3A4B
  3
PUCSORGBACK
350
3A4C
  3
UCSORTHOREF
350
3A4D
  3
UCSORTHOVIEW
350
3A4E
  3
UCSBASE
350
3A4F
  3
UCSORGTOP
350
3A50
  3
UCSORGBOTTOM
350
3A51
  3
UCSORGLEFT
350
3A52
  3
UCSORGRIGHT
350
3A53
  3
UCSORGFRONT
350
3A54
  3
UCSORGBACK
350
3A55
  0
DICTIONARY
  5
3A2B
102
{ACAD_REACTORS
330
74
102
}
330
74
100
AcDbDictionary
  3
*A1
350
3A2C
  0
XRECORD
  5
3A58
102
{ACAD_REACTORS
330
74
102
}
330
74
100
AcDbXrecord
340
1F
  0
XRECORD
  5
3A5E
102
{ACAD_REACTORS
330
3A5D
102
}
330
3A5D
100
AcDbXrecord
340
101
  0
MLINESTYLE
  5
18
102
{ACAD_REACTORS
330
17
102
}
330
17
100
AcDbMlineStyle
  2
STANDARD
 70
     0
  3

 62
   256
 51
90.0
 52
90.0
 71
     2
 49
0.5
 62
   256
  6
BYLAYER
 49
-0.5
 62
   256
  6
BYLAYER
  0
ACDBPLACEHOLDER
  5
F
102
{ACAD_REACTORS
330
E
102
}
330
E
100
AcDbPlaceHolder
280
     0
  0
DICTIONARYVAR
  5
35
102
{ACAD_REACTORS
330
34
102
}
330
34
100
DictionaryVariables
280
     0
  1
1
  0
DICTIONARYVAR
  5
B5E
102
{ACAD_REACTORS
330
34
102
}
330
34
100
DictionaryVariables
280
     0
  1
96
  0
DICTIONARY
  5
260
102
{ACAD_REACTORS
330
43
102
}
330
43
100
AcDbDictionary
  0
DICTIONARY
  5
2C
102
{ACAD_REACTORS
330
2B
102
}
330
2B
100
AcDbDictionary
  3
DWGSETTINGS
350
2D
  0
XRECORD
  5
3A36
102
{ACAD_REACTORS
330
3A35
102
}
330
3A35
100
AcDbXrecord
 90
        1
  0
XRECORD
  5
3A37
102
{ACAD_REACTORS
330
3A35
102
}
330
3A35
100
AcDbXrecord
 90
       70
  0
XRECORD
  5
3A38
102
{ACAD_REACTORS
330
3A35
102
}
330
3A35
100
AcDbXrecord
  1

  0
XRECORD
  5
3A39
102
{ACAD_REACTORS
330
3A35
102
}
330
3A35
100
AcDbXrecord
  1
ASAMI.ctb
  0
XRECORD
  5
3A3A
102
{ACAD_REACTORS
330
3A35
102
}
330
3A35
100
AcDbXrecord
340
1A
  0
XRECORD
  5
3A3B
102
{ACAD_REACTORS
330
3A35
102
}
330
3A35
100
AcDbXrecord
340
19
  0
XRECORD
  5
3A3C
102
{ACAD_REACTORS
330
3A35
102
}
330
3A35
100
AcDbXrecord
340
E
  0
XRECORD
  5
3A3D
102
{ACAD_REACTORS
330
3A35
102
}
330
3A35
100
AcDbXrecord
 90
    10781
  0
XRECORD
  5
3A3E
102
{ACAD_REACTORS
330
3A35
102
}
330
3A35
100
AcDbXrecord
 90
        4
  0
XRECORD
  5
3A3F
102
{ACAD_REACTORS
330
3A35
102
}
330
3A35
100
AcDbXrecord
 90
        0
  0
XRECORD
  5
3A40
102
{ACAD_REACTORS
330
3A35
102
}
330
3A35
100
AcDbXrecord
  1
{AFB28963-8C59-40AE-9337-C84526B81ACE}
  0
XRECORD
  5
3A41
102
{ACAD_REACTORS
330
3A35
102
}
330
3A35
100
AcDbXrecord
  1
{EF428D0D-ACCA-4984-98E0-5DD6BB317712}
  0
XRECORD
  5
3A42
102
{ACAD_REACTORS
330
3A35
102
}
330
3A35
100
AcDbXrecord
 40
0.0
  0
XRECORD
  5
3A43
102
{ACAD_REACTORS
330
3A35
102
}
330
3A35
100
AcDbXrecord
1000
DSTYLE
1002
{
1070
    79
 70
     2
1070
   341
340
59
1070
   342
340
59
1070
   371
 70
    -1
1070
   372
 70
    -1
1002
}
  0
XRECORD
  5
3A44
102
{ACAD_REACTORS
330
3A35
102
}
330
3A35
100
AcDbXrecord
340
0
  0
XRECORD
  5
3A45
102
{ACAD_REACTORS
330
3A35
102
}
330
3A35
100
AcDbXrecord
 70
     0
  0
XRECORD
  5
3A46
102
{ACAD_REACTORS
330
3A35
102
}
330
3A35
100
AcDbXrecord
340
0
  0
XRECORD
  5
3A47
102
{ACAD_REACTORS
330
3A35
102
}
330
3A35
100
AcDbXrecord
 10
0.0
 20
0.0
 30
0.0
  0
XRECORD
  5
3A48
102
{ACAD_REACTORS
330
3A35
102
}
330
3A35
100
AcDbXrecord
 10
0.0
 20
0.0
 30
0.0
  0
XRECORD
  5
3A49
102
{ACAD_REACTORS
330
3A35
102
}
330
3A35
100
AcDbXrecord
 10
0.0
 20
0.0
 30
0.0
  0
XRECORD
  5
3A4A
102
{ACAD_REACTORS
330
3A35
102
}
330
3A35
100
AcDbXrecord
 10
0.0
 20
0.0
 30
0.0
  0
XRECORD
  5
3A4B
102
{ACAD_REACTORS
330
3A35
102
}
330
3A35
100
AcDbXrecord
 10
0.0
 20
0.0
 30
0.0
  0
XRECORD
  5
3A4C
102
{ACAD_REACTORS
330
3A35
102
}
330
3A35
100
AcDbXrecord
 10
0.0
 20
0.0
 30
0.0
  0
XRECORD
  5
3A4D
102
{ACAD_REACTORS
330
3A35
102
}
330
3A35
100
AcDbXrecord
340
0
  0
XRECORD
  5
3A4E
102
{ACAD_REACTORS
330
3A35
102
}
330
3A35
100
AcDbXrecord
 70
     0
  0
XRECORD
  5
3A4F
102
{ACAD_REACTORS
330
3A35
102
}
330
3A35
100
AcDbXrecord
340
0
  0
XRECORD
  5
3A50
102
{ACAD_REACTORS
330
3A35
102
}
330
3A35
100
AcDbXrecord
 10
0.0
 20
0.0
 30
0.0
  0
XRECORD
  5
3A51
102
{ACAD_REACTORS
330
3A35
102
}
330
3A35
100
AcDbXrecord
 10
0.0
 20
0.0
 30
0.0
  0
XRECORD
  5
3A52
102
{ACAD_REACTORS
330
3A35
102
}
330
3A35
100
AcDbXrecord
 10
0.0
 20
0.0
 30
0.0
  0
XRECORD
  5
3A53
102
{ACAD_REACTORS
330
3A35
102
}
330
3A35
100
AcDbXrecord
 10
0.0
 20
0.0
 30
0.0
  0
XRECORD
  5
3A54
102
{ACAD_REACTORS
330
3A35
102
}
330
3A35
100
AcDbXrecord
 10
0.0
 20
0.0
 30
0.0
  0
XRECORD
  5
3A55
102
{ACAD_REACTORS
330
3A35
102
}
330
3A35
100
AcDbXrecord
 10
0.0
 20
0.0
 30
0.0
  0
LAYER_INDEX
  5
3A2C
102
{ACAD_REACTORS
330
3A2B
102
}
330
3A2B
100
AcDbIndex
 40
2453151.577657858
100
AcDbLayerIndex
  8
0
360
3A2D
 90
        0
  8
AM_0
360
3A2E
 90
       38
  8
AM_7
360
3A2F
 90
        1
  8
AM_11
360
3A30
 90
       25
  8
AM_5
360
3A31
 90
        4
  8
Defpoints
360
3A32
 90
        0
  8
AM_6
360
3A33
 90
        1
  0
XRECORD
  5
2D
102
{ACAD_REACTORS
330
2C
102
}
330
2C
100
AcDbXrecord
  1
VERSION
140
15.0
  1
PRODUCT
  2
AutoCAD Mechanical 2000
  0
IDBUFFER
  5
3A2D
330
0
100
AcDbIdBuffer
  0
IDBUFFER
  5
3A2E
330
0
100
AcDbIdBuffer
330
3959
330
395A
330
395D
330
395E
330
395F
330
3960
330
3961
330
3962
330
3963
330
3964
330
3965
330
3966
330
3967
330
3968
330
3969
330
396A
330
396B
330
396C
330
396D
330
396E
330
396F
330
3970
330
C1D
330
C20
330
2827
330
2828
330
2829
330
282B
330
282C
330
2964
330
2B4E
330
2B77
330
2D3A
330
2D3B
330
3953
330
3954
330
3955
330
3958
  0
IDBUFFER
  5
3A2F
330
0
100
AcDbIdBuffer
330
224B
  0
IDBUFFER
  5
3A30
330
0
100
AcDbIdBuffer
330
36A9
330
36B3
330
36B4
330
36B5
330
36B6
330
3956
330
3957
330
395B
330
395C
330
2206
330
2207
330
220B
330
220C
330
220D
330
220E
330
220F
330
2210
330
2219
330
221A
330
2228
330
2229
330
27F0
330
27F1
330
27F2
330
27F3
  0
IDBUFFER
  5
3A31
330
0
100
AcDbIdBuffer
330
2259
330
282D
330
2ABE
330
2FE5
  0
IDBUFFER
  5
3A32
330
0
100
AcDbIdBuffer
  0
IDBUFFER
  5
3A33
330
0
100
AcDbIdBuffer
330
19BD
  0
ENDSEC
  0
EOF
