  0
SECTION
  2
HEADER
  9
$ACADVER
  1
AC1014
  9
$ACADMAINTVER
 70
     9
  9
$DWGCODEPAGE
  3
ANSI_932
  9
$INSBASE
 10
0.0
 20
0.0
 30
0.0
  9
$EXTMIN
 10
-109.9000009999999
 20
-25.75000099999988
 30
-0.00000001
  9
$EXTMAX
 10
14.5863542899337
 20
14.17653580081274
 30
0.00000001
  9
$LIMMIN
 10
-118.2610573468045
 20
-38.91381283458128
  9
$LIMMAX
 10
19.64448440798253
 20
26.80456656152722
  9
$ORTHOMODE
 70
     0
  9
$REGENMODE
 70
     1
  9
$FILLMODE
 70
     1
  9
$QTEXTMODE
 70
     0
  9
$MIRRTEXT
 70
     0
  9
$DRAGMODE
 70
     2
  9
$LTSCALE
 40
1.0
  9
$OSMODE
 70
    55
  9
$ATTMODE
 70
     1
  9
$TEXTSIZE
 40
2.5
  9
$TRACEWID
 40
1.0
  9
$TEXTSTYLE
  7
STANDARD
  9
$CLAYER
  8
AM_0
  9
$CELTYPE
  6
BYLAYER
  9
$CECOLOR
 62
   256
  9
$CELTSCALE
 40
1.0
  9
$DELOBJ
 70
     1
  9
$DISPSILH
 70
     0
  9
$DIMSCALE
 40
0.5
  9
$DIMASZ
 40
2.5
  9
$DIMEXO
 40
1.0
  9
$DIMDLI
 40
12.0
  9
$DIMRND
 40
0.0
  9
$DIMDLE
 40
0.0
  9
$DIMEXE
 40
1.0
  9
$DIMTP
 40
0.1
  9
$DIMTM
 40
0.1
  9
$DIMTXT
 40
3.2
  9
$DIMCEN
 40
0.0
  9
$DIMTSZ
 40
0.0
  9
$DIMTOL
 70
     0
  9
$DIMLIM
 70
     0
  9
$DIMTIH
 70
     0
  9
$DIMTOH
 70
     0
  9
$DIMSE1
 70
     0
  9
$DIMSE2
 70
     0
  9
$DIMTAD
 70
     3
  9
$DIMZIN
 70
     8
  9
$DIMBLK
  1
OPEN30
  9
$DIMASO
 70
     1
  9
$DIMSHO
 70
     1
  9
$DIMPOST
  1

  9
$DIMAPOST
  1
"
  9
$DIMALT
 70
     0
  9
$DIMALTD
 70
     2
  9
$DIMALTF
 40
0.0393701
  9
$DIMLFAC
 40
1.0
  9
$DIMTOFL
 70
     1
  9
$DIMTVP
 40
0.0
  9
$DIMTIX
 70
     0
  9
$DIMSOXD
 70
     0
  9
$DIMSAH
 70
     0
  9
$DIMBLK1
  1

  9
$DIMBLK2
  1

  9
$DIMSTYLE
  2
AM_JIS
  9
$DIMCLRD
 70
   256
  9
$DIMCLRE
 70
   256
  9
$DIMCLRT
 70
     2
  9
$DIMTFAC
 40
0.71
  9
$DIMGAP
 40
1.5
  9
$DIMJUST
 70
     0
  9
$DIMSD1
 70
     0
  9
$DIMSD2
 70
     0
  9
$DIMTOLJ
 70
     0
  9
$DIMTZIN
 70
     0
  9
$DIMALTZ
 70
     0
  9
$DIMALTTZ
 70
     0
  9
$DIMFIT
 70
     3
  9
$DIMUPT
 70
     0
  9
$DIMUNIT
 70
     2
  9
$DIMDEC
 70
     3
  9
$DIMTDEC
 70
     3
  9
$DIMALTU
 70
     2
  9
$DIMALTTD
 70
     2
  9
$DIMTXSTY
  7
ASAMI
  9
$DIMAUNIT
 70
     0
  9
$LUNITS
 70
     2
  9
$LUPREC
 70
     2
  9
$SKETCHINC
 40
1.0
  9
$FILLETRAD
 40
2.5
  9
$AUNITS
 70
     0
  9
$AUPREC
 70
     0
  9
$MENU
  1
.
  9
$ELEVATION
 40
0.0
  9
$PELEVATION
 40
0.0
  9
$THICKNESS
 40
0.0
  9
$LIMCHECK
 70
     0
  9
$BLIPMODE
 70
     0
  9
$CHAMFERA
 40
0.25
  9
$CHAMFERB
 40
0.25
  9
$CHAMFERC
 40
20.0
  9
$CHAMFERD
 40
0.0
  9
$SKPOLY
 70
     0
  9
$TDCREATE
 40
2452800.443498622
  9
$TDUPDATE
 40
2453151.690808356
  9
$TDINDWG
 40
0.0393225579
  9
$TDUSRTIMER
 40
0.0393225579
  9
$USRTIMER
 70
     1
  9
$ANGBASE
 50
0.0
  9
$ANGDIR
 70
     0
  9
$PDMODE
 70
     3
  9
$PDSIZE
 40
0.0
  9
$PLINEWID
 40
0.0
  9
$COORDS
 70
     1
  9
$SPLFRAME
 70
     0
  9
$SPLINETYPE
 70
     6
  9
$SPLINESEGS
 70
     8
  9
$ATTDIA
 70
     1
  9
$ATTREQ
 70
     1
  9
$HANDLING
 70
 12289
  9
$HANDSEED
  5
2820
  9
$SURFTAB1
 70
     6
  9
$SURFTAB2
 70
     6
  9
$SURFTYPE
 70
     6
  9
$SURFU
 70
     6
  9
$SURFV
 70
     6
  9
$UCSNAME
  2

  9
$UCSORG
 10
0.0
 20
0.000000000000101
 30
0.0
  9
$UCSXDIR
 10
1.0
 20
0.000000000000002
 30
0.0
  9
$UCSYDIR
 10
-0.000000000000002
 20
1.0
 30
0.0
  9
$PUCSNAME
  2

  9
$PUCSORG
 10
0.0
 20
0.0
 30
0.0
  9
$PUCSXDIR
 10
1.0
 20
0.0
 30
0.0
  9
$PUCSYDIR
 10
0.0
 20
1.0
 30
0.0
  9
$USERI1
 70
     0
  9
$USERI2
 70
     0
  9
$USERI3
 70
     0
  9
$USERI4
 70
     0
  9
$USERI5
 70
     0
  9
$USERR1
 40
0.0
  9
$USERR2
 40
0.0
  9
$USERR3
 40
0.0
  9
$USERR4
 40
0.0
  9
$USERR5
 40
0.0
  9
$WORLDVIEW
 70
     1
  9
$SHADEDGE
 70
     3
  9
$SHADEDIF
 70
    70
  9
$TILEMODE
 70
     1
  9
$MAXACTVP
 70
    64
  9
$PINSBASE
 10
0.0
 20
0.0
 30
0.0
  9
$PLIMCHECK
 70
     0
  9
$PEXTMIN
 10
1.000000000000000E+20
 20
1.000000000000000E+20
 30
1.000000000000000E+20
  9
$PEXTMAX
 10
-1.000000000000000E+20
 20
-1.000000000000000E+20
 30
-1.000000000000000E+20
  9
$PLIMMIN
 10
0.0
 20
0.0
  9
$PLIMMAX
 10
841.0
 20
594.0
  9
$UNITMODE
 70
     0
  9
$VISRETAIN
 70
     1
  9
$PLINEGEN
 70
     0
  9
$PSLTSCALE
 70
     0
  9
$TREEDEPTH
 70
  3020
  9
$PICKSTYLE
 70
     0
  9
$CMLSTYLE
  2
STANDARD
  9
$CMLJUST
 70
     0
  9
$CMLSCALE
 40
20.0
  9
$PROXYGRAPHICS
 70
     1
  9
$MEASUREMENT
 70
     1
  0
ENDSEC
  0
SECTION
  2
CLASSES
  0
CLASS
  1
ACDBDICTIONARYWDFLT
  2
AcDbDictionaryWithDefault
  3
AutoCAD 2000
 90
        0
280
     0
281
     0
  0
CLASS
  1
ACDBPLACEHOLDER
  2
AcDbPlaceHolder
  3
AutoCAD 2000
 90
        0
280
     0
281
     0
  0
CLASS
  1
LAYOUT
  2
AcDbLayout
  3
AutoCAD 2000
 90
        0
280
     0
281
     0
  0
CLASS
  1
AMGSETTINGSOBJ
  2
AmgSettingsObj
  3
"AcadM|Product Description: AutoCAD Mechanical 2000|Company: Autodesk"
 90
        0
280
     0
281
     0
  0
CLASS
  1
ACME_DOCUMENT
  2
AcMeDbDoc
  3
AcMeServices
 90
        0
280
     0
281
     0
  0
CLASS
  1
ACMESCOPE
  2
AcMeScope
  3
AcMeServices
 90
        0
280
     0
281
     0
  0
CLASS
  1
ACMECOMMANDHISTORY
  2
AcMeCommandHistory
  3
AcMeServices
 90
        0
280
     0
281
     0
  0
CLASS
  1
DICTIONARYVAR
  2
AcDbDictionaryVar
  3
AutoCAD 2000
 90
        0
280
     0
281
     0
  0
CLASS
  1
ACIMSYSVARMAN
  2
AcImSysVarManager
  3
AcMeServices
 90
        0
280
     0
281
     0
  0
CLASS
  1
ACIMREALSYSVAR
  2
AcImRealSysVar
  3
AcMeServices
 90
        0
280
     0
281
     0
  0
CLASS
  1
ACIMINTSYSVAR
  2
AcImIntSysVar
  3
AcMeServices
 90
        0
280
     0
281
     0
  0
CLASS
  1
ACMEDRAWINGMAN
  2
AcMeDrawingMan
  3
AcMeServices
 90
        0
280
     0
281
     0
  0
CLASS
  1
ACMEVIEW
  2
AcMeView
  3
AcMeServices
 90
        0
280
     0
281
     0
  0
CLASS
  1
ACDBENTITYCACHE
  2
AcMeEntityCache
  3
AcMeServices
 90
        0
280
     0
281
     0
  0
CLASS
  1
GSMANAGER
  2
AcMeGSManager
  3
AcMeServices
 90
        0
280
     0
281
     0
  0
CLASS
  1
AmdtInternalReactor
  2
AmdtInternalReactor
  3
AcMeServices
 90
        0
280
     0
281
     0
  0
CLASS
  1
ACMESTATEMGR
  2
AcMeStateMgr
  3
AcMeServices
 90
        0
280
     0
281
     0
  0
CLASS
  1
ACME_DATABASE
  2
AcMeDbDatabase
  3
AcMeServices
 90
        0
280
     0
281
     0
  0
CLASS
  1
ACRFINSADJUSTERMGR
  2
AcRfInsAdjusterMgr
  3
AcMeServices
 90
        0
280
     0
281
     0
  0
CLASS
  1
ACMDATADICTIONARY
  2
AcmDataDictionary
  3
"AcmSymBB|Product Description: AutoCAD Mechanical 2000|Company: Autodesk"
 90
        0
280
     0
281
     0
  0
CLASS
  1
ACMDATAENTRYBLOCK
  2
AcmDataEntryBlock
  3
"AcmSymBB|Product Description: AutoCAD Mechanical 2000|Company: Autodesk"
 90
        0
280
     0
281
     0
  0
CLASS
  1
AMGOBJPROPCFG
  2
AmgObjPropCfg
  3
"AmgLay|Product Description: AutoCAD Mechanical 2000|Company: Autodesk"
 90
        1
280
     0
281
     0
  0
CLASS
  1
ACAMGFILTERDAT
  2
AcAmgFilterDat
  3
"AcadM|Product Description: AutoCAD Mechanical 2000|Company: Autodesk"
 90
        0
280
     0
281
     0
  0
CLASS
  1
LAYER_INDEX
  2
AcDbLayerIndex
  3
AutoCAD 2000
 90
        0
280
     0
281
     0
  0
CLASS
  1
IDBUFFER
  2
AcDbIdBuffer
  3
AutoCAD 2000
 90
        0
280
     0
281
     0
  0
CLASS
  1
ACIMSTRSYSVAR
  2
AcImStrSysVar
  3
AcMeServices
 90
        0
280
     0
281
     0
  0
CLASS
  1
ACMSTANDARDJIS
  2
AcmStandardJIS
  3
"AcmSymBB|Product Description: AutoCAD Mechanical 2000|Company: Autodesk"
 90
        0
280
     0
281
     0
  0
CLASS
  1
ACMSURFSTANDARDJIS
  2
AcmSurfTextStdJIS
  3
"AcmSymBB|Product Description: AutoCAD Mechanical 2000|Company: Autodesk"
 90
        0
280
     0
281
     0
  0
CLASS
  1
ACMFCFSTANDARDJIS
  2
AcmFCFStdJIS
  3
"AcmSymBB|Product Description: AutoCAD Mechanical 2000|Company: Autodesk"
 90
        0
280
     0
281
     0
  0
CLASS
  1
ACMWELDSTANDARDJIS
  2
AcmWeldingStdJIS
  3
"AcmSymBB|Product Description: AutoCAD Mechanical 2000|Company: Autodesk"
 90
        0
280
     0
281
     0
  0
CLASS
  1
ACMIDSTANDARDJIS
  2
AcmIdStdJIS
  3
"AcmSymBB|Product Description: AutoCAD Mechanical 2000|Company: Autodesk"
 90
        0
280
     0
281
     0
  0
CLASS
  1
ACMDATUMSTANDARDJIS
  2
AcmDatumStdJIS
  3
"AcmSymBB|Product Description: AutoCAD Mechanical 2000|Company: Autodesk"
 90
        0
280
     0
281
     0
  0
CLASS
  1
ACMBOMSTANDARDJIS
  2
AcmBOMStdJIS
  3
"AcmSymBB|Product Description: AutoCAD Mechanical 2000|Company: Autodesk"
 90
        0
280
     0
281
     0
  0
CLASS
  1
ACMSTANDARDANSI
  2
AcmStandardANSI
  3
"AcmSymBB|Product Description: AutoCAD Mechanical 2000|Company: Autodesk"
 90
        0
280
     0
281
     0
  0
CLASS
  1
ACMSURFSTANDARDANSI
  2
AcmSurfTextStdANSI
  3
"AcmSymBB|Product Description: AutoCAD Mechanical 2000|Company: Autodesk"
 90
        0
280
     0
281
     0
  0
CLASS
  1
ACMFCFSTANDARDANSI
  2
AcmFCFStdANSI
  3
"AcmSymBB|Product Description: AutoCAD Mechanical 2000|Company: Autodesk"
 90
        0
280
     0
281
     0
  0
CLASS
  1
ACMWELDSTANDARDANSI
  2
AcmWeldingStdANSI
  3
"AcmSymBB|Product Description: AutoCAD Mechanical 2000|Company: Autodesk"
 90
        0
280
     0
281
     0
  0
CLASS
  1
ACMIDSTANDARDANSI
  2
AcmIdStdANSI
  3
"AcmSymBB|Product Description: AutoCAD Mechanical 2000|Company: Autodesk"
 90
        0
280
     0
281
     0
  0
CLASS
  1
ACMDATUMSTANDARDANSI
  2
AcmDatumStdANSI
  3
"AcmSymBB|Product Description: AutoCAD Mechanical 2000|Company: Autodesk"
 90
        0
280
     0
281
     0
  0
CLASS
  1
ACMBOMSTANDARDANSI
  2
AcmBOMStdANSI
  3
"AcmSymBB|Product Description: AutoCAD Mechanical 2000|Company: Autodesk"
 90
        0
280
     0
281
     0
  0
CLASS
  1
ACMSTANDARDBSI
  2
AcmStandardBSI
  3
"AcmSymBB|Product Description: AutoCAD Mechanical 2000|Company: Autodesk"
 90
        0
280
     0
281
     0
  0
CLASS
  1
ACMSURFSTANDARDBSI
  2
AcmSurfTextStdBSI
  3
"AcmSymBB|Product Description: AutoCAD Mechanical 2000|Company: Autodesk"
 90
        0
280
     0
281
     0
  0
CLASS
  1
ACMFCFSTANDARDBSI
  2
AcmFCFStdBSI
  3
"AcmSymBB|Product Description: AutoCAD Mechanical 2000|Company: Autodesk"
 90
        0
280
     0
281
     0
  0
CLASS
  1
ACMWELDSTANDARDBSI
  2
AcmWeldingStdBSI
  3
"AcmSymBB|Product Description: AutoCAD Mechanical 2000|Company: Autodesk"
 90
        0
280
     0
281
     0
  0
CLASS
  1
ACMIDSTANDARDBSI
  2
AcmIdStdBSI
  3
"AcmSymBB|Product Description: AutoCAD Mechanical 2000|Company: Autodesk"
 90
        0
280
     0
281
     0
  0
CLASS
  1
ACMDATUMSTANDARDBSI
  2
AcmDatumStdBSI
  3
"AcmSymBB|Product Description: AutoCAD Mechanical 2000|Company: Autodesk"
 90
        0
280
     0
281
     0
  0
CLASS
  1
ACMBOMSTANDARDBSI
  2
AcmBOMStdBSI
  3
"AcmSymBB|Product Description: AutoCAD Mechanical 2000|Company: Autodesk"
 90
        0
280
     0
281
     0
  0
CLASS
  1
LONG_TRANSACTION
  2
AcDbLongTransaction
  3
AutoCAD 2000
 90
        0
280
     0
281
     0
  0
CLASS
  1
LWPOLYLINE
  2
AcDbPolyline
  3
AutoCAD 2000
 90
        0
280
     0
281
     1
  0
CLASS
  1
HATCH
  2
AcDbHatch
  3
AutoCAD 2000
 90
        0
280
     0
281
     1
  0
CLASS
  1
XRECORD
  2
AcDbXrecord
  3
AutoCAD 2000
 90
        0
280
     0
281
     0
  0
ENDSEC
  0
SECTION
  2
TABLES
  0
TABLE
  2
VPORT
  5
8
330
0
100
AcDbSymbolTable
 70
     3
  0
VPORT
  5
27EA
330
8
100
AcDbSymbolTableRecord
100
AcDbViewportTableRecord
  2
*ACTIVE
 70
     0
 10
0.0
 20
0.0
 11
1.0
 21
1.0
 12
-45.35516473047671
 22
-5.78637856046572
 13
0.0
 23
0.0
 14
2.5
 24
2.5
 15
10.0
 25
10.0
 16
0.0
 26
0.0
 36
1.0
 17
0.0
 27
0.0
 37
0.0
 40
82.84446436672313
 41
1.56570841889117
 42
50.0
 43
0.0
 44
0.0
 50
0.0
 51
0.0
 71
     0
 72
   100
 73
     1
 74
     1
 75
     0
 76
     0
 77
     0
 78
     0
  0
ENDTAB
  0
TABLE
  2
LTYPE
  5
5
330
0
100
AcDbSymbolTable
 70
    10
  0
LTYPE
  5
14
330
5
100
AcDbSymbolTableRecord
100
AcDbLinetypeTableRecord
  2
BYBLOCK
 70
     0
  3

 72
    65
 73
     0
 40
0.0
  0
LTYPE
  5
15
330
5
100
AcDbSymbolTableRecord
100
AcDbLinetypeTableRecord
  2
BYLAYER
 70
     0
  3

 72
    65
 73
     0
 40
0.0
  0
LTYPE
  5
16
330
5
100
AcDbSymbolTableRecord
100
AcDbLinetypeTableRecord
  2
CONTINUOUS
 70
     0
  3
Solid line
 72
    65
 73
     0
 40
0.0
  0
LTYPE
  5
4B
330
5
100
AcDbSymbolTableRecord
100
AcDbLinetypeTableRecord
  2
AM_ISO02W050
 70
     0
  3
__ __ __ __ __ __ __ __ __ __ __ __ __ __ __
 72
    65
 73
     2
 40
7.5
 49
6.0
 74
     0
 49
-1.5
 74
     0
  0
LTYPE
  5
4C
330
5
100
AcDbSymbolTableRecord
100
AcDbLinetypeTableRecord
  2
AM_ISO08W050
 70
     0
  3
____ . ____ . ____ . ____ . ____ . ____ . ____
 72
    65
 73
     4
 40
18.0
 49
12.0
 74
     0
 49
-1.5
 74
     0
 49
3.0
 74
     0
 49
-1.5
 74
     0
  0
LTYPE
  5
4D
330
5
100
AcDbSymbolTableRecord
100
AcDbLinetypeTableRecord
  2
AM_ISO09W050
 70
     0
  3
_____ . . _____ . . _____ . . ____ .. ____
 72
    65
 73
     6
 40
22.5
 49
12.0
 74
     0
 49
-1.5
 74
     0
 49
3.0
 74
     0
 49
-1.5
 74
     0
 49
3.0
 74
     0
 49
-1.5
 74
     0
  0
LTYPE
  5
4E
330
5
100
AcDbSymbolTableRecord
100
AcDbLinetypeTableRecord
  2
AMCONSTR
 70
     0
  3
_______________________
 72
    65
 73
     2
 40
9999.0
 49
9999.0
 74
     0
 49
0.0
 74
     0
  0
LTYPE
  5
4F
330
5
100
AcDbSymbolTableRecord
100
AcDbLinetypeTableRecord
  2
AM_ISO02W050X2
 70
     0
  3
 _ _ _ _ _ _ _ _ _ _ _ _
 72
    65
 73
     2
 40
3.75
 49
3.0
 74
     0
 49
-0.75
 74
     0
  0
LTYPE
  5
50
330
5
100
AcDbSymbolTableRecord
100
AcDbLinetypeTableRecord
  2
AM_ISO08W050X2
 70
     0
  3
__ . __ . __ . __ . __ . __
 72
    65
 73
     4
 40
9.0
 49
6.0
 74
     0
 49
-0.75
 74
     0
 49
1.5
 74
     0
 49
-0.75
 74
     0
  0
LTYPE
  5
53
330
5
100
AcDbSymbolTableRecord
100
AcDbLinetypeTableRecord
  2
AMZIGZAG
 70
     0
  3
/\/-/\/-/\/-/\/-/\/-/\/
 72
    65
 73
     2
 40
11.00009999999999
 49
0.0001
 74
     4
 75
   135
340
52
 46
0.04
 50
0.0
 44
0.0
 45
0.0
 49
-11.0
 74
     0
  0
LTYPE
  5
166
330
5
100
AcDbSymbolTableRecord
100
AcDbLinetypeTableRecord
  2
ACJISTGL
 70
     0
  3
_ _ _ _ _
 72
    65
 73
     2
 40
3.0
 49
2.0
 74
     0
 49
-1.0
 74
     0
  0
LTYPE
  5
26A
330
5
100
AcDbSymbolTableRecord
100
AcDbLinetypeTableRecord
  2
ACJISTGB
 70
     0
  3
__ . . __ . .
 72
    65
 73
     6
 40
9.0
 49
4.0
 74
     0
 49
-1.0
 74
     0
 49
1.0
 74
     0
 49
-1.0
 74
     0
 49
1.0
 74
     0
 49
-1.0
 74
     0
  0
ENDTAB
  0
TABLE
  2
LAYER
  5
2
330
0
100
AcDbSymbolTable
 70
     7
  0
LAYER
  5
10
330
2
100
AcDbSymbolTableRecord
100
AcDbLayerTableRecord
  2
0
 70
     0
 62
     7
  6
CONTINUOUS
  0
LAYER
  5
3F9
330
2
100
AcDbSymbolTableRecord
100
AcDbLayerTableRecord
  2
AM_0
 70
     0
 62
     7
  6
CONTINUOUS
  0
LAYER
  5
C7C
330
2
100
AcDbSymbolTableRecord
100
AcDbLayerTableRecord
  2
AM_7
 70
     0
 62
     4
  6
AM_ISO08W050
  0
LAYER
  5
C97
330
2
100
AcDbSymbolTableRecord
100
AcDbLayerTableRecord
  2
AM_11
 70
     0
 62
     3
  6
AM_ISO09W050
  0
LAYER
  5
CC5
330
2
100
AcDbSymbolTableRecord
100
AcDbLayerTableRecord
  2
AM_5
 70
     0
 62
     3
  6
CONTINUOUS
  0
LAYER
  5
CC7
330
2
100
AcDbSymbolTableRecord
100
AcDbLayerTableRecord
  2
DEFPOINTS
 70
     0
 62
     7
  6
CONTINUOUS
  0
LAYER
  5
19BC
330
2
100
AcDbSymbolTableRecord
100
AcDbLayerTableRecord
  2
AM_6
 70
     0
 62
     2
  6
CONTINUOUS
  0
ENDTAB
  0
TABLE
  2
STYLE
  5
3
330
0
100
AcDbSymbolTable
 70
     5
  0
STYLE
  5
11
330
3
100
AcDbSymbolTableRecord
100
AcDbTextStyleTableRecord
  2
STANDARD
 70
     0
 40
0.0
 41
1.0
 50
0.0
 71
     0
 42
2.5
  3
simplex.shx
  4
EXTFONT.SHX
  0
STYLE
  5
52
330
3
100
AcDbSymbolTableRecord
100
AcDbTextStyleTableRecord
  2

 70
     1
 40
0.0
 41
1.0
 50
0.0
 71
     0
 42
2.5
  3
ltypeshp.shx
  4

  0
STYLE
  5
6B
330
3
100
AcDbSymbolTableRecord
100
AcDbTextStyleTableRecord
  2
ASAMI
 70
     0
 40
0.0
 41
1.0
 50
0.0
 71
     0
 42
2.5
  3
simplex.shx
  4
EXTFONT.SHX
  0
STYLE
  5
262
330
3
100
AcDbSymbolTableRecord
100
AcDbTextStyleTableRecord
  2
ACJISTS
 70
     0
 40
1.0
 41
1.0
 50
0.0
 71
     0
 42
2.5
  3
simplex.shx
  4
bigfont.shx
  0
STYLE
  5
269
330
3
100
AcDbSymbolTableRecord
100
AcDbTextStyleTableRecord
  2
ACJISGDT
 70
     0
 40
0.0
 41
1.0
 50
0.0
 71
     0
 42
2.5
  3
amgdtans.shx
  4

  0
ENDTAB
  0
TABLE
  2
VIEW
  5
6
330
0
100
AcDbSymbolTable
 70
     0
  0
ENDTAB
  0
TABLE
  2
UCS
  5
7
330
0
100
AcDbSymbolTable
 70
     0
  0
ENDTAB
  0
TABLE
  2
APPID
  5
9
330
0
100
AcDbSymbolTable
 70
    16
  0
APPID
  5
12
330
9
100
AcDbSymbolTableRecord
100
AcDbRegAppTableRecord
  2
ACAD
 70
     0
  0
APPID
  5
30
330
9
100
AcDbSymbolTableRecord
100
AcDbRegAppTableRecord
  2
MCAD_NO_VIS
 70
     0
  0
APPID
  5
31
330
9
100
AcDbSymbolTableRecord
100
AcDbRegAppTableRecord
  2
ACAD_TEMP_GRAPHIC
 70
     0
  0
APPID
  5
2C2
330
9
100
AcDbSymbolTableRecord
100
AcDbRegAppTableRecord
  2
GENIUS_GENDTOL_13
 70
     0
  0
APPID
  5
339
330
9
100
AcDbSymbolTableRecord
100
AcDbRegAppTableRecord
  2
GENIUS_GENODEF_13
 70
     0
  0
APPID
  5
33A
330
9
100
AcDbSymbolTableRecord
100
AcDbRegAppTableRecord
  2
GENIUS_GENOBJ-N-RSBK_13
 70
     0
  0
APPID
  5
33B
330
9
100
AcDbSymbolTableRecord
100
AcDbRegAppTableRecord
  2
GENIUS_GENOBJ-N-LIB_13
 70
     0
  0
APPID
  5
33C
330
9
100
AcDbSymbolTableRecord
100
AcDbRegAppTableRecord
  2
GENIUS_GENSCALE_13
 70
     0
  0
APPID
  5
378
330
9
100
AcDbSymbolTableRecord
100
AcDbRegAppTableRecord
  2
GENIUS_GENDIMSH_14
 70
     0
  0
APPID
  5
C82
330
9
100
AcDbSymbolTableRecord
100
AcDbRegAppTableRecord
  2
GENIUS_GENOBJ-N-CRS_13
 70
     0
  0
APPID
  5
C83
330
9
100
AcDbSymbolTableRecord
100
AcDbRegAppTableRecord
  2
GENIUS_GENOENT_13
 70
     0
  0
APPID
  5
C84
330
9
100
AcDbSymbolTableRecord
100
AcDbRegAppTableRecord
  2
GENIUS_GENOREF_13
 70
     0
  0
APPID
  5
C85
330
9
100
AcDbSymbolTableRecord
100
AcDbRegAppTableRecord
  2
GENIUS_GENOLIS_13
 70
     0
  0
APPID
  5
CA0
330
9
100
AcDbSymbolTableRecord
100
AcDbRegAppTableRecord
  2
GENIUS_GENOBJ-N-CEN_13
 70
     0
  0
APPID
  5
1CFA
330
9
100
AcDbSymbolTableRecord
100
AcDbRegAppTableRecord
  2
GENIUS_GENFIL_13
 70
     0
  0
APPID
  5
1CFB
330
9
100
AcDbSymbolTableRecord
100
AcDbRegAppTableRecord
  2
GENIUS_GENOBJ-N-CHA_13
 70
     0
  0
ENDTAB
  0
TABLE
  2
DIMSTYLE
  5
A
330
0
100
AcDbSymbolTable
 70
     9
  0
DIMSTYLE
105
58
330
A
100
AcDbSymbolTableRecord
100
AcDbDimStyleTableRecord
  2
AM_JIS
 70
     0
  3

  4
"
  5
OPEN30
  6

  7

 40
0.5
 41
2.5
 42
1.0
 43
12.0
 44
1.0
 45
0.0
 46
0.0
 47
0.1
 48
0.1
140
3.2
141
0.0
142
0.0
143
0.0393701
144
1.0
145
0.0
146
0.71
147
1.5
 71
     0
 72
     0
 73
     0
 74
     0
 75
     0
 76
     0
 77
     3
 78
     8
170
     0
171
     2
172
     1
173
     0
174
     0
175
     0
176
   256
177
   256
178
     2
270
     2
271
     3
272
     3
273
     2
274
     2
340
6B
275
     0
280
     0
281
     0
282
     0
283
     0
284
     0
285
     0
286
     0
287
     3
288
     0
  0
DIMSTYLE
105
5F
330
A
100
AcDbSymbolTableRecord
100
AcDbDimStyleTableRecord
  2
AM_JIS$3
 70
     0
  3

  4
"
  5
OPEN30
  6

  7

 40
0.5
 41
2.5
 42
1.0
 43
10.0
 44
1.0
 45
0.0
 46
0.0
 47
0.1
 48
0.1
140
3.2
141
0.0
142
0.0
143
0.0393701
144
1.0
145
0.0
146
0.71
147
1.5
 71
     0
 72
     0
 73
     0
 74
     1
 75
     0
 76
     0
 77
     3
 78
     8
170
     0
171
     2
172
     0
173
     0
174
     0
175
     0
176
   256
177
   256
178
     2
270
     2
271
     2
272
     3
273
     2
274
     2
340
6B
275
     0
280
     0
281
     0
282
     0
283
     0
284
     0
285
     0
286
     0
287
     0
288
     1
  0
DIMSTYLE
105
60
330
A
100
AcDbSymbolTableRecord
100
AcDbDimStyleTableRecord
  2
AM_JIS$4
 70
     0
  3

  4
"
  5
OPEN30
  6

  7

 40
0.5
 41
2.5
 42
1.0
 43
10.0
 44
1.0
 45
0.0
 46
0.0
 47
0.1
 48
0.1
140
3.2
141
0.0
142
0.0
143
0.0393701
144
1.0
145
0.0
146
0.71
147
1.5
 71
     0
 72
     0
 73
     0
 74
     1
 75
     0
 76
     0
 77
     3
 78
     8
170
     0
171
     2
172
     0
173
     0
174
     0
175
     0
176
   256
177
   256
178
     2
270
     2
271
     2
272
     3
273
     2
274
     2
340
6B
275
     0
280
     0
281
     0
282
     0
283
     0
284
     0
285
     0
286
     0
287
     0
288
     1
  0
DIMSTYLE
105
61
330
A
100
AcDbSymbolTableRecord
100
AcDbDimStyleTableRecord
  2
AM_JIS$6
 70
     0
  3

  4
"
  5
OPEN30
  6

  7

 40
0.5
 41
2.5
 42
1.0
 43
10.0
 44
1.0
 45
0.0
 46
0.0
 47
0.1
 48
0.1
140
3.2
141
0.0
142
0.0
143
0.0393701
144
1.0
145
0.0
146
0.71
147
1.5
 71
     0
 72
     0
 73
     0
 74
     0
 75
     0
 76
     0
 77
     0
 78
     8
170
     0
171
     2
172
     1
173
     0
174
     0
175
     0
176
   256
177
   256
178
     2
270
     2
271
     2
272
     2
273
     2
274
     2
340
6B
275
     0
280
     0
281
     0
282
     0
283
     0
284
     0
285
     0
286
     0
287
     3
288
     0
  0
DIMSTYLE
105
62
330
A
100
AcDbSymbolTableRecord
100
AcDbDimStyleTableRecord
  2
AM_JIS$7
 70
     0
  3

  4
"
  5
OPEN30
  6

  7

 40
0.5
 41
2.5
 42
1.0
 43
10.0
 44
1.0
 45
0.0
 46
0.0
 47
0.1
 48
0.1
140
3.2
141
0.0
142
0.0
143
0.0393701
144
1.0
145
0.0
146
0.71
147
1.5
 71
     0
 72
     0
 73
     0
 74
     0
 75
     0
 76
     0
 77
     3
 78
     8
170
     0
171
     2
172
     1
173
     0
174
     0
175
     0
176
   256
177
   256
178
     2
270
     2
271
     2
272
     3
273
     2
274
     2
340
6B
275
     0
280
     0
281
     0
282
     0
283
     0
284
     0
285
     0
286
     0
287
     3
288
     0
  0
DIMSTYLE
105
63
330
A
100
AcDbSymbolTableRecord
100
AcDbDimStyleTableRecord
  2
AM_JIS$SF
 70
     0
  3

  4
"
  5
OPEN30
  6

  7

 40
0.5
 41
2.5
 42
1.0
 43
10.0
 44
1.0
 45
0.0
 46
0.0
 47
0.1
 48
0.1
140
3.2
141
0.0
142
0.0
143
0.0393701
144
1.0
145
0.0
146
0.71
147
1.5
 71
     0
 72
     0
 73
     0
 74
     0
 75
     1
 76
     1
 77
     3
 78
     8
170
     0
171
     2
172
     1
173
     0
174
     0
175
     0
176
   256
177
   256
178
     2
270
     2
271
     2
272
     2
273
     2
274
     2
340
6B
275
     0
280
     0
281
     0
282
     0
283
     0
284
     0
285
     0
286
     0
287
     3
288
     0
  0
DIMSTYLE
105
68
330
A
100
AcDbSymbolTableRecord
100
AcDbDimStyleTableRecord
  2
AM_JIS$SH
 70
     0
  3

  4
"
  5

  6
GENAXEH
  7
OPEN30
 40
0.5
 41
2.5
 42
1.0
 43
10.0
 44
1.0
 45
0.0
 46
0.0
 47
0.1
 48
0.1
140
3.2
141
0.0
142
0.0
143
0.0393701
144
2.0
145
0.0
146
0.71
147
1.5
 71
     0
 72
     0
 73
     0
 74
     0
 75
     1
 76
     1
 77
     3
 78
     8
170
     0
171
     2
172
     1
173
     1
174
     0
175
     0
176
   256
177
   256
178
     2
270
     2
271
     2
272
     2
273
     2
274
     2
340
6B
275
     0
280
     0
281
     0
282
     0
283
     0
284
     0
285
     0
286
     0
287
     3
288
     0
  0
DIMSTYLE
105
B34
102
{ACAD_REACTORS
330
2602
102
}
330
A
100
AcDbSymbolTableRecord
100
AcDbDimStyleTableRecord
  2
AM_JIS$2
 70
     0
  3

  4
"
  5
OPEN30
  6

  7

 40
0.5
 41
2.5
 42
1.0
 43
12.0
 44
1.0
 45
0.0
 46
0.0
 47
0.1
 48
0.1
140
3.2
141
0.0
142
0.0
143
0.0393701
144
1.0
145
0.0
146
0.71
147
1.5
 71
     0
 72
     0
 73
     0
 74
     0
 75
     0
 76
     0
 77
     3
 78
     8
170
     0
171
     2
172
     1
173
     0
174
     0
175
     0
176
   256
177
   256
178
     2
270
     2
271
     3
272
     3
273
     2
274
     2
340
6B
275
     0
280
     0
281
     0
282
     0
283
     0
284
     0
285
     0
286
     0
287
     3
288
     0
  0
DIMSTYLE
105
BA5
102
{ACAD_REACTORS
330
CC6
330
DF5
330
218E
330
245D
102
}
330
A
100
AcDbSymbolTableRecord
100
AcDbDimStyleTableRecord
  2
AM_JIS$0
 70
     0
  3

  4
"
  5
OPEN30
  6

  7

 40
0.5
 41
2.5
 42
0.0
 43
10.0
 44
1.0
 45
0.0
 46
0.0
 47
0.1
 48
0.1000000001
140
3.799999999999999
141
0.0
142
0.0
143
0.0393701
144
1.0
145
0.0
146
0.71
147
1.5
 71
     0
 72
     0
 73
     0
 74
     0
 75
     0
 76
     0
 77
     3
 78
     1
170
     0
171
     2
172
     1
173
     0
174
     0
175
     0
176
     3
177
     3
178
     2
270
     2
271
     2
272
     2
273
     2
274
     2
340
11
275
     1
280
     0
281
     0
282
     0
283
     0
284
     8
285
     0
286
     0
287
     0
288
     0
  0
ENDTAB
  0
TABLE
  2
BLOCK_RECORD
  5
1
330
0
100
AcDbSymbolTable
 70
    10
  0
BLOCK_RECORD
  5
1F
102
{ACAD_XDICTIONARY
360
74
102
}
330
1
100
AcDbSymbolTableRecord
100
AcDbBlockTableRecord
  2
*MODEL_SPACE
  0
BLOCK_RECORD
  5
101
102
{ACAD_XDICTIONARY
360
2813
102
}
330
1
100
AcDbSymbolTableRecord
100
AcDbBlockTableRecord
  2
*PAPER_SPACE
  0
BLOCK_RECORD
  5
59
330
1
100
AcDbSymbolTableRecord
100
AcDbBlockTableRecord
  2
_OPEN30
  0
BLOCK_RECORD
  5
64
330
1
100
AcDbSymbolTableRecord
100
AcDbBlockTableRecord
  2
GENAXEH
  0
BLOCK_RECORD
  5
CC8
330
1
100
AcDbSymbolTableRecord
100
AcDbBlockTableRecord
  2
*D5
  0
BLOCK_RECORD
  5
DF6
330
1
100
AcDbSymbolTableRecord
100
AcDbBlockTableRecord
  2
*D6
  0
BLOCK_RECORD
  5
218F
330
1
100
AcDbSymbolTableRecord
100
AcDbBlockTableRecord
  2
*D7
  0
BLOCK_RECORD
  5
245E
330
1
100
AcDbSymbolTableRecord
100
AcDbBlockTableRecord
  2
*D8
  0
BLOCK_RECORD
  5
2603
330
1
100
AcDbSymbolTableRecord
100
AcDbBlockTableRecord
  2
*D9
  0
ENDTAB
  0
ENDSEC
  0
SECTION
  2
BLOCKS
  0
BLOCK
  5
20
330
1F
100
AcDbEntity
  8
0
100
AcDbBlockBegin
  2
*MODEL_SPACE
 70
     0
 10
0.0
 20
0.0
 30
0.0
  3
*MODEL_SPACE
  1

  0
ENDBLK
  5
21
330
1F
100
AcDbEntity
  8
0
100
AcDbBlockEnd
  0
BLOCK
  5
103
330
101
100
AcDbEntity
 67
     1
  8
0
100
AcDbBlockBegin
  2
*PAPER_SPACE
 70
     0
 10
0.0
 20
0.0
 30
0.0
  3
*PAPER_SPACE
  1

  0
ENDBLK
  5
104
330
101
100
AcDbEntity
 67
     1
  8
0
100
AcDbBlockEnd
  0
BLOCK
  5
5D
330
59
100
AcDbEntity
  8
0
100
AcDbBlockBegin
  2
_OPEN30
 70
     0
 10
0.0
 20
0.0
 30
0.0
  3
_OPEN30
  1

  0
LINE
  5
5A
330
59
100
AcDbEntity
  8
0
 62
     0
100
AcDbLine
 10
-1.0
 20
0.26794919
 30
0.0
 11
0.0
 21
0.0
 31
0.0
  0
LINE
  5
5B
330
59
100
AcDbEntity
  8
0
 62
     0
100
AcDbLine
 10
0.0
 20
0.0
 30
0.0
 11
-1.0
 21
-0.26794919
 31
0.0
  0
LINE
  5
5C
330
59
100
AcDbEntity
  8
0
 62
     0
100
AcDbLine
 10
0.0
 20
0.0
 30
0.0
 11
-1.0
 21
0.0
 31
0.0
  0
ENDBLK
  5
5E
330
59
100
AcDbEntity
  8
0
100
AcDbBlockEnd
  0
BLOCK
  5
66
330
64
100
AcDbEntity
  8
0
100
AcDbBlockBegin
  2
GENAXEH
 70
     0
 10
0.0
 20
0.0
 30
0.0
  3
GENAXEH
  1

  0
LINE
  5
65
330
64
100
AcDbEntity
  8
0
100
AcDbLine
 10
-1.0
 20
0.0
 30
0.0
 11
1.0
 21
0.0
 31
0.0
  0
ENDBLK
  5
67
330
64
100
AcDbEntity
  8
0
100
AcDbBlockEnd
  0
BLOCK
  5
CD2
330
CC8
100
AcDbEntity
  8
0
100
AcDbBlockBegin
  2
*D5
 70
     1
 10
0.0
 20
0.0
 30
0.0
  3
*D5
  1

  0
LINE
  5
27AD
330
CC8
100
AcDbEntity
  8
AM_5
 62
     3
100
AcDbLine
 10
-99.0
 20
-2.352702618522066
 30
0.0
 11
-99.0
 21
-15.00000099999985
 31
0.0
  0
LINE
  5
27AE
330
CC8
100
AcDbEntity
  8
AM_5
 62
     3
100
AcDbLine
 10
-0.9999936421712753
 20
-2.099999615716036
 30
0.0
 11
-0.9999936421712762
 21
-15.00000099999985
 31
0.0
  0
LINE
  5
27AF
330
CC8
100
AcDbEntity
  8
AM_5
 62
     3
100
AcDbLine
 10
-97.75
 20
-14.50000099999984
 30
0.0
 11
-2.249993642171276
 21
-14.50000099999984
 31
0.0
  0
INSERT
  5
27B0
330
CC8
100
AcDbEntity
  8
AM_5
 62
     3
100
AcDbBlockReference
  2
_OPEN30
 10
-99.0
 20
-14.50000099999984
 30
0.0
 41
1.25
 42
1.25
 43
1.25
 50
180.0
  0
INSERT
  5
27B1
330
CC8
100
AcDbEntity
  8
AM_5
 62
     3
100
AcDbBlockReference
  2
_OPEN30
 10
-0.9999936421712762
 20
-14.50000099999984
 30
0.0
 41
1.25
 42
1.25
 43
1.25
  0
MTEXT
  5
27B2
330
CC8
100
AcDbEntity
  8
AM_5
 62
     2
100
AcDbMText
 10
-49.99999682108564
 20
-12.80000099999984
 30
0.0
 40
1.9
 41
0.0
 71
     5
 72
     1
  1
98
1001
ACAD
1000
MTEXTBEGIN
1070
    73
1070
     1
1070
    44
1040
1.0
1070
    74
1070
     0
1000
MTEXTEND
  0
POINT
  5
27B3
330
CC8
100
AcDbEntity
  8
DEFPOINTS
 62
     0
100
AcDbPoint
 10
-99.0
 20
-2.352702618522066
 30
0.0
  0
POINT
  5
27B4
330
CC8
100
AcDbEntity
  8
DEFPOINTS
 62
     0
100
AcDbPoint
 10
-0.9999936421712753
 20
-2.099999615716036
 30
0.0
  0
POINT
  5
27B5
330
CC8
100
AcDbEntity
  8
DEFPOINTS
 62
     0
100
AcDbPoint
 10
-0.9999936421712762
 20
-14.50000099999984
 30
0.0
  0
ENDBLK
  5
CD3
330
CC8
100
AcDbEntity
  8
0
100
AcDbBlockEnd
  0
BLOCK
  5
E00
330
DF6
100
AcDbEntity
  8
0
100
AcDbBlockBegin
  2
*D6
 70
     1
 10
0.0
 20
0.0
 30
0.0
  3
*D6
  1

  0
LINE
  5
27A4
330
DF6
100
AcDbEntity
  8
AM_5
 62
     3
100
AcDbLine
 10
-49.00000000000001
 20
-2.499999999999941
 30
0.0
 11
-49.00000000000001
 21
-10.00000099999981
 31
0.0
  0
LINE
  5
27A5
330
DF6
100
AcDbEntity
  8
AM_5
 62
     3
100
AcDbLine
 10
-0.9999936421712753
 20
-2.099999615716036
 30
0.0
 11
-0.9999936421712758
 21
-10.00000099999981
 31
0.0
  0
LINE
  5
27A6
330
DF6
100
AcDbEntity
  8
AM_5
 62
     3
100
AcDbLine
 10
-47.75000000000001
 20
-9.500000999999814
 30
0.0
 11
-2.249993642171276
 21
-9.500000999999814
 31
0.0
  0
INSERT
  5
27A7
330
DF6
100
AcDbEntity
  8
AM_5
 62
     3
100
AcDbBlockReference
  2
_OPEN30
 10
-49.00000000000001
 20
-9.500000999999814
 30
0.0
 41
1.25
 42
1.25
 43
1.25
 50
180.0
  0
INSERT
  5
27A8
330
DF6
100
AcDbEntity
  8
AM_5
 62
     3
100
AcDbBlockReference
  2
_OPEN30
 10
-0.9999936421712758
 20
-9.500000999999814
 30
0.0
 41
1.25
 42
1.25
 43
1.25
  0
MTEXT
  5
27A9
330
DF6
100
AcDbEntity
  8
AM_5
 62
     2
100
AcDbMText
 10
-24.99999682108564
 20
-7.800000999999814
 30
0.0
 40
1.9
 41
0.0
 71
     5
 72
     1
  1
48
1001
ACAD
1000
MTEXTBEGIN
1070
    73
1070
     1
1070
    44
1040
1.0
1070
    74
1070
     0
1000
MTEXTEND
  0
POINT
  5
27AA
330
DF6
100
AcDbEntity
  8
DEFPOINTS
 62
     0
100
AcDbPoint
 10
-49.00000000000001
 20
-2.499999999999941
 30
0.0
  0
POINT
  5
27AB
330
DF6
100
AcDbEntity
  8
DEFPOINTS
 62
     0
100
AcDbPoint
 10
-0.9999936421712753
 20
-2.099999615716036
 30
0.0
  0
POINT
  5
27AC
330
DF6
100
AcDbEntity
  8
DEFPOINTS
 62
     0
100
AcDbPoint
 10
-0.9999936421712758
 20
-9.500000999999814
 30
0.0
  0
ENDBLK
  5
E01
330
DF6
100
AcDbEntity
  8
0
100
AcDbBlockEnd
  0
BLOCK
  5
219B
330
218F
100
AcDbEntity
  8
0
100
AcDbBlockBegin
  2
*D7
 70
     1
 10
0.0
 20
0.0
 30
0.0
  3
*D7
  1

  0
LINE
  5
26E2
330
218F
100
AcDbEntity
  8
AM_5
 62
     3
100
AcDbLine
 10
-98.74999999999998
 20
2.499999999999792
 30
0.0
 11
-107.7500009999999
 21
2.499999999999774
 31
0.0
  0
LINE
  5
26E3
330
218F
100
AcDbEntity
  8
AM_5
 62
     3
100
AcDbLine
 10
-98.74999999999978
 20
-2.500000000000207
 30
0.0
 11
-107.7500009999999
 21
-2.500000000000225
 31
0.0
  0
LINE
  5
26E4
330
218F
100
AcDbEntity
  8
AM_5
 62
     3
100
AcDbLine
 10
-107.2500009999999
 20
3.749999999999775
 30
0.0
 11
-107.2500009999999
 21
4.999999999999776
 31
0.0
  0
LINE
  5
26E5
330
218F
100
AcDbEntity
  8
AM_5
 62
     3
100
AcDbLine
 10
-107.2500009999999
 20
-3.750000000000224
 30
0.0
 11
-107.2500009999999
 21
-5.000000000000223
 31
0.0
  0
LINE
  5
26E6
330
218F
100
AcDbEntity
  8
AM_5
 62
     3
100
AcDbLine
 10
-107.2500009999999
 20
2.499999999999775
 30
0.0
 11
-107.2500009999999
 21
-2.500000000000224
 31
0.0
  0
INSERT
  5
26E7
330
218F
100
AcDbEntity
  8
AM_5
 62
     3
100
AcDbBlockReference
  2
_OPEN30
 10
-107.2500009999999
 20
2.499999999999775
 30
0.0
 41
1.25
 42
1.25
 43
1.25
 50
270.0000000000001
  0
INSERT
  5
26E8
330
218F
100
AcDbEntity
  8
AM_5
 62
     3
100
AcDbBlockReference
  2
_OPEN30
 10
-107.2500009999999
 20
-2.500000000000224
 30
0.0
 41
1.25
 42
1.25
 43
1.25
 50
90.0000000000001
  0
MTEXT
  5
26E9
330
218F
100
AcDbEntity
  8
AM_5
 62
     2
100
AcDbMText
 10
-108.9500009999999
 20
-0.0000000000002135
 30
0.0
 40
1.9
 41
0.0
 71
     5
 72
     1
  1
%%c5
 11
-0.000000000000002
 21
1.0
 31
0.0
1001
ACAD
1000
MTEXTBEGIN
1070
    73
1070
     1
1070
    44
1040
1.0
1070
    74
1070
     0
1000
MTEXTEND
  0
POINT
  5
26EA
330
218F
100
AcDbEntity
  8
DEFPOINTS
 62
     0
100
AcDbPoint
 10
-98.74999999999998
 20
2.500000000000011
 30
0.0
  0
POINT
  5
26EB
330
218F
100
AcDbEntity
  8
DEFPOINTS
 62
     0
100
AcDbPoint
 10
-98.74999999999978
 20
-2.499999999999988
 30
0.0
  0
POINT
  5
26EC
330
218F
100
AcDbEntity
  8
DEFPOINTS
 62
     0
100
AcDbPoint
 10
-107.2500009999999
 20
-2.499999999999985
 30
0.0
  0
ENDBLK
  5
219C
330
218F
100
AcDbEntity
  8
0
100
AcDbBlockEnd
  0
BLOCK
  5
246A
330
245E
100
AcDbEntity
  8
0
100
AcDbBlockBegin
  2
*D8
 70
     1
 10
0.0
 20
0.0
 30
0.0
  3
*D8
  1

  0
LINE
  5
2799
330
245E
100
AcDbEntity
  8
AM_5
 62
     3
100
AcDbLine
 10
-0.9999936421712753
 20
-2.099999615716036
 30
0.0
 11
8.704574799195803
 21
-2.099999615716038
 31
0.0
  0
LINE
  5
279A
330
245E
100
AcDbEntity
  8
AM_5
 62
     3
100
AcDbLine
 10
-0.9999936421712229
 20
2.100000384283962
 30
0.0
 11
8.704574799195803
 21
2.10000038428396
 31
0.0
  0
LINE
  5
279B
330
245E
100
AcDbEntity
  8
AM_5
 62
     3
100
AcDbLine
 10
8.204574799195803
 20
-3.349999615716038
 30
0.0
 11
8.204574799195802
 21
-4.599999615716038
 31
0.0
  0
LINE
  5
279C
330
245E
100
AcDbEntity
  8
AM_5
 62
     3
100
AcDbLine
 10
8.204574799195803
 20
3.35000038428396
 30
0.0
 11
8.204574799195805
 21
11.80000038428395
 31
0.0
  0
LINE
  5
279D
330
245E
100
AcDbEntity
  8
AM_5
 62
     3
100
AcDbLine
 10
8.204574799195803
 20
-2.099999615716038
 30
0.0
 11
8.204574799195803
 21
2.10000038428396
 31
0.0
  0
INSERT
  5
279E
330
245E
100
AcDbEntity
  8
AM_5
 62
     3
100
AcDbBlockReference
  2
_OPEN30
 10
8.204574799195803
 20
-2.099999615716038
 30
0.0
 41
1.25
 42
1.25
 43
1.25
 50
90.0
  0
INSERT
  5
279F
330
245E
100
AcDbEntity
  8
AM_5
 62
     3
100
AcDbBlockReference
  2
_OPEN30
 10
8.204574799195803
 20
2.10000038428396
 30
0.0
 41
1.25
 42
1.25
 43
1.25
 50
270.0
  0
MTEXT
  5
27A0
330
245E
100
AcDbEntity
  8
AM_5
 62
     2
100
AcDbMText
 10
6.504574799195804
 20
8.200000384283962
 30
0.0
 40
1.9
 41
0.0
 71
     5
 72
     1
  1
%%c4.2
 11
0.0000000000000001
 21
1.0
 31
0.0
1001
ACAD
1000
MTEXTBEGIN
1070
    73
1070
     1
1070
    44
1040
1.0
1070
    74
1070
     0
1000
MTEXTEND
  0
POINT
  5
27A1
330
245E
100
AcDbEntity
  8
DEFPOINTS
 62
     0
100
AcDbPoint
 10
-0.9999936421712753
 20
-2.099999615716036
 30
0.0
  0
POINT
  5
27A2
330
245E
100
AcDbEntity
  8
DEFPOINTS
 62
     0
100
AcDbPoint
 10
-0.9999936421712229
 20
2.100000384283962
 30
0.0
  0
POINT
  5
27A3
330
245E
100
AcDbEntity
  8
DEFPOINTS
 62
     0
100
AcDbPoint
 10
8.204574799195803
 20
2.10000038428396
 30
0.0
  0
ENDBLK
  5
246B
330
245E
100
AcDbEntity
  8
0
100
AcDbBlockEnd
  0
BLOCK
  5
2613
330
2603
100
AcDbEntity
  8
0
100
AcDbBlockBegin
  2
*D9
 70
     1
 10
0.0
 20
0.0
 30
0.0
  3
*D9
  1

  0
LINE
  5
2815
330
2603
100
AcDbEntity
  8
AM_5
100
AcDbLine
 10
0.1710100716628686
 20
-0.4698463103928708
 30
0.0
 11
5.15983705650509
 21
-14.17653580081234
 31
0.0
  0
LINE
  5
2816
330
2603
100
AcDbEntity
  8
AM_5
100
AcDbLine
 10
0.1710100716628466
 20
0.4698463103930422
 30
0.0
 11
5.159837056504428
 21
14.17653580081274
 31
0.0
  0
ARC
  5
2817
330
2603
100
AcDbEntity
  8
AM_5
100
AcDbCircle
 10
0.0000000000000296
 20
0.0000000000000817
 30
0.0
 40
14.58635428993364
100
AcDbArc
 50
294.9115533887523
 51
65.08844661125028
  0
INSERT
  5
2818
330
2603
100
AcDbEntity
  8
AM_5
100
AcDbBlockReference
  2
_OPEN30
 10
4.988826984842251
 20
-13.70668949041938
 30
0.0
 41
1.25
 42
1.25
 43
1.25
 50
202.4557766943765
  0
INSERT
  5
2819
330
2603
100
AcDbEntity
  8
AM_5
100
AcDbBlockReference
  2
_OPEN30
 10
4.988826984841611
 20
13.70668949041978
 30
0.0
 41
1.25
 42
1.25
 43
1.25
 50
157.5442233056261
  0
MTEXT
  5
281A
330
2603
100
AcDbEntity
  8
AM_5
 62
     2
100
AcDbMText
 10
13.03635428993366
 20
0.0000000000004156
 30
0.0
 40
1.6
 41
0.0
 71
     5
 72
     1
  1
140°
  7
ASAMI
 11
-0.000000000000002
 21
1.0
 31
0.0
  0
POINT
  5
281B
330
2603
100
AcDbEntity
  8
DEFPOINTS
 62
     0
100
AcDbPoint
 10
13.39342544967937
 20
-5.777359794520862
 30
0.0
  0
POINT
  5
281C
330
2603
100
AcDbEntity
  8
DEFPOINTS
 62
     0
100
AcDbPoint
 10
-0.2325008974277924
 20
-0.6387909656858639
 30
0.0
  0
POINT
  5
281D
330
2603
100
AcDbEntity
  8
DEFPOINTS
 62
     0
100
AcDbPoint
 10
-0.2325008974278209
 20
0.6387909656860203
 30
0.0
  0
POINT
  5
281E
330
2603
100
AcDbEntity
  8
DEFPOINTS
 62
     0
100
AcDbPoint
 10
0.0000000000000231
 20
0.0000000000000995
 30
0.0
  0
POINT
  5
281F
330
2603
100
AcDbEntity
  8
DEFPOINTS
 62
     0
100
AcDbPoint
 10
0.0000000000000231
 20
0.0000000000000639
 30
0.0
  0
ENDBLK
  5
2614
330
2603
100
AcDbEntity
  8
0
100
AcDbBlockEnd
  0
ENDSEC
  0
SECTION
  2
ENTITIES
  0
LINE
  5
C30
330
1F
100
AcDbEntity
  8
AM_0
 48
0.5
100
AcDbLine
 10
-99.0
 20
-2.249999999999988
 30
0.0
 11
-98.99999999999998
 21
2.250000000000011
 31
0.0
  0
LINE
  5
C9F
330
1F
100
AcDbEntity
  8
AM_7
100
AcDbLine
 10
-100.2499999999999
 20
0.0000000000000105
 30
0.0
 11
1.204573799195808
 21
0.000000000000102
 31
0.0
1001
GENIUS_GENODEF_13
1002
{
1000
HIER
1070
     0
1002
}
1002
{
1000
MANEDIT
1070
     0
1002
}
1002
{
1000
NOSEL
1070
     0
1002
}
1002
{
1000
BEHIND
1070
     0
1002
}
1002
{
1000
REACTOR
1002
}
1001
GENIUS_GENOBJ-N-CEN_13
1002
{
1000
OWNER
1000
GEN
1002
}
  0
DIMENSION
  5
CC6
330
1F
100
AcDbEntity
  8
AM_5
100
AcDbDimension
  2
*D5
 10
-0.9999936421712762
 20
-14.50000099999984
 30
0.0
 11
-49.99999682108564
 21
-12.80000099999984
 31
0.0
 70
    32
  1
<>
  3
AM_JIS$0
100
AcDbAlignedDimension
 13
-99.0
 23
-2.352702618522066
 33
0.0
 14
-0.9999936421712753
 24
-2.099999615716036
 34
0.0
 50
0.0000000000001132
100
AcDbRotatedDimension
1001
GENIUS_GENDTOL_13
1000

1000
h7
1000

1040
0.0
1001
ACAD
1000
DSTYLE
1002
{
1070
   271
1070
     0
1002
}
  0
DIMENSION
  5
DF5
330
1F
100
AcDbEntity
  8
AM_5
100
AcDbDimension
  2
*D6
 10
-0.9999936421712758
 20
-9.500000999999814
 30
0.0
 11
-24.99999682108564
 21
-7.800000999999814
 31
0.0
 70
    32
  1
<>
  3
AM_JIS$0
100
AcDbAlignedDimension
 13
-49.00000000000001
 23
-2.499999999999941
 33
0.0
 14
-0.9999936421712753
 24
-2.099999615716036
 34
0.0
 50
0.0000000000001527
100
AcDbRotatedDimension
1001
GENIUS_GENDTOL_13
1000

1000
h7
1000

1040
0.0
1001
ACAD
1000
DSTYLE
1002
{
1070
   271
1070
     0
1002
}
  0
ARC
  5
144A
330
1F
100
AcDbEntity
  8
AM_11
 48
0.5
100
AcDbCircle
 10
-40.36613718668327
 20
-11.04241155161749
 30
0.0
 40
12.20908006032291
100
AcDbArc
 50
64.74833051131179
 51
115.2516644797366
  0
ARC
  5
144B
330
1F
100
AcDbEntity
  8
AM_11
 48
0.5
100
AcDbCircle
 10
-40.36613718668326
 20
11.0424190503925
 30
0.0
 40
12.20908006032291
100
AcDbArc
 50
244.7482808787518
 51
295.2516148471758
  0
ARC
  5
144E
330
1F
100
AcDbEntity
  8
AM_11
 48
0.5
100
AcDbCircle
 10
-29.94947052001661
 20
-11.04241155161749
 30
0.0
 40
12.20908006032291
100
AcDbArc
 50
64.74833051131179
 51
115.2516644797366
  0
ARC
  5
144F
330
1F
100
AcDbEntity
  8
AM_11
 48
0.5
100
AcDbCircle
 10
-29.94947052001661
 20
11.0424190503925
 30
0.0
 40
12.20908006032291
100
AcDbArc
 50
244.7482808787518
 51
295.2516148471758
  0
ARC
  5
1450
330
1F
100
AcDbEntity
  8
AM_11
 48
0.5
100
AcDbCircle
 10
-19.53280385335286
 20
11.0424190503925
 30
0.0
 40
12.20908006032291
100
AcDbArc
 50
244.7482808787518
 51
295.2516148471758
  0
ARC
  5
1451
330
1F
100
AcDbEntity
  8
AM_11
 48
0.5
100
AcDbCircle
 10
-19.53280385335286
 20
-11.04241155161749
 30
0.0
 40
12.20908006032291
100
AcDbArc
 50
64.74833051131179
 51
115.2516644797366
  0
ARC
  5
1452
330
1F
100
AcDbEntity
  8
AM_11
 48
0.5
100
AcDbCircle
 10
-9.116137186686197
 20
-11.04241155161749
 30
0.0
 40
12.20908006032291
100
AcDbArc
 50
64.74833051131179
 51
115.2516644797366
  0
ARC
  5
1453
330
1F
100
AcDbEntity
  8
AM_11
 48
0.5
100
AcDbCircle
 10
-9.116137186686197
 20
11.0424190503925
 30
0.0
 40
12.20908006032291
100
AcDbArc
 50
244.7482808787518
 51
295.2516148471758
  0
TEXT
  5
19BD
330
1F
100
AcDbEntity
  8
AM_6
100
AcDbText
 10
-60.8333333333333
 20
-25.75000099999988
 30
0.0
 40
2.5
  1
MDW042LHK
 50
0.0000000000001527
 72
     4
 11
-49.99999999999997
 21
-24.50000099999984
 31
0.0
100
AcDbText
  0
LINE
  5
1CF0
330
1F
100
AcDbEntity
  8
AM_0
100
AcDbLine
 10
-98.74999999999998
 20
2.500000000000011
 30
0.0
 11
-48.99999999999998
 21
2.500000000000058
 31
0.0
1001
GENIUS_GENODEF_13
1002
{
1000
HIER
1070
     0
1002
}
1002
{
1000
MANEDIT
1070
     0
1002
}
1002
{
1000
NOSEL
1070
     0
1002
}
1002
{
1000
BEHIND
1070
     0
1002
}
1002
{
1000
REACTOR
1002
}
1001
GENIUS_GENOBJ-N-CEN_13
1002
{
1000
OWNER
1000
GEN
1002
}
  0
LINE
  5
1CF4
330
1F
100
AcDbEntity
  8
AM_0
100
AcDbLine
 10
-98.75
 20
-2.499999999999988
 30
0.0
 11
-49.00000000000001
 21
-2.499999999999941
 31
0.0
1001
GENIUS_GENODEF_13
1002
{
1000
HIER
1070
     0
1002
}
1002
{
1000
MANEDIT
1070
     0
1002
}
1002
{
1000
NOSEL
1070
     0
1002
}
1002
{
1000
BEHIND
1070
     0
1002
}
1002
{
1000
REACTOR
1002
}
1001
GENIUS_GENOBJ-N-CEN_13
1002
{
1000
OWNER
1000
GEN
1002
}
  0
LINE
  5
1CFE
330
1F
100
AcDbEntity
  8
AM_0
100
AcDbLine
 10
-98.75
 20
-2.499999999999988
 30
0.0
 11
-98.75
 21
2.500000000000011
 31
0.0
  0
ARC
  5
1DAB
330
1F
100
AcDbEntity
  8
AM_11
 48
0.5
100
AcDbCircle
 10
-50.78278106749335
 20
-11.04241155161752
 30
0.0
 40
12.20908006032291
100
AcDbArc
 50
64.74833051131179
 51
115.2516644797366
  0
ARC
  5
1DAC
330
1F
100
AcDbEntity
  8
AM_11
 48
0.5
100
AcDbCircle
 10
-50.78278106749333
 20
11.04241905039247
 30
0.0
 40
12.20908006032291
100
AcDbArc
 50
244.7482808787518
 51
295.2516148471758
  0
ARC
  5
1DAD
330
1F
100
AcDbEntity
  8
AM_11
 48
0.5
100
AcDbCircle
 10
-61.19942494830343
 20
-11.04241155161755
 30
0.0
 40
12.20908006032291
100
AcDbArc
 50
64.74833051131179
 51
115.2516644797366
  0
ARC
  5
1DAE
330
1F
100
AcDbEntity
  8
AM_11
 48
0.5
100
AcDbCircle
 10
-61.19942494830342
 20
11.04241905039244
 30
0.0
 40
12.20908006032291
100
AcDbArc
 50
244.7482808787518
 51
295.2516148471758
  0
ARC
  5
1DAF
330
1F
100
AcDbEntity
  8
AM_11
 48
0.5
100
AcDbCircle
 10
-71.6160688291135
 20
-11.04241155161757
 30
0.0
 40
12.20908006032291
100
AcDbArc
 50
64.74833051131179
 51
115.2516644797366
  0
ARC
  5
1DB0
330
1F
100
AcDbEntity
  8
AM_11
 48
0.5
100
AcDbCircle
 10
-71.61606882911349
 20
11.04241905039242
 30
0.0
 40
12.20908006032291
100
AcDbArc
 50
244.7482808787518
 51
295.2516148471758
  0
LINE
  5
1EB2
330
1F
100
AcDbEntity
  8
AM_0
100
AcDbLine
 10
-98.99999999999998
 20
2.250000000000011
 30
0.0
 11
-98.74999999999998
 21
2.500000000000011
 31
0.0
1001
GENIUS_GENFIL_13
1070
     0
1040
0.25
1040
0.25
1040
20.0
1040
0.0
1002
{
1002
}
1001
GENIUS_GENODEF_13
1002
{
1000
HIER
1070
     0
1002
}
1002
{
1000
MANEDIT
1070
     0
1002
}
1002
{
1000
NOSEL
1070
     0
1002
}
1002
{
1000
BEHIND
1070
     0
1002
}
1002
{
1000
REACTOR
1002
}
1001
GENIUS_GENOBJ-N-CHA_13
1002
{
1000
OWNER
1000
GEN
1002
}
  0
LINE
  5
1EB5
330
1F
100
AcDbEntity
  8
AM_0
100
AcDbLine
 10
-99.0
 20
-2.249999999999988
 30
0.0
 11
-98.75
 21
-2.499999999999988
 31
0.0
1001
GENIUS_GENFIL_13
1070
     0
1040
0.25
1040
0.25
1040
20.0
1040
0.0
1002
{
1002
}
1001
GENIUS_GENODEF_13
1002
{
1000
HIER
1070
     0
1002
}
1002
{
1000
MANEDIT
1070
     0
1002
}
1002
{
1000
NOSEL
1070
     0
1002
}
1002
{
1000
BEHIND
1070
     0
1002
}
1002
{
1000
REACTOR
1002
}
1001
GENIUS_GENOBJ-N-CHA_13
1002
{
1000
OWNER
1000
GEN
1002
}
  0
ARC
  5
1EBF
330
1F
100
AcDbEntity
  8
AM_11
 48
0.5
100
AcDbCircle
 10
-82.03270196212015
 20
11.04241905039239
 30
0.0
 40
12.20908006032291
100
AcDbArc
 50
244.7482808787518
 51
295.2516148471758
  0
ARC
  5
1EC0
330
1F
100
AcDbEntity
  8
AM_11
 48
0.5
100
AcDbCircle
 10
-82.03270196212015
 20
-11.0424115516176
 30
0.0
 40
12.20908006032291
100
AcDbArc
 50
64.74833051131179
 51
115.2516644797366
  0
ARC
  5
1ECC
330
1F
100
AcDbEntity
  8
AM_11
 48
0.5
100
AcDbCircle
 10
-102.8659906890981
 20
-11.04241352569739
 30
0.0
 40
12.20908006032291
100
AcDbArc
 50
64.74833051131179
 51
71.53962023753722
  0
ARC
  5
1ECD
330
1F
100
AcDbEntity
  8
AM_11
 48
0.5
100
AcDbCircle
 10
-102.8659906890981
 20
11.0424170763126
 30
0.0
 40
12.20908006032291
100
AcDbArc
 50
288.4603797624627
 51
295.2516148471758
  0
ARC
  5
1ECE
330
1F
100
AcDbEntity
  8
AM_11
 48
0.5
100
AcDbCircle
 10
-92.44935755609153
 20
-11.04241352569736
 30
0.0
 40
12.20908006032291
100
AcDbArc
 50
64.74833051131179
 51
115.2516644797366
  0
ARC
  5
1ECF
330
1F
100
AcDbEntity
  8
AM_11
 48
0.5
100
AcDbCircle
 10
-92.44935755609152
 20
11.04241707631263
 30
0.0
 40
12.20908006032291
100
AcDbArc
 50
244.7482808787518
 51
295.2516148471758
  0
LINE
  5
1ED3
330
1F
100
AcDbEntity
  8
AM_0
 48
0.5
100
AcDbLine
 10
-49.00000000000001
 20
-2.499999999999941
 30
0.0
 11
-48.99999999999998
 21
2.500000000000058
 31
0.0
  0
LINE
  5
1FDE
330
1F
100
AcDbEntity
  8
AM_0
100
AcDbLine
 10
-49.00000000000001
 20
-2.499999999999941
 30
0.0
 11
-48.30717901137234
 21
-2.099999615715525
 31
0.0
  0
LINE
  5
1FDF
330
1F
100
AcDbEntity
  8
AM_0
100
AcDbLine
 10
-48.99999999999998
 20
2.500000000000058
 30
0.0
 11
-48.30718034257254
 21
2.100000384284475
 31
0.0
  0
DIMENSION
  5
218E
330
1F
100
AcDbEntity
  8
AM_5
100
AcDbDimension
  2
*D7
 10
-107.2500009999999
 20
-2.499999999999985
 30
0.0
 11
-107.2500009999999
 21
0.0000000000000065
 31
0.0
 70
   160
  1
%%c<>
 51
359.9999999999998
  3
AM_JIS$0
100
AcDbAlignedDimension
 13
-98.74999999999998
 23
2.500000000000011
 33
0.0
 14
-98.74999999999978
 24
-2.499999999999988
 34
0.0
 50
270.0000000000001
100
AcDbRotatedDimension
1001
ACAD
1000
DSTYLE
1002
{
1070
   271
1070
     0
1002
}
1001
GENIUS_GENDTOL_13
1000

1000
h7
1000

1040
0.0
  0
DIMENSION
  5
245D
330
1F
100
AcDbEntity
  8
AM_5
100
AcDbDimension
  2
*D8
 10
8.204574799195803
 20
2.10000038428396
 30
0.0
 11
8.204574799195803
 21
8.200000384283962
 31
0.0
 70
   160
  1
%%c<>
  3
AM_JIS$0
100
AcDbAlignedDimension
 13
-0.9999936421712753
 23
-2.099999615716036
 33
0.0
 14
-0.9999936421712229
 24
2.100000384283962
 34
0.0
 50
89.99999999999955
100
AcDbRotatedDimension
1001
ACAD
1000
DSTYLE
1002
{
1070
   271
1070
     1
1002
}
1001
GENIUS_GENDTOL_13
1000

1000
h7
1000

1040
0.0
  0
LINE
  5
24A9
330
1F
100
AcDbEntity
  8
AM_0
100
AcDbLine
 10
-48.30717901137266
 20
-2.099999615715717
 30
0.0
 11
-48.30718034257253
 21
2.100000384284475
 31
0.0
  0
ELLIPSE
  5
25D9
330
1F
100
AcDbEntity
  8
AM_0
 48
0.5
100
AcDbEllipse
 10
3.32132366026137
 20
2.391979645995979
 30
0.0
 11
-4.199774953921811
 21
-0.6125770303807735
 31
0.0
210
0.0
220
0.0
230
1.0
 40
0.626569248795472
 41
0.0862669406231196
 42
0.4774127955839865
  0
ELLIPSE
  5
25DA
330
1F
100
AcDbEntity
  8
AM_0
 48
0.5
100
AcDbEllipse
 10
3.321323660261378
 20
-2.391979645995773
 30
0.0
 11
-4.199774953921813
 21
0.6125770303807655
 31
0.0
210
0.0
220
0.0
230
-1.0
 40
0.626569248795472
 41
0.0862669406231196
 42
0.4774127955839865
  0
LINE
  5
25DB
330
1F
100
AcDbEntity
  8
AM_0
 48
0.5
100
AcDbLine
 10
-0.8297635614580443
 20
-1.554954929176216
 30
0.0
 11
-0.9999936421712753
 21
-2.099999615716036
 31
0.0
  0
LINE
  5
25DD
330
1F
100
AcDbEntity
  8
AM_0
100
AcDbLine
 10
-0.2325008974278209
 20
0.6387909656860203
 30
0.0
 11
0.0000000000000231
 21
0.0000000000000995
 31
0.0
  0
LINE
  5
25DE
330
1F
100
AcDbEntity
  8
AM_0
100
AcDbLine
 10
-0.2325008974277924
 20
-0.6387909656858639
 30
0.0
 11
0.0000000000000231
 21
0.0000000000000639
 31
0.0
  0
LINE
  5
25F5
330
1F
100
AcDbEntity
  8
AM_0
 48
0.5
100
AcDbLine
 10
-0.8297635614580503
 20
1.554954929176416
 30
0.0
 11
-0.9999936421712229
 21
2.100000384283962
 31
0.0
  0
DIMENSION
  5
2602
330
1F
100
AcDbEntity
  8
AM_5
100
AcDbDimension
  2
*D9
 10
0.0000000000000231
 20
0.0000000000000639
 30
0.0
 11
13.03635428993366
 21
0.0000000000003872
 31
0.0
 70
    34
  1
<>
 51
359.9999999999998
  3
AM_JIS$2
100
AcDb2LineAngularDimension
 13
-0.2325008974278209
 23
0.6387909656860203
 33
0.0
 14
0.0000000000000231
 24
0.0000000000000995
 34
0.0
 15
-0.2325008974277924
 25
-0.6387909656858639
 35
0.0
 16
13.39342544967937
 26
-5.777359794520862
 36
0.0
1001
GENIUS_GENDTOL_13
1000

1000
h7
1000

1040
0.0
1001
ACAD
1000
DSTYLE
1002
{
1070
   271
1070
     0
1002
}
  0
ELLIPSE
  5
2763
330
1F
100
AcDbEntity
  8
AM_11
 48
0.5
100
AcDbEllipse
 10
1.300529479980504
 20
11.31174634430451
 30
0.0
 11
0.0000000000004474
 21
12.50686250081859
 31
0.0
210
0.0
220
0.0
230
1.0
 40
0.9761904761904728
 41
2.700867013135235
 42
2.862597064175926
  0
LINE
  5
2764
330
1F
100
AcDbEntity
  8
AM_0
 48
0.5
100
AcDbLine
 10
0.0000000000000302
 20
0.0000000000000867
 30
0.0
 11
-1.200369724326181
 21
0.8063365492069532
 31
0.0
  0
LINE
  5
2765
330
1F
100
AcDbEntity
  8
AM_0
 48
0.5
100
AcDbLine
 10
-2.349163055420032
 20
-2.099999615716022
 30
0.0
 11
-0.9999936421712753
 21
-2.099999615716036
 31
0.0
  0
ELLIPSE
  5
2766
330
1F
100
AcDbEntity
  8
AM_0
 48
0.5
100
AcDbEllipse
 10
1.999993717482186
 20
-0.2747238915133566
 30
0.0
 11
-3.783316846291287
 21
0.1899382876230333
 31
0.0
210
0.0
220
0.0
230
1.0
 40
0.8115923405953683
 41
0.3048225826773259
 42
0.6969562868799568
  0
ELLIPSE
  5
2767
330
1F
100
AcDbEntity
  8
AM_0
 48
0.5
100
AcDbEllipse
 10
1.09022603052239
 20
2.521175559437017
 30
0.0
 11
3.31337946733873
 21
3.082767637916799
 31
0.0
210
0.0
220
0.0
230
1.0
 40
0.7350850491905577
 41
2.815774359242098
 42
3.359404497881291
  0
SPLINE
  5
2768
330
1F
100
AcDbEntity
  8
AM_0
 48
0.5
100
AcDbSpline
210
0.0
220
0.0
230
1.0
 70
     8
 71
     3
 72
    10
 73
     6
 74
     0
 42
0.0000000001
 43
0.0000000001
 40
0.0
 40
0.0
 40
0.0
 40
0.0
 40
2.69986029516136
 40
4.147722969032201
 40
6.285750005020438
 40
6.285750005020438
 40
6.285750005020438
 40
6.285750005020438
 10
-2.774139572235678
 20
0.3800891432012137
 30
0.0
 10
-2.352295347076409
 20
0.1849846315471715
 30
0.0
 10
-1.917980012933423
 20
-0.114749197569683
 30
0.0
 10
-0.8908825903141684
 20
0.0303571999994832
 30
0.0
 10
-1.084314909963824
 20
0.5190947474467399
 30
0.0
 10
-1.21212262789095
 20
0.8169953353271511
 30
0.0
  0
ELLIPSE
  5
2769
330
1F
100
AcDbEntity
  8
AM_0
 48
0.5
100
AcDbEllipse
 10
-0.7442857472114419
 20
-0.5472898927486099
 30
0.0
 11
-0.34547601384579
 21
0.1655591873960551
 31
0.0
210
0.0
220
0.0
230
0.9999999999999998
 40
0.4683822227886629
 41
4.423601235386287
 42
7.567041576715794
  0
ELLIPSE
  5
276A
330
1F
100
AcDbEntity
  8
AM_0
 48
0.5
100
AcDbEllipse
 10
-0.7442857472114419
 20
-0.5472898927486099
 30
0.0
 11
-0.0743422300601019
 21
0.3435377635251493
 31
0.0
210
0.0
220
0.0
230
0.9999999999999998
 40
0.556401220370236
 41
1.773967236072547
 42
4.909309125784523
  0
ELLIPSE
  5
276B
330
1F
100
AcDbEntity
  8
AM_0
 48
0.5
100
AcDbEllipse
 10
-4.121890184762582
 20
3.52456164686321
 30
0.0
 11
-4.082646942547857
 21
3.420287233446271
 31
0.0
210
0.0
220
0.0
230
1.0
 40
0.8260185222626221
 41
2.696084334638635
 42
2.877679820660281
  0
ELLIPSE
  5
276C
330
1F
100
AcDbEntity
  8
AM_0
 48
0.5
100
AcDbEllipse
 10
-4.2677193830617
 20
3.994431464223628
 30
0.0
 11
6.189578516456216
 21
0.0002578132262987
 31
0.0
210
0.0
220
0.0
230
1.0
 40
0.8910220266040054
 41
-0.9324115134843198
 42
-0.8100338362160076
  0
ELLIPSE
  5
276D
330
1F
100
AcDbEntity
  8
AM_0
 48
0.5
100
AcDbEllipse
 10
-40.37499364217125
 20
-1.421327206657996
 30
0.0
 11
0.6252130070255296
 21
0.0001397999854057
 31
0.0
210
0.0
220
0.0
230
1.0
 40
0.8396364534262204
 41
1.175390612036478
 42
3.115692580021954
  0
LINE
  5
276E
330
1F
100
AcDbEntity
  8
AM_0
 48
0.5
100
AcDbLine
 10
-35.51786359151207
 20
1.06403141303171
 30
0.0
 11
-41.00000000000003
 21
-0.1698366137015257
 31
0.0
  0
LINE
  5
276F
330
1F
100
AcDbEntity
  8
AM_11
 48
0.5
100
AcDbLine
 10
-25.28600247758755
 20
-2.099999615715805
 30
0.0
 11
-17.34895261186608
 21
-2.100297958826937
 31
0.0
  0
LINE
  5
2770
330
1F
100
AcDbEntity
  8
AM_0
 48
0.5
100
AcDbLine
 10
-17.34895261186607
 20
-2.099999615715895
 30
0.0
 11
-10.28621292114252
 21
-2.099999615715932
 31
0.0
  0
LINE
  5
2771
330
1F
100
AcDbEntity
  8
AM_0
100
AcDbLine
 10
-48.30717901137234
 20
-2.099999615715525
 30
0.0
 11
-40.16650772094752
 21
-2.099999615715612
 31
0.0
1001
GENIUS_GENODEF_13
1002
{
1000
HIER
1070
     0
1002
}
1002
{
1000
MANEDIT
1070
     0
1002
}
1002
{
1000
NOSEL
1070
     0
1002
}
1002
{
1000
BEHIND
1070
     0
1002
}
1002
{
1000
REACTOR
1002
}
1001
GENIUS_GENOBJ-N-CEN_13
1002
{
1000
OWNER
1000
GEN
1002
}
  0
LINE
  5
2772
330
1F
100
AcDbEntity
  8
AM_11
 48
0.5
100
AcDbLine
 10
-40.0909067789717
 20
-2.099999615715637
 30
0.0
 11
-34.19192886352547
 21
-2.099999615715704
 31
0.0
  0
LINE
  5
2773
330
1F
100
AcDbEntity
  8
AM_0
 48
0.5
100
AcDbLine
 10
-34.19193204245463
 20
-2.099999615715676
 30
0.0
 11
-25.28600247897935
 21
-2.099999615715753
 31
0.0
  0
LINE
  5
2774
330
1F
100
AcDbEntity
  8
AM_11
 48
0.5
100
AcDbLine
 10
-10.28621292114252
 20
-2.099999615715932
 30
0.0
 11
-2.349163055420032
 21
-2.099999615716022
 31
0.0
  0
SPLINE
  5
2775
330
1F
100
AcDbEntity
  8
AM_0
100
AcDbSpline
210
0.0
220
0.0
230
1.0
 70
     8
 71
     3
 72
    17
 73
    13
 74
     0
 42
0.0000000001
 43
0.0000000001
 40
1.580019955310467
 40
1.580019955310467
 40
1.580019955310467
 40
1.580019955310467
 40
2.030549285115227
 40
3.082371838836284
 40
4.126290986361125
 40
5.162752068350215
 40
6.192395305374981
 40
7.216039564037012
 40
8.234688489606833
 40
9.249433870634691
 40
10.26152376260694
 40
11.27226744710342
 40
11.27226744710342
 40
11.27226744710342
 40
11.27226744710352
 10
-6.317378366344045
 20
-1.549861453555732
 30
0.0
 10
-6.376991613785297
 20
-1.565823742956519
 30
0.0
 10
-6.576119888036584
 20
-1.618142278536108
 30
0.0
 10
-6.916081233928984
 20
-1.700205773582379
 30
0.0
 10
-7.33717365282338
 20
-1.79210600156691
 30
0.0
 10
-7.758381998066447
 20
-1.872782199992861
 30
0.0
 10
-8.179609642928852
 20
-1.941963440053685
 30
0.0
 10
-8.600883179788233
 20
-1.999146494068219
 30
0.0
 10
-9.022185821227424
 20
-2.044005043561444
 30
0.0
 10
-9.443514696341566
 20
-2.076248390122785
 30
0.0
 10
-9.864859424678277
 20
-2.095668979585949
 30
0.0
 10
-10.14582408624294
 20
-2.099999627732244
 30
0.0
 10
-10.28621292114248
 20
-2.099999615715932
 30
0.0
  0
SPLINE
  5
2776
330
1F
100
AcDbEntity
  8
AM_0
100
AcDbSpline
210
0.0
220
0.0
230
1.0
 70
     8
 71
     3
 72
    22
 73
    18
 74
     0
 42
0.0000000001
 43
0.0000000001
 40
17.17441611292
 40
17.17441611292
 40
17.17441611292
 40
17.17441611292
 40
17.38177636558528
 40
18.41823744757437
 40
19.46215659509824
 40
20.51397914882054
 40
21.57394542641293
 40
22.64209583141747
 40
23.71826625065247
 40
24.80210429862395
 40
25.8930771157021
 40
26.99048705697709
 40
28.09349309193389
 40
29.20112995599786
 40
30.31233024745139
 40
31.42594771747373
 40
32.5407895042663
 40
32.54078950426994
 40
32.54078950426994
 40
32.54078950426994
 10
-11.89439244342346
 20
-1.885814814778936
 30
0.0
 10
-11.92260628709954
 20
-1.880953520750653
 30
0.0
 10
-12.09173287146018
 20
-1.851342847471842
 30
0.0
 10
-12.40156324376378
 20
-1.791969593632896
 30
0.0
 10
-12.82271428591966
 20
-1.700210480947686
 30
0.0
 10
-13.24382241366838
 20
-1.597973060566142
 30
0.0
 10
-13.66489060000973
 20
-1.485895523816371
 30
0.0
 10
-14.08591828874192
 20
-1.364665071707369
 30
0.0
 10
-14.50691066222756
 20
-1.235036177362547
 30
0.0
 10
-14.9278696697797
 20
-1.09780549825836
 30
0.0
 10
-15.34879920627017
 20
-0.9538193284734722
 30
0.0
 10
-15.76970395216855
 20
-0.8039659714730957
 30
0.0
 10
-16.19058756067405
 20
-0.6491668800811035
 30
0.0
 10
-16.6114542686607
 20
-0.4903744044656425
 30
0.0
 10
-17.03230780674554
 20
-0.3285649386090013
 30
0.0
 10
-17.45315440950773
 20
-0.1647369343748261
 30
0.0
 10
-17.733663739917
 20
-0.0548609670753512
 30
0.0
 10
-17.87399546305425
 20
0.0001071958078608
 30
0.0
  0
SPLINE
  5
2777
330
1F
100
AcDbEntity
  8
AM_0
100
AcDbSpline
210
0.0
220
0.0
230
1.0
 70
     8
 71
     3
 72
    11
 73
     7
 74
     0
 42
0.0000000001
 43
0.0000000001
 40
11.27226913003534
 40
11.27226913003534
 40
11.27226913003534
 40
11.2722691300354
 40
12.28301561507924
 40
13.29510212255852
 40
14.30984805882082
 40
15.18258238371378
 40
15.18258238371378
 40
15.18258238371378
 40
15.18258238371378
 10
-10.28621292114251
 20
-2.099999615715932
 30
0.0
 10
-10.4260679285768
 20
-2.089721605459915
 30
0.0
 10
-10.705514150307
 20
-2.064838989947371
 30
0.0
 10
-11.12324047470957
 20
-2.014644599758216
 30
0.0
 10
-11.51967012222968
 20
-1.954692904277509
 30
0.0
 10
-11.77605754829222
 20
-1.908606251684575
 30
0.0
 10
-11.89420817484712
 20
-1.885840718262878
 30
0.0
  0
SPLINE
  5
2778
330
1F
100
AcDbEntity
  8
AM_0
100
AcDbSpline
210
0.0
220
0.0
230
1.0
 70
     8
 71
     3
 72
    13
 73
     9
 74
     0
 42
0.0000000001
 43
0.0000000001
 40
16.03460056234195
 40
16.03460056234195
 40
16.03460056234195
 40
16.03460056234195
 40
16.35212717791071
 40
17.38177067057215
 40
18.41822498539278
 40
19.46214186516937
 40
20.5139635832251
 40
21.34083983469381
 40
21.34083983469381
 40
21.34083983469381
 40
21.34083983469381
 10
-40.09071646941012
 20
-2.100190601460442
 30
0.0
 10
-40.04742845823627
 20
-2.093101580053927
 30
0.0
 10
-39.86395476797521
 20
-2.062230824897712
 30
0.0
 10
-39.54076433031391
 20
-2.001741925825458
 30
0.0
 10
-39.12223158666018
 20
-1.911796893934167
 30
0.0
 10
-38.70408766279092
 20
-1.810803267867411
 30
0.0
 10
-38.31716697670647
 20
-1.70757871758136
 30
0.0
 10
-38.07031839262096
 20
-1.636501268599444
 30
0.0
 10
-37.96202739825
 20
-1.604373614001783
 30
0.0
  0
SPLINE
  5
2779
330
1F
100
AcDbEntity
  8
AM_0
 48
0.5
100
AcDbSpline
210
0.0
220
0.0
230
1.0
 70
     8
 71
     3
 72
    22
 73
    18
 74
     0
 42
0.0000000001
 43
0.0000000001
 40
0.0
 40
0.0
 40
0.0
 40
0.0
 40
1.010743684496582
 40
2.022833993863546
 40
3.037578683882831
 40
4.056212471389632
 40
5.079857945358201
 40
6.109499720892564
 40
7.145961650132166
 40
8.189873411961459
 40
9.241710626092514
 40
10.30166235592959
 40
11.36982472628033
 40
12.44598212828784
 40
13.52983440361964
 40
14.62080578343036
 40
14.90544694398022
 40
14.90544694398022
 40
14.90544694398022
 40
14.90544694398022
 10
-34.19193204244005
 20
-2.099999615715704
 30
0.0
 10
-34.33232090601765
 20
-2.098750539866772
 30
0.0
 10
-34.61328567479191
 20
-2.096250724011502
 30
0.0
 10
-35.03462997057542
 20
-2.076087768875164
 30
0.0
 10
-35.45595717815102
 20
-2.044048258710908
 30
0.0
 10
-35.87725807783737
 20
-1.999136064137978
 30
0.0
 10
-36.29852732619599
 20
-1.941959974836181
 30
0.0
 10
-36.71976052842001
 20
-1.872790660967891
 30
0.0
 10
-37.14095151194794
 20
-1.792075224647181
 30
0.0
 10
-37.56210317303597
 20
-1.700314391531578
 30
0.0
 10
-37.98321171859358
 20
-1.598081100922726
 30
0.0
 10
-38.40427934929265
 20
-1.485997556143178
 30
0.0
 10
-38.82530877947226
 20
-1.364776996033588
 30
0.0
 10
-39.24629969288993
 20
-1.235140071692153
 30
0.0
 10
-39.66725997631447
 20
-1.097912629020482
 30
0.0
 10
-39.9836410478763
 20
-0.9896939430137175
 30
0.0
 10
-40.15993962150179
 20
-0.9278396206883346
 30
0.0
 10
-40.19639230415367
 20
-0.9149868430771329
 30
0.0
  0
SPLINE
  5
277A
330
1F
100
AcDbEntity
  8
AM_0
100
AcDbSpline
210
0.0
220
0.0
230
1.0
 70
     8
 71
     3
 72
    22
 73
    18
 74
     0
 42
0.0000000001
 43
0.0000000001
 40
17.17441611292
 40
17.17441611292
 40
17.17441611292
 40
17.17441611292
 40
17.38177636558528
 40
18.41823744757437
 40
19.46215659509824
 40
20.51397914882054
 40
21.57394542641293
 40
22.64209583141747
 40
23.71826625065247
 40
24.80210429862395
 40
25.8930771157021
 40
26.99048705697709
 40
28.09349309193389
 40
29.20112995599786
 40
30.31233024745139
 40
31.42594771747373
 40
32.5407895042663
 40
32.54078950426994
 40
32.54078950426994
 40
32.54078950426994
 10
-26.89418199986951
 20
-1.88581481477881
 30
0.0
 10
-26.92239584354559
 20
-1.880953520750526
 30
0.0
 10
-27.09152242790622
 20
-1.851342847471716
 30
0.0
 10
-27.40135280020982
 20
-1.791969593632769
 30
0.0
 10
-27.8225038423657
 20
-1.700210480947559
 30
0.0
 10
-28.24361197011443
 20
-1.597973060566015
 30
0.0
 10
-28.66468015645578
 20
-1.485895523816245
 30
0.0
 10
-29.08570784518797
 20
-1.364665071707243
 30
0.0
 10
-29.50670021867361
 20
-1.23503617736242
 30
0.0
 10
-29.92765922622576
 20
-1.097805498258232
 30
0.0
 10
-30.34858876271623
 20
-0.9538193284733459
 30
0.0
 10
-30.76949350861459
 20
-0.8039659714729692
 30
0.0
 10
-31.1903771171201
 20
-0.6491668800809768
 30
0.0
 10
-31.61124382510675
 20
-0.4903744044655162
 30
0.0
 10
-32.03209736319159
 20
-0.3285649386088749
 30
0.0
 10
-32.45294396595378
 20
-0.1647369343746995
 30
0.0
 10
-32.73345329636305
 20
-0.0548609670752248
 30
0.0
 10
-32.87378501950029
 20
0.0001071958079873
 30
0.0
  0
SPLINE
  5
277B
330
1F
100
AcDbEntity
  8
AM_0
100
AcDbSpline
210
0.0
220
0.0
230
1.0
 70
     8
 71
     3
 72
    17
 73
    13
 74
     0
 42
0.0000000001
 43
0.0000000001
 40
1.580019955310467
 40
1.580019955310467
 40
1.580019955310467
 40
1.580019955310467
 40
2.030549285115227
 40
3.082371838836284
 40
4.126290986361125
 40
5.162752068350215
 40
6.192395305374981
 40
7.216039564037012
 40
8.234688489606833
 40
9.249433870634691
 40
10.26152376260694
 40
11.27226744710342
 40
11.27226744710342
 40
11.27226744710342
 40
11.27226744710352
 10
-21.31716792279009
 20
-1.549861453555606
 30
0.0
 10
-21.37678117023134
 20
-1.565823742956391
 30
0.0
 10
-21.57590944448262
 20
-1.618142278535982
 30
0.0
 10
-21.91587079037502
 20
-1.700205773582253
 30
0.0
 10
-22.33696320926942
 20
-1.792106001566784
 30
0.0
 10
-22.75817155451249
 20
-1.872782199992734
 30
0.0
 10
-23.17939919937489
 20
-1.941963440053558
 30
0.0
 10
-23.60067273623427
 20
-1.999146494068092
 30
0.0
 10
-24.02197537767346
 20
-2.044005043561316
 30
0.0
 10
-24.4433042527876
 20
-2.07624839012266
 30
0.0
 10
-24.86464898112432
 20
-2.095668979585824
 30
0.0
 10
-25.14561364268899
 20
-2.099999627732116
 30
0.0
 10
-25.28600247758852
 20
-2.099999615715806
 30
0.0
  0
SPLINE
  5
277C
330
1F
100
AcDbEntity
  8
AM_0
100
AcDbSpline
210
0.0
220
0.0
230
1.0
 70
     8
 71
     3
 72
    11
 73
     7
 74
     0
 42
0.0000000001
 43
0.0000000001
 40
11.27226913003534
 40
11.27226913003534
 40
11.27226913003534
 40
11.2722691300354
 40
12.28301561507924
 40
13.29510212255852
 40
14.30984805882082
 40
15.18258238371378
 40
15.18258238371378
 40
15.18258238371378
 40
15.18258238371378
 10
-25.28600247758855
 20
-2.099999615715806
 30
0.0
 10
-25.42585748502284
 20
-2.089721605459788
 30
0.0
 10
-25.70530370675305
 20
-2.064838989947244
 30
0.0
 10
-26.12303003115561
 20
-2.014644599758089
 30
0.0
 10
-26.51945967867572
 20
-1.954692904277382
 30
0.0
 10
-26.77584710473826
 20
-1.908606251684447
 30
0.0
 10
-26.89399773129316
 20
-1.885840718262752
 30
0.0
  0
SPLINE
  5
277D
330
1F
100
AcDbEntity
  8
AM_0
 48
0.5
100
AcDbSpline
210
0.0
220
0.0
230
1.0
 70
     8
 71
     3
 72
    26
 73
    22
 74
     0
 42
0.0000000001
 43
0.0000000001
 40
0.0
 40
0.0
 40
0.0
 40
0.0
 40
0.4211432018735474
 40
0.8428473235286537
 40
1.265657898956934
 40
1.690088643751428
 40
2.116607084860617
 40
2.545625100287603
 40
2.977483884449724
 40
3.412450195918404
 40
3.850709593302191
 40
4.292362208965671
 40
4.737427885281768
 40
5.185826256336565
 40
5.637431371058531
 40
6.092003378174421
 40
6.549257520372505
 40
7.008843368271169
 40
7.470358728297647
 40
7.933358849736796
 40
8.383035712276667
 40
8.383035712276667
 40
8.383035712276667
 40
8.383035712276667
 10
-33.01245307922381
 20
-2.099999615715717
 30
0.0
 10
-33.15284191599238
 20
-2.098750166645773
 30
0.0
 10
-33.43380657313818
 20
-2.096249604367186
 30
0.0
 10
-33.85515131015787
 20
-2.076092263471196
 30
0.0
 10
-34.27647806278247
 20
-2.04404736155721
 30
0.0
 10
-34.6977787348057
 20
-1.999135196643392
 30
0.0
 10
-35.11904914426317
 20
-1.941964485284286
 30
0.0
 10
-35.54028089781418
 20
-1.872789190382802
 30
0.0
 10
-35.9614737152319
 20
-1.792076687071496
 30
0.0
 10
-36.38262472399068
 20
-1.700317182445398
 30
0.0
 10
-36.80373292844872
 20
-1.598080028899429
 30
0.0
 10
-37.22480179434229
 20
-1.486001558980998
 30
0.0
 10
-37.64582957689956
 20
-1.364773821115165
 30
0.0
 10
-38.06682104648377
 20
-1.235140456307268
 30
0.0
 10
-38.48778183204116
 20
-1.097913732284665
 30
0.0
 10
-38.90871284310966
 20
-0.9539261017190591
 30
0.0
 10
-39.32961721750892
 20
-0.8040721267998208
 30
0.0
 10
-39.75050268465244
 20
-0.6492763741985212
 30
0.0
 10
-40.17136228894069
 20
-0.4904710876358193
 30
0.0
 10
-40.58789875072474
 20
-0.3303792073847926
 30
0.0
 10
-40.8638698283883
 20
-0.2228283592536315
 30
0.0
 10
-41.00000000000003
 20
-0.16983794884548
 30
0.0
  0
ELLIPSE
  5
277E
330
1F
100
AcDbEntity
  8
AM_0
 48
0.5
100
AcDbEllipse
 10
-40.16650772094748
 20
-1.399999615715646
 30
0.0
 11
-0.8335472498527266
 21
0.0006030718340455
 31
0.0
210
0.0
220
0.0
230
0.9999999999999998
 40
0.8397841429721314
 41
0.0121083056951938
 42
1.571403597113447
  0
LINE
  5
277F
330
1F
100
AcDbEntity
  8
AM_0
 48
0.5
100
AcDbLine
 10
-2.349163055419979
 20
2.100000384283978
 30
0.0
 11
-0.9999936421712229
 21
2.100000384283962
 31
0.0
  0
LINE
  5
2780
330
1F
100
AcDbEntity
  8
AM_11
 48
0.5
100
AcDbLine
 10
-24.25719554549385
 20
2.100298727395274
 30
0.0
 11
-19.19207461528145
 21
2.100000384284169
 31
0.0
  0
LINE
  5
2781
330
1F
100
AcDbEntity
  8
AM_0
 48
0.5
100
AcDbLine
 10
-19.19208145141582
 20
2.100000384284169
 30
0.0
 11
-10.02657505354086
 21
2.100000336993274
 31
0.0
  0
LINE
  5
2782
330
1F
100
AcDbEntity
  8
AM_0
100
AcDbLine
 10
-48.30718034257253
 20
2.100000384284474
 30
0.0
 11
-39.25522192582426
 21
2.100000384284377
 31
0.0
1001
GENIUS_GENODEF_13
1002
{
1000
HIER
1070
     0
1002
}
1002
{
1000
MANEDIT
1070
     0
1002
}
1002
{
1000
NOSEL
1070
     0
1002
}
1002
{
1000
BEHIND
1070
     0
1002
}
1002
{
1000
REACTOR
1002
}
1001
GENIUS_GENOBJ-N-CEN_13
1002
{
1000
OWNER
1000
GEN
1002
}
  0
LINE
  5
2783
330
1F
100
AcDbEntity
  8
AM_11
 48
0.5
100
AcDbLine
 10
-39.25704295760342
 20
2.100298727395399
 30
0.0
 11
-34.19192886352538
 21
2.100000384284296
 31
0.0
  0
LINE
  5
2784
330
1F
100
AcDbEntity
  8
AM_0
100
AcDbLine
 10
-34.19192886352538
 20
2.100000384284296
 30
0.0
 11
-24.25719554549385
 21
2.100298727395274
 31
0.0
  0
LINE
  5
2785
330
1F
100
AcDbEntity
  8
AM_11
 48
0.5
100
AcDbLine
 10
-10.02657505354086
 20
2.100000336993274
 30
0.0
 11
-2.349163055419979
 21
2.100000384283978
 31
0.0
  0
SPLINE
  5
2786
330
1F
100
AcDbEntity
  8
AM_0
 48
0.5
100
AcDbSpline
210
0.0
220
0.0
230
1.0
 70
     8
 71
     3
 72
    17
 73
    13
 74
     0
 42
0.0000000001
 43
0.0000000001
 40
0.0
 40
0.0
 40
0.0
 40
0.0
 40
1.010743614677189
 40
2.022833924044153
 40
3.037578959561199
 40
4.056212747067873
 40
5.079857613375832
 40
6.109500119648989
 40
7.14596120163808
 40
8.18989512056258
 40
9.241717674284874
 40
9.64933280892064
 40
9.64933280892064
 40
9.64933280892064
 40
9.64933280892064
 10
-2.34916305541998
 20
2.100000384283978
 30
0.0
 10
-2.489551917720757
 20
2.098751835573384
 30
0.0
 10
-2.7705166936503
 20
2.096253074610744
 30
0.0
 10
-3.191861075960386
 20
2.076090218670196
 30
0.0
 10
-3.613188111766823
 20
2.044048705336859
 30
0.0
 10
-4.034488944617249
 20
1.999136464023976
 30
0.0
 10
-4.455758556940806
 20
1.941962607813479
 30
0.0
 10
-4.876991803345614
 20
1.87279221516444
 30
0.0
 10
-5.298183030173552
 20
1.792070558769804
 30
0.0
 10
-5.719348581334932
 20
1.700341077609477
 30
0.0
 10
-6.053371304895105
 20
1.619153637348026
 30
0.0
 10
-6.247132197631615
 20
1.569110545519412
 30
0.0
 10
-6.301164096408145
 20
1.554907875038429
 30
0.0
  0
SPLINE
  5
2787
330
1F
100
AcDbEntity
  8
AM_0
 48
0.5
100
AcDbSpline
210
0.0
220
0.0
230
1.0
 70
     8
 71
     3
 72
    25
 73
    21
 74
     0
 42
0.0000000001
 43
0.0000000001
 40
6.846175049578289
 40
6.846175049578289
 40
6.846175049578289
 40
6.846175049578289
 40
7.604337694224321
 40
8.711974558287883
 40
9.814980593243754
 40
10.91239053451967
 40
12.0033633515982
 40
13.08720139956839
 40
14.16337181880432
 40
15.23152222380919
 40
16.29148850140128
 40
17.34331105512262
 40
18.38723020264746
 40
19.42369128463655
 40
20.45333379090873
 40
21.47697865721768
 40
22.49561244472435
 40
23.5103574802404
 40
24.52244778960836
 40
25.53320666051913
 40
25.53320666051913
 40
25.53320666051913
 40
25.53320666051913
 10
-2.77417513798369
 20
0.380196987955135
 30
0.0
 10
-3.025471124544483
 20
0.4255257103763284
 30
0.0
 10
-3.319776326673332
 20
0.5073581387338566
 30
0.0
 10
-3.674375028048349
 20
0.6492743783893407
 30
0.0
 10
-4.071156918681667
 20
0.8040735135232271
 30
0.0
 10
-4.467958763733959
 20
0.9539268588758503
 30
0.0
 10
-4.86478397247259
 20
1.097913031807778
 30
0.0
 10
-5.261636966509668
 20
1.235143709882674
 30
0.0
 10
-5.658521415488855
 20
1.364772605216374
 30
0.0
 10
-6.055439156776119
 20
1.486003054420356
 30
0.0
 10
-6.452395079379788
 20
1.598080601692654
 30
0.0
 10
-6.849388645774165
 20
1.700317983302475
 30
0.0
 10
-7.246422707480736
 20
1.792077239059026
 30
0.0
 10
-7.643495863348025
 20
1.872790485234782
 30
0.0
 10
-8.040606562207621
 20
1.941963007378311
 30
0.0
 10
-8.437752594325122
 20
1.999136297928053
 30
0.0
 10
-8.83492778026774
 20
2.044048690018131
 30
0.0
 10
-9.232127742761839
 20
2.076090161934113
 30
0.0
 10
-9.629346034055121
 20
2.096253134855703
 30
0.0
 10
-9.894223498390864
 20
2.098751817861898
 30
0.0
 10
-10.02657505944238
 20
2.100000337048946
 30
0.0
  0
SPLINE
  5
2788
330
1F
100
AcDbEntity
  8
AM_0
100
AcDbSpline
210
0.0
220
0.0
230
1.0
 70
     8
 71
     3
 72
    55
 73
    51
 74
     0
 42
0.0000000001
 43
0.0000000001
 40
0.0
 40
0.0
 40
0.0
 40
0.0
 40
1.010743684496582
 40
2.022833576467832
 40
3.037578957496688
 40
4.056212745003489
 40
5.079857003664532
 40
6.109500240690281
 40
7.145961322679372
 40
8.189895241603872
 40
9.241717795325891
 40
10.30168407291828
 40
11.36983447792315
 40
12.44600489715814
 40
13.52984294512926
 40
14.62081576220742
 40
15.7182257034828
 40
16.82123173843959
 40
17.92886860250316
 40
19.0400688939571
 40
20.15368796660465
 40
21.26852814259644
 40
22.38336992938901
 40
23.49698739941135
 40
24.6081876908653
 40
25.71582455492886
 40
26.81883757994213
 40
27.91624752121713
 40
29.00722033829659
 40
30.09105838626677
 40
31.16722880550176
 40
32.23537921050758
 40
33.29534548809967
 40
34.347168041821
 40
35.39108718934584
 40
36.42754827133493
 40
37.45720575381954
 40
38.48085062012849
 40
39.49948440763516
 40
40.51422944315121
 40
41.52631975251916
 40
42.53706336719636
 40
43.54780698187354
 40
44.55989729124051
 40
45.57464232675757
 40
46.59327611426424
 40
47.6169209805722
 40
48.64656348684535
 40
49.68302456883444
 40
50.58557219878025
 40
50.58557219878025
 40
50.58557219878025
 40
50.58557219878025
 10
-2.349163055420032
 20
-2.099999615716022
 30
0.0
 10
-2.489551892171718
 20
-2.098750166591629
 30
0.0
 10
-2.770516549283594
 20
-2.096249604204084
 30
0.0
 10
-3.191861286557262
 20
-2.076092264126844
 30
0.0
 10
-3.613188038212758
 20
-2.044047359088731
 30
0.0
 10
-4.034488713878789
 20
-1.999135205918313
 30
0.0
 10
-4.455759109637812
 20
-1.941964450399274
 30
0.0
 10
-4.87699091476681
 20
-1.872789321770628
 30
0.0
 10
-5.2981855382675
 20
-1.792075808354919
 30
0.0
 10
-5.719339244994788
 20
-1.700318161089857
 30
0.0
 10
-6.140449166124374
 20
-1.598079766363262
 30
0.0
 10
-6.561517400656411
 20
-1.48600236401032
 30
0.0
 10
-6.982545076295606
 20
-1.364771875416949
 30
0.0
 10
-7.403537453445519
 20
-1.235142991169287
 30
0.0
 10
-7.824496459566073
 20
-1.097912308534846
 30
0.0
 10
-8.245425998099788
 20
-0.9539261427058109
 30
0.0
 10
-8.666330737212213
 20
-0.8040727733401219
 30
0.0
 10
-9.087214370988059
 20
-0.6492737277585409
 30
0.0
 10
-9.50808098415095
 20
-0.490481080309709
 30
0.0
 10
-9.928935080152472
 20
-0.328672180873165
 30
0.0
 10
-10.34978035028369
 20
-0.1648417640650139
 30
0.0
 10
-10.77062273753169
 20
-0.0000000441922095
 30
0.0
 10
-11.1914632355495
 20
0.1648446429342835
 30
0.0
 10
-11.61230991626234
 20
0.3286725084695035
 30
0.0
 10
-12.03316349271385
 20
0.4904818976923742
 30
0.0
 10
-12.45403085627724
 20
0.6492751500704156
 30
0.0
 10
-12.8749162360803
 20
0.8040728745697593
 30
0.0
 10
-13.29582163949161
 20
0.9539270039005335
 30
0.0
 10
-13.71675123879355
 20
1.097913052971632
 30
0.0
 10
-14.13771022959675
 20
1.23514376446517
 30
0.0
 10
-14.55870260782465
 20
1.364772648902454
 30
0.0
 10
-14.97973029418775
 20
1.486003108507787
 30
0.0
 10
-15.40079848526095
 20
1.598080625302068
 30
0.0
 10
-15.82190659661479
 20
1.700318117264948
 30
0.0
 10
-16.24305769899285
 20
1.792076966326259
 30
0.0
 10
-16.66425216625219
 20
1.872792102789182
 30
0.0
 10
-17.08548697911746
 20
1.941959330657886
 30
0.0
 10
-17.50675876663482
 20
1.999147781734329
 30
0.0
 10
-17.92805956719322
 20
2.044006697344092
 30
0.0
 10
-18.34938661159935
 20
2.07624619941708
 30
0.0
 10
-18.77073099162289
 20
2.095672882588139
 30
0.0
 10
-19.19208463043366
 20
2.102162694625078
 30
0.0
 10
-19.61343826862446
 20
2.095672882577972
 30
0.0
 10
-20.0347826505115
 20
2.076246199457915
 30
0.0
 10
-20.45610968805676
 20
2.044006697190272
 30
0.0
 10
-20.87741051433824
 20
1.999147782312442
 30
0.0
 10
-21.29868015137253
 20
1.941959607287063
 30
0.0
 10
-21.71991330473296
 20
1.872792809986742
 30
0.0
 10
-22.12195697363057
 20
1.79574092251107
 30
0.0
 10
-22.3828074846148
 20
1.739392148776724
 30
0.0
 10
-22.50382691824409
 20
1.711930642477254
 30
0.0
  0
SPLINE
  5
2789
330
1F
100
AcDbEntity
  8
AM_0
100
AcDbSpline
210
0.0
220
0.0
230
1.0
 70
     8
 71
     3
 72
    46
 73
    42
 74
     0
 42
0.0000000001
 43
0.0000000001
 40
0.0
 40
0.0
 40
0.0
 40
0.0
 40
0.8427075293422852
 40
1.265518104770559
 40
1.68994884956506
 40
2.116467290673827
 40
2.54548530610122
 40
2.977344090263342
 40
3.412310401731623
 40
3.850575907619846
 40
4.292228523283339
 40
4.737291192035372
 40
5.185695533383686
 40
5.637294720037921
 40
6.091866727153826
 40
6.549120869352287
 40
7.008706717250554
 40
7.470222077277051
 40
7.933222198716569
 40
8.397230145652669
 40
8.861746885649248
 40
9.326263625646204
 40
9.790271572582303
 40
10.25327169402144
 40
10.71478705404793
 40
11.17437290194659
 40
11.6316270441445
 40
12.08619905126056
 40
12.53780120194721
 40
12.98620554329551
 40
13.43126821204755
 40
13.87292082771091
 40
14.3111802250952
 40
14.74614653656348
 40
15.17800532072561
 40
15.60702303167235
 40
16.03354172596774
 40
16.45797877828845
 40
16.88078920975347
 40
17.30249350532345
 40
17.72363667810562
 40
17.72363667810562
 40
17.72363667810562
 40
17.72363667810562
 10
-1.16968409220378
 20
-2.099999615716034
 30
0.0
 10
-1.45066247680104
 20
-2.095215653384112
 30
0.0
 10
-1.87261578844944
 20
-2.088031439724226
 30
0.0
 10
-2.433705507588315
 20
-2.043799556030593
 30
0.0
 10
-2.855010709692987
 20
-1.999202051064771
 30
0.0
 10
-3.276279900232232
 20
-1.941946430283228
 30
0.0
 10
-3.697511969438756
 20
-1.872794042413999
 30
0.0
 10
-4.118704753360813
 20
-1.792075494783446
 30
0.0
 10
-4.53985754656377
 20
-1.700316617489549
 30
0.0
 10
-4.960968474768948
 20
-1.598080823622124
 30
0.0
 10
-5.38203837967609
 20
-1.486002217488211
 30
0.0
 10
-5.803066128735188
 20
-1.364771915127312
 30
0.0
 10
-6.224058485982285
 20
-1.235142980401365
 30
0.0
 10
-6.645017497524396
 20
-1.097912311494273
 30
0.0
 10
-7.065947034472239
 20
-0.9539261417361226
 30
0.0
 10
-7.486851774460404
 20
-0.804072774239615
 30
0.0
 10
-7.907735406319353
 20
-0.6492737251197999
 30
0.0
 10
-8.32860202630874
 20
-0.4904810900150462
 30
0.0
 10
-8.749456096814494
 20
-0.3286721445483685
 30
0.0
 10
-9.170301462366076
 20
-0.1648418999926761
 30
0.0
 10
-9.5911432902172
 20
0.0000003842507073
 30
0.0
 10
-10.01198511797586
 20
0.1648426686944072
 30
0.0
 10
-10.43283048380476
 20
0.3286729126494437
 30
0.0
 10
-10.85368455329689
 20
0.4904818603112536
 30
0.0
 10
-11.27455117704486
 20
0.6492744872750567
 30
0.0
 10
-11.69543479496733
 20
0.8040735665806986
 30
0.0
 10
-12.11633958656699
 20
0.9539268222884579
 30
0.0
 10
-12.53726984768759
 20
1.097913718574023
 30
0.0
 10
-12.95823049487334
 20
1.235143140670924
 30
0.0
 10
-13.37922360310628
 20
1.364772740089655
 30
0.0
 10
-13.80025134236265
 20
1.486003078523021
 30
0.0
 10
-14.22131951756246
 20
1.598080654750324
 30
0.0
 10
-14.64242763999212
 20
1.700318030118878
 30
0.0
 10
-15.06357871407762
 20
1.792077282257829
 30
0.0
 10
-15.48477125423542
 20
1.872790548857231
 30
0.0
 10
-15.90600363226351
 20
1.941962993643967
 30
0.0
 10
-16.32727551137525
 20
1.999136852664861
 30
0.0
 10
-16.74857854260102
 20
2.044048315757506
 30
0.0
 10
-17.16990763964031
 20
2.076090279810721
 30
0.0
 10
-17.59125203061242
 20
2.096253059366197
 30
0.0
 10
-17.87221680538936
 20
2.098751830494248
 30
0.0
 10
-18.01260566711415
 20
2.100000384284156
 30
0.0
  0
SPLINE
  5
278A
330
1F
100
AcDbEntity
  8
AM_0
100
AcDbSpline
210
0.0
220
0.0
230
1.0
 70
     8
 71
     3
 72
    23
 73
    19
 74
     0
 42
0.0000000001
 43
0.0000000001
 40
16.03460024169435
 40
16.03460024169435
 40
16.03460024169435
 40
16.03460024169435
 40
16.35212704903564
 40
17.38177054169784
 40
18.41822485651776
 40
19.46214173629503
 40
20.51396345435107
 40
21.57393551351153
 40
22.64208202342361
 40
23.7182574881101
 40
24.80209208578934
 40
25.89306333925047
 40
26.99048218457928
 40
28.09348763352352
 40
29.20111863782268
 40
30.31232390128032
 40
31.42594612798585
 40
32.5407912310448
 40
32.5407912310486
 40
32.5407912310486
 40
32.5407912310486
 10
-39.25704295760342
 20
2.100298727395399
 30
0.0
 10
-39.21375496397169
 20
2.09320949720459
 30
0.0
 10
-39.03028142553123
 20
2.062337895031146
 30
0.0
 10
-38.70709081169374
 20
2.001849702172741
 30
0.0
 10
-38.28855812071044
 20
1.911904420884726
 30
0.0
 10
-37.87041418257699
 20
1.810910862358822
 30
0.0
 10
-37.45263428883458
 20
1.699453525799692
 30
0.0
 10
-37.03520361173444
 20
1.578153788353854
 30
0.0
 10
-36.61809802478385
 20
1.447705050474241
 30
0.0
 10
-36.20128848233507
 20
1.308866491094103
 30
0.0
 10
-35.7847512997729
 20
1.162424344880411
 30
0.0
 10
-35.36845308180103
 20
1.009230724560192
 30
0.0
 10
-34.95236009210415
 20
0.8501760576418016
 30
0.0
 10
-34.53644460759319
 20
0.6861748417800289
 30
0.0
 10
-34.12067182912464
 20
0.5181807215860587
 30
0.0
 10
-33.70500324733377
 20
0.3471746594717451
 30
0.0
 10
-33.28940501506429
 20
0.1741475892602327
 30
0.0
 10
-33.0124139465781
 20
0.058142399705828
 30
0.0
 10
-32.87384287516196
 20
0.0001071958072315
 30
0.0
  0
SPLINE
  5
278B
330
1F
100
AcDbEntity
  8
AM_0
100
AcDbSpline
210
0.0
220
0.0
230
1.0
 70
     8
 71
     3
 72
    55
 73
    51
 74
     0
 42
0.0000000001
 43
0.0000000001
 40
0.0
 40
0.0
 40
0.0
 40
0.0
 40
1.010743684496582
 40
2.022833576467832
 40
3.037578957496688
 40
4.056212745003489
 40
5.079857003664532
 40
6.109500240690281
 40
7.145961322679372
 40
8.189895241603872
 40
9.241717795325891
 40
10.30168407291828
 40
11.36983447792315
 40
12.44600489715814
 40
13.52984294512926
 40
14.62081576220742
 40
15.7182257034828
 40
16.82123173843959
 40
17.92886860250316
 40
19.0400688939571
 40
20.15368796660465
 40
21.26852814259644
 40
22.38336992938901
 40
23.49698739941135
 40
24.6081876908653
 40
25.71582455492886
 40
26.81883757994213
 40
27.91624752121713
 40
29.00722033829659
 40
30.09105838626677
 40
31.16722880550176
 40
32.23537921050758
 40
33.29534548809967
 40
34.347168041821
 40
35.39108718934584
 40
36.42754827133493
 40
37.45720575381954
 40
38.48085062012849
 40
39.49948440763516
 40
40.51422944315121
 40
41.52631975251916
 40
42.53706336719636
 40
43.54780698187354
 40
44.55989729124051
 40
45.57464232675757
 40
46.59327611426424
 40
47.6169209805722
 40
48.64656348684535
 40
49.68302456883444
 40
50.58557219878025
 40
50.58557219878025
 40
50.58557219878025
 40
50.58557219878025
 10
-17.34895261186607
 20
-2.099999615715895
 30
0.0
 10
-17.48934144861775
 20
-2.098750166591504
 30
0.0
 10
-17.77030610572963
 20
-2.096249604203956
 30
0.0
 10
-18.1916508430033
 20
-2.076092264126717
 30
0.0
 10
-18.6129775946588
 20
-2.044047359088607
 30
0.0
 10
-19.03427827032483
 20
-1.999135205918188
 30
0.0
 10
-19.45554866608385
 20
-1.941964450399149
 30
0.0
 10
-19.87678047121285
 20
-1.872789321770502
 30
0.0
 10
-20.29797509471354
 20
-1.792075808354793
 30
0.0
 10
-20.71912880144083
 20
-1.70031816108973
 30
0.0
 10
-21.14023872257042
 20
-1.598079766363136
 30
0.0
 10
-21.56130695710245
 20
-1.486002364010193
 30
0.0
 10
-21.98233463274165
 20
-1.364771875416822
 30
0.0
 10
-22.40332700989156
 20
-1.23514299116916
 30
0.0
 10
-22.82428601601212
 20
-1.09791230853472
 30
0.0
 10
-23.24521555454584
 20
-0.9539261427056844
 30
0.0
 10
-23.66612029365824
 20
-0.804072773339995
 30
0.0
 10
-24.08700392743409
 20
-0.6492737277584145
 30
0.0
 10
-24.50787054059698
 20
-0.4904810803095823
 30
0.0
 10
-24.92872463659852
 20
-0.3286721808730384
 30
0.0
 10
-25.34956990672974
 20
-0.1648417640648876
 30
0.0
 10
-25.77041229397774
 20
-0.000000044192083
 30
0.0
 10
-26.19125279199554
 20
0.1648446429344099
 30
0.0
 10
-26.61209947270839
 20
0.32867250846963
 30
0.0
 10
-27.0329530491599
 20
0.4904818976925009
 30
0.0
 10
-27.4538204127233
 20
0.6492751500705421
 30
0.0
 10
-27.87470579252635
 20
0.804072874569886
 30
0.0
 10
-28.29561119593764
 20
0.9539270039006597
 30
0.0
 10
-28.71654079523958
 20
1.09791305297176
 30
0.0
 10
-29.13749978604279
 20
1.235143764465297
 30
0.0
 10
-29.5584921642707
 20
1.364772648902579
 30
0.0
 10
-29.9795198506338
 20
1.486003108507913
 30
0.0
 10
-30.400588041707
 20
1.598080625302195
 30
0.0
 10
-30.82169615306084
 20
1.700318117265075
 30
0.0
 10
-31.24284725543889
 20
1.792076966326385
 30
0.0
 10
-31.66404172269823
 20
1.872792102789309
 30
0.0
 10
-32.08527653556348
 20
1.941959330658012
 30
0.0
 10
-32.50654832308085
 20
1.999147781734454
 30
0.0
 10
-32.92784912363925
 20
2.044006697344218
 30
0.0
 10
-33.34917616804537
 20
2.076246199417207
 30
0.0
 10
-33.77052054806891
 20
2.095672882588266
 30
0.0
 10
-34.19187418687969
 20
2.102162694625205
 30
0.0
 10
-34.61322782507048
 20
2.095672882578099
 30
0.0
 10
-35.03457220695752
 20
2.076246199458041
 30
0.0
 10
-35.45589924450278
 20
2.044006697190398
 30
0.0
 10
-35.87720007078426
 20
1.999147782312567
 30
0.0
 10
-36.29846970781856
 20
1.94195960728719
 30
0.0
 10
-36.71970286117899
 20
1.872792809986869
 30
0.0
 10
-37.12174653007661
 20
1.795740922511197
 30
0.0
 10
-37.38259704106084
 20
1.73939214877685
 30
0.0
 10
-37.50361647469015
 20
1.71193064247738
 30
0.0
  0
SPLINE
  5
278C
330
1F
100
AcDbEntity
  8
AM_0
100
AcDbSpline
210
0.0
220
0.0
230
1.0
 70
     8
 71
     3
 72
    46
 73
    42
 74
     0
 42
0.0000000001
 43
0.0000000001
 40
0.0
 40
0.0
 40
0.0
 40
0.0
 40
0.8427075293422831
 40
1.265518104770557
 40
1.689948849565058
 40
2.116467290673825
 40
2.545485306101222
 40
2.97734409026334
 40
3.412310401731621
 40
3.850575907619841
 40
4.292228523283341
 40
4.737291192035375
 40
5.185695533383689
 40
5.637294720037917
 40
6.09186672715383
 40
6.549120869352283
 40
7.008706717250553
 40
7.470222077277046
 40
7.933222198716568
 40
8.397230145652669
 40
8.861746885649248
 40
9.326263625646204
 40
9.790271572582303
 40
10.25327169402144
 40
10.71478705404793
 40
11.17437290194658
 40
11.6316270441445
 40
12.08619905126055
 40
12.5378012019472
 40
12.98620554329551
 40
13.43126821204755
 40
13.87292082771092
 40
14.31118022509521
 40
14.74614653656349
 40
15.17800532072561
 40
15.60702303167235
 40
16.03354172596773
 40
16.45797877828844
 40
16.88078920975346
 40
17.30249350532346
 40
17.72363667810562
 40
17.72363667810562
 40
17.72363667810562
 40
17.72363667810562
 10
-16.16947364864982
 20
-2.099999615715907
 30
0.0
 10
-16.45045203324708
 20
-2.095215653383984
 30
0.0
 10
-16.87240534489548
 20
-2.088031439724098
 30
0.0
 10
-17.43349506403435
 20
-2.043799556030469
 30
0.0
 10
-17.85480026613902
 20
-1.999202051064642
 30
0.0
 10
-18.27606945667827
 20
-1.941946430283101
 30
0.0
 10
-18.69730152588479
 20
-1.872794042413872
 30
0.0
 10
-19.11849430980685
 20
-1.792075494783319
 30
0.0
 10
-19.53964710300981
 20
-1.700316617489423
 30
0.0
 10
-19.96075803121498
 20
-1.598080823621995
 30
0.0
 10
-20.38182793612214
 20
-1.486002217488086
 30
0.0
 10
-20.80285568518123
 20
-1.364771915127185
 30
0.0
 10
-21.22384804242833
 20
-1.235142980401241
 30
0.0
 10
-21.64480705397044
 20
-1.097912311494142
 30
0.0
 10
-22.06573659091829
 20
-0.9539261417359998
 30
0.0
 10
-22.48664133090644
 20
-0.8040727742394849
 30
0.0
 10
-22.90752496276538
 20
-0.6492737251196758
 30
0.0
 10
-23.32839158275477
 20
-0.4904810900149174
 30
0.0
 10
-23.74924565326054
 20
-0.328672144548243
 30
0.0
 10
-24.17009101881212
 20
-0.1648418999925497
 30
0.0
 10
-24.59093284666324
 20
0.0000003842508337
 30
0.0
 10
-25.0117746744219
 20
0.1648426686945336
 30
0.0
 10
-25.43262004025081
 20
0.3286729126495701
 30
0.0
 10
-25.85347410974295
 20
0.4904818603113802
 30
0.0
 10
-26.2743407334909
 20
0.6492744872751823
 30
0.0
 10
-26.6952243514134
 20
0.8040735665808263
 30
0.0
 10
-27.11612914301301
 20
0.9539268222885848
 30
0.0
 10
-27.53705940413361
 20
1.097913718574149
 30
0.0
 10
-27.95802005131938
 20
1.235143140671052
 30
0.0
 10
-28.37901315955231
 20
1.36477274008978
 30
0.0
 10
-28.80004089880869
 20
1.486003078523149
 30
0.0
 10
-29.22110907400851
 20
1.598080654750449
 30
0.0
 10
-29.64221719643816
 20
1.700318030119005
 30
0.0
 10
-30.06336827052367
 20
1.792077282257955
 30
0.0
 10
-30.48456081068147
 20
1.872790548857357
 30
0.0
 10
-30.90579318870957
 20
1.941962993644093
 30
0.0
 10
-31.32706506782128
 20
1.999136852664988
 30
0.0
 10
-31.74836809904707
 20
2.044048315757633
 30
0.0
 10
-32.16969719608633
 20
2.076090279810849
 30
0.0
 10
-32.59104158705845
 20
2.096253059366323
 30
0.0
 10
-32.87200636183538
 20
2.098751830494375
 30
0.0
 10
-33.01239522356017
 20
2.100000384284283
 30
0.0
  0
SPLINE
  5
278D
330
1F
100
AcDbEntity
  8
AM_0
100
AcDbSpline
210
0.0
220
0.0
230
1.0
 70
     8
 71
     3
 72
    23
 73
    19
 74
     0
 42
0.0000000001
 43
0.0000000001
 40
16.03460024169435
 40
16.03460024169435
 40
16.03460024169435
 40
16.03460024169435
 40
16.35212704903564
 40
17.38177054169784
 40
18.41822485651776
 40
19.46214173629503
 40
20.51396345435107
 40
21.57393551351153
 40
22.64208202342361
 40
23.7182574881101
 40
24.80209208578934
 40
25.89306333925047
 40
26.99048218457928
 40
28.09348763352352
 40
29.20111863782268
 40
30.31232390128032
 40
31.42594612798585
 40
32.5407912310448
 40
32.5407912310486
 40
32.5407912310486
 40
32.5407912310486
 10
-24.25719554549385
 20
2.100298727395275
 30
0.0
 10
-24.21390755186213
 20
2.093209497204465
 30
0.0
 10
-24.03043401342166
 20
2.062337895031023
 30
0.0
 10
-23.70724339958417
 20
2.001849702172615
 30
0.0
 10
-23.28871070860088
 20
1.911904420884601
 30
0.0
 10
-22.87056677046741
 20
1.810910862358696
 30
0.0
 10
-22.452786876725
 20
1.699453525799567
 30
0.0
 10
-22.03535619962484
 20
1.578153788353728
 30
0.0
 10
-21.61825061267424
 20
1.447705050474116
 30
0.0
 10
-21.20144107022547
 20
1.308866491093978
 30
0.0
 10
-20.78490388766331
 20
1.162424344880285
 30
0.0
 10
-20.36860566969142
 20
1.009230724560067
 30
0.0
 10
-19.95251267999456
 20
0.8501760576416764
 30
0.0
 10
-19.5365971954836
 20
0.6861748417799035
 30
0.0
 10
-19.12082441701505
 20
0.5181807215859334
 30
0.0
 10
-18.70515583522419
 20
0.34717465947162
 30
0.0
 10
-18.2895576029547
 20
0.1741475892601075
 30
0.0
 10
-18.01256653446852
 20
0.0581423997057029
 30
0.0
 10
-17.87399546305239
 20
0.0001071958071063
 30
0.0
  0
VIEWPORT
  5
110
330
101
100
AcDbEntity
 67
     1
  8
0
100
AcDbViewport
 10
420.5
 20
297.0
 30
0.0
 40
948.9782706766916
 41
628.452
 68
     1
 69
     1
1001
ACAD
1000
MVIEW
1002
{
1070
    16
1010
0.0
1020
0.0
1030
0.0
1010
0.0
1020
0.0
1030
1.0
1040
0.0
1040
628.452
1040
420.5
1040
297.0
1040
50.0
1040
0.0
1040
0.0
1070
     0
1070
   100
1070
     1
1070
     1
1070
     0
1070
     0
1070
     0
1070
     0
1040
0.0
1040
0.0
1040
0.0
1040
10.0
1040
10.0
1040
10.0
1040
10.0
1070
     0
1002
{
1002
}
1002
}
  0
ENDSEC
  0
SECTION
  2
OBJECTS
  0
DICTIONARY
  5
C
330
0
100
AcDbDictionary
  3
ACAD_GROUP
350
D
  3
ACAD_LAYOUT
350
1A
  3
ACAD_MLINESTYLE
350
17
  3
ACAD_PLOTSETTINGS
350
19
  3
ACAD_PLOTSTYLENAME
350
E
  3
ACDBVARIABLEDICTIONARY
350
34
  3
ACMDICTIONARY
350
43
  3
AMG
350
2B
  3
AMGSNAPSETTINGS
350
6E
  3
DWGPROPS
350
27DF
  3
ACDBHEADERROUNDTRIPXREC
350
27EB
  0
DICTIONARY
  5
74
330
1F
100
AcDbDictionary
280
     1
  3
ACAD_INDEX
360
27E1
  3
ACAD_LAYOUTSELFREF
360
280E
  0
DICTIONARY
  5
2813
330
101
100
AcDbDictionary
280
     1
  3
ACAD_LAYOUTSELFREF
360
2814
  0
DICTIONARY
  5
D
102
{ACAD_REACTORS
330
C
102
}
330
C
100
AcDbDictionary
  0
DICTIONARY
  5
1A
102
{ACAD_REACTORS
330
C
102
}
330
C
100
AcDbDictionary
  0
DICTIONARY
  5
17
102
{ACAD_REACTORS
330
C
102
}
330
C
100
AcDbDictionary
  3
STANDARD
350
18
  0
DICTIONARY
  5
19
102
{ACAD_REACTORS
330
C
102
}
330
C
100
AcDbDictionary
  0
ACDBDICTIONARYWDFLT
  5
E
102
{ACAD_REACTORS
330
C
102
}
330
C
100
AcDbDictionary
281
     1
  3
Normal
350
F
100
AcDbDictionaryWithDefault
340
F
  0
DICTIONARY
  5
34
102
{ACAD_REACTORS
330
C
102
}
330
C
100
AcDbDictionary
  3
INDEXCTL
350
35
  3
SORTENTS
350
B5E
  0
DICTIONARY
  5
43
102
{ACAD_REACTORS
330
C
102
}
330
C
100
AcDbDictionary
  3
ACMSTDDICTIONARY
350
260
  0
DICTIONARY
  5
2B
102
{ACAD_REACTORS
330
C
102
}
330
C
100
AcDbDictionary
  3
ACMGSETTINGS
350
2C
  0
DICTIONARY
  5
6E
102
{ACAD_REACTORS
330
C
102
}
330
C
100
AcDbDictionary
  0
XRECORD
  5
27DF
102
{ACAD_REACTORS
330
C
102
}
330
C
100
AcDbXrecord
  1
DWGPROPS COOKIE
  2

  3

  4

  6

  7

  8

  9

300
AmdtFileType=82
301
=
302
=
303
=
304
=
305
=
306
=
307
=
308
=
309
=
 40
0.0391635995370371
 41
2452800.443498622
 42
2452948.69557978
  1

 90
        1
  0
DICTIONARY
  5
27EB
102
{ACAD_REACTORS
330
C
102
}
330
C
100
AcDbDictionary
  3
TSTACKALIGN
350
27EC
  3
TSTACKSIZE
350
27ED
  3
HYPERLINKBASE
350
27EE
  3
STYLESHEET
350
27EF
  3
LAYOUTDICT
350
27F0
  3
PLOTSETDICT
350
27F1
  3
PLOTSTYLNAMDICT
350
27F2
  3
LWETCUNION
350
27F3
  3
INSUNITS
350
27F4
  3
CEPSNTYPE
350
27F5
  3
FINGERPRINTGUID
350
27F6
  3
VERSIONGUID
350
27F7
  3
PSVPSCALE
350
27F8
  3
DIMSTYLEDATA
350
27F9
  3
PUCSORTHOREF
350
27FA
  3
PUCSORTHOVIEW
350
27FB
  3
PUCSBASE
350
27FC
  3
PUCSORGTOP
350
27FD
  3
PUCSORGBOTTOM
350
27FE
  3
PUCSORGLEFT
350
27FF
  3
PUCSORGRIGHT
350
2800
  3
PUCSORGFRONT
350
2801
  3
PUCSORGBACK
350
2802
  3
UCSORTHOREF
350
2803
  3
UCSORTHOVIEW
350
2804
  3
UCSBASE
350
2805
  3
UCSORGTOP
350
2806
  3
UCSORGBOTTOM
350
2807
  3
UCSORGLEFT
350
2808
  3
UCSORGRIGHT
350
2809
  3
UCSORGFRONT
350
280A
  3
UCSORGBACK
350
280B
  0
DICTIONARY
  5
27E1
102
{ACAD_REACTORS
330
74
102
}
330
74
100
AcDbDictionary
  3
*A1
350
27E2
  0
XRECORD
  5
280E
102
{ACAD_REACTORS
330
74
102
}
330
74
100
AcDbXrecord
340
1F
  0
XRECORD
  5
2814
102
{ACAD_REACTORS
330
2813
102
}
330
2813
100
AcDbXrecord
340
101
  0
MLINESTYLE
  5
18
102
{ACAD_REACTORS
330
17
102
}
330
17
100
AcDbMlineStyle
  2
STANDARD
 70
     0
  3

 62
   256
 51
90.0
 52
90.0
 71
     2
 49
0.5
 62
   256
  6
BYLAYER
 49
-0.5
 62
   256
  6
BYLAYER
  0
ACDBPLACEHOLDER
  5
F
102
{ACAD_REACTORS
330
E
102
}
330
E
100
AcDbPlaceHolder
280
     0
  0
DICTIONARYVAR
  5
35
102
{ACAD_REACTORS
330
34
102
}
330
34
100
DictionaryVariables
280
     0
  1
1
  0
DICTIONARYVAR
  5
B5E
102
{ACAD_REACTORS
330
34
102
}
330
34
100
DictionaryVariables
280
     0
  1
96
  0
DICTIONARY
  5
260
102
{ACAD_REACTORS
330
43
102
}
330
43
100
AcDbDictionary
  0
DICTIONARY
  5
2C
102
{ACAD_REACTORS
330
2B
102
}
330
2B
100
AcDbDictionary
  3
DWGSETTINGS
350
2D
  0
XRECORD
  5
27EC
102
{ACAD_REACTORS
330
27EB
102
}
330
27EB
100
AcDbXrecord
 90
        1
  0
XRECORD
  5
27ED
102
{ACAD_REACTORS
330
27EB
102
}
330
27EB
100
AcDbXrecord
 90
       70
  0
XRECORD
  5
27EE
102
{ACAD_REACTORS
330
27EB
102
}
330
27EB
100
AcDbXrecord
  1

  0
XRECORD
  5
27EF
102
{ACAD_REACTORS
330
27EB
102
}
330
27EB
100
AcDbXrecord
  1
ASAMI.ctb
  0
XRECORD
  5
27F0
102
{ACAD_REACTORS
330
27EB
102
}
330
27EB
100
AcDbXrecord
340
1A
  0
XRECORD
  5
27F1
102
{ACAD_REACTORS
330
27EB
102
}
330
27EB
100
AcDbXrecord
340
19
  0
XRECORD
  5
27F2
102
{ACAD_REACTORS
330
27EB
102
}
330
27EB
100
AcDbXrecord
340
E
  0
XRECORD
  5
27F3
102
{ACAD_REACTORS
330
27EB
102
}
330
27EB
100
AcDbXrecord
 90
    10781
  0
XRECORD
  5
27F4
102
{ACAD_REACTORS
330
27EB
102
}
330
27EB
100
AcDbXrecord
 90
        4
  0
XRECORD
  5
27F5
102
{ACAD_REACTORS
330
27EB
102
}
330
27EB
100
AcDbXrecord
 90
        0
  0
XRECORD
  5
27F6
102
{ACAD_REACTORS
330
27EB
102
}
330
27EB
100
AcDbXrecord
  1
{AFB28963-8C59-40AE-9337-C84526B81ACE}
  0
XRECORD
  5
27F7
102
{ACAD_REACTORS
330
27EB
102
}
330
27EB
100
AcDbXrecord
  1
{6B3517B3-D8CC-468E-A962-1C3EC50CF33E}
  0
XRECORD
  5
27F8
102
{ACAD_REACTORS
330
27EB
102
}
330
27EB
100
AcDbXrecord
 40
0.0
  0
XRECORD
  5
27F9
102
{ACAD_REACTORS
330
27EB
102
}
330
27EB
100
AcDbXrecord
1000
DSTYLE
1002
{
1070
    79
 70
     2
1070
   341
340
59
1070
   342
340
59
1070
   371
 70
    -1
1070
   372
 70
    -1
1002
}
  0
XRECORD
  5
27FA
102
{ACAD_REACTORS
330
27EB
102
}
330
27EB
100
AcDbXrecord
340
0
  0
XRECORD
  5
27FB
102
{ACAD_REACTORS
330
27EB
102
}
330
27EB
100
AcDbXrecord
 70
     0
  0
XRECORD
  5
27FC
102
{ACAD_REACTORS
330
27EB
102
}
330
27EB
100
AcDbXrecord
340
0
  0
XRECORD
  5
27FD
102
{ACAD_REACTORS
330
27EB
102
}
330
27EB
100
AcDbXrecord
 10
0.0
 20
0.0
 30
0.0
  0
XRECORD
  5
27FE
102
{ACAD_REACTORS
330
27EB
102
}
330
27EB
100
AcDbXrecord
 10
0.0
 20
0.0
 30
0.0
  0
XRECORD
  5
27FF
102
{ACAD_REACTORS
330
27EB
102
}
330
27EB
100
AcDbXrecord
 10
0.0
 20
0.0
 30
0.0
  0
XRECORD
  5
2800
102
{ACAD_REACTORS
330
27EB
102
}
330
27EB
100
AcDbXrecord
 10
0.0
 20
0.0
 30
0.0
  0
XRECORD
  5
2801
102
{ACAD_REACTORS
330
27EB
102
}
330
27EB
100
AcDbXrecord
 10
0.0
 20
0.0
 30
0.0
  0
XRECORD
  5
2802
102
{ACAD_REACTORS
330
27EB
102
}
330
27EB
100
AcDbXrecord
 10
0.0
 20
0.0
 30
0.0
  0
XRECORD
  5
2803
102
{ACAD_REACTORS
330
27EB
102
}
330
27EB
100
AcDbXrecord
340
0
  0
XRECORD
  5
2804
102
{ACAD_REACTORS
330
27EB
102
}
330
27EB
100
AcDbXrecord
 70
     0
  0
XRECORD
  5
2805
102
{ACAD_REACTORS
330
27EB
102
}
330
27EB
100
AcDbXrecord
340
0
  0
XRECORD
  5
2806
102
{ACAD_REACTORS
330
27EB
102
}
330
27EB
100
AcDbXrecord
 10
0.0
 20
0.0
 30
0.0
  0
XRECORD
  5
2807
102
{ACAD_REACTORS
330
27EB
102
}
330
27EB
100
AcDbXrecord
 10
0.0
 20
0.0
 30
0.0
  0
XRECORD
  5
2808
102
{ACAD_REACTORS
330
27EB
102
}
330
27EB
100
AcDbXrecord
 10
0.0
 20
0.0
 30
0.0
  0
XRECORD
  5
2809
102
{ACAD_REACTORS
330
27EB
102
}
330
27EB
100
AcDbXrecord
 10
0.0
 20
0.0
 30
0.0
  0
XRECORD
  5
280A
102
{ACAD_REACTORS
330
27EB
102
}
330
27EB
100
AcDbXrecord
 10
0.0
 20
0.0
 30
0.0
  0
XRECORD
  5
280B
102
{ACAD_REACTORS
330
27EB
102
}
330
27EB
100
AcDbXrecord
 10
0.0
 20
0.0
 30
0.0
  0
LAYER_INDEX
  5
27E2
102
{ACAD_REACTORS
330
27E1
102
}
330
27E1
100
AcDbIndex
 40
2453151.690808356
100
AcDbLayerIndex
  8
0
360
27E3
 90
        0
  8
AM_0
360
27E4
 90
       52
  8
AM_7
360
27E5
 90
        1
  8
AM_11
360
27E6
 90
       27
  8
AM_5
360
27E7
 90
        5
  8
Defpoints
360
27E8
 90
        0
  8
AM_6
360
27E9
 90
        1
  0
XRECORD
  5
2D
102
{ACAD_REACTORS
330
2C
102
}
330
2C
100
AcDbXrecord
  1
VERSION
140
15.0
  1
PRODUCT
  2
AutoCAD Mechanical 2000
  0
IDBUFFER
  5
27E3
330
0
100
AcDbIdBuffer
  0
IDBUFFER
  5
27E4
330
0
100
AcDbIdBuffer
330
278A
330
278B
330
278C
330
278D
330
C30
330
1CF0
330
1CF4
330
1CFE
330
1EB2
330
1EB5
330
1ED3
330
1FDE
330
1FDF
330
24A9
330
25D9
330
25DA
330
25DB
330
25DD
330
25DE
330
25F5
330
2764
330
2765
330
2766
330
2767
330
2768
330
2769
330
276A
330
276B
330
276C
330
276D
330
276E
330
2770
330
2771
330
2773
330
2775
330
2776
330
2777
330
2778
330
2779
330
277A
330
277B
330
277C
330
277D
330
277E
330
277F
330
2781
330
2782
330
2784
330
2786
330
2787
330
2788
330
2789
  0
IDBUFFER
  5
27E5
330
0
100
AcDbIdBuffer
330
C9F
  0
IDBUFFER
  5
27E6
330
0
100
AcDbIdBuffer
330
1ECC
330
1ECD
330
1ECE
330
1ECF
330
2763
330
276F
330
2772
330
2774
330
2780
330
2783
330
2785
330
144A
330
144B
330
144E
330
144F
330
1450
330
1451
330
1452
330
1453
330
1DAB
330
1DAC
330
1DAD
330
1DAE
330
1DAF
330
1DB0
330
1EBF
330
1EC0
  0
IDBUFFER
  5
27E7
330
0
100
AcDbIdBuffer
330
CC6
330
DF5
330
218E
330
245D
330
2602
  0
IDBUFFER
  5
27E8
330
0
100
AcDbIdBuffer
  0
IDBUFFER
  5
27E9
330
0
100
AcDbIdBuffer
330
19BD
  0
ENDSEC
  0
EOF
