  0
SECTION
  2
HEADER
  9
$ACADVER
  1
AC1014
  9
$ACADMAINTVER
 70
     9
  9
$DWGCODEPAGE
  3
ANSI_932
  9
$INSBASE
 10
0.0
 20
0.0
 30
0.0
  9
$EXTMIN
 10
-91.9000009999999
 20
-25.75000099999998
 30
-0.00000001
  9
$EXTMAX
 10
15.31866414182031
 20
14.89710932908359
 30
0.00000001
  9
$LIMMIN
 10
-115.2743125114289
 20
-61.81965462428931
  9
$LIMMAX
 10
34.68289694917223
 20
37.20838581210049
  9
$ORTHOMODE
 70
     0
  9
$REGENMODE
 70
     1
  9
$FILLMODE
 70
     1
  9
$QTEXTMODE
 70
     0
  9
$MIRRTEXT
 70
     0
  9
$DRAGMODE
 70
     2
  9
$LTSCALE
 40
1.0
  9
$OSMODE
 70
    55
  9
$ATTMODE
 70
     1
  9
$TEXTSIZE
 40
2.5
  9
$TRACEWID
 40
1.0
  9
$TEXTSTYLE
  7
STANDARD
  9
$CLAYER
  8
AM_0
  9
$CELTYPE
  6
BYLAYER
  9
$CECOLOR
 62
   256
  9
$CELTSCALE
 40
1.0
  9
$DELOBJ
 70
     1
  9
$DISPSILH
 70
     0
  9
$DIMSCALE
 40
0.5
  9
$DIMASZ
 40
2.5
  9
$DIMEXO
 40
1.0
  9
$DIMDLI
 40
12.0
  9
$DIMRND
 40
0.0
  9
$DIMDLE
 40
0.0
  9
$DIMEXE
 40
1.0
  9
$DIMTP
 40
0.1
  9
$DIMTM
 40
0.1
  9
$DIMTXT
 40
3.2
  9
$DIMCEN
 40
0.0
  9
$DIMTSZ
 40
0.0
  9
$DIMTOL
 70
     0
  9
$DIMLIM
 70
     0
  9
$DIMTIH
 70
     0
  9
$DIMTOH
 70
     0
  9
$DIMSE1
 70
     0
  9
$DIMSE2
 70
     0
  9
$DIMTAD
 70
     3
  9
$DIMZIN
 70
     8
  9
$DIMBLK
  1
OPEN30
  9
$DIMASO
 70
     1
  9
$DIMSHO
 70
     1
  9
$DIMPOST
  1

  9
$DIMAPOST
  1
"
  9
$DIMALT
 70
     0
  9
$DIMALTD
 70
     2
  9
$DIMALTF
 40
0.0393701
  9
$DIMLFAC
 40
1.0
  9
$DIMTOFL
 70
     1
  9
$DIMTVP
 40
0.0
  9
$DIMTIX
 70
     0
  9
$DIMSOXD
 70
     0
  9
$DIMSAH
 70
     0
  9
$DIMBLK1
  1

  9
$DIMBLK2
  1

  9
$DIMSTYLE
  2
AM_JIS
  9
$DIMCLRD
 70
   256
  9
$DIMCLRE
 70
   256
  9
$DIMCLRT
 70
     2
  9
$DIMTFAC
 40
0.71
  9
$DIMGAP
 40
1.5
  9
$DIMJUST
 70
     0
  9
$DIMSD1
 70
     0
  9
$DIMSD2
 70
     0
  9
$DIMTOLJ
 70
     0
  9
$DIMTZIN
 70
     0
  9
$DIMALTZ
 70
     0
  9
$DIMALTTZ
 70
     0
  9
$DIMFIT
 70
     3
  9
$DIMUPT
 70
     0
  9
$DIMUNIT
 70
     2
  9
$DIMDEC
 70
     3
  9
$DIMTDEC
 70
     3
  9
$DIMALTU
 70
     2
  9
$DIMALTTD
 70
     2
  9
$DIMTXSTY
  7
ASAMI
  9
$DIMAUNIT
 70
     0
  9
$LUNITS
 70
     2
  9
$LUPREC
 70
     2
  9
$SKETCHINC
 40
1.0
  9
$FILLETRAD
 40
2.5
  9
$AUNITS
 70
     0
  9
$AUPREC
 70
     0
  9
$MENU
  1
.
  9
$ELEVATION
 40
0.0
  9
$PELEVATION
 40
0.0
  9
$THICKNESS
 40
0.0
  9
$LIMCHECK
 70
     0
  9
$BLIPMODE
 70
     0
  9
$CHAMFERA
 40
0.25
  9
$CHAMFERB
 40
0.25
  9
$CHAMFERC
 40
20.0
  9
$CHAMFERD
 40
0.0
  9
$SKPOLY
 70
     0
  9
$TDCREATE
 40
2452800.443498622
  9
$TDUPDATE
 40
2453151.578020995
  9
$TDINDWG
 40
0.0453832060
  9
$TDUSRTIMER
 40
0.0453832060
  9
$USRTIMER
 70
     1
  9
$ANGBASE
 50
0.0
  9
$ANGDIR
 70
     0
  9
$PDMODE
 70
     3
  9
$PDSIZE
 40
0.0
  9
$PLINEWID
 40
0.0
  9
$COORDS
 70
     1
  9
$SPLFRAME
 70
     0
  9
$SPLINETYPE
 70
     6
  9
$SPLINESEGS
 70
     8
  9
$ATTDIA
 70
     1
  9
$ATTREQ
 70
     1
  9
$HANDLING
 70
 12289
  9
$HANDSEED
  5
2B5C
  9
$SURFTAB1
 70
     6
  9
$SURFTAB2
 70
     6
  9
$SURFTYPE
 70
     6
  9
$SURFU
 70
     6
  9
$SURFV
 70
     6
  9
$UCSNAME
  2

  9
$UCSORG
 10
0.0
 20
0.0
 30
0.0
  9
$UCSXDIR
 10
1.0
 20
0.000000000000002
 30
0.0
  9
$UCSYDIR
 10
-0.000000000000002
 20
1.0
 30
0.0
  9
$PUCSNAME
  2

  9
$PUCSORG
 10
0.0
 20
0.0
 30
0.0
  9
$PUCSXDIR
 10
1.0
 20
0.0
 30
0.0
  9
$PUCSYDIR
 10
0.0
 20
1.0
 30
0.0
  9
$USERI1
 70
     0
  9
$USERI2
 70
     0
  9
$USERI3
 70
     0
  9
$USERI4
 70
     0
  9
$USERI5
 70
     0
  9
$USERR1
 40
0.0
  9
$USERR2
 40
0.0
  9
$USERR3
 40
0.0
  9
$USERR4
 40
0.0
  9
$USERR5
 40
0.0
  9
$WORLDVIEW
 70
     1
  9
$SHADEDGE
 70
     3
  9
$SHADEDIF
 70
    70
  9
$TILEMODE
 70
     1
  9
$MAXACTVP
 70
    64
  9
$PINSBASE
 10
0.0
 20
0.0
 30
0.0
  9
$PLIMCHECK
 70
     0
  9
$PEXTMIN
 10
1.000000000000000E+20
 20
1.000000000000000E+20
 30
1.000000000000000E+20
  9
$PEXTMAX
 10
-1.000000000000000E+20
 20
-1.000000000000000E+20
 30
-1.000000000000000E+20
  9
$PLIMMIN
 10
0.0
 20
0.0
  9
$PLIMMAX
 10
841.0
 20
594.0
  9
$UNITMODE
 70
     0
  9
$VISRETAIN
 70
     1
  9
$PLINEGEN
 70
     0
  9
$PSLTSCALE
 70
     0
  9
$TREEDEPTH
 70
  3020
  9
$PICKSTYLE
 70
     0
  9
$CMLSTYLE
  2
STANDARD
  9
$CMLJUST
 70
     0
  9
$CMLSCALE
 40
20.0
  9
$PROXYGRAPHICS
 70
     1
  9
$MEASUREMENT
 70
     1
  0
ENDSEC
  0
SECTION
  2
CLASSES
  0
CLASS
  1
ACDBDICTIONARYWDFLT
  2
AcDbDictionaryWithDefault
  3
AutoCAD 2000
 90
        0
280
     0
281
     0
  0
CLASS
  1
ACDBPLACEHOLDER
  2
AcDbPlaceHolder
  3
AutoCAD 2000
 90
        0
280
     0
281
     0
  0
CLASS
  1
LAYOUT
  2
AcDbLayout
  3
AutoCAD 2000
 90
        0
280
     0
281
     0
  0
CLASS
  1
AMGSETTINGSOBJ
  2
AmgSettingsObj
  3
"AcadM|Product Description: AutoCAD Mechanical 2000|Company: Autodesk"
 90
        0
280
     0
281
     0
  0
CLASS
  1
ACME_DOCUMENT
  2
AcMeDbDoc
  3
AcMeServices
 90
        0
280
     0
281
     0
  0
CLASS
  1
ACMESCOPE
  2
AcMeScope
  3
AcMeServices
 90
        0
280
     0
281
     0
  0
CLASS
  1
ACMECOMMANDHISTORY
  2
AcMeCommandHistory
  3
AcMeServices
 90
        0
280
     0
281
     0
  0
CLASS
  1
DICTIONARYVAR
  2
AcDbDictionaryVar
  3
AutoCAD 2000
 90
        0
280
     0
281
     0
  0
CLASS
  1
ACIMSYSVARMAN
  2
AcImSysVarManager
  3
AcMeServices
 90
        0
280
     0
281
     0
  0
CLASS
  1
ACIMREALSYSVAR
  2
AcImRealSysVar
  3
AcMeServices
 90
        0
280
     0
281
     0
  0
CLASS
  1
ACIMINTSYSVAR
  2
AcImIntSysVar
  3
AcMeServices
 90
        0
280
     0
281
     0
  0
CLASS
  1
ACMEDRAWINGMAN
  2
AcMeDrawingMan
  3
AcMeServices
 90
        0
280
     0
281
     0
  0
CLASS
  1
ACMEVIEW
  2
AcMeView
  3
AcMeServices
 90
        0
280
     0
281
     0
  0
CLASS
  1
ACDBENTITYCACHE
  2
AcMeEntityCache
  3
AcMeServices
 90
        0
280
     0
281
     0
  0
CLASS
  1
GSMANAGER
  2
AcMeGSManager
  3
AcMeServices
 90
        0
280
     0
281
     0
  0
CLASS
  1
AmdtInternalReactor
  2
AmdtInternalReactor
  3
AcMeServices
 90
        0
280
     0
281
     0
  0
CLASS
  1
ACMESTATEMGR
  2
AcMeStateMgr
  3
AcMeServices
 90
        0
280
     0
281
     0
  0
CLASS
  1
ACME_DATABASE
  2
AcMeDbDatabase
  3
AcMeServices
 90
        0
280
     0
281
     0
  0
CLASS
  1
ACRFINSADJUSTERMGR
  2
AcRfInsAdjusterMgr
  3
AcMeServices
 90
        0
280
     0
281
     0
  0
CLASS
  1
ACMDATADICTIONARY
  2
AcmDataDictionary
  3
"AcmSymBB|Product Description: AutoCAD Mechanical 2000|Company: Autodesk"
 90
        0
280
     0
281
     0
  0
CLASS
  1
ACMDATAENTRYBLOCK
  2
AcmDataEntryBlock
  3
"AcmSymBB|Product Description: AutoCAD Mechanical 2000|Company: Autodesk"
 90
        0
280
     0
281
     0
  0
CLASS
  1
AMGOBJPROPCFG
  2
AmgObjPropCfg
  3
"AmgLay|Product Description: AutoCAD Mechanical 2000|Company: Autodesk"
 90
        1
280
     0
281
     0
  0
CLASS
  1
ACAMGFILTERDAT
  2
AcAmgFilterDat
  3
"AcadM|Product Description: AutoCAD Mechanical 2000|Company: Autodesk"
 90
        0
280
     0
281
     0
  0
CLASS
  1
LAYER_INDEX
  2
AcDbLayerIndex
  3
AutoCAD 2000
 90
        0
280
     0
281
     0
  0
CLASS
  1
IDBUFFER
  2
AcDbIdBuffer
  3
AutoCAD 2000
 90
        0
280
     0
281
     0
  0
CLASS
  1
ACIMSTRSYSVAR
  2
AcImStrSysVar
  3
AcMeServices
 90
        0
280
     0
281
     0
  0
CLASS
  1
ACMSTANDARDJIS
  2
AcmStandardJIS
  3
"AcmSymBB|Product Description: AutoCAD Mechanical 2000|Company: Autodesk"
 90
        0
280
     0
281
     0
  0
CLASS
  1
ACMSURFSTANDARDJIS
  2
AcmSurfTextStdJIS
  3
"AcmSymBB|Product Description: AutoCAD Mechanical 2000|Company: Autodesk"
 90
        0
280
     0
281
     0
  0
CLASS
  1
ACMFCFSTANDARDJIS
  2
AcmFCFStdJIS
  3
"AcmSymBB|Product Description: AutoCAD Mechanical 2000|Company: Autodesk"
 90
        0
280
     0
281
     0
  0
CLASS
  1
ACMWELDSTANDARDJIS
  2
AcmWeldingStdJIS
  3
"AcmSymBB|Product Description: AutoCAD Mechanical 2000|Company: Autodesk"
 90
        0
280
     0
281
     0
  0
CLASS
  1
ACMIDSTANDARDJIS
  2
AcmIdStdJIS
  3
"AcmSymBB|Product Description: AutoCAD Mechanical 2000|Company: Autodesk"
 90
        0
280
     0
281
     0
  0
CLASS
  1
ACMDATUMSTANDARDJIS
  2
AcmDatumStdJIS
  3
"AcmSymBB|Product Description: AutoCAD Mechanical 2000|Company: Autodesk"
 90
        0
280
     0
281
     0
  0
CLASS
  1
ACMBOMSTANDARDJIS
  2
AcmBOMStdJIS
  3
"AcmSymBB|Product Description: AutoCAD Mechanical 2000|Company: Autodesk"
 90
        0
280
     0
281
     0
  0
CLASS
  1
ACMSTANDARDANSI
  2
AcmStandardANSI
  3
"AcmSymBB|Product Description: AutoCAD Mechanical 2000|Company: Autodesk"
 90
        0
280
     0
281
     0
  0
CLASS
  1
ACMSURFSTANDARDANSI
  2
AcmSurfTextStdANSI
  3
"AcmSymBB|Product Description: AutoCAD Mechanical 2000|Company: Autodesk"
 90
        0
280
     0
281
     0
  0
CLASS
  1
ACMFCFSTANDARDANSI
  2
AcmFCFStdANSI
  3
"AcmSymBB|Product Description: AutoCAD Mechanical 2000|Company: Autodesk"
 90
        0
280
     0
281
     0
  0
CLASS
  1
ACMWELDSTANDARDANSI
  2
AcmWeldingStdANSI
  3
"AcmSymBB|Product Description: AutoCAD Mechanical 2000|Company: Autodesk"
 90
        0
280
     0
281
     0
  0
CLASS
  1
ACMIDSTANDARDANSI
  2
AcmIdStdANSI
  3
"AcmSymBB|Product Description: AutoCAD Mechanical 2000|Company: Autodesk"
 90
        0
280
     0
281
     0
  0
CLASS
  1
ACMDATUMSTANDARDANSI
  2
AcmDatumStdANSI
  3
"AcmSymBB|Product Description: AutoCAD Mechanical 2000|Company: Autodesk"
 90
        0
280
     0
281
     0
  0
CLASS
  1
ACMBOMSTANDARDANSI
  2
AcmBOMStdANSI
  3
"AcmSymBB|Product Description: AutoCAD Mechanical 2000|Company: Autodesk"
 90
        0
280
     0
281
     0
  0
CLASS
  1
ACMSTANDARDBSI
  2
AcmStandardBSI
  3
"AcmSymBB|Product Description: AutoCAD Mechanical 2000|Company: Autodesk"
 90
        0
280
     0
281
     0
  0
CLASS
  1
ACMSURFSTANDARDBSI
  2
AcmSurfTextStdBSI
  3
"AcmSymBB|Product Description: AutoCAD Mechanical 2000|Company: Autodesk"
 90
        0
280
     0
281
     0
  0
CLASS
  1
ACMFCFSTANDARDBSI
  2
AcmFCFStdBSI
  3
"AcmSymBB|Product Description: AutoCAD Mechanical 2000|Company: Autodesk"
 90
        0
280
     0
281
     0
  0
CLASS
  1
ACMWELDSTANDARDBSI
  2
AcmWeldingStdBSI
  3
"AcmSymBB|Product Description: AutoCAD Mechanical 2000|Company: Autodesk"
 90
        0
280
     0
281
     0
  0
CLASS
  1
ACMIDSTANDARDBSI
  2
AcmIdStdBSI
  3
"AcmSymBB|Product Description: AutoCAD Mechanical 2000|Company: Autodesk"
 90
        0
280
     0
281
     0
  0
CLASS
  1
ACMDATUMSTANDARDBSI
  2
AcmDatumStdBSI
  3
"AcmSymBB|Product Description: AutoCAD Mechanical 2000|Company: Autodesk"
 90
        0
280
     0
281
     0
  0
CLASS
  1
ACMBOMSTANDARDBSI
  2
AcmBOMStdBSI
  3
"AcmSymBB|Product Description: AutoCAD Mechanical 2000|Company: Autodesk"
 90
        0
280
     0
281
     0
  0
CLASS
  1
LONG_TRANSACTION
  2
AcDbLongTransaction
  3
AutoCAD 2000
 90
        0
280
     0
281
     0
  0
CLASS
  1
LWPOLYLINE
  2
AcDbPolyline
  3
AutoCAD 2000
 90
        0
280
     0
281
     1
  0
CLASS
  1
HATCH
  2
AcDbHatch
  3
AutoCAD 2000
 90
        0
280
     0
281
     1
  0
CLASS
  1
XRECORD
  2
AcDbXrecord
  3
AutoCAD 2000
 90
        0
280
     0
281
     0
  0
ENDSEC
  0
SECTION
  2
TABLES
  0
TABLE
  2
VPORT
  5
8
330
0
100
AcDbSymbolTable
 70
     3
  0
VPORT
  5
2B31
330
8
100
AcDbSymbolTableRecord
100
AcDbViewportTableRecord
  2
*ACTIVE
 70
     0
 10
0.0
 20
0.0
 11
1.0
 21
1.0
 12
-36.2830982608291
 22
-5.426960517731856
 13
0.0
 23
0.0
 14
2.5
 24
2.5
 15
10.0
 25
10.0
 16
0.0
 26
0.0
 36
1.0
 17
0.0
 27
0.0
 37
0.0
 40
71.38459219527085
 41
1.56570841889117
 42
50.0
 43
0.0
 44
0.0
 50
0.0
 51
0.0
 71
     0
 72
   100
 73
     1
 74
     1
 75
     0
 76
     0
 77
     0
 78
     0
  0
ENDTAB
  0
TABLE
  2
LTYPE
  5
5
330
0
100
AcDbSymbolTable
 70
    10
  0
LTYPE
  5
14
330
5
100
AcDbSymbolTableRecord
100
AcDbLinetypeTableRecord
  2
BYBLOCK
 70
     0
  3

 72
    65
 73
     0
 40
0.0
  0
LTYPE
  5
15
330
5
100
AcDbSymbolTableRecord
100
AcDbLinetypeTableRecord
  2
BYLAYER
 70
     0
  3

 72
    65
 73
     0
 40
0.0
  0
LTYPE
  5
16
330
5
100
AcDbSymbolTableRecord
100
AcDbLinetypeTableRecord
  2
CONTINUOUS
 70
     0
  3
Solid line
 72
    65
 73
     0
 40
0.0
  0
LTYPE
  5
4B
330
5
100
AcDbSymbolTableRecord
100
AcDbLinetypeTableRecord
  2
AM_ISO02W050
 70
     0
  3
__ __ __ __ __ __ __ __ __ __ __ __ __ __ __
 72
    65
 73
     2
 40
7.5
 49
6.0
 74
     0
 49
-1.5
 74
     0
  0
LTYPE
  5
4C
330
5
100
AcDbSymbolTableRecord
100
AcDbLinetypeTableRecord
  2
AM_ISO08W050
 70
     0
  3
____ . ____ . ____ . ____ . ____ . ____ . ____
 72
    65
 73
     4
 40
18.0
 49
12.0
 74
     0
 49
-1.5
 74
     0
 49
3.0
 74
     0
 49
-1.5
 74
     0
  0
LTYPE
  5
4D
330
5
100
AcDbSymbolTableRecord
100
AcDbLinetypeTableRecord
  2
AM_ISO09W050
 70
     0
  3
_____ . . _____ . . _____ . . ____ .. ____
 72
    65
 73
     6
 40
22.5
 49
12.0
 74
     0
 49
-1.5
 74
     0
 49
3.0
 74
     0
 49
-1.5
 74
     0
 49
3.0
 74
     0
 49
-1.5
 74
     0
  0
LTYPE
  5
4E
330
5
100
AcDbSymbolTableRecord
100
AcDbLinetypeTableRecord
  2
AMCONSTR
 70
     0
  3
_______________________
 72
    65
 73
     2
 40
9999.0
 49
9999.0
 74
     0
 49
0.0
 74
     0
  0
LTYPE
  5
4F
330
5
100
AcDbSymbolTableRecord
100
AcDbLinetypeTableRecord
  2
AM_ISO02W050X2
 70
     0
  3
 _ _ _ _ _ _ _ _ _ _ _ _
 72
    65
 73
     2
 40
3.75
 49
3.0
 74
     0
 49
-0.75
 74
     0
  0
LTYPE
  5
50
330
5
100
AcDbSymbolTableRecord
100
AcDbLinetypeTableRecord
  2
AM_ISO08W050X2
 70
     0
  3
__ . __ . __ . __ . __ . __
 72
    65
 73
     4
 40
9.0
 49
6.0
 74
     0
 49
-0.75
 74
     0
 49
1.5
 74
     0
 49
-0.75
 74
     0
  0
LTYPE
  5
53
330
5
100
AcDbSymbolTableRecord
100
AcDbLinetypeTableRecord
  2
AMZIGZAG
 70
     0
  3
/\/-/\/-/\/-/\/-/\/-/\/
 72
    65
 73
     2
 40
11.00009999999999
 49
0.0001
 74
     4
 75
   135
340
52
 46
0.04
 50
0.0
 44
0.0
 45
0.0
 49
-11.0
 74
     0
  0
LTYPE
  5
166
330
5
100
AcDbSymbolTableRecord
100
AcDbLinetypeTableRecord
  2
ACJISTGL
 70
     0
  3
_ _ _ _ _
 72
    65
 73
     2
 40
3.0
 49
2.0
 74
     0
 49
-1.0
 74
     0
  0
LTYPE
  5
26A
330
5
100
AcDbSymbolTableRecord
100
AcDbLinetypeTableRecord
  2
ACJISTGB
 70
     0
  3
__ . . __ . .
 72
    65
 73
     6
 40
9.0
 49
4.0
 74
     0
 49
-1.0
 74
     0
 49
1.0
 74
     0
 49
-1.0
 74
     0
 49
1.0
 74
     0
 49
-1.0
 74
     0
  0
ENDTAB
  0
TABLE
  2
LAYER
  5
2
330
0
100
AcDbSymbolTable
 70
     7
  0
LAYER
  5
10
330
2
100
AcDbSymbolTableRecord
100
AcDbLayerTableRecord
  2
0
 70
     0
 62
     7
  6
CONTINUOUS
  0
LAYER
  5
3F9
330
2
100
AcDbSymbolTableRecord
100
AcDbLayerTableRecord
  2
AM_0
 70
     0
 62
     7
  6
CONTINUOUS
  0
LAYER
  5
C7C
330
2
100
AcDbSymbolTableRecord
100
AcDbLayerTableRecord
  2
AM_7
 70
     0
 62
     4
  6
AM_ISO08W050
  0
LAYER
  5
C97
330
2
100
AcDbSymbolTableRecord
100
AcDbLayerTableRecord
  2
AM_11
 70
     0
 62
     3
  6
AM_ISO09W050
  0
LAYER
  5
CC5
330
2
100
AcDbSymbolTableRecord
100
AcDbLayerTableRecord
  2
AM_5
 70
     0
 62
     3
  6
CONTINUOUS
  0
LAYER
  5
CC7
330
2
100
AcDbSymbolTableRecord
100
AcDbLayerTableRecord
  2
DEFPOINTS
 70
     0
 62
     7
  6
CONTINUOUS
  0
LAYER
  5
19BC
330
2
100
AcDbSymbolTableRecord
100
AcDbLayerTableRecord
  2
AM_6
 70
     0
 62
     2
  6
CONTINUOUS
  0
ENDTAB
  0
TABLE
  2
STYLE
  5
3
330
0
100
AcDbSymbolTable
 70
     5
  0
STYLE
  5
11
330
3
100
AcDbSymbolTableRecord
100
AcDbTextStyleTableRecord
  2
STANDARD
 70
     0
 40
0.0
 41
1.0
 50
0.0
 71
     0
 42
2.5
  3
simplex.shx
  4
EXTFONT.SHX
  0
STYLE
  5
52
330
3
100
AcDbSymbolTableRecord
100
AcDbTextStyleTableRecord
  2

 70
     1
 40
0.0
 41
1.0
 50
0.0
 71
     0
 42
2.5
  3
ltypeshp.shx
  4

  0
STYLE
  5
6B
330
3
100
AcDbSymbolTableRecord
100
AcDbTextStyleTableRecord
  2
ASAMI
 70
     0
 40
0.0
 41
1.0
 50
0.0
 71
     0
 42
2.5
  3
simplex.shx
  4
EXTFONT.SHX
  0
STYLE
  5
262
330
3
100
AcDbSymbolTableRecord
100
AcDbTextStyleTableRecord
  2
ACJISTS
 70
     0
 40
1.0
 41
1.0
 50
0.0
 71
     0
 42
2.5
  3
simplex.shx
  4
bigfont.shx
  0
STYLE
  5
269
330
3
100
AcDbSymbolTableRecord
100
AcDbTextStyleTableRecord
  2
ACJISGDT
 70
     0
 40
0.0
 41
1.0
 50
0.0
 71
     0
 42
2.5
  3
amgdtans.shx
  4

  0
ENDTAB
  0
TABLE
  2
VIEW
  5
6
330
0
100
AcDbSymbolTable
 70
     0
  0
ENDTAB
  0
TABLE
  2
UCS
  5
7
330
0
100
AcDbSymbolTable
 70
     0
  0
ENDTAB
  0
TABLE
  2
APPID
  5
9
330
0
100
AcDbSymbolTable
 70
    16
  0
APPID
  5
12
330
9
100
AcDbSymbolTableRecord
100
AcDbRegAppTableRecord
  2
ACAD
 70
     0
  0
APPID
  5
30
330
9
100
AcDbSymbolTableRecord
100
AcDbRegAppTableRecord
  2
MCAD_NO_VIS
 70
     0
  0
APPID
  5
31
330
9
100
AcDbSymbolTableRecord
100
AcDbRegAppTableRecord
  2
ACAD_TEMP_GRAPHIC
 70
     0
  0
APPID
  5
2C2
330
9
100
AcDbSymbolTableRecord
100
AcDbRegAppTableRecord
  2
GENIUS_GENDTOL_13
 70
     0
  0
APPID
  5
339
330
9
100
AcDbSymbolTableRecord
100
AcDbRegAppTableRecord
  2
GENIUS_GENODEF_13
 70
     0
  0
APPID
  5
33A
330
9
100
AcDbSymbolTableRecord
100
AcDbRegAppTableRecord
  2
GENIUS_GENOBJ-N-RSBK_13
 70
     0
  0
APPID
  5
33B
330
9
100
AcDbSymbolTableRecord
100
AcDbRegAppTableRecord
  2
GENIUS_GENOBJ-N-LIB_13
 70
     0
  0
APPID
  5
33C
330
9
100
AcDbSymbolTableRecord
100
AcDbRegAppTableRecord
  2
GENIUS_GENSCALE_13
 70
     0
  0
APPID
  5
378
330
9
100
AcDbSymbolTableRecord
100
AcDbRegAppTableRecord
  2
GENIUS_GENDIMSH_14
 70
     0
  0
APPID
  5
C82
330
9
100
AcDbSymbolTableRecord
100
AcDbRegAppTableRecord
  2
GENIUS_GENOBJ-N-CRS_13
 70
     0
  0
APPID
  5
C83
330
9
100
AcDbSymbolTableRecord
100
AcDbRegAppTableRecord
  2
GENIUS_GENOENT_13
 70
     0
  0
APPID
  5
C84
330
9
100
AcDbSymbolTableRecord
100
AcDbRegAppTableRecord
  2
GENIUS_GENOREF_13
 70
     0
  0
APPID
  5
C85
330
9
100
AcDbSymbolTableRecord
100
AcDbRegAppTableRecord
  2
GENIUS_GENOLIS_13
 70
     0
  0
APPID
  5
CA0
330
9
100
AcDbSymbolTableRecord
100
AcDbRegAppTableRecord
  2
GENIUS_GENOBJ-N-CEN_13
 70
     0
  0
APPID
  5
1CFA
330
9
100
AcDbSymbolTableRecord
100
AcDbRegAppTableRecord
  2
GENIUS_GENFIL_13
 70
     0
  0
APPID
  5
1CFB
330
9
100
AcDbSymbolTableRecord
100
AcDbRegAppTableRecord
  2
GENIUS_GENOBJ-N-CHA_13
 70
     0
  0
ENDTAB
  0
TABLE
  2
DIMSTYLE
  5
A
330
0
100
AcDbSymbolTable
 70
     9
  0
DIMSTYLE
105
58
330
A
100
AcDbSymbolTableRecord
100
AcDbDimStyleTableRecord
  2
AM_JIS
 70
     0
  3

  4
"
  5
OPEN30
  6

  7

 40
0.5
 41
2.5
 42
1.0
 43
12.0
 44
1.0
 45
0.0
 46
0.0
 47
0.1
 48
0.1
140
3.2
141
0.0
142
0.0
143
0.0393701
144
1.0
145
0.0
146
0.71
147
1.5
 71
     0
 72
     0
 73
     0
 74
     0
 75
     0
 76
     0
 77
     3
 78
     8
170
     0
171
     2
172
     1
173
     0
174
     0
175
     0
176
   256
177
   256
178
     2
270
     2
271
     3
272
     3
273
     2
274
     2
340
6B
275
     0
280
     0
281
     0
282
     0
283
     0
284
     0
285
     0
286
     0
287
     3
288
     0
  0
DIMSTYLE
105
5F
330
A
100
AcDbSymbolTableRecord
100
AcDbDimStyleTableRecord
  2
AM_JIS$3
 70
     0
  3

  4
"
  5
OPEN30
  6

  7

 40
0.5
 41
2.5
 42
1.0
 43
10.0
 44
1.0
 45
0.0
 46
0.0
 47
0.1
 48
0.1
140
3.2
141
0.0
142
0.0
143
0.0393701
144
1.0
145
0.0
146
0.71
147
1.5
 71
     0
 72
     0
 73
     0
 74
     1
 75
     0
 76
     0
 77
     3
 78
     8
170
     0
171
     2
172
     0
173
     0
174
     0
175
     0
176
   256
177
   256
178
     2
270
     2
271
     2
272
     3
273
     2
274
     2
340
6B
275
     0
280
     0
281
     0
282
     0
283
     0
284
     0
285
     0
286
     0
287
     0
288
     1
  0
DIMSTYLE
105
60
330
A
100
AcDbSymbolTableRecord
100
AcDbDimStyleTableRecord
  2
AM_JIS$4
 70
     0
  3

  4
"
  5
OPEN30
  6

  7

 40
0.5
 41
2.5
 42
1.0
 43
10.0
 44
1.0
 45
0.0
 46
0.0
 47
0.1
 48
0.1
140
3.2
141
0.0
142
0.0
143
0.0393701
144
1.0
145
0.0
146
0.71
147
1.5
 71
     0
 72
     0
 73
     0
 74
     1
 75
     0
 76
     0
 77
     3
 78
     8
170
     0
171
     2
172
     0
173
     0
174
     0
175
     0
176
   256
177
   256
178
     2
270
     2
271
     2
272
     3
273
     2
274
     2
340
6B
275
     0
280
     0
281
     0
282
     0
283
     0
284
     0
285
     0
286
     0
287
     0
288
     1
  0
DIMSTYLE
105
61
330
A
100
AcDbSymbolTableRecord
100
AcDbDimStyleTableRecord
  2
AM_JIS$6
 70
     0
  3

  4
"
  5
OPEN30
  6

  7

 40
0.5
 41
2.5
 42
1.0
 43
10.0
 44
1.0
 45
0.0
 46
0.0
 47
0.1
 48
0.1
140
3.2
141
0.0
142
0.0
143
0.0393701
144
1.0
145
0.0
146
0.71
147
1.5
 71
     0
 72
     0
 73
     0
 74
     0
 75
     0
 76
     0
 77
     0
 78
     8
170
     0
171
     2
172
     1
173
     0
174
     0
175
     0
176
   256
177
   256
178
     2
270
     2
271
     2
272
     2
273
     2
274
     2
340
6B
275
     0
280
     0
281
     0
282
     0
283
     0
284
     0
285
     0
286
     0
287
     3
288
     0
  0
DIMSTYLE
105
62
330
A
100
AcDbSymbolTableRecord
100
AcDbDimStyleTableRecord
  2
AM_JIS$7
 70
     0
  3

  4
"
  5
OPEN30
  6

  7

 40
0.5
 41
2.5
 42
1.0
 43
10.0
 44
1.0
 45
0.0
 46
0.0
 47
0.1
 48
0.1
140
3.2
141
0.0
142
0.0
143
0.0393701
144
1.0
145
0.0
146
0.71
147
1.5
 71
     0
 72
     0
 73
     0
 74
     0
 75
     0
 76
     0
 77
     3
 78
     8
170
     0
171
     2
172
     1
173
     0
174
     0
175
     0
176
   256
177
   256
178
     2
270
     2
271
     2
272
     3
273
     2
274
     2
340
6B
275
     0
280
     0
281
     0
282
     0
283
     0
284
     0
285
     0
286
     0
287
     3
288
     0
  0
DIMSTYLE
105
63
330
A
100
AcDbSymbolTableRecord
100
AcDbDimStyleTableRecord
  2
AM_JIS$SF
 70
     0
  3

  4
"
  5
OPEN30
  6

  7

 40
0.5
 41
2.5
 42
1.0
 43
10.0
 44
1.0
 45
0.0
 46
0.0
 47
0.1
 48
0.1
140
3.2
141
0.0
142
0.0
143
0.0393701
144
1.0
145
0.0
146
0.71
147
1.5
 71
     0
 72
     0
 73
     0
 74
     0
 75
     1
 76
     1
 77
     3
 78
     8
170
     0
171
     2
172
     1
173
     0
174
     0
175
     0
176
   256
177
   256
178
     2
270
     2
271
     2
272
     2
273
     2
274
     2
340
6B
275
     0
280
     0
281
     0
282
     0
283
     0
284
     0
285
     0
286
     0
287
     3
288
     0
  0
DIMSTYLE
105
68
330
A
100
AcDbSymbolTableRecord
100
AcDbDimStyleTableRecord
  2
AM_JIS$SH
 70
     0
  3

  4
"
  5

  6
GENAXEH
  7
OPEN30
 40
0.5
 41
2.5
 42
1.0
 43
10.0
 44
1.0
 45
0.0
 46
0.0
 47
0.1
 48
0.1
140
3.2
141
0.0
142
0.0
143
0.0393701
144
2.0
145
0.0
146
0.71
147
1.5
 71
     0
 72
     0
 73
     0
 74
     0
 75
     1
 76
     1
 77
     3
 78
     8
170
     0
171
     2
172
     1
173
     1
174
     0
175
     0
176
   256
177
   256
178
     2
270
     2
271
     2
272
     2
273
     2
274
     2
340
6B
275
     0
280
     0
281
     0
282
     0
283
     0
284
     0
285
     0
286
     0
287
     3
288
     0
  0
DIMSTYLE
105
B34
102
{ACAD_REACTORS
330
260B
102
}
330
A
100
AcDbSymbolTableRecord
100
AcDbDimStyleTableRecord
  2
AM_JIS$2
 70
     0
  3

  4
"
  5
OPEN30
  6

  7

 40
0.5
 41
2.5
 42
1.0
 43
12.0
 44
1.0
 45
0.0
 46
0.0
 47
0.1
 48
0.1
140
3.2
141
0.0
142
0.0
143
0.0393701
144
1.0
145
0.0
146
0.71
147
1.5
 71
     0
 72
     0
 73
     0
 74
     0
 75
     0
 76
     0
 77
     3
 78
     8
170
     0
171
     2
172
     1
173
     0
174
     0
175
     0
176
   256
177
   256
178
     2
270
     2
271
     3
272
     3
273
     2
274
     2
340
6B
275
     0
280
     0
281
     0
282
     0
283
     0
284
     0
285
     0
286
     0
287
     3
288
     0
  0
DIMSTYLE
105
BA5
102
{ACAD_REACTORS
330
CC6
330
DF5
330
218E
330
245D
102
}
330
A
100
AcDbSymbolTableRecord
100
AcDbDimStyleTableRecord
  2
AM_JIS$0
 70
     0
  3

  4
"
  5
OPEN30
  6

  7

 40
0.5
 41
2.5
 42
0.0
 43
10.0
 44
1.0
 45
0.0
 46
0.0
 47
0.1
 48
0.1000000001
140
3.799999999999999
141
0.0
142
0.0
143
0.0393701
144
1.0
145
0.0
146
0.71
147
1.5
 71
     0
 72
     0
 73
     0
 74
     0
 75
     0
 76
     0
 77
     3
 78
     1
170
     0
171
     2
172
     1
173
     0
174
     0
175
     0
176
     3
177
     3
178
     2
270
     2
271
     2
272
     2
273
     2
274
     2
340
11
275
     1
280
     0
281
     0
282
     0
283
     0
284
     8
285
     0
286
     0
287
     0
288
     0
  0
ENDTAB
  0
TABLE
  2
BLOCK_RECORD
  5
1
330
0
100
AcDbSymbolTable
 70
    10
  0
BLOCK_RECORD
  5
1F
102
{ACAD_XDICTIONARY
360
74
102
}
330
1
100
AcDbSymbolTableRecord
100
AcDbBlockTableRecord
  2
*MODEL_SPACE
  0
BLOCK_RECORD
  5
101
102
{ACAD_XDICTIONARY
360
2B5A
102
}
330
1
100
AcDbSymbolTableRecord
100
AcDbBlockTableRecord
  2
*PAPER_SPACE
  0
BLOCK_RECORD
  5
59
330
1
100
AcDbSymbolTableRecord
100
AcDbBlockTableRecord
  2
_OPEN30
  0
BLOCK_RECORD
  5
64
330
1
100
AcDbSymbolTableRecord
100
AcDbBlockTableRecord
  2
GENAXEH
  0
BLOCK_RECORD
  5
CC8
330
1
100
AcDbSymbolTableRecord
100
AcDbBlockTableRecord
  2
*D5
  0
BLOCK_RECORD
  5
DF6
330
1
100
AcDbSymbolTableRecord
100
AcDbBlockTableRecord
  2
*D6
  0
BLOCK_RECORD
  5
218F
330
1
100
AcDbSymbolTableRecord
100
AcDbBlockTableRecord
  2
*D7
  0
BLOCK_RECORD
  5
245E
330
1
100
AcDbSymbolTableRecord
100
AcDbBlockTableRecord
  2
*D8
  0
BLOCK_RECORD
  5
260C
330
1
100
AcDbSymbolTableRecord
100
AcDbBlockTableRecord
  2
*D9
  0
ENDTAB
  0
ENDSEC
  0
SECTION
  2
BLOCKS
  0
BLOCK
  5
20
330
1F
100
AcDbEntity
  8
0
100
AcDbBlockBegin
  2
*MODEL_SPACE
 70
     0
 10
0.0
 20
0.0
 30
0.0
  3
*MODEL_SPACE
  1

  0
ENDBLK
  5
21
330
1F
100
AcDbEntity
  8
0
100
AcDbBlockEnd
  0
BLOCK
  5
103
330
101
100
AcDbEntity
 67
     1
  8
0
100
AcDbBlockBegin
  2
*PAPER_SPACE
 70
     0
 10
0.0
 20
0.0
 30
0.0
  3
*PAPER_SPACE
  1

  0
ENDBLK
  5
104
330
101
100
AcDbEntity
 67
     1
  8
0
100
AcDbBlockEnd
  0
BLOCK
  5
5D
330
59
100
AcDbEntity
  8
0
100
AcDbBlockBegin
  2
_OPEN30
 70
     0
 10
0.0
 20
0.0
 30
0.0
  3
_OPEN30
  1

  0
LINE
  5
5A
330
59
100
AcDbEntity
  8
0
 62
     0
100
AcDbLine
 10
-1.0
 20
0.26794919
 30
0.0
 11
0.0
 21
0.0
 31
0.0
  0
LINE
  5
5B
330
59
100
AcDbEntity
  8
0
 62
     0
100
AcDbLine
 10
0.0
 20
0.0
 30
0.0
 11
-1.0
 21
-0.26794919
 31
0.0
  0
LINE
  5
5C
330
59
100
AcDbEntity
  8
0
 62
     0
100
AcDbLine
 10
0.0
 20
0.0
 30
0.0
 11
-1.0
 21
0.0
 31
0.0
  0
ENDBLK
  5
5E
330
59
100
AcDbEntity
  8
0
100
AcDbBlockEnd
  0
BLOCK
  5
66
330
64
100
AcDbEntity
  8
0
100
AcDbBlockBegin
  2
GENAXEH
 70
     0
 10
0.0
 20
0.0
 30
0.0
  3
GENAXEH
  1

  0
LINE
  5
65
330
64
100
AcDbEntity
  8
0
100
AcDbLine
 10
-1.0
 20
0.0
 30
0.0
 11
1.0
 21
0.0
 31
0.0
  0
ENDBLK
  5
67
330
64
100
AcDbEntity
  8
0
100
AcDbBlockEnd
  0
BLOCK
  5
CD2
330
CC8
100
AcDbEntity
  8
0
100
AcDbBlockBegin
  2
*D5
 70
     1
 10
0.0
 20
0.0
 30
0.0
  3
*D5
  1

  0
LINE
  5
2ADB
330
CC8
100
AcDbEntity
  8
AM_5
 62
     3
100
AcDbLine
 10
-80.99999999999992
 20
-2.352702618522132
 30
0.0
 11
-80.99999999999992
 21
-15.00000099999994
 31
0.0
  0
LINE
  5
2ADC
330
CC8
100
AcDbEntity
  8
AM_5
 62
     3
100
AcDbLine
 10
-0.999999999999912
 20
-2.14999960656652
 30
0.0
 11
-0.9999999999999127
 21
-15.00000099999994
 31
0.0
  0
LINE
  5
2ADD
330
CC8
100
AcDbEntity
  8
AM_5
 62
     3
100
AcDbLine
 10
-79.74999999999993
 20
-14.50000099999995
 30
0.0
 11
-2.249999999999912
 21
-14.50000099999995
 31
0.0
  0
INSERT
  5
2ADE
330
CC8
100
AcDbEntity
  8
AM_5
 62
     3
100
AcDbBlockReference
  2
_OPEN30
 10
-80.99999999999992
 20
-14.50000099999995
 30
0.0
 41
1.25
 42
1.25
 43
1.25
 50
180.0
  0
INSERT
  5
2ADF
330
CC8
100
AcDbEntity
  8
AM_5
 62
     3
100
AcDbBlockReference
  2
_OPEN30
 10
-0.9999999999999127
 20
-14.50000099999995
 30
0.0
 41
1.25
 42
1.25
 43
1.25
  0
MTEXT
  5
2AE0
330
CC8
100
AcDbEntity
  8
AM_5
 62
     2
100
AcDbMText
 10
-40.99999999999992
 20
-12.80000099999995
 30
0.0
 40
1.9
 41
0.0
 71
     5
 72
     1
  1
80
1001
ACAD
1000
MTEXTBEGIN
1070
    73
1070
     1
1070
    44
1040
1.0
1070
    74
1070
     0
1000
MTEXTEND
  0
POINT
  5
2AE1
330
CC8
100
AcDbEntity
  8
DEFPOINTS
 62
     0
100
AcDbPoint
 10
-80.99999999999992
 20
-2.352702618522132
 30
0.0
  0
POINT
  5
2AE2
330
CC8
100
AcDbEntity
  8
DEFPOINTS
 62
     0
100
AcDbPoint
 10
-0.999999999999912
 20
-2.14999960656652
 30
0.0
  0
POINT
  5
2AE3
330
CC8
100
AcDbEntity
  8
DEFPOINTS
 62
     0
100
AcDbPoint
 10
-0.9999999999999127
 20
-14.50000099999995
 30
0.0
  0
ENDBLK
  5
CD3
330
CC8
100
AcDbEntity
  8
0
100
AcDbBlockEnd
  0
BLOCK
  5
E00
330
DF6
100
AcDbEntity
  8
0
100
AcDbBlockBegin
  2
*D6
 70
     1
 10
0.0
 20
0.0
 30
0.0
  3
*D6
  1

  0
LINE
  5
2AFA
330
DF6
100
AcDbEntity
  8
AM_5
 62
     3
100
AcDbLine
 10
-30.99999999999992
 20
-2.500000000000035
 30
0.0
 11
-30.99999999999992
 21
-10.00000099999991
 31
0.0
  0
LINE
  5
2AFB
330
DF6
100
AcDbEntity
  8
AM_5
 62
     3
100
AcDbLine
 10
-0.999999999999912
 20
-2.14999960656652
 30
0.0
 11
-0.9999999999999126
 21
-10.00000099999991
 31
0.0
  0
LINE
  5
2AFC
330
DF6
100
AcDbEntity
  8
AM_5
 62
     3
100
AcDbLine
 10
-29.74999999999992
 20
-9.500000999999915
 30
0.0
 11
-2.249999999999912
 21
-9.500000999999915
 31
0.0
  0
INSERT
  5
2AFD
330
DF6
100
AcDbEntity
  8
AM_5
 62
     3
100
AcDbBlockReference
  2
_OPEN30
 10
-30.99999999999992
 20
-9.500000999999915
 30
0.0
 41
1.25
 42
1.25
 43
1.25
 50
180.0
  0
INSERT
  5
2AFE
330
DF6
100
AcDbEntity
  8
AM_5
 62
     3
100
AcDbBlockReference
  2
_OPEN30
 10
-0.9999999999999126
 20
-9.500000999999915
 30
0.0
 41
1.25
 42
1.25
 43
1.25
  0
MTEXT
  5
2AFF
330
DF6
100
AcDbEntity
  8
AM_5
 62
     2
100
AcDbMText
 10
-15.99999999999992
 20
-7.800000999999915
 30
0.0
 40
1.9
 41
0.0
 71
     5
 72
     1
  1
30
1001
ACAD
1000
MTEXTBEGIN
1070
    73
1070
     1
1070
    44
1040
1.0
1070
    74
1070
     0
1000
MTEXTEND
  0
POINT
  5
2B00
330
DF6
100
AcDbEntity
  8
DEFPOINTS
 62
     0
100
AcDbPoint
 10
-30.99999999999992
 20
-2.500000000000035
 30
0.0
  0
POINT
  5
2B01
330
DF6
100
AcDbEntity
  8
DEFPOINTS
 62
     0
100
AcDbPoint
 10
-0.999999999999912
 20
-2.14999960656652
 30
0.0
  0
POINT
  5
2B02
330
DF6
100
AcDbEntity
  8
DEFPOINTS
 62
     0
100
AcDbPoint
 10
-0.9999999999999126
 20
-9.500000999999915
 30
0.0
  0
ENDBLK
  5
E01
330
DF6
100
AcDbEntity
  8
0
100
AcDbBlockEnd
  0
BLOCK
  5
219B
330
218F
100
AcDbEntity
  8
0
100
AcDbBlockBegin
  2
*D7
 70
     1
 10
0.0
 20
0.0
 30
0.0
  3
*D7
  1

  0
LINE
  5
2AE4
330
218F
100
AcDbEntity
  8
AM_5
 62
     3
100
AcDbLine
 10
-80.7499999999999
 20
2.499999999999766
 30
0.0
 11
-89.7500009999999
 21
2.499999999999749
 31
0.0
  0
LINE
  5
2AE5
330
218F
100
AcDbEntity
  8
AM_5
 62
     3
100
AcDbLine
 10
-80.74999999999972
 20
-2.500000000000233
 30
0.0
 11
-89.7500009999999
 21
-2.50000000000025
 31
0.0
  0
LINE
  5
2AE6
330
218F
100
AcDbEntity
  8
AM_5
 62
     3
100
AcDbLine
 10
-89.25000099999991
 20
3.749999999999749
 30
0.0
 11
-89.25000099999991
 21
4.99999999999975
 31
0.0
  0
LINE
  5
2AE7
330
218F
100
AcDbEntity
  8
AM_5
 62
     3
100
AcDbLine
 10
-89.25000099999989
 20
-3.75000000000025
 30
0.0
 11
-89.25000099999989
 21
-5.000000000000249
 31
0.0
  0
LINE
  5
2AE8
330
218F
100
AcDbEntity
  8
AM_5
 62
     3
100
AcDbLine
 10
-89.25000099999989
 20
2.499999999999749
 30
0.0
 11
-89.25000099999989
 21
-2.50000000000025
 31
0.0
  0
INSERT
  5
2AE9
330
218F
100
AcDbEntity
  8
AM_5
 62
     3
100
AcDbBlockReference
  2
_OPEN30
 10
-89.25000099999989
 20
2.499999999999749
 30
0.0
 41
1.25
 42
1.25
 43
1.25
 50
270.0000000000001
  0
INSERT
  5
2AEA
330
218F
100
AcDbEntity
  8
AM_5
 62
     3
100
AcDbBlockReference
  2
_OPEN30
 10
-89.25000099999989
 20
-2.50000000000025
 30
0.0
 41
1.25
 42
1.25
 43
1.25
 50
90.0000000000001
  0
MTEXT
  5
2AEB
330
218F
100
AcDbEntity
  8
AM_5
 62
     2
100
AcDbMText
 10
-90.95000099999991
 20
-0.0000000000002428
 30
0.0
 40
1.9
 41
0.0
 71
     5
 72
     1
  1
%%c5
 11
-0.000000000000002
 21
1.0
 31
0.0
1001
ACAD
1000
MTEXTBEGIN
1070
    73
1070
     1
1070
    44
1040
1.0
1070
    74
1070
     0
1000
MTEXTEND
  0
POINT
  5
2AEC
330
218F
100
AcDbEntity
  8
DEFPOINTS
 62
     0
100
AcDbPoint
 10
-80.7499999999999
 20
2.499999999999945
 30
0.0
  0
POINT
  5
2AED
330
218F
100
AcDbEntity
  8
DEFPOINTS
 62
     0
100
AcDbPoint
 10
-80.74999999999972
 20
-2.500000000000054
 30
0.0
  0
POINT
  5
2AEE
330
218F
100
AcDbEntity
  8
DEFPOINTS
 62
     0
100
AcDbPoint
 10
-89.25000099999989
 20
-2.500000000000051
 30
0.0
  0
ENDBLK
  5
219C
330
218F
100
AcDbEntity
  8
0
100
AcDbBlockEnd
  0
BLOCK
  5
246A
330
245E
100
AcDbEntity
  8
0
100
AcDbBlockBegin
  2
*D8
 70
     1
 10
0.0
 20
0.0
 30
0.0
  3
*D8
  1

  0
LINE
  5
2B03
330
245E
100
AcDbEntity
  8
AM_5
 62
     3
100
AcDbLine
 10
-0.999999999999912
 20
-2.14999960656652
 30
0.0
 11
8.704574799195874
 21
-2.149999606566522
 31
0.0
  0
LINE
  5
2B04
330
245E
100
AcDbEntity
  8
AM_5
 62
     3
100
AcDbLine
 10
-0.9999999999999065
 20
2.150000393433479
 30
0.0
 11
8.704574799195874
 21
2.150000393433476
 31
0.0
  0
LINE
  5
2B05
330
245E
100
AcDbEntity
  8
AM_5
 62
     3
100
AcDbLine
 10
8.204574799195874
 20
-3.399999606566522
 30
0.0
 11
8.204574799195873
 21
-4.649999606566522
 31
0.0
  0
LINE
  5
2B06
330
245E
100
AcDbEntity
  8
AM_5
 62
     3
100
AcDbLine
 10
8.204574799195874
 20
3.400000393433476
 30
0.0
 11
8.204574799195876
 21
11.85000039343347
 31
0.0
  0
LINE
  5
2B07
330
245E
100
AcDbEntity
  8
AM_5
 62
     3
100
AcDbLine
 10
8.204574799195874
 20
-2.149999606566522
 30
0.0
 11
8.204574799195874
 21
2.150000393433476
 31
0.0
  0
INSERT
  5
2B08
330
245E
100
AcDbEntity
  8
AM_5
 62
     3
100
AcDbBlockReference
  2
_OPEN30
 10
8.204574799195874
 20
-2.149999606566522
 30
0.0
 41
1.25
 42
1.25
 43
1.25
 50
90.0
  0
INSERT
  5
2B09
330
245E
100
AcDbEntity
  8
AM_5
 62
     3
100
AcDbBlockReference
  2
_OPEN30
 10
8.204574799195874
 20
2.150000393433476
 30
0.0
 41
1.25
 42
1.25
 43
1.25
 50
270.0
  0
MTEXT
  5
2B0A
330
245E
100
AcDbEntity
  8
AM_5
 62
     2
100
AcDbMText
 10
6.504574799195875
 20
8.250000393433477
 30
0.0
 40
1.9
 41
0.0
 71
     5
 72
     1
  1
%%c4.3
 11
0.0000000000000001
 21
1.0
 31
0.0
1001
ACAD
1000
MTEXTBEGIN
1070
    73
1070
     1
1070
    44
1040
1.0
1070
    74
1070
     0
1000
MTEXTEND
  0
POINT
  5
2B0B
330
245E
100
AcDbEntity
  8
DEFPOINTS
 62
     0
100
AcDbPoint
 10
-0.999999999999912
 20
-2.14999960656652
 30
0.0
  0
POINT
  5
2B0C
330
245E
100
AcDbEntity
  8
DEFPOINTS
 62
     0
100
AcDbPoint
 10
-0.9999999999999065
 20
2.150000393433479
 30
0.0
  0
POINT
  5
2B0D
330
245E
100
AcDbEntity
  8
DEFPOINTS
 62
     0
100
AcDbPoint
 10
8.204574799195874
 20
2.150000393433476
 30
0.0
  0
ENDBLK
  5
246B
330
245E
100
AcDbEntity
  8
0
100
AcDbBlockEnd
  0
BLOCK
  5
261C
330
260C
100
AcDbEntity
  8
0
100
AcDbBlockBegin
  2
*D9
 70
     1
 10
0.0
 20
0.0
 30
0.0
  3
*D9
  1

  0
LINE
  5
2AEF
330
260C
100
AcDbEntity
  8
AM_5
100
AcDbLine
 10
0.1710100704081265
 20
-0.4698463108496862
 30
0.0
 11
5.422109646484551
 21
-14.89712394330939
 31
0.0
  0
LINE
  5
2AF0
330
260C
100
AcDbEntity
  8
AM_5
100
AcDbLine
 10
0.1710113367807555
 20
0.4698458499257564
 30
0.0
 11
5.422149798571739
 21
14.89710932908359
 31
0.0
  0
ARC
  5
2AF1
330
260C
100
AcDbEntity
  8
AM_5
100
AcDbCircle
 10
0.0000000000000557
 20
-0.0000000000000265
 30
0.0
 40
15.353188158879
100
AcDbArc
 50
294.6661004141936
 51
65.33374515691979
  0
INSERT
  5
2AF2
330
260C
100
AcDbEntity
  8
AM_5
100
AcDbBlockReference
  2
_OPEN30
 10
5.251099576076484
 20
-14.42727763245973
 30
0.0
 41
1.25
 42
1.25
 43
1.25
 50
202.33305013059
  0
INSERT
  5
2AF3
330
260C
100
AcDbEntity
  8
AM_5
100
AcDbBlockReference
  2
_OPEN30
 10
5.251138461791041
 20
14.42726347915781
 30
0.0
 41
1.25
 42
1.25
 43
1.25
 50
157.6667954405233
  0
MTEXT
  5
2AF4
330
260C
100
AcDbEntity
  8
AM_5
 62
     2
100
AcDbMText
 10
13.80318815886652
 20
-0.0000186018149914
 30
0.0
 40
1.6
 41
0.0
 71
     5
 72
     1
  1
140°
  7
ASAMI
 11
0.0000013476462646
 21
0.9999999999990919
 31
0.0
1001
ACAD
1000
MTEXTBEGIN
1070
    73
1070
     1
1070
    44
1040
1.0
1070
    74
1070
     0
1000
MTEXTEND
  0
POINT
  5
2AF5
330
260C
100
AcDbEntity
  8
DEFPOINTS
 62
     0
100
AcDbPoint
 10
14.09753919059089
 20
-6.081099852140065
 30
0.0
  0
POINT
  5
2AF6
330
260C
100
AcDbEntity
  8
DEFPOINTS
 62
     0
100
AcDbPoint
 10
0.0000000000000568
 20
-0.0000000000000234
 30
0.0
  0
POINT
  5
2AF7
330
260C
100
AcDbEntity
  8
DEFPOINTS
 62
     0
100
AcDbPoint
 10
0.0000000000000585
 20
-0.0000000000000344
 30
0.0
  0
POINT
  5
2AF8
330
260C
100
AcDbEntity
  8
DEFPOINTS
 62
     0
100
AcDbPoint
 10
-0.2203534757973749
 20
0.6054162040824024
 30
0.0
  0
POINT
  5
2AF9
330
260C
100
AcDbEntity
  8
DEFPOINTS
 62
     0
100
AcDbPoint
 10
-0.2203570834776575
 20
-0.6054210388784097
 30
0.0
  0
ENDBLK
  5
261D
330
260C
100
AcDbEntity
  8
0
100
AcDbBlockEnd
  0
ENDSEC
  0
SECTION
  2
ENTITIES
  0
LINE
  5
C1D
330
1F
100
AcDbEntity
  8
AM_0
 48
0.5
100
AcDbLine
 10
0.0000000000000585
 20
-0.0000000000000344
 30
0.0
 11
-0.220353475797375
 21
0.6054162040824024
 31
0.0
  0
LINE
  5
C20
330
1F
100
AcDbEntity
  8
AM_0
 48
0.5
100
AcDbLine
 10
0.0000000000000568
 20
-0.0000000000000234
 30
0.0
 11
-0.2203570834776576
 21
-0.6054210388784098
 31
0.0
  0
LINE
  5
C30
330
1F
100
AcDbEntity
  8
AM_0
 48
0.5
100
AcDbLine
 10
-80.99999999999992
 20
-2.250000000000054
 30
0.0
 11
-80.9999999999999
 21
2.249999999999945
 31
0.0
  0
LINE
  5
C9F
330
1F
100
AcDbEntity
  8
AM_7
100
AcDbLine
 10
-82.24999999999992
 20
-0.0000000000000553
 30
0.0
 11
1.204573799195879
 21
0.0000000000000008
 31
0.0
1001
GENIUS_GENODEF_13
1002
{
1000
HIER
1070
     0
1002
}
1002
{
1000
MANEDIT
1070
     0
1002
}
1002
{
1000
NOSEL
1070
     0
1002
}
1002
{
1000
BEHIND
1070
     0
1002
}
1002
{
1000
REACTOR
1002
}
1001
GENIUS_GENOBJ-N-CEN_13
1002
{
1000
OWNER
1000
GEN
1002
}
  0
DIMENSION
  5
CC6
330
1F
100
AcDbEntity
  8
AM_5
100
AcDbDimension
  2
*D5
 10
-0.9999999999999127
 20
-14.50000099999995
 30
0.0
 11
-40.99999999999992
 21
-12.80000099999995
 31
0.0
 70
    32
  1
<>
  3
AM_JIS$0
100
AcDbAlignedDimension
 13
-80.99999999999992
 23
-2.352702618522132
 33
0.0
 14
-0.999999999999912
 24
-2.14999960656652
 34
0.0
 50
0.0000000000001132
100
AcDbRotatedDimension
1001
GENIUS_GENDTOL_13
1000

1000
h7
1000

1040
0.0
1001
ACAD
1000
DSTYLE
1002
{
1070
   271
1070
     0
1002
}
  0
DIMENSION
  5
DF5
330
1F
100
AcDbEntity
  8
AM_5
100
AcDbDimension
  2
*D6
 10
-0.9999999999999126
 20
-9.500000999999915
 30
0.0
 11
-15.99999999999992
 21
-7.800000999999915
 31
0.0
 70
    32
  1
<>
  3
AM_JIS$0
100
AcDbAlignedDimension
 13
-30.99999999999992
 23
-2.500000000000035
 33
0.0
 14
-0.999999999999912
 24
-2.14999960656652
 34
0.0
 50
0.0000000000001527
100
AcDbRotatedDimension
1001
GENIUS_GENDTOL_13
1000

1000
h7
1000

1040
0.0
1001
ACAD
1000
DSTYLE
1002
{
1070
   271
1070
     0
1002
}
  0
ARC
  5
144A
330
1F
100
AcDbEntity
  8
AM_11
 48
0.5
100
AcDbCircle
 10
-40.3661371866832
 20
-11.04241155161759
 30
0.0
 40
12.20908006032291
100
AcDbArc
 50
64.74833051131179
 51
115.2516644797366
  0
ARC
  5
144B
330
1F
100
AcDbEntity
  8
AM_11
 48
0.5
100
AcDbCircle
 10
-40.36613718668319
 20
11.0424190503924
 30
0.0
 40
12.20908006032291
100
AcDbArc
 50
244.7482808787518
 51
295.2516148471758
  0
ARC
  5
144E
330
1F
100
AcDbEntity
  8
AM_11
 48
0.5
100
AcDbCircle
 10
-29.94947052001654
 20
-11.04241155161759
 30
0.0
 40
12.20908006032291
100
AcDbArc
 50
64.74833051131179
 51
115.2516644797366
  0
ARC
  5
144F
330
1F
100
AcDbEntity
  8
AM_11
 48
0.5
100
AcDbCircle
 10
-29.94947052001654
 20
11.0424190503924
 30
0.0
 40
12.20908006032291
100
AcDbArc
 50
244.7482808787518
 51
295.2516148471758
  0
ARC
  5
1450
330
1F
100
AcDbEntity
  8
AM_11
 48
0.5
100
AcDbCircle
 10
-19.53280385335279
 20
11.0424190503924
 30
0.0
 40
12.20908006032291
100
AcDbArc
 50
244.7482808787518
 51
295.2516148471758
  0
ARC
  5
1451
330
1F
100
AcDbEntity
  8
AM_11
 48
0.5
100
AcDbCircle
 10
-19.53280385335279
 20
-11.04241155161759
 30
0.0
 40
12.20908006032291
100
AcDbArc
 50
64.74833051131179
 51
115.2516644797366
  0
ARC
  5
1452
330
1F
100
AcDbEntity
  8
AM_11
 48
0.5
100
AcDbCircle
 10
-9.116137186686126
 20
-11.04241155161759
 30
0.0
 40
12.20908006032291
100
AcDbArc
 50
64.74833051131179
 51
115.2516644797366
  0
ARC
  5
1453
330
1F
100
AcDbEntity
  8
AM_11
 48
0.5
100
AcDbCircle
 10
-9.116137186686126
 20
11.0424190503924
 30
0.0
 40
12.20908006032291
100
AcDbArc
 50
244.7482808787518
 51
295.2516148471758
  0
ARC
  5
1454
330
1F
100
AcDbEntity
  8
AM_11
 48
0.5
100
AcDbCircle
 10
1.300529479980553
 20
11.0424190503924
 30
0.0
 40
12.20908006032291
100
AcDbArc
 50
244.7482808787518
 51
254.0147302238188
  0
TEXT
  5
19BD
330
1F
100
AcDbEntity
  8
AM_6
100
AcDbText
 10
-52.24999999999989
 20
-25.75000099999998
 30
0.0
 40
2.5
  1
MDW043MHK
 50
0.0000000000001527
 72
     4
 11
-40.99999999999989
 21
-24.50000099999995
 31
0.0
100
AcDbText
  0
LINE
  5
1CF0
330
1F
100
AcDbEntity
  8
AM_0
100
AcDbLine
 10
-80.7499999999999
 20
2.499999999999945
 30
0.0
 11
-30.9999999999999
 21
2.499999999999963
 31
0.0
1001
GENIUS_GENODEF_13
1002
{
1000
HIER
1070
     0
1002
}
1002
{
1000
MANEDIT
1070
     0
1002
}
1002
{
1000
NOSEL
1070
     0
1002
}
1002
{
1000
BEHIND
1070
     0
1002
}
1002
{
1000
REACTOR
1002
}
1001
GENIUS_GENOBJ-N-CEN_13
1002
{
1000
OWNER
1000
GEN
1002
}
  0
LINE
  5
1CF4
330
1F
100
AcDbEntity
  8
AM_0
100
AcDbLine
 10
-80.74999999999993
 20
-2.500000000000054
 30
0.0
 11
-30.99999999999992
 21
-2.500000000000035
 31
0.0
1001
GENIUS_GENODEF_13
1002
{
1000
HIER
1070
     0
1002
}
1002
{
1000
MANEDIT
1070
     0
1002
}
1002
{
1000
NOSEL
1070
     0
1002
}
1002
{
1000
BEHIND
1070
     0
1002
}
1002
{
1000
REACTOR
1002
}
1001
GENIUS_GENOBJ-N-CEN_13
1002
{
1000
OWNER
1000
GEN
1002
}
  0
LINE
  5
1CFE
330
1F
100
AcDbEntity
  8
AM_0
100
AcDbLine
 10
-80.74999999999993
 20
-2.500000000000054
 30
0.0
 11
-80.74999999999992
 21
2.499999999999945
 31
0.0
  0
ARC
  5
1DAB
330
1F
100
AcDbEntity
  8
AM_11
 48
0.5
100
AcDbCircle
 10
-50.78278106749328
 20
-11.04241155161762
 30
0.0
 40
12.20908006032291
100
AcDbArc
 50
64.74833051131179
 51
115.2516644797366
  0
ARC
  5
1DAC
330
1F
100
AcDbEntity
  8
AM_11
 48
0.5
100
AcDbCircle
 10
-50.78278106749326
 20
11.04241905039237
 30
0.0
 40
12.20908006032291
100
AcDbArc
 50
244.7482808787518
 51
295.2516148471758
  0
ARC
  5
1DAD
330
1F
100
AcDbEntity
  8
AM_11
 48
0.5
100
AcDbCircle
 10
-61.19942494830336
 20
-11.04241155161765
 30
0.0
 40
12.20908006032291
100
AcDbArc
 50
64.74833051131179
 51
115.2516644797366
  0
ARC
  5
1DAE
330
1F
100
AcDbEntity
  8
AM_11
 48
0.5
100
AcDbCircle
 10
-61.19942494830334
 20
11.04241905039234
 30
0.0
 40
12.20908006032291
100
AcDbArc
 50
244.7482808787518
 51
295.2516148471758
  0
ARC
  5
1DAF
330
1F
100
AcDbEntity
  8
AM_11
 48
0.5
100
AcDbCircle
 10
-71.61606882911343
 20
-11.04241155161768
 30
0.0
 40
12.20908006032291
100
AcDbArc
 50
64.74833051131179
 51
115.2516644797366
  0
ARC
  5
1DB0
330
1F
100
AcDbEntity
  8
AM_11
 48
0.5
100
AcDbCircle
 10
-71.61606882911342
 20
11.04241905039231
 30
0.0
 40
12.20908006032291
100
AcDbArc
 50
244.7482808787518
 51
295.2516148471758
  0
LINE
  5
1EB2
330
1F
100
AcDbEntity
  8
AM_0
100
AcDbLine
 10
-80.9999999999999
 20
2.249999999999945
 30
0.0
 11
-80.7499999999999
 21
2.499999999999945
 31
0.0
1001
GENIUS_GENFIL_13
1070
     0
1040
0.25
1040
0.25
1040
20.0
1040
0.0
1002
{
1002
}
1001
GENIUS_GENODEF_13
1002
{
1000
HIER
1070
     0
1002
}
1002
{
1000
MANEDIT
1070
     0
1002
}
1002
{
1000
NOSEL
1070
     0
1002
}
1002
{
1000
BEHIND
1070
     0
1002
}
1002
{
1000
REACTOR
1002
}
1001
GENIUS_GENOBJ-N-CHA_13
1002
{
1000
OWNER
1000
GEN
1002
}
  0
LINE
  5
1EB5
330
1F
100
AcDbEntity
  8
AM_0
100
AcDbLine
 10
-80.99999999999992
 20
-2.250000000000054
 30
0.0
 11
-80.74999999999993
 21
-2.500000000000054
 31
0.0
1001
GENIUS_GENFIL_13
1070
     0
1040
0.25
1040
0.25
1040
20.0
1040
0.0
1002
{
1002
}
1001
GENIUS_GENODEF_13
1002
{
1000
HIER
1070
     0
1002
}
1002
{
1000
MANEDIT
1070
     0
1002
}
1002
{
1000
NOSEL
1070
     0
1002
}
1002
{
1000
BEHIND
1070
     0
1002
}
1002
{
1000
REACTOR
1002
}
1001
GENIUS_GENOBJ-N-CHA_13
1002
{
1000
OWNER
1000
GEN
1002
}
  0
ARC
  5
1EBF
330
1F
100
AcDbEntity
  8
AM_11
 48
0.5
100
AcDbCircle
 10
-82.03270196212008
 20
11.04241905039229
 30
0.0
 40
12.20908006032291
100
AcDbArc
 50
274.8521466974949
 51
295.2516148471758
  0
ARC
  5
1EC0
330
1F
100
AcDbEntity
  8
AM_11
 48
0.5
100
AcDbCircle
 10
-82.03270196212008
 20
-11.04241155161771
 30
0.0
 40
12.20908006032291
100
AcDbArc
 50
64.74833051131179
 51
85.14785330250502
  0
LINE
  5
1ED3
330
1F
100
AcDbEntity
  8
AM_0
 48
0.5
100
AcDbLine
 10
-30.99999999999993
 20
-2.49999999999998
 30
0.0
 11
-30.9999999999999
 21
2.500000000000019
 31
0.0
  0
LINE
  5
1FDE
330
1F
100
AcDbEntity
  8
AM_0
100
AcDbLine
 10
-30.99999999999993
 20
-2.49999999999998
 30
0.0
 11
-30.39376594429912
 21
-2.149990604749196
 31
0.0
  0
LINE
  5
1FDF
330
1F
100
AcDbEntity
  8
AM_0
100
AcDbLine
 10
-30.9999999999999
 20
2.500000000000019
 30
0.0
 11
-30.39376733888084
 21
2.149991409911398
 31
0.0
  0
DIMENSION
  5
218E
330
1F
100
AcDbEntity
  8
AM_5
100
AcDbDimension
  2
*D7
 10
-89.25000099999989
 20
-2.500000000000051
 30
0.0
 11
-89.25000099999989
 21
-0.0000000000000592
 31
0.0
 70
   160
  1
%%c<>
 51
359.9999999999998
  3
AM_JIS$0
100
AcDbAlignedDimension
 13
-80.7499999999999
 23
2.499999999999945
 33
0.0
 14
-80.74999999999972
 24
-2.500000000000054
 34
0.0
 50
270.0000000000001
100
AcDbRotatedDimension
1001
ACAD
1000
DSTYLE
1002
{
1070
   271
1070
     0
1002
}
1001
GENIUS_GENDTOL_13
1000

1000
h7
1000

1040
0.0
  0
DIMENSION
  5
245D
330
1F
100
AcDbEntity
  8
AM_5
100
AcDbDimension
  2
*D8
 10
8.204574799195874
 20
2.150000393433476
 30
0.0
 11
8.204574799195874
 21
8.250000393433477
 31
0.0
 70
   160
  1
%%c<>
  3
AM_JIS$0
100
AcDbAlignedDimension
 13
-0.999999999999912
 23
-2.14999960656652
 33
0.0
 14
-0.9999999999999065
 24
2.150000393433479
 34
0.0
 50
89.99999999999955
100
AcDbRotatedDimension
1001
ACAD
1000
DSTYLE
1002
{
1070
   271
1070
     1
1002
}
1001
GENIUS_GENDTOL_13
1000

1000
h7
1000

1040
0.0
  0
LINE
  5
2470
330
1F
100
AcDbEntity
  8
AM_0
 48
0.5
100
AcDbLine
 10
-0.8204763147685047
 20
1.778250638941667
 30
0.0
 11
-0.9999999999999065
 21
2.150000393433479
 31
0.0
  0
ELLIPSE
  5
249A
330
1F
100
AcDbEntity
  8
AM_0
 48
0.5
100
AcDbEllipse
 10
3.523070560951259
 20
2.657755208328008
 30
0.0
 11
4.371574835756645
 21
0.7378633995847778
 31
0.0
210
0.0
220
0.0
230
1.0
 40
0.7605565264725771
 41
3.184410165628205
 42
3.569980850929193
  0
LINE
  5
24A9
330
1F
100
AcDbEntity
  8
AM_0
100
AcDbLine
 10
-30.39376594429911
 20
-2.149990604749194
 30
0.0
 11
-30.39376730718851
 21
2.14999139161382
 31
0.0
  0
ELLIPSE
  5
25FC
330
1F
100
AcDbEntity
  8
AM_0
 48
0.5
100
AcDbEllipse
 10
3.523070560951262
 20
-2.657755208328004
 30
0.0
 11
4.371574835756646
 21
-0.7378633995847719
 31
0.0
210
0.0
220
0.0
230
-1.0
 40
0.7605565264725771
 41
3.184410165628205
 42
3.569980850929193
  0
LINE
  5
25FD
330
1F
100
AcDbEntity
  8
AM_0
 48
0.5
100
AcDbLine
 10
-0.8204763147685023
 20
-1.778250638941668
 30
0.0
 11
-0.999999999999912
 21
-2.14999960656652
 31
0.0
  0
DIMENSION
  5
260B
330
1F
100
AcDbEntity
  8
AM_5
100
AcDbDimension
  2
*D9
 10
-0.2203570834776576
 20
-0.6054210388784098
 30
0.0
 11
13.80318815886652
 21
-0.0000186018150216
 31
0.0
 70
    34
  1
<>
 51
359.9999999999998
  3
AM_JIS$2
100
AcDb2LineAngularDimension
 13
0.0000000000000585
 23
-0.0000000000000344
 33
0.0
 14
-0.220353475797375
 24
0.6054162040824024
 34
0.0
 15
0.0000000000000568
 25
-0.0000000000000234
 35
0.0
 16
14.09753919059089
 26
-6.081099852140065
 36
0.0
1001
ACAD
1000
DSTYLE
1002
{
1070
   179
1070
     3
1002
}
1001
GENIUS_GENDTOL_13
1000

1000
h7
1000

1040
0.0
  0
LINE
  5
2A80
330
1F
100
AcDbEntity
  8
AM_0
100
AcDbLine
 10
-25.17203735852064
 20
-2.150110270747828
 30
0.0
 11
-30.39377496014276
 21
-2.149995810048953
 31
0.0
  0
LINE
  5
2A81
330
1F
100
AcDbEntity
  8
AM_0
100
AcDbLine
 10
-30.39376733888084
 20
2.149991409911398
 30
0.0
 11
-24.3329348519095
 21
2.150305791592949
 31
0.0
  0
LINE
  5
2A82
330
1F
100
AcDbEntity
  8
AM_0
 48
0.5
100
AcDbLine
 10
-2.564712361648985
 20
2.150000393433498
 30
0.0
 11
-0.9999999999999065
 21
2.150000393433479
 31
0.0
  0
LINE
  5
2A83
330
1F
100
AcDbEntity
  8
AM_0
 48
0.5
100
AcDbLine
 10
0.000000000000051
 20
-0.0000000000000413
 30
0.0
 11
-1.326334064583674
 21
0.8255350868333724
 31
0.0
  0
LINE
  5
2A84
330
1F
100
AcDbEntity
  8
AM_0
 48
0.5
100
AcDbLine
 10
-20.25791614608812
 20
1.030683317494604
 30
0.0
 11
-25.99999999999992
 21
-0.1739910067810087
 31
0.0
  0
LINE
  5
2A85
330
1F
100
AcDbEntity
  8
AM_11
 48
0.5
100
AcDbLine
 10
-24.3329348519095
 20
2.150305791592949
 30
0.0
 11
-19.30013789038887
 21
2.150000345074329
 31
0.0
  0
LINE
  5
2A86
330
1F
100
AcDbEntity
  8
AM_0
 48
0.5
100
AcDbLine
 10
-19.30014468289722
 20
2.150000345074329
 30
0.0
 11
-10.45111053417409
 21
2.150000345074039
 31
0.0
  0
LINE
  5
2A87
330
1F
100
AcDbEntity
  8
AM_11
 48
0.5
100
AcDbLine
 10
-10.28621292114239
 20
2.150000393433604
 30
0.0
 11
-2.349163055419904
 21
2.150000393433497
 31
0.0
  0
LINE
  5
2A88
330
1F
100
AcDbEntity
  8
AM_11
 48
0.5
100
AcDbLine
 10
-10.45111053417409
 20
2.150000345074039
 30
0.0
 11
-2.564712361648985
 21
2.150000345073787
 31
0.0
  0
SPLINE
  5
2A89
330
1F
100
AcDbEntity
  8
AM_0
 48
0.5
100
AcDbSpline
210
0.0
220
0.0
230
1.0
 70
     8
 71
     3
 72
    25
 73
    21
 74
     0
 42
0.0000000001
 43
0.0000000001
 40
6.846175049578289
 40
6.846175049578289
 40
6.846175049578289
 40
6.846175049578289
 40
7.604337694224321
 40
8.711974558287883
 40
9.814980593243754
 40
10.91239053451967
 40
12.0033633515982
 40
13.08720139956839
 40
14.16337181880432
 40
15.23152222380919
 40
16.29148850140128
 40
17.34331105512262
 40
18.38723020264746
 40
19.42369128463655
 40
20.45333379090873
 40
21.47697865721768
 40
22.49561244472435
 40
23.5103574802404
 40
24.52244778960836
 40
25.53320666051913
 40
25.53320666051913
 40
25.53320666051913
 40
25.53320666051913
 10
-3.052970457218533
 20
0.3891644208031041
 30
0.0
 10
-3.148074735512727
 20
0.4269145970421862
 30
0.0
 10
-3.382321653666137
 20
0.5194380944179312
 30
0.0
 10
-3.756059327509722
 20
0.6647332921604569
 30
0.0
 10
-4.17425696967123
 20
0.8232181209880137
 30
0.0
 10
-4.592475643263764
 20
0.9766394031347662
 30
0.0
 10
-5.010718941565134
 20
1.124053818279362
 30
0.0
 10
-5.42899152483787
 20
1.264551893451291
 30
0.0
 10
-5.847297260789519
 20
1.397267191054856
 30
0.0
 10
-6.265638085955346
 20
1.521384079525617
 30
0.0
 10
-6.684019153221115
 20
1.63613013982821
 30
0.0
 10
-7.102439896048906
 20
1.740801744809708
 30
0.0
 10
-7.520903319867159
 20
1.834745744750952
 30
0.0
 10
-7.939407947899148
 20
1.917380734883279
 30
0.0
 10
-8.357952145254316
 20
1.98820022183976
 30
0.0
 10
-8.776533582930895
 20
2.046734781212127
 30
0.0
 10
-9.195145747969846
 20
2.092716515971029
 30
0.0
 10
-9.613784026840207
 20
2.125520880075494
 30
0.0
 10
-10.03244162378125
 20
2.146163923780947
 30
0.0
 10
-10.31161548141401
 20
2.14872209923968
 30
0.0
 10
-10.45111053417409
 20
2.150000345074043
 30
0.0
  0
SPLINE
  5
2A8A
330
1F
100
AcDbEntity
  8
AM_0
100
AcDbSpline
210
0.0
220
0.0
230
1.0
 70
     8
 71
     3
 72
    23
 73
    19
 74
     0
 42
0.0000000001
 43
0.0000000001
 40
16.03460024169435
 40
16.03460024169435
 40
16.03460024169435
 40
16.03460024169435
 40
16.35212704903564
 40
17.38177054169784
 40
18.41822485651776
 40
19.46214173629503
 40
20.51396345435107
 40
21.57393551351153
 40
22.64208202342361
 40
23.7182574881101
 40
24.80209208578934
 40
25.89306333925047
 40
26.99048218457928
 40
28.09348763352352
 40
29.20111863782268
 40
30.31232390128032
 40
31.42594612798585
 40
32.5407912310448
 40
32.5407912310486
 40
32.5407912310486
 40
32.5407912310486
 10
-24.3329348519095
 20
2.150305791592946
 30
0.0
 10
-24.28992310829632
 20
2.143047770207119
 30
0.0
 10
-24.10762043882306
 20
2.111441129886689
 30
0.0
 10
-23.78649232328069
 20
2.049512741960218
 30
0.0
 10
-23.37063057298887
 20
1.957425906355806
 30
0.0
 10
-22.95515509465157
 20
1.854027739293559
 30
0.0
 10
-22.54004133749137
 20
1.739916656625882
 30
0.0
 10
-22.1252745683854
 20
1.615728830193227
 30
0.0
 10
-21.71083081480847
 20
1.482174169983136
 30
0.0
 10
-21.29668121647282
 20
1.340029930617742
 30
0.0
 10
-20.88280223991078
 20
1.190101066637054
 30
0.0
 10
-20.46916070294408
 20
1.033259979166345
 30
0.0
 10
-20.05572308455171
 20
0.8704182963689401
 30
0.0
 10
-19.64246183856437
 20
0.7025122896533058
 30
0.0
 10
-19.22934238791551
 20
0.5305183094547048
 30
0.0
 10
-18.8163264689947
 20
0.3554406744329049
 30
0.0
 10
-18.40338045064732
 20
0.1782939120734872
 30
0.0
 10
-18.12815704985339
 20
0.0595266941963515
 30
0.0
 10
-17.99047029433725
 20
0.0001096997287453
 30
0.0
  0
SPLINE
  5
2A8B
330
1F
100
AcDbEntity
  8
AM_0
 48
0.5
100
AcDbSpline
210
0.0
220
0.0
230
1.0
 70
     8
 71
     3
 72
    17
 73
    13
 74
     0
 42
0.0000000001
 43
0.0000000001
 40
0.0
 40
0.0
 40
0.0
 40
0.0
 40
1.010743614677189
 40
2.022833924044153
 40
3.037578959561199
 40
4.056212747067873
 40
5.079857613375832
 40
6.109500119648989
 40
7.14596120163808
 40
8.18989512056258
 40
9.241717674284874
 40
9.693948937866434
 40
9.693948937866434
 40
9.693948937866434
 40
9.693948937866434
 10
-2.564712361648985
 20
2.150000345073787
 30
0.0
 10
-2.704205307494418
 20
2.148722069012944
 30
0.0
 10
-2.98337705681198
 20
2.146163813741676
 30
0.0
 10
-3.402032555123105
 20
2.125520889802553
 30
0.0
 10
-3.820670817630321
 20
2.092716483294618
 30
0.0
 10
-4.239283044400373
 20
2.04673490290287
 30
0.0
 10
-4.657864249882862
 20
1.98819976440165
 30
0.0
 10
-5.076409321522184
 20
1.917382457641928
 30
0.0
 10
-5.494912641740043
 20
1.834738857047431
 30
0.0
 10
-5.913390450145151
 20
1.740825340621384
 30
0.0
 10
-6.251196649433175
 20
1.656223458433637
 30
0.0
 10
-6.449576255597323
 20
1.603335115783283
 30
0.0
 10
-6.509119170170338
 20
1.587146348148113
 30
0.0
  0
SPLINE
  5
2A8C
330
1F
100
AcDbEntity
  8
AM_0
 48
0.5
100
AcDbSpline
210
0.0
220
0.0
230
1.0
 70
     8
 71
     3
 72
    10
 73
     6
 74
     0
 42
0.0000000001
 43
0.0000000001
 40
0.0
 40
0.0
 40
0.0
 40
0.0
 40
2.69986029516136
 40
4.147722969032201
 40
6.285750005020438
 40
6.285750005020438
 40
6.285750005020438
 40
6.285750005020438
 10
-3.052970457218533
 20
0.3891644208031041
 30
0.0
 10
-2.540610149151479
 20
0.1893890758960126
 30
0.0
 10
-2.079913228781366
 20
-0.1174812729617214
 30
0.0
 10
-0.9904268986372118
 20
0.0310800388352751
 30
0.0
 10
-1.195608864267058
 20
0.531454194555085
 30
0.0
 10
-1.331179997542251
 20
0.8364476535755066
 30
0.0
  0
ELLIPSE
  5
2A8D
330
1F
100
AcDbEntity
  8
AM_0
 48
0.5
100
AcDbEllipse
 10
-4.526953197740502
 20
4.089537023636185
 30
0.0
 11
6.565556830964967
 21
0.0002359517140365
 31
0.0
210
0.0
220
0.0
230
1.0
 40
0.8599977812614831
 41
-0.9324058912253054
 42
-0.8100283726164324
  0
ELLIPSE
  5
2A8E
330
1F
100
AcDbEntity
  8
AM_0
 48
0.5
100
AcDbEllipse
 10
2.593069485254109
 20
-9.425663538996763
 30
0.0
 11
0.0000000000019023
 21
9.519486963915067
 31
0.0
210
0.0
220
0.0
230
1.0
 40
0.9534883720930311
 41
0.4036548536071427
 42
0.4643678680716663
  0
ELLIPSE
  5
2A8F
330
1F
100
AcDbEntity
  8
AM_0
 48
0.5
100
AcDbEllipse
 10
1.505849202474283
 20
2.581207668824059
 30
0.0
 11
-5.561729429409597
 21
1.396345322809457
 31
0.0
210
0.0
220
0.0
230
1.0
 40
0.7677457805052591
 41
0.8257720650704932
 42
1.207626264920671
  0
ELLIPSE
  5
2A90
330
1F
100
AcDbEntity
  8
AM_0
 48
0.5
100
AcDbEllipse
 10
-0.7894958768569728
 20
-0.5603205561211323
 30
0.0
 11
-0.0814002339602351
 21
0.3511571588416202
 31
0.0
210
0.0
220
0.0
230
1.0
 40
0.574524331581014
 41
1.761397736722451
 42
4.896739626434426
  0
ELLIPSE
  5
2A91
330
1F
100
AcDbEntity
  8
AM_0
 48
0.5
100
AcDbEllipse
 10
-0.7894958768569728
 20
-0.5603205561211323
 30
0.0
 11
-0.3677308584707505
 21
0.1668277146409966
 31
0.0
210
0.0
220
0.0
230
1.0
 40
0.45783304413072
 41
4.407594733354311
 42
7.551035074683822
  0
LINE
  5
2A92
330
1F
100
AcDbEntity
  8
AM_0
 48
0.5
100
AcDbLine
 10
-2.564717635138467
 20
-2.1499996065665
 30
0.0
 11
-0.9999999999999229
 21
-2.14999960656652
 31
0.0
  0
LINE
  5
2A93
330
1F
100
AcDbEntity
  8
AM_11
 48
0.5
100
AcDbLine
 10
-25.17203735852064
 20
-2.150110270747828
 30
0.0
 11
-19.45701857604638
 21
-2.149977818165243
 31
0.0
  0
LINE
  5
2A94
330
1F
100
AcDbEntity
  8
AM_0
 48
0.5
100
AcDbLine
 10
-19.4535309279892
 20
-2.150009856298705
 30
0.0
 11
-10.45111053417421
 21
-2.149999654925953
 31
0.0
  0
LINE
  5
2A95
330
1F
100
AcDbEntity
  8
AM_11
 48
0.5
100
AcDbLine
 10
-10.45111053417421
 20
-2.149999654925953
 30
0.0
 11
-2.564712361649086
 21
-2.149999654926213
 31
0.0
  0
LINE
  5
2A96
330
1F
100
AcDbEntity
  8
AM_11
 48
0.5
100
AcDbLine
 10
-10.28621292114245
 20
-2.149999606566395
 30
0.0
 11
-2.564717635138467
 21
-2.1499996065665
 31
0.0
  0
SPLINE
  5
2A97
330
1F
100
AcDbEntity
  8
AM_0
100
AcDbSpline
210
0.0
220
0.0
230
1.0
 70
     8
 71
     3
 72
    17
 73
    13
 74
     0
 42
0.0000000001
 43
0.0000000001
 40
1.580019955310467
 40
1.580019955310467
 40
1.580019955310467
 40
1.580019955310467
 40
2.030549285115227
 40
3.082371838836284
 40
4.126290986361125
 40
5.162752068350215
 40
6.192395305374981
 40
7.216039564037012
 40
8.234688489606833
 40
9.249433870634691
 40
10.26152376260694
 40
11.27226744710342
 40
11.27226744710342
 40
11.27226744710342
 40
11.27226744710352
 10
-6.507603801881783
 20
-1.586762965095358
 30
0.0
 10
-6.566836616798232
 20
-1.60310530900568
 30
0.0
 10
-6.764694118605746
 20
-1.65666952400383
 30
0.0
 10
-7.102485940798231
 20
-1.740686911789287
 30
0.0
 10
-7.520891083642901
 20
-1.834775240440112
 30
0.0
 10
-7.939411413031663
 20
-1.917372300733336
 30
0.0
 10
-8.357950918875836
 20
-1.988200713176551
 30
0.0
 10
-8.776536023849033
 20
-2.046745268477137
 30
0.0
 10
-9.195150047666018
 20
-2.092671878672574
 30
0.0
 10
-9.61379013774308
 20
-2.125682923961563
 30
0.0
 10
-10.03244597987255
 20
-2.14556590841194
 30
0.0
 10
-10.31161761555511
 20
-2.14999966722837
 30
0.0
 10
-10.45111053417416
 20
-2.149999654925953
 30
0.0
  0
SPLINE
  5
2A98
330
1F
100
AcDbEntity
  8
AM_0
100
AcDbSpline
210
0.0
220
0.0
230
1.0
 70
     8
 71
     3
 72
    13
 73
     9
 74
     0
 42
0.0000000001
 43
0.0000000001
 40
16.03460056234195
 40
16.03460056234195
 40
16.03460056234195
 40
16.03460056234195
 40
16.35212717791071
 40
17.38177067057215
 40
18.41822498539278
 40
19.46214186516937
 40
20.5139635832251
 40
21.34083983469381
 40
21.34083983469381
 40
21.34083983469381
 40
21.34083983469381
 10
-25.17203735852064
 20
-2.150110270747828
 30
0.0
 10
-25.05351062495928
 20
-2.143047996141822
 30
0.0
 10
-24.87120780463426
 20
-2.111442223005698
 30
0.0
 10
-24.55007986414379
 20
-2.049513112050776
 30
0.0
 10
-24.13421806151767
 20
-1.957426531781132
 30
0.0
 10
-23.71874259735351
 20
-1.854028295569937
 30
0.0
 10
-23.3342911143376
 20
-1.748346017896134
 30
0.0
 10
-23.08901783832736
 20
-1.67557624870037
 30
0.0
 10
-22.98141792216755
 20
-1.642683649945621
 30
0.0
  0
SPLINE
  5
2A99
330
1F
100
AcDbEntity
  8
AM_0
100
AcDbSpline
210
0.0
220
0.0
230
1.0
 70
     8
 71
     3
 72
    11
 73
     7
 74
     0
 42
0.0000000001
 43
0.0000000001
 40
11.27226913003534
 40
11.27226913003534
 40
11.27226913003534
 40
11.2722691300354
 40
12.28301561507924
 40
13.29510212255852
 40
14.30984805882082
 40
15.18258238371378
 40
15.18258238371378
 40
15.18258238371378
 40
15.18258238371378
 10
-10.45111053417419
 20
-2.149999654925953
 30
0.0
 10
-10.59007303204278
 20
-2.139476930140028
 30
0.0
 10
-10.86773591808431
 20
-2.114001871400991
 30
0.0
 10
-11.28279644776692
 20
-2.062612376683514
 30
0.0
 10
-11.67669620909249
 20
-2.001233259881833
 30
0.0
 10
-11.93144745326575
 20
-1.954049306036678
 30
0.0
 10
-12.04884408061585
 20
-1.930741736104936
 30
0.0
  0
ELLIPSE
  5
2A9A
330
1F
100
AcDbEntity
  8
AM_0
 48
0.5
100
AcDbEllipse
 10
-25.17203709859292
 20
-1.433443604081195
 30
0.0
 11
-0.8280152686814428
 21
0.0000000000001146
 31
0.0
210
0.0
220
0.0
230
1.0
 40
0.8655234918649592
 41
0.0112467747892786
 42
1.570796012878485
  0
SPLINE
  5
2A9B
330
1F
100
AcDbEntity
  8
AM_0
100
AcDbSpline
210
0.0
220
0.0
230
1.0
 70
     8
 71
     3
 72
    55
 73
    51
 74
     0
 42
0.0000000001
 43
0.0000000001
 40
0.0
 40
0.0
 40
0.0
 40
0.0
 40
1.010743684496582
 40
2.022833576467832
 40
3.037578957496688
 40
4.056212745003489
 40
5.079857003664532
 40
6.109500240690281
 40
7.145961322679372
 40
8.189895241603872
 40
9.241717795325891
 40
10.30168407291828
 40
11.36983447792315
 40
12.44600489715814
 40
13.52984294512926
 40
14.62081576220742
 40
15.7182257034828
 40
16.82123173843959
 40
17.92886860250316
 40
19.0400688939571
 40
20.15368796660465
 40
21.26852814259644
 40
22.38336992938901
 40
23.49698739941135
 40
24.6081876908653
 40
25.71582455492886
 40
26.81883757994213
 40
27.91624752121713
 40
29.00722033829659
 40
30.09105838626677
 40
31.16722880550176
 40
32.23537921050758
 40
33.29534548809967
 40
34.347168041821
 40
35.39108718934584
 40
36.42754827133493
 40
37.45720575381954
 40
38.48085062012849
 40
39.49948440763516
 40
40.51422944315121
 40
41.52631975251916
 40
42.53706336719636
 40
43.54780698187354
 40
44.55989729124051
 40
45.57464232675757
 40
46.59327611426424
 40
47.6169209805722
 40
48.64656348684535
 40
49.68302456883444
 40
50.58557219878025
 40
50.58557219878025
 40
50.58557219878025
 40
50.58557219878025
 10
-2.564712361649086
 20
-2.149999654926205
 30
0.0
 10
-2.704205282108468
 20
-2.148720457013131
 30
0.0
 10
-2.983376913366648
 20
-2.146160357425885
 30
0.0
 10
-3.402032764376053
 20
-2.125523080680125
 30
0.0
 10
-3.820670744545709
 20
-2.092715201712529
 30
0.0
 10
-4.239282815134444
 20
-2.046733711561855
 30
0.0
 10
-4.657864799052781
 20
-1.988201747578069
 30
0.0
 10
-5.076408438614066
 20
-1.917379592077298
 30
0.0
 10
-5.494915133828186
 20
-1.834744328342159
 30
0.0
 10
-5.913381173386561
 20
-1.740801975189827
 30
0.0
 10
-6.331803706772801
 20
-1.636129332969733
 30
0.0
 10
-6.750184819591927
 20
-1.521383421036945
 30
0.0
 10
-7.16852563235197
 20
-1.397266492238968
 30
0.0
 10
-7.586831371886338
 20
-1.264551205985402
 30
0.0
 10
-8.005103953354474
 20
-1.124053126145378
 30
0.0
 10
-8.423347255288415
 20
-0.9766387182727781
 30
0.0
 10
-8.841565916062972
 20
-0.8232174115412378
 30
0.0
 10
-9.259763606188403
 20
-0.6647326743981774
 30
0.0
 10
-9.677944384320955
 20
-0.5021592496291297
 30
0.0
 10
-10.0961127251726
 20
-0.3364977573488432
 30
0.0
 10
-10.51427229647783
 20
-0.1687666163309665
 30
0.0
 10
-10.93242900329746
 20
-0.0000000936040397
 30
0.0
 10
-11.35058383294336
 20
0.1687694670254649
 30
0.0
 10
-11.76874480582831
 20
0.3364979960258274
 30
0.0
 10
-12.18691263044558
 20
0.5021599897540156
 30
0.0
 10
-12.60509415418982
 20
0.6647340338553506
 30
0.0
 10
-13.02329357919987
 20
0.8232174184618259
 30
0.0
 10
-13.44151290003398
 20
0.9766395032528659
 30
0.0
 10
-13.85975626234833
 20
1.124053791587567
 30
0.0
 10
-14.27802882859687
 20
1.26455190097382
 30
0.0
 10
-14.69633456920233
 20
1.397267187421526
 30
0.0
 10
-15.11467539261786
 20
1.521384086541281
 30
0.0
 10
-15.53305646225548
 20
1.636130115640197
 30
0.0
 10
-15.95147719741539
 20
1.740801833602199
 30
0.0
 10
-16.36994064924466
 20
1.83474541716498
 30
0.0
 10
-16.78844718921452
 20
1.917382342591312
 30
0.0
 10
-17.20699381731765
 20
1.988196409218805
 30
0.0
 10
-17.62557718411258
 20
2.046746490082793
 30
0.0
 10
-18.04418937879668
 20
2.092673475111844
 30
0.0
 10
-18.4628276498487
 20
2.125680584377052
 30
0.0
 10
-18.88148314588782
 20
2.145569807623623
 30
0.0
 10
-19.30014784162759
 20
2.15221413899478
 30
0.0
 10
-19.71881253675135
 20
2.14556980761323
 30
0.0
 10
-20.13746803464209
 20
2.125680584418894
 30
0.0
 10
-20.55610629887703
 20
2.092673474954412
 30
0.0
 10
-20.97471851912007
 20
2.046746490674737
 30
0.0
 10
-21.3932997491556
 20
1.988196692434479
 30
0.0
 10
-21.81184472834434
 20
1.91738306662702
 30
0.0
 10
-22.21132268417306
 20
1.838496610401935
 30
0.0
 10
-22.47050853129902
 20
1.780806199197726
 30
0.0
 10
-22.5907556579217
 20
1.75269084751017
 30
0.0
  0
SPLINE
  5
2A9C
330
1F
100
AcDbEntity
  8
AM_0
 48
0.5
100
AcDbSpline
210
0.0
220
0.0
230
1.0
 70
     8
 71
     3
 72
    22
 73
    18
 74
     0
 42
0.0000000001
 43
0.0000000001
 40
0.0
 40
0.0
 40
0.0
 40
0.0
 40
1.010743684496582
 40
2.022833993863546
 40
3.037578683882831
 40
4.056212471389632
 40
5.079857945358201
 40
6.109499720892564
 40
7.145961650132166
 40
8.189873411961459
 40
9.241710626092514
 40
10.30166235592959
 40
11.36982472628033
 40
12.44598212828784
 40
13.52983440361964
 40
14.62080578343036
 40
14.90544694398022
 40
14.90544694398022
 40
14.90544694398022
 40
14.90544694398022
 10
-19.22080438759562
 20
-2.150110270748047
 30
0.0
 10
-19.37487504648682
 20
-2.148831454997946
 30
0.0
 10
-19.6540467886948
 20
-2.146272119717542
 30
0.0
 10
-20.07270220103149
 20
-2.125629094220805
 30
0.0
 10
-20.49134063421172
 20
-2.09282673857644
 30
0.0
 10
-20.90995292739113
 20
-2.046845206037478
 30
0.0
 10
-21.32853377123141
 20
-1.988307781276109
 30
0.0
 10
-21.74707879897189
 20
-1.917491578982376
 30
0.0
 10
-22.16558187744241
 20
-1.834854346558779
 30
0.0
 10
-22.58404588441615
 20
-1.740908731702327
 30
0.0
 10
-23.0024670510089
 20
-1.636241315126587
 30
0.0
 10
-23.42084756384849
 20
-1.521489114518946
 30
0.0
 10
-23.83919011995206
 20
-1.397382350597214
 30
0.0
 10
-24.25749440509521
 20
-1.264658832819069
 30
0.0
 10
-24.67576825571601
 20
-1.124164070083778
 30
0.0
 10
-24.99013028528601
 20
-1.013368748695896
 30
0.0
 10
-25.1653037782564
 20
-0.9500417044103814
 30
0.0
 10
-25.14001581522647
 20
-0.9592428662672803
 30
0.0
  0
SPLINE
  5
2A9D
330
1F
100
AcDbEntity
  8
AM_0
 48
0.5
100
AcDbSpline
210
0.0
220
0.0
230
1.0
 70
     8
 71
     3
 72
    26
 73
    22
 74
     0
 42
0.0000000001
 43
0.0000000001
 40
0.0
 40
0.0
 40
0.0
 40
0.0
 40
0.2526859211241313
 40
0.5057083941171959
 40
0.7593947393741639
 40
1.01405318625086
 40
1.26996425091637
 40
1.527375060172565
 40
1.786490330669834
 40
2.047470117551047
 40
2.310425755981314
 40
2.575417325379407
 40
2.842456731169063
 40
3.111495753801943
 40
3.382458822635121
 40
3.655202026904655
 40
3.929554512223505
 40
4.205306020962704
 40
4.482215236978595
 40
4.76001530984208
 40
5.029821427366006
 40
5.029821427366006
 40
5.029821427366006
 40
5.029821427366006
 10
-18.06343019061478
 20
-2.150110270748085
 30
0.0
 10
-18.20292311109094
 20
-2.14883107289076
 30
0.0
 10
-18.48209474238285
 20
-2.146270973415056
 30
0.0
 10
-18.90075059313987
 20
-2.125633695831061
 30
0.0
 10
-19.31938857427246
 20
-2.092825820061966
 30
0.0
 10
-19.73800064124162
 20
-2.04684431788829
 30
0.0
 10
-20.15658263877098
 20
-1.988312399115851
 30
0.0
 10
-20.57512622708343
 20
-1.917490073383377
 30
0.0
 10
-20.99363112774045
 20
-1.834855843802747
 30
0.0
 10
-21.4120944865479
 20
-1.7409115890665
 30
0.0
 10
-21.83051531421783
 20
-1.636240217578937
 30
0.0
 10
-22.24889705436935
 20
-1.521493212662455
 30
0.0
 10
-22.66723797336516
 20
-1.397379100085519
 30
0.0
 10
-23.08554281112559
 20
-1.264659226591715
 30
0.0
 10
-23.50381716067477
 20
-1.124165199616181
 30
0.0
 10
-23.92206192574627
 20
-0.9767492921323354
 30
0.0
 10
-24.34028022413509
 20
-0.8233273654293014
 30
0.0
 10
-24.75847973592827
 20
-0.6648459996708166
 30
0.0
 10
-25.17665354991458
 20
-0.5022596348566215
 30
0.0
 10
-25.59053181029824
 20
-0.3383560431710324
 30
0.0
 10
-25.86474172952213
 20
-0.2282444605605455
 30
0.0
 10
-25.99999999999992
 20
-0.173991006781005
 30
0.0
  0
SPLINE
  5
2A9E
330
1F
100
AcDbEntity
  8
AM_0
100
AcDbSpline
210
0.0
220
0.0
230
1.0
 70
     8
 71
     3
 72
    22
 73
    18
 74
     0
 42
0.0000000001
 43
0.0000000001
 40
17.17441611292
 40
17.17441611292
 40
17.17441611292
 40
17.17441611292
 40
17.38177636558528
 40
18.41823744757437
 40
19.46215659509824
 40
20.51397914882054
 40
21.57394542641293
 40
22.64209583141747
 40
23.71826625065247
 40
24.80210429862395
 40
25.8930771157021
 40
26.99048705697709
 40
28.09349309193389
 40
29.20112995599786
 40
30.31233024745139
 40
31.42594771747373
 40
32.5407895042663
 40
32.54078950426994
 40
32.54078950426994
 40
32.54078950426994
 10
-12.04902717324955
 20
-1.930715215871373
 30
0.0
 10
-12.07706096527193
 20
-1.92573817674718
 30
0.0
 10
-12.24510823830058
 20
-1.895422487437918
 30
0.0
 10
-12.55296137306295
 20
-1.834635584698038
 30
0.0
 10
-12.97142476505436
 20
-1.740691731234603
 30
0.0
 10
-13.38984551650453
 20
-1.636020086558253
 30
0.0
 10
-13.80822658144049
 20
-1.521274037028711
 30
0.0
 10
-14.22656740720999
 20
-1.397157145583777
 30
0.0
 10
-14.64487314310344
 20
-1.264441848992641
 30
0.0
 10
-15.06314572599404
 20
-1.123943772766917
 30
0.0
 10
-15.48138902589778
 20
-0.9765293608442863
 30
0.0
 10
-15.89960769341499
 20
-0.8231080667724615
 30
0.0
 10
-16.31780535843133
 20
-0.6646232827282694
 30
0.0
 10
-16.7359862307825
 20
-0.5020500338838606
 30
0.0
 10
-17.15415401727792
 20
-0.3363879616972946
 30
0.0
 10
-17.57231491270971
 20
-0.1686592906956304
 30
0.0
 10
-17.85103412301349
 20
-0.0561672289366382
 30
0.0
 10
-17.99047029433911
 20
0.0001096997295128
 30
0.0
  0
SPLINE
  5
2A9F
330
1F
100
AcDbEntity
  8
AM_0
100
AcDbSpline
210
0.0
220
0.0
230
1.0
 70
     8
 71
     3
 72
    46
 73
    42
 74
     0
 42
0.0000000001
 43
0.0000000001
 40
0.0
 40
0.0
 40
0.0
 40
0.0
 40
0.5056245176053715
 40
0.759310862862336
 40
1.013969309739036
 40
1.269880374404297
 40
1.527291183660732
 40
1.786406454158005
 40
2.047386241038974
 40
2.310345544571907
 40
2.575337113970003
 40
2.842374715221223
 40
3.111417320030211
 40
3.382376832022752
 40
3.655120036292296
 40
3.929472521611371
 40
4.205224030350333
 40
4.482133246366229
 40
4.759933319229942
 40
5.038338087391601
 40
5.317048131389549
 40
5.595758175387723
 40
5.874162943549383
 40
6.151963016412869
 40
6.428872232428759
 40
6.704623741167955
 40
6.978976226486705
 40
7.251719430756336
 40
7.522680721168327
 40
7.791723325977311
 40
8.058760927228529
 40
8.32375249662655
 40
8.586708135057122
 40
8.84768792193809
 40
9.106803192435362
 40
9.364213819003406
 40
9.620125035580644
 40
9.87478726697307
 40
10.12847352585208
 40
10.38149610319407
 40
10.63418200686337
 40
10.63418200686337
 40
10.63418200686337
 40
10.63418200686337
 10
-1.392760452891147
 20
-2.149999654926247
 30
0.0
 10
-1.671945724030316
 20
-2.145101788729276
 30
0.0
 10
-2.091206265689018
 20
-2.137746522363194
 30
0.0
 10
-2.648715291145628
 20
-2.092461498581604
 30
0.0
 10
-3.067331859286732
 20
-2.046802148259439
 30
0.0
 10
-3.485912645676613
 20
-1.988183298411662
 30
0.0
 10
-3.904456547630154
 20
-1.917384425116974
 30
0.0
 10
-4.322961415005238
 20
-1.834744007304723
 30
0.0
 10
-4.741426546869114
 20
-1.740800394837151
 30
0.0
 10
-5.159850080904099
 20
-1.636130415401453
 30
0.0
 10
-5.578232853438533
 20
-1.521383271026247
 30
0.0
 10
-5.996573739149956
 20
-1.397266532894846
 30
0.0
 10
-6.414879458908513
 20
-1.264551194961126
 30
0.0
 10
-6.833152045763615
 20
-1.124053129175282
 30
0.0
 10
-7.251395346121785
 20
-0.9766387172800342
 30
0.0
 10
-7.669614007766515
 20
-0.823217412462165
 30
0.0
 10
-8.08781169598728
 20
-0.6647326716966376
 30
0.0
 10
-8.505992480902751
 20
-0.5021592595655607
 30
0.0
 10
-8.924160796421361
 20
-0.336497720159195
 30
0.0
 10
-9.342320462538005
 20
-0.1687667554950266
 30
0.0
 10
-9.76047661353062
 20
0.000000345039873
 30
0.0
 10
-10.17863276443141
 20
0.1687674457798601
 30
0.0
 10
-10.5967924308236
 20
0.3364984098290757
 30
0.0
 10
-11.01496074533503
 20
0.5021599514828404
 30
0.0
 10
-11.4331415339851
 20
0.6647333552791192
 30
0.0
 10
-11.85133920835836
 20
0.8232181269491951
 30
0.0
 10
-12.26955792128518
 20
0.9766393173166687
 30
0.0
 10
-12.68780194119469
 20
1.124054473037613
 30
0.0
 10
-13.10607615325528
 20
1.26455126232731
 30
0.0
 10
-13.52438261920712
 20
1.397267280779827
 30
0.0
 10
-13.94272349517838
 20
1.521384055842564
 30
0.0
 10
-14.36110454904391
 20
1.636130145789574
 30
0.0
 10
-14.77952529520894
 20
1.740801744381199
 30
0.0
 10
-15.19798871892622
 20
1.834745740618708
 30
0.0
 10
-15.61649334409267
 20
1.917380751660956
 30
0.0
 10
-16.03503755289698
 20
1.988200159418816
 30
0.0
 10
-16.45362101070173
 20
2.04673530079736
 30
0.0
 10
-16.8722354218178
 20
2.09271608443984
 30
0.0
 10
-17.29087573240376
 20
2.125520952399092
 30
0.0
 10
-17.7095312393216
 20
2.146163798134461
 30
0.0
 10
-17.98870298749393
 20
2.148722063813198
 30
0.0
 10
-18.12819593276707
 20
2.150000345074294
 30
0.0
  0
ELLIPSE
  5
2AA0
330
1F
100
AcDbEntity
  8
AM_0
 48
0.5
100
AcDbEllipse
 10
2.49568049112965
 20
-0.4779149889516887
 30
0.0
 11
-4.000001766144704
 21
0.0000576820698654
 31
0.0
210
0.0
220
0.0
230
0.9999999999999998
 40
0.8600078821910519
 41
0.1271980430742525
 42
0.5075998143377718
  0
ELLIPSE
  5
2AA1
330
1F
100
AcDbEntity
  8
AM_0
 48
0.5
100
AcDbEllipse
 10
-25.37919252988696
 20
-1.455278994807882
 30
0.0
 11
-0.6210114515111021
 21
0.0000000000000655
 31
0.0
210
0.0
220
0.0
230
1.0
 40
0.8655234918649343
 41
4.317028824483169
 42
6.257553905069453
  0
VIEWPORT
  5
110
330
101
100
AcDbEntity
 67
     1
  8
0
100
AcDbViewport
 10
420.5
 20
297.0
 30
0.0
 40
948.9782706766916
 41
628.452
 68
     1
 69
     1
1001
ACAD
1000
MVIEW
1002
{
1070
    16
1010
0.0
1020
0.0
1030
0.0
1010
0.0
1020
0.0
1030
1.0
1040
0.0
1040
628.452
1040
420.5
1040
297.0
1040
50.0
1040
0.0
1040
0.0
1070
     0
1070
   100
1070
     1
1070
     1
1070
     0
1070
     0
1070
     0
1070
     0
1040
0.0
1040
0.0
1040
0.0
1040
10.0
1040
10.0
1040
10.0
1040
10.0
1070
     0
1002
{
1002
}
1002
}
  0
ENDSEC
  0
SECTION
  2
OBJECTS
  0
DICTIONARY
  5
C
330
0
100
AcDbDictionary
  3
ACAD_GROUP
350
D
  3
ACAD_LAYOUT
350
1A
  3
ACAD_MLINESTYLE
350
17
  3
ACAD_PLOTSETTINGS
350
19
  3
ACAD_PLOTSTYLENAME
350
E
  3
ACDBVARIABLEDICTIONARY
350
34
  3
ACMDICTIONARY
350
43
  3
AMG
350
2B
  3
AMGSNAPSETTINGS
350
6E
  3
DWGPROPS
350
2B26
  3
ACDBHEADERROUNDTRIPXREC
350
2B32
  0
DICTIONARY
  5
74
330
1F
100
AcDbDictionary
280
     1
  3
ACAD_INDEX
360
2B28
  3
ACAD_LAYOUTSELFREF
360
2B55
  0
DICTIONARY
  5
2B5A
330
101
100
AcDbDictionary
280
     1
  3
ACAD_LAYOUTSELFREF
360
2B5B
  0
DICTIONARY
  5
D
102
{ACAD_REACTORS
330
C
102
}
330
C
100
AcDbDictionary
  0
DICTIONARY
  5
1A
102
{ACAD_REACTORS
330
C
102
}
330
C
100
AcDbDictionary
  0
DICTIONARY
  5
17
102
{ACAD_REACTORS
330
C
102
}
330
C
100
AcDbDictionary
  3
STANDARD
350
18
  0
DICTIONARY
  5
19
102
{ACAD_REACTORS
330
C
102
}
330
C
100
AcDbDictionary
  0
ACDBDICTIONARYWDFLT
  5
E
102
{ACAD_REACTORS
330
C
102
}
330
C
100
AcDbDictionary
281
     1
  3
Normal
350
F
100
AcDbDictionaryWithDefault
340
F
  0
DICTIONARY
  5
34
102
{ACAD_REACTORS
330
C
102
}
330
C
100
AcDbDictionary
  3
INDEXCTL
350
35
  3
SORTENTS
350
B5E
  0
DICTIONARY
  5
43
102
{ACAD_REACTORS
330
C
102
}
330
C
100
AcDbDictionary
  3
ACMSTDDICTIONARY
350
260
  0
DICTIONARY
  5
2B
102
{ACAD_REACTORS
330
C
102
}
330
C
100
AcDbDictionary
  3
ACMGSETTINGS
350
2C
  0
DICTIONARY
  5
6E
102
{ACAD_REACTORS
330
C
102
}
330
C
100
AcDbDictionary
  0
XRECORD
  5
2B26
102
{ACAD_REACTORS
330
C
102
}
330
C
100
AcDbXrecord
  1
DWGPROPS COOKIE
  2

  3

  4

  6

  7

  8

  9

300
AmdtFileType=82
301
=
302
=
303
=
304
=
305
=
306
=
307
=
308
=
309
=
 40
0.0452936921296296
 41
2452800.443498622
 42
2452946.603007627
  1

 90
        1
  0
DICTIONARY
  5
2B32
102
{ACAD_REACTORS
330
C
102
}
330
C
100
AcDbDictionary
  3
TSTACKALIGN
350
2B33
  3
TSTACKSIZE
350
2B34
  3
HYPERLINKBASE
350
2B35
  3
STYLESHEET
350
2B36
  3
LAYOUTDICT
350
2B37
  3
PLOTSETDICT
350
2B38
  3
PLOTSTYLNAMDICT
350
2B39
  3
LWETCUNION
350
2B3A
  3
INSUNITS
350
2B3B
  3
CEPSNTYPE
350
2B3C
  3
FINGERPRINTGUID
350
2B3D
  3
VERSIONGUID
350
2B3E
  3
PSVPSCALE
350
2B3F
  3
DIMSTYLEDATA
350
2B40
  3
PUCSORTHOREF
350
2B41
  3
PUCSORTHOVIEW
350
2B42
  3
PUCSBASE
350
2B43
  3
PUCSORGTOP
350
2B44
  3
PUCSORGBOTTOM
350
2B45
  3
PUCSORGLEFT
350
2B46
  3
PUCSORGRIGHT
350
2B47
  3
PUCSORGFRONT
350
2B48
  3
PUCSORGBACK
350
2B49
  3
UCSORTHOREF
350
2B4A
  3
UCSORTHOVIEW
350
2B4B
  3
UCSBASE
350
2B4C
  3
UCSORGTOP
350
2B4D
  3
UCSORGBOTTOM
350
2B4E
  3
UCSORGLEFT
350
2B4F
  3
UCSORGRIGHT
350
2B50
  3
UCSORGFRONT
350
2B51
  3
UCSORGBACK
350
2B52
  0
DICTIONARY
  5
2B28
102
{ACAD_REACTORS
330
74
102
}
330
74
100
AcDbDictionary
  3
*A1
350
2B29
  0
XRECORD
  5
2B55
102
{ACAD_REACTORS
330
74
102
}
330
74
100
AcDbXrecord
340
1F
  0
XRECORD
  5
2B5B
102
{ACAD_REACTORS
330
2B5A
102
}
330
2B5A
100
AcDbXrecord
340
101
  0
MLINESTYLE
  5
18
102
{ACAD_REACTORS
330
17
102
}
330
17
100
AcDbMlineStyle
  2
STANDARD
 70
     0
  3

 62
   256
 51
90.0
 52
90.0
 71
     2
 49
0.5
 62
   256
  6
BYLAYER
 49
-0.5
 62
   256
  6
BYLAYER
  0
ACDBPLACEHOLDER
  5
F
102
{ACAD_REACTORS
330
E
102
}
330
E
100
AcDbPlaceHolder
280
     0
  0
DICTIONARYVAR
  5
35
102
{ACAD_REACTORS
330
34
102
}
330
34
100
DictionaryVariables
280
     0
  1
1
  0
DICTIONARYVAR
  5
B5E
102
{ACAD_REACTORS
330
34
102
}
330
34
100
DictionaryVariables
280
     0
  1
96
  0
DICTIONARY
  5
260
102
{ACAD_REACTORS
330
43
102
}
330
43
100
AcDbDictionary
  0
DICTIONARY
  5
2C
102
{ACAD_REACTORS
330
2B
102
}
330
2B
100
AcDbDictionary
  3
DWGSETTINGS
350
2D
  0
XRECORD
  5
2B33
102
{ACAD_REACTORS
330
2B32
102
}
330
2B32
100
AcDbXrecord
 90
        1
  0
XRECORD
  5
2B34
102
{ACAD_REACTORS
330
2B32
102
}
330
2B32
100
AcDbXrecord
 90
       70
  0
XRECORD
  5
2B35
102
{ACAD_REACTORS
330
2B32
102
}
330
2B32
100
AcDbXrecord
  1

  0
XRECORD
  5
2B36
102
{ACAD_REACTORS
330
2B32
102
}
330
2B32
100
AcDbXrecord
  1
ASAMI.ctb
  0
XRECORD
  5
2B37
102
{ACAD_REACTORS
330
2B32
102
}
330
2B32
100
AcDbXrecord
340
1A
  0
XRECORD
  5
2B38
102
{ACAD_REACTORS
330
2B32
102
}
330
2B32
100
AcDbXrecord
340
19
  0
XRECORD
  5
2B39
102
{ACAD_REACTORS
330
2B32
102
}
330
2B32
100
AcDbXrecord
340
E
  0
XRECORD
  5
2B3A
102
{ACAD_REACTORS
330
2B32
102
}
330
2B32
100
AcDbXrecord
 90
    10781
  0
XRECORD
  5
2B3B
102
{ACAD_REACTORS
330
2B32
102
}
330
2B32
100
AcDbXrecord
 90
        4
  0
XRECORD
  5
2B3C
102
{ACAD_REACTORS
330
2B32
102
}
330
2B32
100
AcDbXrecord
 90
        0
  0
XRECORD
  5
2B3D
102
{ACAD_REACTORS
330
2B32
102
}
330
2B32
100
AcDbXrecord
  1
{AFB28963-8C59-40AE-9337-C84526B81ACE}
  0
XRECORD
  5
2B3E
102
{ACAD_REACTORS
330
2B32
102
}
330
2B32
100
AcDbXrecord
  1
{E3A360E1-8B53-42FC-A39F-C3E54FC7DAA9}
  0
XRECORD
  5
2B3F
102
{ACAD_REACTORS
330
2B32
102
}
330
2B32
100
AcDbXrecord
 40
0.0
  0
XRECORD
  5
2B40
102
{ACAD_REACTORS
330
2B32
102
}
330
2B32
100
AcDbXrecord
1000
DSTYLE
1002
{
1070
    79
 70
     2
1070
   341
340
59
1070
   342
340
59
1070
   371
 70
    -1
1070
   372
 70
    -1
1002
}
  0
XRECORD
  5
2B41
102
{ACAD_REACTORS
330
2B32
102
}
330
2B32
100
AcDbXrecord
340
0
  0
XRECORD
  5
2B42
102
{ACAD_REACTORS
330
2B32
102
}
330
2B32
100
AcDbXrecord
 70
     0
  0
XRECORD
  5
2B43
102
{ACAD_REACTORS
330
2B32
102
}
330
2B32
100
AcDbXrecord
340
0
  0
XRECORD
  5
2B44
102
{ACAD_REACTORS
330
2B32
102
}
330
2B32
100
AcDbXrecord
 10
0.0
 20
0.0
 30
0.0
  0
XRECORD
  5
2B45
102
{ACAD_REACTORS
330
2B32
102
}
330
2B32
100
AcDbXrecord
 10
0.0
 20
0.0
 30
0.0
  0
XRECORD
  5
2B46
102
{ACAD_REACTORS
330
2B32
102
}
330
2B32
100
AcDbXrecord
 10
0.0
 20
0.0
 30
0.0
  0
XRECORD
  5
2B47
102
{ACAD_REACTORS
330
2B32
102
}
330
2B32
100
AcDbXrecord
 10
0.0
 20
0.0
 30
0.0
  0
XRECORD
  5
2B48
102
{ACAD_REACTORS
330
2B32
102
}
330
2B32
100
AcDbXrecord
 10
0.0
 20
0.0
 30
0.0
  0
XRECORD
  5
2B49
102
{ACAD_REACTORS
330
2B32
102
}
330
2B32
100
AcDbXrecord
 10
0.0
 20
0.0
 30
0.0
  0
XRECORD
  5
2B4A
102
{ACAD_REACTORS
330
2B32
102
}
330
2B32
100
AcDbXrecord
340
0
  0
XRECORD
  5
2B4B
102
{ACAD_REACTORS
330
2B32
102
}
330
2B32
100
AcDbXrecord
 70
     0
  0
XRECORD
  5
2B4C
102
{ACAD_REACTORS
330
2B32
102
}
330
2B32
100
AcDbXrecord
340
0
  0
XRECORD
  5
2B4D
102
{ACAD_REACTORS
330
2B32
102
}
330
2B32
100
AcDbXrecord
 10
0.0
 20
0.0
 30
0.0
  0
XRECORD
  5
2B4E
102
{ACAD_REACTORS
330
2B32
102
}
330
2B32
100
AcDbXrecord
 10
0.0
 20
0.0
 30
0.0
  0
XRECORD
  5
2B4F
102
{ACAD_REACTORS
330
2B32
102
}
330
2B32
100
AcDbXrecord
 10
0.0
 20
0.0
 30
0.0
  0
XRECORD
  5
2B50
102
{ACAD_REACTORS
330
2B32
102
}
330
2B32
100
AcDbXrecord
 10
0.0
 20
0.0
 30
0.0
  0
XRECORD
  5
2B51
102
{ACAD_REACTORS
330
2B32
102
}
330
2B32
100
AcDbXrecord
 10
0.0
 20
0.0
 30
0.0
  0
XRECORD
  5
2B52
102
{ACAD_REACTORS
330
2B32
102
}
330
2B32
100
AcDbXrecord
 10
0.0
 20
0.0
 30
0.0
  0
LAYER_INDEX
  5
2B29
102
{ACAD_REACTORS
330
2B28
102
}
330
2B28
100
AcDbIndex
 40
2453151.578020995
100
AcDbLayerIndex
  8
0
360
2B2A
 90
        0
  8
AM_0
360
2B2B
 90
       44
  8
AM_7
360
2B2C
 90
        1
  8
AM_11
360
2B2D
 90
       23
  8
AM_5
360
2B2E
 90
        5
  8
Defpoints
360
2B2F
 90
        0
  8
AM_6
360
2B30
 90
        1
  0
XRECORD
  5
2D
102
{ACAD_REACTORS
330
2C
102
}
330
2C
100
AcDbXrecord
  1
VERSION
140
15.0
  1
PRODUCT
  2
AutoCAD Mechanical 2000
  0
IDBUFFER
  5
2B2A
330
0
100
AcDbIdBuffer
  0
IDBUFFER
  5
2B2B
330
0
100
AcDbIdBuffer
330
2A80
330
2A81
330
2A82
330
2A83
330
2A84
330
2A86
330
2A89
330
2A8A
330
2A8B
330
2A8C
330
2A8D
330
2A8E
330
2A8F
330
2A90
330
2A91
330
2A92
330
2A94
330
2A97
330
2A98
330
2A99
330
2A9A
330
2A9B
330
2A9C
330
2A9D
330
2A9E
330
2A9F
330
2AA0
330
2AA1
330
C1D
330
C20
330
C30
330
1CF0
330
1CF4
330
1CFE
330
1EB2
330
1EB5
330
1ED3
330
1FDE
330
1FDF
330
2470
330
249A
330
24A9
330
25FC
330
25FD
  0
IDBUFFER
  5
2B2C
330
0
100
AcDbIdBuffer
330
C9F
  0
IDBUFFER
  5
2B2D
330
0
100
AcDbIdBuffer
330
1EC0
330
2A85
330
2A87
330
2A88
330
2A93
330
2A95
330
2A96
330
144A
330
144B
330
144E
330
144F
330
1450
330
1451
330
1452
330
1453
330
1454
330
1DAB
330
1DAC
330
1DAD
330
1DAE
330
1DAF
330
1DB0
330
1EBF
  0
IDBUFFER
  5
2B2E
330
0
100
AcDbIdBuffer
330
CC6
330
DF5
330
218E
330
245D
330
260B
  0
IDBUFFER
  5
2B2F
330
0
100
AcDbIdBuffer
  0
IDBUFFER
  5
2B30
330
0
100
AcDbIdBuffer
330
19BD
  0
ENDSEC
  0
EOF
