  0
SECTION
  2
HEADER
  9
$ACADVER
  1
AC1014
  9
$ACADMAINTVER
 70
     9
  9
$DWGCODEPAGE
  3
ANSI_932
  9
$INSBASE
 10
0.0
 20
0.0
 30
0.0
  9
$EXTMIN
 10
-95.54897802178542
 20
-48.42855170325258
 30
-0.00000001
  9
$EXTMAX
 10
27.60339580202654
 20
26.40854920198099
 30
0.00000001
  9
$LIMMIN
 10
-112.09769303573
 20
-69.67737275500994
  9
$LIMMAX
 10
43.17094681986185
 20
44.3314343346924
  9
$ORTHOMODE
 70
     0
  9
$REGENMODE
 70
     1
  9
$FILLMODE
 70
     1
  9
$QTEXTMODE
 70
     0
  9
$MIRRTEXT
 70
     0
  9
$DRAGMODE
 70
     2
  9
$LTSCALE
 40
0.5
  9
$OSMODE
 70
    55
  9
$ATTMODE
 70
     1
  9
$TEXTSIZE
 40
2.5
  9
$TRACEWID
 40
1.0
  9
$TEXTSTYLE
  7
STANDARD
  9
$CLAYER
  8
AM_0
  9
$CELTYPE
  6
BYLAYER
  9
$CECOLOR
 62
   256
  9
$CELTSCALE
 40
1.0
  9
$DELOBJ
 70
     1
  9
$DISPSILH
 70
     0
  9
$DIMSCALE
 40
1.0
  9
$DIMASZ
 40
2.5
  9
$DIMEXO
 40
1.0
  9
$DIMDLI
 40
12.0
  9
$DIMRND
 40
0.0
  9
$DIMDLE
 40
0.0
  9
$DIMEXE
 40
1.0
  9
$DIMTP
 40
0.1
  9
$DIMTM
 40
0.1
  9
$DIMTXT
 40
3.2
  9
$DIMCEN
 40
0.0
  9
$DIMTSZ
 40
0.0
  9
$DIMTOL
 70
     0
  9
$DIMLIM
 70
     0
  9
$DIMTIH
 70
     0
  9
$DIMTOH
 70
     0
  9
$DIMSE1
 70
     0
  9
$DIMSE2
 70
     0
  9
$DIMTAD
 70
     3
  9
$DIMZIN
 70
     8
  9
$DIMBLK
  1
OPEN30
  9
$DIMASO
 70
     1
  9
$DIMSHO
 70
     1
  9
$DIMPOST
  1

  9
$DIMAPOST
  1
"
  9
$DIMALT
 70
     0
  9
$DIMALTD
 70
     2
  9
$DIMALTF
 40
0.0393701
  9
$DIMLFAC
 40
1.0
  9
$DIMTOFL
 70
     1
  9
$DIMTVP
 40
0.0
  9
$DIMTIX
 70
     0
  9
$DIMSOXD
 70
     0
  9
$DIMSAH
 70
     0
  9
$DIMBLK1
  1

  9
$DIMBLK2
  1

  9
$DIMSTYLE
  2
AM_JIS
  9
$DIMCLRD
 70
   256
  9
$DIMCLRE
 70
   256
  9
$DIMCLRT
 70
     2
  9
$DIMTFAC
 40
0.71
  9
$DIMGAP
 40
1.5
  9
$DIMJUST
 70
     0
  9
$DIMSD1
 70
     0
  9
$DIMSD2
 70
     0
  9
$DIMTOLJ
 70
     0
  9
$DIMTZIN
 70
     0
  9
$DIMALTZ
 70
     0
  9
$DIMALTTZ
 70
     0
  9
$DIMFIT
 70
     3
  9
$DIMUPT
 70
     0
  9
$DIMUNIT
 70
     2
  9
$DIMDEC
 70
     3
  9
$DIMTDEC
 70
     3
  9
$DIMALTU
 70
     2
  9
$DIMALTTD
 70
     2
  9
$DIMTXSTY
  7
ASAMI
  9
$DIMAUNIT
 70
     0
  9
$LUNITS
 70
     2
  9
$LUPREC
 70
     2
  9
$SKETCHINC
 40
1.0
  9
$FILLETRAD
 40
2.5
  9
$AUNITS
 70
     0
  9
$AUPREC
 70
     0
  9
$MENU
  1
.
  9
$ELEVATION
 40
0.0
  9
$PELEVATION
 40
0.0
  9
$THICKNESS
 40
0.0
  9
$LIMCHECK
 70
     0
  9
$BLIPMODE
 70
     0
  9
$CHAMFERA
 40
2.5
  9
$CHAMFERB
 40
2.5
  9
$CHAMFERC
 40
20.0
  9
$CHAMFERD
 40
0.0
  9
$SKPOLY
 70
     0
  9
$TDCREATE
 40
2452800.443498622
  9
$TDUPDATE
 40
2453151.580723541
  9
$TDINDWG
 40
0.2005417593
  9
$TDUSRTIMER
 40
0.2005417593
  9
$USRTIMER
 70
     1
  9
$ANGBASE
 50
0.0
  9
$ANGDIR
 70
     0
  9
$PDMODE
 70
     0
  9
$PDSIZE
 40
0.0
  9
$PLINEWID
 40
0.0
  9
$COORDS
 70
     1
  9
$SPLFRAME
 70
     0
  9
$SPLINETYPE
 70
     6
  9
$SPLINESEGS
 70
     8
  9
$ATTDIA
 70
     1
  9
$ATTREQ
 70
     1
  9
$HANDLING
 70
 12289
  9
$HANDSEED
  5
35F4
  9
$SURFTAB1
 70
     6
  9
$SURFTAB2
 70
     6
  9
$SURFTYPE
 70
     6
  9
$SURFU
 70
     6
  9
$SURFV
 70
     6
  9
$UCSNAME
  2

  9
$UCSORG
 10
0.0
 20
0.0
 30
0.0
  9
$UCSXDIR
 10
1.0
 20
0.0000000000000027
 30
0.0
  9
$UCSYDIR
 10
-0.0000000000000027
 20
1.0
 30
0.0
  9
$PUCSNAME
  2

  9
$PUCSORG
 10
0.0
 20
0.0
 30
0.0
  9
$PUCSXDIR
 10
1.0
 20
0.0
 30
0.0
  9
$PUCSYDIR
 10
0.0
 20
1.0
 30
0.0
  9
$USERI1
 70
     0
  9
$USERI2
 70
     0
  9
$USERI3
 70
     0
  9
$USERI4
 70
     0
  9
$USERI5
 70
     0
  9
$USERR1
 40
0.0
  9
$USERR2
 40
0.0
  9
$USERR3
 40
0.0
  9
$USERR4
 40
0.0
  9
$USERR5
 40
0.0
  9
$WORLDVIEW
 70
     1
  9
$SHADEDGE
 70
     3
  9
$SHADEDIF
 70
    70
  9
$TILEMODE
 70
     1
  9
$MAXACTVP
 70
    64
  9
$PINSBASE
 10
0.0
 20
0.0
 30
0.0
  9
$PLIMCHECK
 70
     0
  9
$PEXTMIN
 10
1.000000000000000E+20
 20
1.000000000000000E+20
 30
1.000000000000000E+20
  9
$PEXTMAX
 10
-1.000000000000000E+20
 20
-1.000000000000000E+20
 30
-1.000000000000000E+20
  9
$PLIMMIN
 10
0.0
 20
0.0
  9
$PLIMMAX
 10
841.0
 20
594.0
  9
$UNITMODE
 70
     0
  9
$VISRETAIN
 70
     1
  9
$PLINEGEN
 70
     0
  9
$PSLTSCALE
 70
     0
  9
$TREEDEPTH
 70
  3020
  9
$PICKSTYLE
 70
     0
  9
$CMLSTYLE
  2
STANDARD
  9
$CMLJUST
 70
     0
  9
$CMLSCALE
 40
20.0
  9
$PROXYGRAPHICS
 70
     1
  9
$MEASUREMENT
 70
     1
  0
ENDSEC
  0
SECTION
  2
CLASSES
  0
CLASS
  1
ACDBDICTIONARYWDFLT
  2
AcDbDictionaryWithDefault
  3
AutoCAD 2000
 90
        0
280
     0
281
     0
  0
CLASS
  1
ACDBPLACEHOLDER
  2
AcDbPlaceHolder
  3
AutoCAD 2000
 90
        0
280
     0
281
     0
  0
CLASS
  1
LAYOUT
  2
AcDbLayout
  3
AutoCAD 2000
 90
        0
280
     0
281
     0
  0
CLASS
  1
AMGSETTINGSOBJ
  2
AmgSettingsObj
  3
"AcadM|Product Description: AutoCAD Mechanical 2000|Company: Autodesk"
 90
        0
280
     0
281
     0
  0
CLASS
  1
ACME_DOCUMENT
  2
AcMeDbDoc
  3
AcMeServices
 90
        0
280
     0
281
     0
  0
CLASS
  1
ACMESCOPE
  2
AcMeScope
  3
AcMeServices
 90
        0
280
     0
281
     0
  0
CLASS
  1
ACMECOMMANDHISTORY
  2
AcMeCommandHistory
  3
AcMeServices
 90
        0
280
     0
281
     0
  0
CLASS
  1
DICTIONARYVAR
  2
AcDbDictionaryVar
  3
AutoCAD 2000
 90
        0
280
     0
281
     0
  0
CLASS
  1
ACIMSYSVARMAN
  2
AcImSysVarManager
  3
AcMeServices
 90
        0
280
     0
281
     0
  0
CLASS
  1
ACIMREALSYSVAR
  2
AcImRealSysVar
  3
AcMeServices
 90
        0
280
     0
281
     0
  0
CLASS
  1
ACIMINTSYSVAR
  2
AcImIntSysVar
  3
AcMeServices
 90
        0
280
     0
281
     0
  0
CLASS
  1
ACMEDRAWINGMAN
  2
AcMeDrawingMan
  3
AcMeServices
 90
        0
280
     0
281
     0
  0
CLASS
  1
ACMEVIEW
  2
AcMeView
  3
AcMeServices
 90
        0
280
     0
281
     0
  0
CLASS
  1
ACDBENTITYCACHE
  2
AcMeEntityCache
  3
AcMeServices
 90
        0
280
     0
281
     0
  0
CLASS
  1
GSMANAGER
  2
AcMeGSManager
  3
AcMeServices
 90
        0
280
     0
281
     0
  0
CLASS
  1
AmdtInternalReactor
  2
AmdtInternalReactor
  3
AcMeServices
 90
        0
280
     0
281
     0
  0
CLASS
  1
ACMESTATEMGR
  2
AcMeStateMgr
  3
AcMeServices
 90
        0
280
     0
281
     0
  0
CLASS
  1
ACME_DATABASE
  2
AcMeDbDatabase
  3
AcMeServices
 90
        0
280
     0
281
     0
  0
CLASS
  1
ACRFINSADJUSTERMGR
  2
AcRfInsAdjusterMgr
  3
AcMeServices
 90
        0
280
     0
281
     0
  0
CLASS
  1
ACMDATADICTIONARY
  2
AcmDataDictionary
  3
"AcmSymBB|Product Description: AutoCAD Mechanical 2000|Company: Autodesk"
 90
        0
280
     0
281
     0
  0
CLASS
  1
ACMDATAENTRYBLOCK
  2
AcmDataEntryBlock
  3
"AcmSymBB|Product Description: AutoCAD Mechanical 2000|Company: Autodesk"
 90
        0
280
     0
281
     0
  0
CLASS
  1
AMGOBJPROPCFG
  2
AmgObjPropCfg
  3
"AmgLay|Product Description: AutoCAD Mechanical 2000|Company: Autodesk"
 90
        1
280
     0
281
     0
  0
CLASS
  1
ACAMGFILTERDAT
  2
AcAmgFilterDat
  3
"AcadM|Product Description: AutoCAD Mechanical 2000|Company: Autodesk"
 90
        0
280
     0
281
     0
  0
CLASS
  1
LAYER_INDEX
  2
AcDbLayerIndex
  3
AutoCAD 2000
 90
        0
280
     0
281
     0
  0
CLASS
  1
IDBUFFER
  2
AcDbIdBuffer
  3
AutoCAD 2000
 90
        0
280
     0
281
     0
  0
CLASS
  1
ACIMSTRSYSVAR
  2
AcImStrSysVar
  3
AcMeServices
 90
        0
280
     0
281
     0
  0
CLASS
  1
ACMSTANDARDJIS
  2
AcmStandardJIS
  3
"AcmSymBB|Product Description: AutoCAD Mechanical 2000|Company: Autodesk"
 90
        0
280
     0
281
     0
  0
CLASS
  1
ACMSURFSTANDARDJIS
  2
AcmSurfTextStdJIS
  3
"AcmSymBB|Product Description: AutoCAD Mechanical 2000|Company: Autodesk"
 90
        0
280
     0
281
     0
  0
CLASS
  1
ACMFCFSTANDARDJIS
  2
AcmFCFStdJIS
  3
"AcmSymBB|Product Description: AutoCAD Mechanical 2000|Company: Autodesk"
 90
        0
280
     0
281
     0
  0
CLASS
  1
ACMWELDSTANDARDJIS
  2
AcmWeldingStdJIS
  3
"AcmSymBB|Product Description: AutoCAD Mechanical 2000|Company: Autodesk"
 90
        0
280
     0
281
     0
  0
CLASS
  1
ACMIDSTANDARDJIS
  2
AcmIdStdJIS
  3
"AcmSymBB|Product Description: AutoCAD Mechanical 2000|Company: Autodesk"
 90
        0
280
     0
281
     0
  0
CLASS
  1
ACMDATUMSTANDARDJIS
  2
AcmDatumStdJIS
  3
"AcmSymBB|Product Description: AutoCAD Mechanical 2000|Company: Autodesk"
 90
        0
280
     0
281
     0
  0
CLASS
  1
ACMBOMSTANDARDJIS
  2
AcmBOMStdJIS
  3
"AcmSymBB|Product Description: AutoCAD Mechanical 2000|Company: Autodesk"
 90
        0
280
     0
281
     0
  0
CLASS
  1
ACMSTANDARDANSI
  2
AcmStandardANSI
  3
"AcmSymBB|Product Description: AutoCAD Mechanical 2000|Company: Autodesk"
 90
        0
280
     0
281
     0
  0
CLASS
  1
ACMSURFSTANDARDANSI
  2
AcmSurfTextStdANSI
  3
"AcmSymBB|Product Description: AutoCAD Mechanical 2000|Company: Autodesk"
 90
        0
280
     0
281
     0
  0
CLASS
  1
ACMFCFSTANDARDANSI
  2
AcmFCFStdANSI
  3
"AcmSymBB|Product Description: AutoCAD Mechanical 2000|Company: Autodesk"
 90
        0
280
     0
281
     0
  0
CLASS
  1
ACMWELDSTANDARDANSI
  2
AcmWeldingStdANSI
  3
"AcmSymBB|Product Description: AutoCAD Mechanical 2000|Company: Autodesk"
 90
        0
280
     0
281
     0
  0
CLASS
  1
ACMIDSTANDARDANSI
  2
AcmIdStdANSI
  3
"AcmSymBB|Product Description: AutoCAD Mechanical 2000|Company: Autodesk"
 90
        0
280
     0
281
     0
  0
CLASS
  1
ACMDATUMSTANDARDANSI
  2
AcmDatumStdANSI
  3
"AcmSymBB|Product Description: AutoCAD Mechanical 2000|Company: Autodesk"
 90
        0
280
     0
281
     0
  0
CLASS
  1
ACMBOMSTANDARDANSI
  2
AcmBOMStdANSI
  3
"AcmSymBB|Product Description: AutoCAD Mechanical 2000|Company: Autodesk"
 90
        0
280
     0
281
     0
  0
CLASS
  1
ACMSTANDARDBSI
  2
AcmStandardBSI
  3
"AcmSymBB|Product Description: AutoCAD Mechanical 2000|Company: Autodesk"
 90
        0
280
     0
281
     0
  0
CLASS
  1
ACMSURFSTANDARDBSI
  2
AcmSurfTextStdBSI
  3
"AcmSymBB|Product Description: AutoCAD Mechanical 2000|Company: Autodesk"
 90
        0
280
     0
281
     0
  0
CLASS
  1
ACMFCFSTANDARDBSI
  2
AcmFCFStdBSI
  3
"AcmSymBB|Product Description: AutoCAD Mechanical 2000|Company: Autodesk"
 90
        0
280
     0
281
     0
  0
CLASS
  1
ACMWELDSTANDARDBSI
  2
AcmWeldingStdBSI
  3
"AcmSymBB|Product Description: AutoCAD Mechanical 2000|Company: Autodesk"
 90
        0
280
     0
281
     0
  0
CLASS
  1
ACMIDSTANDARDBSI
  2
AcmIdStdBSI
  3
"AcmSymBB|Product Description: AutoCAD Mechanical 2000|Company: Autodesk"
 90
        0
280
     0
281
     0
  0
CLASS
  1
ACMDATUMSTANDARDBSI
  2
AcmDatumStdBSI
  3
"AcmSymBB|Product Description: AutoCAD Mechanical 2000|Company: Autodesk"
 90
        0
280
     0
281
     0
  0
CLASS
  1
ACMBOMSTANDARDBSI
  2
AcmBOMStdBSI
  3
"AcmSymBB|Product Description: AutoCAD Mechanical 2000|Company: Autodesk"
 90
        0
280
     0
281
     0
  0
CLASS
  1
LONG_TRANSACTION
  2
AcDbLongTransaction
  3
AutoCAD 2000
 90
        0
280
     0
281
     0
  0
CLASS
  1
LWPOLYLINE
  2
AcDbPolyline
  3
AutoCAD 2000
 90
        0
280
     0
281
     1
  0
CLASS
  1
HATCH
  2
AcDbHatch
  3
AutoCAD 2000
 90
        0
280
     0
281
     1
  0
CLASS
  1
XRECORD
  2
AcDbXrecord
  3
AutoCAD 2000
 90
        0
280
     0
281
     0
  0
ENDSEC
  0
SECTION
  2
TABLES
  0
TABLE
  2
VPORT
  5
8
330
0
100
AcDbSymbolTable
 70
     3
  0
VPORT
  5
35C9
330
8
100
AcDbSymbolTableRecord
100
AcDbViewportTableRecord
  2
*ACTIVE
 70
     0
 10
0.0
 20
0.0
 11
1.0
 21
1.0
 12
-25.58013707856983
 22
-3.694909772087896
 13
0.0
 23
0.0
 14
2.5
 24
2.5
 15
10.0
 25
10.0
 16
0.0
 26
0.0
 36
1.0
 17
0.0
 27
0.0
 37
0.0
 40
128.398958317491
 41
1.56570841889117
 42
50.0
 43
0.0
 44
0.0
 50
0.0
 51
0.0
 71
     0
 72
   100
 73
     1
 74
     1
 75
     0
 76
     0
 77
     0
 78
     0
  0
ENDTAB
  0
TABLE
  2
LTYPE
  5
5
330
0
100
AcDbSymbolTable
 70
    10
  0
LTYPE
  5
14
330
5
100
AcDbSymbolTableRecord
100
AcDbLinetypeTableRecord
  2
BYBLOCK
 70
     0
  3

 72
    65
 73
     0
 40
0.0
  0
LTYPE
  5
15
330
5
100
AcDbSymbolTableRecord
100
AcDbLinetypeTableRecord
  2
BYLAYER
 70
     0
  3

 72
    65
 73
     0
 40
0.0
  0
LTYPE
  5
16
330
5
100
AcDbSymbolTableRecord
100
AcDbLinetypeTableRecord
  2
CONTINUOUS
 70
     0
  3
Solid line
 72
    65
 73
     0
 40
0.0
  0
LTYPE
  5
4B
330
5
100
AcDbSymbolTableRecord
100
AcDbLinetypeTableRecord
  2
AM_ISO02W050
 70
     0
  3
__ __ __ __ __ __ __ __ __ __ __ __ __ __ __
 72
    65
 73
     2
 40
7.5
 49
6.0
 74
     0
 49
-1.5
 74
     0
  0
LTYPE
  5
4C
330
5
100
AcDbSymbolTableRecord
100
AcDbLinetypeTableRecord
  2
AM_ISO08W050
 70
     0
  3
____ . ____ . ____ . ____ . ____ . ____ . ____
 72
    65
 73
     4
 40
18.0
 49
12.0
 74
     0
 49
-1.5
 74
     0
 49
3.0
 74
     0
 49
-1.5
 74
     0
  0
LTYPE
  5
4D
330
5
100
AcDbSymbolTableRecord
100
AcDbLinetypeTableRecord
  2
AM_ISO09W050
 70
     0
  3
_____ . . _____ . . _____ . . ____ .. ____
 72
    65
 73
     6
 40
22.5
 49
12.0
 74
     0
 49
-1.5
 74
     0
 49
3.0
 74
     0
 49
-1.5
 74
     0
 49
3.0
 74
     0
 49
-1.5
 74
     0
  0
LTYPE
  5
4E
330
5
100
AcDbSymbolTableRecord
100
AcDbLinetypeTableRecord
  2
AMCONSTR
 70
     0
  3
_______________________
 72
    65
 73
     2
 40
9999.0
 49
9999.0
 74
     0
 49
0.0
 74
     0
  0
LTYPE
  5
4F
330
5
100
AcDbSymbolTableRecord
100
AcDbLinetypeTableRecord
  2
AM_ISO02W050X2
 70
     0
  3
 _ _ _ _ _ _ _ _ _ _ _ _
 72
    65
 73
     2
 40
3.75
 49
3.0
 74
     0
 49
-0.75
 74
     0
  0
LTYPE
  5
50
330
5
100
AcDbSymbolTableRecord
100
AcDbLinetypeTableRecord
  2
AM_ISO08W050X2
 70
     0
  3
__ . __ . __ . __ . __ . __
 72
    65
 73
     4
 40
9.0
 49
6.0
 74
     0
 49
-0.75
 74
     0
 49
1.5
 74
     0
 49
-0.75
 74
     0
  0
LTYPE
  5
53
330
5
100
AcDbSymbolTableRecord
100
AcDbLinetypeTableRecord
  2
AMZIGZAG
 70
     0
  3
/\/-/\/-/\/-/\/-/\/-/\/
 72
    65
 73
     2
 40
11.00009999999999
 49
0.0001
 74
     4
 75
   135
340
52
 46
0.04
 50
0.0
 44
0.0
 45
0.0
 49
-11.0
 74
     0
  0
LTYPE
  5
166
330
5
100
AcDbSymbolTableRecord
100
AcDbLinetypeTableRecord
  2
ACJISTGL
 70
     0
  3
_ _ _ _ _
 72
    65
 73
     2
 40
3.0
 49
2.0
 74
     0
 49
-1.0
 74
     0
  0
LTYPE
  5
26A
330
5
100
AcDbSymbolTableRecord
100
AcDbLinetypeTableRecord
  2
ACJISTGB
 70
     0
  3
__ . . __ . .
 72
    65
 73
     6
 40
9.0
 49
4.0
 74
     0
 49
-1.0
 74
     0
 49
1.0
 74
     0
 49
-1.0
 74
     0
 49
1.0
 74
     0
 49
-1.0
 74
     0
  0
ENDTAB
  0
TABLE
  2
LAYER
  5
2
330
0
100
AcDbSymbolTable
 70
    10
  0
LAYER
  5
10
330
2
100
AcDbSymbolTableRecord
100
AcDbLayerTableRecord
  2
0
 70
     0
 62
     7
  6
CONTINUOUS
  0
LAYER
  5
3F9
330
2
100
AcDbSymbolTableRecord
100
AcDbLayerTableRecord
  2
AM_0
 70
     0
 62
     7
  6
CONTINUOUS
  0
LAYER
  5
BA4
330
2
100
AcDbSymbolTableRecord
100
AcDbLayerTableRecord
  2
PV0001_1
 70
     0
 62
     7
  6
CONTINUOUS
  0
LAYER
  5
C6C
330
2
100
AcDbSymbolTableRecord
100
AcDbLayerTableRecord
  2
AM_CL
 70
     0
 62
     1
  6
AMCONSTR
  0
LAYER
  5
C7C
330
2
100
AcDbSymbolTableRecord
100
AcDbLayerTableRecord
  2
AM_7
 70
     0
 62
     4
  6
AM_ISO08W050
  0
LAYER
  5
C97
330
2
100
AcDbSymbolTableRecord
100
AcDbLayerTableRecord
  2
AM_11
 70
     0
 62
     3
  6
AM_ISO09W050
  0
LAYER
  5
CC5
330
2
100
AcDbSymbolTableRecord
100
AcDbLayerTableRecord
  2
AM_5
 70
     0
 62
     3
  6
CONTINUOUS
  0
LAYER
  5
CC7
330
2
100
AcDbSymbolTableRecord
100
AcDbLayerTableRecord
  2
DEFPOINTS
 70
     0
 62
     7
  6
CONTINUOUS
  0
LAYER
  5
19BC
330
2
100
AcDbSymbolTableRecord
100
AcDbLayerTableRecord
  2
AM_6
 70
     0
 62
     2
  6
CONTINUOUS
  0
LAYER
  5
1F8E
330
2
100
AcDbSymbolTableRecord
100
AcDbLayerTableRecord
  2
AM_4
 70
     0
 62
     3
  6
CONTINUOUS
  0
ENDTAB
  0
TABLE
  2
STYLE
  5
3
330
0
100
AcDbSymbolTable
 70
     5
  0
STYLE
  5
11
330
3
100
AcDbSymbolTableRecord
100
AcDbTextStyleTableRecord
  2
STANDARD
 70
     0
 40
0.0
 41
1.0
 50
0.0
 71
     0
 42
2.5
  3
simplex.shx
  4
EXTFONT.SHX
  0
STYLE
  5
52
330
3
100
AcDbSymbolTableRecord
100
AcDbTextStyleTableRecord
  2

 70
     1
 40
0.0
 41
1.0
 50
0.0
 71
     0
 42
2.5
  3
ltypeshp.shx
  4

  0
STYLE
  5
6B
330
3
100
AcDbSymbolTableRecord
100
AcDbTextStyleTableRecord
  2
ASAMI
 70
     0
 40
0.0
 41
1.0
 50
0.0
 71
     0
 42
2.5
  3
simplex.shx
  4
EXTFONT.SHX
  0
STYLE
  5
262
330
3
100
AcDbSymbolTableRecord
100
AcDbTextStyleTableRecord
  2
ACJISTS
 70
     0
 40
1.0
 41
1.0
 50
0.0
 71
     0
 42
2.5
  3
simplex.shx
  4
bigfont.shx
  0
STYLE
  5
269
330
3
100
AcDbSymbolTableRecord
100
AcDbTextStyleTableRecord
  2
ACJISGDT
 70
     0
 40
0.0
 41
1.0
 50
0.0
 71
     0
 42
2.5
  3
amgdtans.shx
  4

  0
ENDTAB
  0
TABLE
  2
VIEW
  5
6
330
0
100
AcDbSymbolTable
 70
     0
  0
ENDTAB
  0
TABLE
  2
UCS
  5
7
330
0
100
AcDbSymbolTable
 70
     0
  0
ENDTAB
  0
TABLE
  2
APPID
  5
9
330
0
100
AcDbSymbolTable
 70
    16
  0
APPID
  5
12
330
9
100
AcDbSymbolTableRecord
100
AcDbRegAppTableRecord
  2
ACAD
 70
     0
  0
APPID
  5
30
330
9
100
AcDbSymbolTableRecord
100
AcDbRegAppTableRecord
  2
MCAD_NO_VIS
 70
     0
  0
APPID
  5
31
330
9
100
AcDbSymbolTableRecord
100
AcDbRegAppTableRecord
  2
ACAD_TEMP_GRAPHIC
 70
     0
  0
APPID
  5
2C2
330
9
100
AcDbSymbolTableRecord
100
AcDbRegAppTableRecord
  2
GENIUS_GENDTOL_13
 70
     0
  0
APPID
  5
339
330
9
100
AcDbSymbolTableRecord
100
AcDbRegAppTableRecord
  2
GENIUS_GENODEF_13
 70
     0
  0
APPID
  5
33A
330
9
100
AcDbSymbolTableRecord
100
AcDbRegAppTableRecord
  2
GENIUS_GENOBJ-N-RSBK_13
 70
     0
  0
APPID
  5
33B
330
9
100
AcDbSymbolTableRecord
100
AcDbRegAppTableRecord
  2
GENIUS_GENOBJ-N-LIB_13
 70
     0
  0
APPID
  5
33C
330
9
100
AcDbSymbolTableRecord
100
AcDbRegAppTableRecord
  2
GENIUS_GENSCALE_13
 70
     0
  0
APPID
  5
378
330
9
100
AcDbSymbolTableRecord
100
AcDbRegAppTableRecord
  2
GENIUS_GENDIMSH_14
 70
     0
  0
APPID
  5
C82
330
9
100
AcDbSymbolTableRecord
100
AcDbRegAppTableRecord
  2
GENIUS_GENOBJ-N-CRS_13
 70
     0
  0
APPID
  5
C83
330
9
100
AcDbSymbolTableRecord
100
AcDbRegAppTableRecord
  2
GENIUS_GENOENT_13
 70
     0
  0
APPID
  5
C84
330
9
100
AcDbSymbolTableRecord
100
AcDbRegAppTableRecord
  2
GENIUS_GENOREF_13
 70
     0
  0
APPID
  5
C85
330
9
100
AcDbSymbolTableRecord
100
AcDbRegAppTableRecord
  2
GENIUS_GENOLIS_13
 70
     0
  0
APPID
  5
CA0
330
9
100
AcDbSymbolTableRecord
100
AcDbRegAppTableRecord
  2
GENIUS_GENOBJ-N-CEN_13
 70
     0
  0
APPID
  5
31AE
330
9
100
AcDbSymbolTableRecord
100
AcDbRegAppTableRecord
  2
GENIUS_GENFIL_13
 70
     0
  0
APPID
  5
31AF
330
9
100
AcDbSymbolTableRecord
100
AcDbRegAppTableRecord
  2
GENIUS_GENOBJ-N-CHA_13
 70
     0
  0
ENDTAB
  0
TABLE
  2
DIMSTYLE
  5
A
330
0
100
AcDbSymbolTable
 70
    10
  0
DIMSTYLE
105
58
330
A
100
AcDbSymbolTableRecord
100
AcDbDimStyleTableRecord
  2
AM_JIS
 70
     0
  3

  4
"
  5
OPEN30
  6

  7

 40
0.5
 41
2.5
 42
1.0
 43
12.0
 44
1.0
 45
0.0
 46
0.0
 47
0.1
 48
0.1
140
3.2
141
0.0
142
0.0
143
0.0393701
144
1.0
145
0.0
146
0.71
147
1.5
 71
     0
 72
     0
 73
     0
 74
     0
 75
     0
 76
     0
 77
     3
 78
     8
170
     0
171
     2
172
     1
173
     0
174
     0
175
     0
176
   256
177
   256
178
     2
270
     2
271
     3
272
     3
273
     2
274
     2
340
6B
275
     0
280
     0
281
     0
282
     0
283
     0
284
     0
285
     0
286
     0
287
     3
288
     0
  0
DIMSTYLE
105
5F
330
A
100
AcDbSymbolTableRecord
100
AcDbDimStyleTableRecord
  2
AM_JIS$3
 70
     0
  3

  4
"
  5
OPEN30
  6

  7

 40
0.5
 41
2.5
 42
1.0
 43
10.0
 44
1.0
 45
0.0
 46
0.0
 47
0.1
 48
0.1
140
3.2
141
0.0
142
0.0
143
0.0393701
144
1.0
145
0.0
146
0.71
147
1.5
 71
     0
 72
     0
 73
     0
 74
     1
 75
     0
 76
     0
 77
     3
 78
     8
170
     0
171
     2
172
     0
173
     0
174
     0
175
     0
176
   256
177
   256
178
     2
270
     2
271
     2
272
     3
273
     2
274
     2
340
6B
275
     0
280
     0
281
     0
282
     0
283
     0
284
     0
285
     0
286
     0
287
     0
288
     1
  0
DIMSTYLE
105
60
330
A
100
AcDbSymbolTableRecord
100
AcDbDimStyleTableRecord
  2
AM_JIS$4
 70
     0
  3

  4
"
  5
OPEN30
  6

  7

 40
0.5
 41
2.5
 42
1.0
 43
10.0
 44
1.0
 45
0.0
 46
0.0
 47
0.1
 48
0.1
140
3.2
141
0.0
142
0.0
143
0.0393701
144
1.0
145
0.0
146
0.71
147
1.5
 71
     0
 72
     0
 73
     0
 74
     1
 75
     0
 76
     0
 77
     3
 78
     8
170
     0
171
     2
172
     0
173
     0
174
     0
175
     0
176
   256
177
   256
178
     2
270
     2
271
     2
272
     3
273
     2
274
     2
340
6B
275
     0
280
     0
281
     0
282
     0
283
     0
284
     0
285
     0
286
     0
287
     0
288
     1
  0
DIMSTYLE
105
61
330
A
100
AcDbSymbolTableRecord
100
AcDbDimStyleTableRecord
  2
AM_JIS$6
 70
     0
  3

  4
"
  5
OPEN30
  6

  7

 40
0.5
 41
2.5
 42
1.0
 43
10.0
 44
1.0
 45
0.0
 46
0.0
 47
0.1
 48
0.1
140
3.2
141
0.0
142
0.0
143
0.0393701
144
1.0
145
0.0
146
0.71
147
1.5
 71
     0
 72
     0
 73
     0
 74
     0
 75
     0
 76
     0
 77
     0
 78
     8
170
     0
171
     2
172
     1
173
     0
174
     0
175
     0
176
   256
177
   256
178
     2
270
     2
271
     2
272
     2
273
     2
274
     2
340
6B
275
     0
280
     0
281
     0
282
     0
283
     0
284
     0
285
     0
286
     0
287
     3
288
     0
  0
DIMSTYLE
105
62
330
A
100
AcDbSymbolTableRecord
100
AcDbDimStyleTableRecord
  2
AM_JIS$7
 70
     0
  3

  4
"
  5
OPEN30
  6

  7

 40
0.5
 41
2.5
 42
1.0
 43
10.0
 44
1.0
 45
0.0
 46
0.0
 47
0.1
 48
0.1
140
3.2
141
0.0
142
0.0
143
0.0393701
144
1.0
145
0.0
146
0.71
147
1.5
 71
     0
 72
     0
 73
     0
 74
     0
 75
     0
 76
     0
 77
     3
 78
     8
170
     0
171
     2
172
     1
173
     0
174
     0
175
     0
176
   256
177
   256
178
     2
270
     2
271
     2
272
     3
273
     2
274
     2
340
6B
275
     0
280
     0
281
     0
282
     0
283
     0
284
     0
285
     0
286
     0
287
     3
288
     0
  0
DIMSTYLE
105
63
330
A
100
AcDbSymbolTableRecord
100
AcDbDimStyleTableRecord
  2
AM_JIS$SF
 70
     0
  3

  4
"
  5
OPEN30
  6

  7

 40
0.5
 41
2.5
 42
1.0
 43
10.0
 44
1.0
 45
0.0
 46
0.0
 47
0.1
 48
0.1
140
3.2
141
0.0
142
0.0
143
0.0393701
144
1.0
145
0.0
146
0.71
147
1.5
 71
     0
 72
     0
 73
     0
 74
     0
 75
     1
 76
     1
 77
     3
 78
     8
170
     0
171
     2
172
     1
173
     0
174
     0
175
     0
176
   256
177
   256
178
     2
270
     2
271
     2
272
     2
273
     2
274
     2
340
6B
275
     0
280
     0
281
     0
282
     0
283
     0
284
     0
285
     0
286
     0
287
     3
288
     0
  0
DIMSTYLE
105
68
330
A
100
AcDbSymbolTableRecord
100
AcDbDimStyleTableRecord
  2
AM_JIS$SH
 70
     0
  3

  4
"
  5

  6
GENAXEH
  7
OPEN30
 40
0.5
 41
2.5
 42
1.0
 43
10.0
 44
1.0
 45
0.0
 46
0.0
 47
0.1
 48
0.1
140
3.2
141
0.0
142
0.0
143
0.0393701
144
2.0
145
0.0
146
0.71
147
1.5
 71
     0
 72
     0
 73
     0
 74
     0
 75
     1
 76
     1
 77
     3
 78
     8
170
     0
171
     2
172
     1
173
     1
174
     0
175
     0
176
   256
177
   256
178
     2
270
     2
271
     2
272
     2
273
     2
274
     2
340
6B
275
     0
280
     0
281
     0
282
     0
283
     0
284
     0
285
     0
286
     0
287
     3
288
     0
  0
DIMSTYLE
105
B34
102
{ACAD_REACTORS
330
31FC
330
3203
102
}
330
A
100
AcDbSymbolTableRecord
100
AcDbDimStyleTableRecord
  2
AM_JIS$2
 70
     0
  3

  4
"
  5
OPEN30
  6

  7

 40
0.5
 41
2.5
 42
1.0
 43
12.0
 44
1.0
 45
0.0
 46
0.0
 47
0.1
 48
0.1
140
3.2
141
0.0
142
0.0
143
0.0393701
144
1.0
145
0.0
146
0.71
147
1.5
 71
     0
 72
     0
 73
     0
 74
     0
 75
     0
 76
     0
 77
     3
 78
     8
170
     0
171
     2
172
     1
173
     0
174
     0
175
     0
176
   256
177
   256
178
     2
270
     2
271
     3
272
     3
273
     2
274
     2
340
6B
275
     0
280
     0
281
     0
282
     0
283
     0
284
     0
285
     0
286
     0
287
     3
288
     0
  0
DIMSTYLE
105
BA5
102
{ACAD_REACTORS
330
31FD
330
31FE
330
3202
330
320B
330
323E
102
}
330
A
100
AcDbSymbolTableRecord
100
AcDbDimStyleTableRecord
  2
AM_JIS$0
 70
     0
  3

  4
"
  5
OPEN30
  6

  7

 40
0.5
 41
2.5
 42
0.8
 43
10.0
 44
1.0
 45
0.0
 46
0.0
 47
0.1
 48
0.1000000001
140
3.799999999999999
141
0.0
142
0.0
143
0.0393701
144
1.0
145
0.0
146
0.71
147
1.5
 71
     0
 72
     0
 73
     0
 74
     0
 75
     0
 76
     0
 77
     3
 78
     9
170
     0
171
     2
172
     1
173
     0
174
     0
175
     0
176
     3
177
     3
178
     2
270
     2
271
     2
272
     2
273
     2
274
     2
340
11
275
     1
280
     0
281
     0
282
     0
283
     0
284
     8
285
     0
286
     0
287
     0
288
     0
  0
DIMSTYLE
105
BA6
330
A
100
AcDbSymbolTableRecord
100
AcDbDimStyleTableRecord
  2
AM_JISORG-1P0$2
 70
     0
  3

  4
"
  5
OPEN30
  6

  7

 40
1.0
 41
2.5
 42
0.0
 43
10.0
 44
1.0
 45
0.0
 46
0.0
 47
0.1
 48
0.1000000001
140
3.799999999999999
141
0.0
142
0.0
143
0.0393701
144
-0.999999980146674
145
0.0
146
0.71
147
1.5
 71
     0
 72
     0
 73
     0
 74
     0
 75
     0
 76
     0
 77
     3
 78
     1
170
     0
171
     2
172
     1
173
     0
174
     0
175
     0
176
     3
177
     3
178
     2
270
     2
271
     2
272
     2
273
     2
274
     2
340
11
275
     1
280
     0
281
     0
282
     0
283
     0
284
     8
285
     0
286
     0
287
     0
288
     0
  0
ENDTAB
  0
TABLE
  2
BLOCK_RECORD
  5
1
330
0
100
AcDbSymbolTable
 70
    15
  0
BLOCK_RECORD
  5
1F
102
{ACAD_XDICTIONARY
360
74
102
}
330
1
100
AcDbSymbolTableRecord
100
AcDbBlockTableRecord
  2
*MODEL_SPACE
  0
BLOCK_RECORD
  5
101
102
{ACAD_XDICTIONARY
360
35F2
102
}
330
1
100
AcDbSymbolTableRecord
100
AcDbBlockTableRecord
  2
*PAPER_SPACE
  0
BLOCK_RECORD
  5
59
330
1
100
AcDbSymbolTableRecord
100
AcDbBlockTableRecord
  2
_OPEN30
  0
BLOCK_RECORD
  5
64
330
1
100
AcDbSymbolTableRecord
100
AcDbBlockTableRecord
  2
GENAXEH
  0
BLOCK_RECORD
  5
C31
330
1
100
AcDbSymbolTableRecord
100
AcDbBlockTableRecord
  2
A$C36D02A34
  0
BLOCK_RECORD
  5
2453
330
1
100
AcDbSymbolTableRecord
100
AcDbBlockTableRecord
  2
*D6
  0
BLOCK_RECORD
  5
245F
330
1
100
AcDbSymbolTableRecord
100
AcDbBlockTableRecord
  2
A$C4FFC6CC0
  0
BLOCK_RECORD
  5
3244
330
1
100
AcDbSymbolTableRecord
100
AcDbBlockTableRecord
  2
*D8
  0
BLOCK_RECORD
  5
3252
330
1
100
AcDbSymbolTableRecord
100
AcDbBlockTableRecord
  2
*D9
  0
BLOCK_RECORD
  5
3260
330
1
100
AcDbSymbolTableRecord
100
AcDbBlockTableRecord
  2
*D10
  0
BLOCK_RECORD
  5
326E
330
1
100
AcDbSymbolTableRecord
100
AcDbBlockTableRecord
  2
*D11
  0
BLOCK_RECORD
  5
327A
330
1
100
AcDbSymbolTableRecord
100
AcDbBlockTableRecord
  2
*D12
  0
BLOCK_RECORD
  5
3288
330
1
100
AcDbSymbolTableRecord
100
AcDbBlockTableRecord
  2
*D13
  0
BLOCK_RECORD
  5
3294
330
1
100
AcDbSymbolTableRecord
100
AcDbBlockTableRecord
  2
*D14
  0
ENDTAB
  0
ENDSEC
  0
SECTION
  2
BLOCKS
  0
BLOCK
  5
20
330
1F
100
AcDbEntity
  8
0
100
AcDbBlockBegin
  2
*MODEL_SPACE
 70
     0
 10
0.0
 20
0.0
 30
0.0
  3
*MODEL_SPACE
  1

  0
ENDBLK
  5
21
330
1F
100
AcDbEntity
  8
0
100
AcDbBlockEnd
  0
BLOCK
  5
103
330
101
100
AcDbEntity
 67
     1
  8
0
100
AcDbBlockBegin
  2
*PAPER_SPACE
 70
     0
 10
0.0
 20
0.0
 30
0.0
  3
*PAPER_SPACE
  1

  0
ENDBLK
  5
104
330
101
100
AcDbEntity
 67
     1
  8
0
100
AcDbBlockEnd
  0
BLOCK
  5
5D
330
59
100
AcDbEntity
  8
0
100
AcDbBlockBegin
  2
_OPEN30
 70
     0
 10
0.0
 20
0.0
 30
0.0
  3
_OPEN30
  1

  0
LINE
  5
5A
330
59
100
AcDbEntity
  8
0
 62
     0
100
AcDbLine
 10
-1.0
 20
0.26794919
 30
0.0
 11
0.0
 21
0.0
 31
0.0
  0
LINE
  5
5B
330
59
100
AcDbEntity
  8
0
 62
     0
100
AcDbLine
 10
0.0
 20
0.0
 30
0.0
 11
-1.0
 21
-0.26794919
 31
0.0
  0
LINE
  5
5C
330
59
100
AcDbEntity
  8
0
 62
     0
100
AcDbLine
 10
0.0
 20
0.0
 30
0.0
 11
-1.0
 21
0.0
 31
0.0
  0
ENDBLK
  5
5E
330
59
100
AcDbEntity
  8
0
100
AcDbBlockEnd
  0
BLOCK
  5
66
330
64
100
AcDbEntity
  8
0
100
AcDbBlockBegin
  2
GENAXEH
 70
     0
 10
0.0
 20
0.0
 30
0.0
  3
GENAXEH
  1

  0
LINE
  5
65
330
64
100
AcDbEntity
  8
0
100
AcDbLine
 10
-1.0
 20
0.0
 30
0.0
 11
1.0
 21
0.0
 31
0.0
  0
ENDBLK
  5
67
330
64
100
AcDbEntity
  8
0
100
AcDbBlockEnd
  0
BLOCK
  5
C4B
330
C31
100
AcDbEntity
  8
0
100
AcDbBlockBegin
  2
A$C36D02A34
 70
     0
 10
0.0
 20
0.0
 30
0.0
  3
A$C36D02A34
  1

  0
ARC
  5
C32
330
C31
100
AcDbEntity
  8
PV0001_1
  6
CONTINUOUS
 48
0.5
100
AcDbCircle
 10
18.06811523436999
 20
-11.83651161193799
 30
0.0
 40
21.600000381469
100
AcDbArc
 50
123.2290435713209
 51
126.6341524197568
  0
ARC
  5
C33
330
C31
100
AcDbEntity
  8
PV0001_1
  6
CONTINUOUS
 48
0.5
100
AcDbCircle
 10
18.06811523436999
 20
-11.83651161193799
 30
0.0
 40
21.600000381469
100
AcDbArc
 50
135.0736707620117
 51
146.7709980930592
  0
ARC
  5
C34
330
C31
100
AcDbEntity
  8
PV0001_1
  6
CONTINUOUS
 48
0.5
100
AcDbCircle
 10
-18.0680770874
 20
11.8365631103514
 30
0.0
 40
21.600000381469
100
AcDbArc
 50
315.0734847530392
 51
326.770781348241
  0
ARC
  5
C35
330
C31
100
AcDbEntity
  8
PV0001_1
  6
CONTINUOUS
 48
0.5
100
AcDbCircle
 10
-18.0680770874
 20
11.8365631103514
 30
0.0
 40
21.600000381469
100
AcDbArc
 50
303.2288882981993
 51
306.633986901359
  0
ARC
  5
C36
330
C31
100
AcDbEntity
  8
PV0001_1
  6
CONTINUOUS
 48
0.5
100
AcDbCircle
 10
-0.6269836425800009
 20
-2.044216156005997
 30
0.0
 40
2.0
100
AcDbArc
 50
337.4067997351092
 51
43.42231293132884
  0
ARC
  5
C37
330
C31
100
AcDbEntity
  8
PV0001_1
  6
CONTINUOUS
 48
0.5
100
AcDbCircle
 10
0.626953125
 20
2.044223785401001
 30
0.0
 40
2.0
100
AcDbArc
 50
157.4068184044407
 51
223.4222769591536
  0
CIRCLE
  5
C38
330
C31
100
AcDbEntity
  8
PV0001_1
  6
CONTINUOUS
 48
0.5
100
AcDbCircle
 10
3.856727600100001
 20
4.596265792847002
 30
0.0
 40
1.6000000238419
  0
CIRCLE
  5
C39
330
C31
100
AcDbEntity
  8
PV0001_1
  6
CONTINUOUS
 48
0.5
100
AcDbCircle
 10
-3.856727600100001
 20
-4.596265792845997
 30
0.0
 40
1.6000000238419
  0
ARC
  5
C3A
330
C31
100
AcDbEntity
  8
PV0001_1
  6
CONTINUOUS
 48
0.5
100
AcDbCircle
 10
-5.58123779297
 20
5.092639923096001
 30
0.0
 40
5.019082546234099
100
AcDbArc
 50
240.2658959250867
 51
321.5156269706421
  0
ARC
  5
C3B
330
C31
100
AcDbEntity
  8
PV0001_1
  6
CONTINUOUS
 48
0.5
100
AcDbCircle
 10
5.486755371089998
 20
-4.601703643798998
 30
0.0
 40
4.651036739349399
100
AcDbArc
 50
56.25271400417071
 51
145.528859890601
  0
ARC
  5
C3C
330
C31
100
AcDbEntity
  8
PV0001_1
  6
CONTINUOUS
 48
0.5
100
AcDbCircle
 10
-2.11590576172
 20
-3.453323364257997
 30
0.0
 40
4.050000190734899
100
AcDbArc
 50
43.42230610113921
 51
58.50391703385149
  0
ARC
  5
C3D
330
C31
100
AcDbEntity
  8
PV0001_1
  6
CONTINUOUS
 48
0.5
100
AcDbCircle
 10
2.115875244139999
 20
3.453330993653001
 30
0.0
 40
4.050000190734899
100
AcDbArc
 50
223.4222942619974
 51
238.5038164022482
  0
ARC
  5
C3E
330
C31
100
AcDbEntity
  8
PV0001_1
  6
CONTINUOUS
 48
0.5
100
AcDbCircle
 10
-6.70369720459
 20
5.094657897949002
 30
0.0
 40
5.940000057220499
100
AcDbArc
 50
328.2536768887549
 51
31.74641873389623
  0
ARC
  5
C3F
330
C31
100
AcDbEntity
  8
PV0001_1
  6
CONTINUOUS
 48
0.5
100
AcDbCircle
 10
6.703674316410001
 20
-5.094650268553998
 30
0.0
 40
5.940000057220499
100
AcDbArc
 50
148.2533403882529
 51
211.7466423089037
  0
ARC
  5
C40
330
C31
100
AcDbEntity
  8
PV0001_1
  6
CONTINUOUS
 48
0.5
100
AcDbCircle
 10
0.0
 20
0.0
 30
0.0
 40
8.812800407409699
100
AcDbArc
 50
175.2198288164333
 51
272.8622597568298
  0
ARC
  5
C41
330
C31
100
AcDbEntity
  8
PV0001_1
  6
CONTINUOUS
 48
0.5
100
AcDbCircle
 10
0.0
 20
0.0
 30
0.0
 40
9.1800003051758
100
AcDbArc
 50
272.7511362215027
 51
280.3697477877874
  0
ARC
  5
C42
330
C31
100
AcDbEntity
  8
PV0001_1
  6
CONTINUOUS
 48
0.5
100
AcDbCircle
 10
0.0
 20
0.0
 30
0.0
 40
8.812800407409699
100
AcDbArc
 50
355.2198199654955
 51
92.86229572901076
  0
ARC
  5
C43
330
C31
100
AcDbEntity
  8
PV0001_1
  6
CONTINUOUS
 48
0.5
100
AcDbCircle
 10
0.0
 20
0.0
 30
0.0
 40
9.1800003051758
100
AcDbArc
 50
92.75115489083434
 51
100.3697664571193
  0
CIRCLE
  5
C44
330
C31
100
AcDbEntity
  8
PV0001_1
  6
CONTINUOUS
100
AcDbCircle
 10
0.0
 20
0.0
 30
0.0
 40
9.1800003051758
  0
LINE
  5
C45
330
C31
100
AcDbEntity
  8
PV0001_1
  6
CONTINUOUS
 48
0.5
100
AcDbLine
 10
-1.652404785160001
 20
9.030059814453
 30
0.0
 11
-1.652404785160001
 21
8.220062255860002
 31
0.0
  0
LINE
  5
C46
330
C31
100
AcDbEntity
  8
PV0001_1
  6
CONTINUOUS
 48
0.5
100
AcDbLine
 10
1.652404785160001
 20
-8.220058441161999
 30
0.0
 11
1.652404785160001
 21
-9.030055999755997
 31
0.0
  0
LINE
  5
C47
330
C31
100
AcDbEntity
  8
PV0001_1
  6
CONTINUOUS
 48
0.5
100
AcDbLine
 10
-8.78217315674
 20
0.7343807220460015
 30
0.0
 11
-8.070594787600001
 21
0.7343997955320028
 31
0.0
  0
LINE
  5
C48
330
C31
100
AcDbEntity
  8
PV0001_1
  6
CONTINUOUS
 48
0.5
100
AcDbLine
 10
8.07057952881
 20
-0.7343864440919994
 30
0.0
 11
8.78215789795
 21
-0.7343654632569994
 31
0.0
  0
LINE
  5
C49
330
C31
100
AcDbEntity
  8
PV0001_1
  6
CONTINUOUS
 48
0.5
100
AcDbLine
 10
0.4406127929700006
 20
-9.169414520263
 30
0.0
 11
0.4406127929700006
 21
-8.812801361083998
 31
0.0
  0
LINE
  5
C4A
330
C31
100
AcDbEntity
  8
PV0001_1
  6
CONTINUOUS
 48
0.5
100
AcDbLine
 10
-0.4406127929700006
 20
9.169418334961001
 30
0.0
 11
-0.4406127929700006
 21
8.812805175781001
 31
0.0
  0
ENDBLK
  5
C4C
330
C31
100
AcDbEntity
  8
0
100
AcDbBlockEnd
  0
BLOCK
  5
245D
330
2453
100
AcDbEntity
  8
0
100
AcDbBlockBegin
  2
*D6
 70
     1
 10
0.0
 20
0.0
 30
0.0
  3
*D6
  1

  0
LINE
  5
2454
330
2453
100
AcDbEntity
  8
AM_5
 62
     3
100
AcDbLine
 10
-137.574381722344
 20
-5.00000294019065
 30
0.0
 11
-152.8199008769066
 21
-5.000002940190694
 31
0.0
  0
LINE
  5
2455
330
2453
100
AcDbEntity
  8
AM_5
 62
     3
100
AcDbLine
 10
-137.5743817223442
 20
5.00002461040103
 30
0.0
 11
-152.8199008769066
 21
5.000024610400987
 31
0.0
  0
LINE
  5
2456
330
2453
100
AcDbEntity
  8
AM_5
 62
     3
100
AcDbLine
 10
-151.8199008769066
 20
-2.500002940190691
 30
0.0
 11
-151.8199008769066
 21
2.50002461040099
 31
0.0
  0
INSERT
  5
2457
330
2453
100
AcDbEntity
  8
AM_5
 62
     3
100
AcDbBlockReference
  2
_OPEN30
 10
-151.8199008769066
 20
-5.00000294019069
 30
0.0
 41
2.5
 42
2.5
 43
2.5
 50
270.0000000000001
  0
INSERT
  5
2458
330
2453
100
AcDbEntity
  8
AM_5
 62
     3
100
AcDbBlockReference
  2
_OPEN30
 10
-151.8199008769066
 20
5.00002461040099
 30
0.0
 41
2.5
 42
2.5
 43
2.5
 50
90.00000000000015
  0
MTEXT
  5
2459
330
2453
100
AcDbEntity
  8
AM_5
 62
     2
100
AcDbMText
 10
-155.2199008769066
 20
0.000010835105146
 30
0.0
 40
3.799999999999999
 41
0.0
 71
     5
 72
     1
  1
%%c10
 11
-0.0000000000000028
 21
1.0
 31
0.0
1001
ACAD
1000
MTEXTBEGIN
1070
    73
1070
     1
1070
    44
1040
1.0
1070
    74
1070
     0
1000
MTEXTEND
  0
POINT
  5
245A
330
2453
100
AcDbEntity
  8
DEFPOINTS
 62
     0
100
AcDbPoint
 10
-137.5743817223441
 20
-5.000002940190223
 30
0.0
  0
POINT
  5
245B
330
2453
100
AcDbEntity
  8
DEFPOINTS
 62
     0
100
AcDbPoint
 10
-137.5743817223441
 20
5.000024610401458
 30
0.0
  0
POINT
  5
245C
330
2453
100
AcDbEntity
  8
DEFPOINTS
 62
     0
100
AcDbPoint
 10
-151.8199008769066
 20
5.000024610401462
 30
0.0
  0
ENDBLK
  5
245E
330
2453
100
AcDbEntity
  8
0
100
AcDbBlockEnd
  0
BLOCK
  5
246B
330
245F
100
AcDbEntity
  8
0
100
AcDbBlockBegin
  2
A$C4FFC6CC0
 70
     0
 10
0.0
 20
0.0
 30
0.0
  3
A$C4FFC6CC0
  1

  0
DIMENSION
  5
2460
330
245F
100
AcDbEntity
  8
AM_5
100
AcDbDimension
  2
*D6
 10
-70.00000100000002
 20
5.000008477104842
 30
0.0
 11
-70.00000100000002
 21
-0.0000052981910228
 31
0.0
 12
81.81989987690661
 22
-0.0000161332966199
 32
0.0
 70
   128
  1
%%c<>
 51
359.9999999999998
  3
AM_JIS$0
100
AcDbAlignedDimension
 13
-55.75448184543748
 23
-5.000019073486843
 33
0.0
 14
-55.75448184543756
 24
5.000008477104838
 34
0.0
 50
270.0
100
AcDbRotatedDimension
1001
ACAD
1000
DSTYLE
1002
{
1070
   271
1070
     0
1002
}
1001
GENIUS_GENDTOL_13
1000

1000
h7
1000

1040
0.0
  0
LINE
  5
2461
330
245F
100
AcDbEntity
  8
AM_0
 48
0.5
100
AcDbLine
 10
-56.0
 20
-4.754495620727796
 30
0.0
 11
-56.00000000000003
 21
4.754485024345811
 31
0.0
  0
LINE
  5
2462
330
245F
100
AcDbEntity
  8
AM_0
 48
0.5
100
AcDbLine
 10
-55.75448184543751
 20
-5.000019073486843
 30
0.0
 11
-55.75448184543754
 21
5.000008477104838
 31
0.0
  0
LINE
  5
2463
330
245F
100
AcDbEntity
  8
AM_0
100
AcDbLine
 10
-0.0000000000000142
 20
4.999995231627903
 30
0.0
 11
-55.75448184543754
 21
4.999995231627746
 31
0.0
  0
LINE
  5
2464
330
245F
100
AcDbEntity
  8
AM_0
 48
0.5
100
AcDbLine
 10
-55.99996821086117
 20
4.754439989725671
 30
0.0
 11
-55.75443945990975
 21
4.999963442484006
 31
0.0
  0
LINE
  5
2465
330
245F
100
AcDbEntity
  8
AM_0
100
AcDbLine
 10
-55.75448184543751
 20
-5.000008477105588
 30
0.0
 11
0.0000000000000142
 21
-5.00000847710543
 31
0.0
  0
LINE
  5
2466
330
245F
100
AcDbEntity
  8
AM_0
 48
0.5
100
AcDbLine
 10
-55.99996821086114
 20
-4.754474427965309
 30
0.0
 11
-55.75443945990972
 21
-4.999997880724334
 31
0.0
  0
LINE
  5
2467
330
245F
100
AcDbEntity
  8
AM_0
100
AcDbLine
 10
0.7794201296714505
 20
4.549985867772141
 30
0.0
 11
0.7794201296714789
 21
-4.550003370497427
 31
0.0
  0
LINE
  5
2468
330
245F
100
AcDbEntity
  8
AM_0
 48
0.5
100
AcDbLine
 10
0.0000000000000142
 20
-5.00000847710543
 30
0.0
 11
-0.0000000000000142
 21
5.000008477104995
 31
0.0
  0
LINE
  5
2469
330
245F
100
AcDbEntity
  8
AM_0
 48
0.5
100
AcDbLine
 10
0.7794201296714647
 20
-4.550003370497435
 30
0.0
 11
-0.0000105963812445
 21
-5.00000847710543
 31
0.0
  0
LINE
  5
246A
330
245F
100
AcDbEntity
  8
AM_0
 48
0.5
100
AcDbLine
 10
0.7794201296714647
 20
4.549985867772141
 30
0.0
 11
-0.0000000000000142
 21
4.999984635246652
 31
0.0
  0
ENDBLK
  5
246C
330
245F
100
AcDbEntity
  8
0
100
AcDbBlockEnd
  0
BLOCK
  5
3250
330
3244
100
AcDbEntity
  8
0
100
AcDbBlockBegin
  2
*D8
 70
     1
 10
0.0
 20
0.0
 30
0.0
  3
*D8
  1

  0
LINE
  5
3537
330
3244
100
AcDbEntity
  8
AM_5
100
AcDbLine
 10
0.1710100704080519
 20
-0.46984631084965
 30
0.0
 11
9.611927001088011
 21
-26.40855261237381
 31
0.0
  0
LINE
  5
3538
330
3244
100
AcDbEntity
  8
AM_5
100
AcDbLine
 10
0.1710098052266613
 20
0.4698478148157159
 30
0.0
 11
9.611945285898373
 21
26.40854920198099
 31
0.0
  0
ARC
  5
3539
330
3244
100
AcDbEntity
  8
AM_5
100
AcDbCircle
 10
-0.0000005904945895
 20
0.000001622370506
 30
0.0
 40
27.60339639252271
100
AcDbArc
 50
292.594819857225
 51
67.40514047219765
  0
INSERT
  5
353A
330
3244
100
AcDbEntity
  8
AM_5
100
AcDbBlockReference
  2
_OPEN30
 10
9.440916930679938
 20
-25.93870630152416
 30
0.0
 41
1.25
 42
1.25
 43
1.25
 50
201.2974098521061
  0
INSERT
  5
353B
330
3244
100
AcDbEntity
  8
AM_5
100
AcDbBlockReference
  2
_OPEN30
 10
9.440934890177123
 20
25.93870300953578
 30
0.0
 41
1.25
 42
1.25
 43
1.25
 50
158.7025504773165
  0
MTEXT
  5
353C
330
3244
100
AcDbEntity
  8
AM_5
 62
     2
100
AcDbMText
 10
26.05339580202647
 20
-0.000007933679533
 30
0.0
 40
1.6
 41
0.0
 71
     5
 72
     1
  1
140°
  7
ASAMI
 11
0.0000000000000001
 21
1.0
 31
0.0
1001
ACAD
1000
MTEXTBEGIN
1070
    73
1070
     1
1070
    44
1040
1.0
1070
    74
1070
     0
1000
MTEXTEND
  0
POINT
  5
353D
330
3244
100
AcDbEntity
  8
DEFPOINTS
 62
     0
100
AcDbPoint
 10
25.34588761859608
 20
10.93313673060979
 30
0.0
  0
POINT
  5
353E
330
3244
100
AcDbEntity
  8
DEFPOINTS
 62
     0
100
AcDbPoint
 10
-0.0000000000000213
 20
0.0
 30
0.0
  0
POINT
  5
353F
330
3244
100
AcDbEntity
  8
DEFPOINTS
 62
     0
100
AcDbPoint
 10
-0.0000006834663893
 20
0.0000013669331338
 30
0.0
  0
POINT
  5
3540
330
3244
100
AcDbEntity
  8
DEFPOINTS
 62
     0
100
AcDbPoint
 10
-0.286932261784635
 20
-0.7883349736532637
 30
0.0
  0
POINT
  5
3541
330
3244
100
AcDbEntity
  8
DEFPOINTS
 62
     0
100
AcDbPoint
 10
-0.2869274775186525
 20
0.7883267720540062
 30
0.0
  0
ENDBLK
  5
3251
330
3244
100
AcDbEntity
  8
0
100
AcDbBlockEnd
  0
BLOCK
  5
325E
330
3252
100
AcDbEntity
  8
0
100
AcDbBlockBegin
  2
*D9
 70
     1
 10
0.0
 20
0.0
 30
0.0
  3
*D9
  1

  0
LINE
  5
354B
330
3252
100
AcDbEntity
  8
AM_5
 62
     3
100
AcDbLine
 10
-0.7825315308051302
 20
-2.549999999999977
 30
0.0
 11
-0.7825315308051312
 21
-18.07820495491972
 31
0.0
  0
LINE
  5
354C
330
3252
100
AcDbEntity
  8
AM_5
 62
     3
100
AcDbLine
 10
-10.78722994580753
 20
-3.889336777346988
 30
0.0
 11
-10.78722994580753
 21
-18.07820495491972
 31
0.0
  0
LINE
  5
354D
330
3252
100
AcDbEntity
  8
AM_5
 62
     3
100
AcDbLine
 10
-2.032531530805131
 20
-17.57820495491972
 30
0.0
 11
-9.537229945807531
 21
-17.57820495491972
 31
0.0
  0
INSERT
  5
354E
330
3252
100
AcDbEntity
  8
AM_5
 62
     3
100
AcDbBlockReference
  2
_OPEN30
 10
-0.7825315308051312
 20
-17.57820495491972
 30
0.0
 41
1.25
 42
1.25
 43
1.25
  0
INSERT
  5
354F
330
3252
100
AcDbEntity
  8
AM_5
 62
     3
100
AcDbBlockReference
  2
_OPEN30
 10
-10.78722994580753
 20
-17.57820495491972
 30
0.0
 41
1.25
 42
1.25
 43
1.25
 50
180.0
  0
MTEXT
  5
3550
330
3252
100
AcDbEntity
  8
AM_5
 62
     2
100
AcDbMText
 10
-5.784880738306377
 20
-15.87820495491972
 30
0.0
 40
1.9
 41
0.0
 71
     5
 72
     1
  1
10
1001
ACAD
1000
MTEXTBEGIN
1070
    73
1070
     1
1070
    44
1040
1.0
1070
    74
1070
     0
1000
MTEXTEND
  0
POINT
  5
3551
330
3252
100
AcDbEntity
  8
DEFPOINTS
 62
     0
100
AcDbPoint
 10
-0.7825315308051302
 20
-2.149999999999977
 30
0.0
  0
POINT
  5
3552
330
3252
100
AcDbEntity
  8
DEFPOINTS
 62
     0
100
AcDbPoint
 10
-10.78722994580753
 20
-3.489336777346988
 30
0.0
  0
POINT
  5
3553
330
3252
100
AcDbEntity
  8
DEFPOINTS
 62
     0
100
AcDbPoint
 10
-10.78722994580753
 20
-17.57820495491972
 30
0.0
  0
ENDBLK
  5
325F
330
3252
100
AcDbEntity
  8
0
100
AcDbBlockEnd
  0
BLOCK
  5
326C
330
3260
100
AcDbEntity
  8
0
100
AcDbBlockBegin
  2
*D10
 70
     1
 10
0.0
 20
0.0
 30
0.0
  3
*D10
  1

  0
LINE
  5
352C
330
3260
100
AcDbEntity
  8
AM_5
 62
     3
100
AcDbLine
 10
-0.382537810007689
 20
-2.149999999999977
 30
0.0
 11
14.82627734269679
 21
-2.149999999999981
 31
0.0
  0
LINE
  5
352D
330
3260
100
AcDbEntity
  8
AM_5
 62
     3
100
AcDbLine
 10
-0.3825323422749547
 20
2.150000000000034
 30
0.0
 11
14.82627734269679
 21
2.15000000000003
 31
0.0
  0
LINE
  5
352E
330
3260
100
AcDbEntity
  8
AM_5
 62
     3
100
AcDbLine
 10
14.32627734269679
 20
-3.399999999999981
 30
0.0
 11
14.32627734269679
 21
-4.649999999999981
 31
0.0
  0
LINE
  5
352F
330
3260
100
AcDbEntity
  8
AM_5
 62
     3
100
AcDbLine
 10
14.32627734269679
 20
3.40000000000003
 30
0.0
 11
14.32627734269679
 21
11.85000000000002
 31
0.0
  0
LINE
  5
3530
330
3260
100
AcDbEntity
  8
AM_5
 62
     3
100
AcDbLine
 10
14.32627734269679
 20
-2.149999999999981
 30
0.0
 11
14.32627734269679
 21
2.15000000000003
 31
0.0
  0
INSERT
  5
3531
330
3260
100
AcDbEntity
  8
AM_5
 62
     3
100
AcDbBlockReference
  2
_OPEN30
 10
14.32627734269679
 20
-2.149999999999981
 30
0.0
 41
1.25
 42
1.25
 43
1.25
 50
90.0
  0
INSERT
  5
3532
330
3260
100
AcDbEntity
  8
AM_5
 62
     3
100
AcDbBlockReference
  2
_OPEN30
 10
14.32627734269679
 20
2.15000000000003
 30
0.0
 41
1.25
 42
1.25
 43
1.25
 50
270.0
  0
MTEXT
  5
3533
330
3260
100
AcDbEntity
  8
AM_5
 62
     2
100
AcDbMText
 10
12.62627734269679
 20
8.250000000000031
 30
0.0
 40
1.9
 41
0.0
 71
     5
 72
     1
  1
%%C4.3
 11
0.0000000000000001
 21
1.0
 31
0.0
1001
ACAD
1000
MTEXTBEGIN
1070
    73
1070
     1
1070
    44
1040
1.0
1070
    74
1070
     0
1000
MTEXTEND
  0
POINT
  5
3534
330
3260
100
AcDbEntity
  8
DEFPOINTS
 62
     0
100
AcDbPoint
 10
-0.782537810007689
 20
-2.149999999999977
 30
0.0
  0
POINT
  5
3535
330
3260
100
AcDbEntity
  8
DEFPOINTS
 62
     0
100
AcDbPoint
 10
-0.7825323422749549
 20
2.150000000000034
 30
0.0
  0
POINT
  5
3536
330
3260
100
AcDbEntity
  8
DEFPOINTS
 62
     0
100
AcDbPoint
 10
14.32627734269679
 20
2.15000000000003
 30
0.0
  0
ENDBLK
  5
326D
330
3260
100
AcDbEntity
  8
0
100
AcDbBlockEnd
  0
BLOCK
  5
3278
330
326E
100
AcDbEntity
  8
0
100
AcDbBlockBegin
  2
*D11
 70
     1
 10
0.0
 20
0.0
 30
0.0
  3
*D11
  1

  0
LINE
  5
355D
330
326E
100
AcDbEntity
  8
AM_5
 62
     3
100
AcDbLine
 10
-0.7825315308051302
 20
-2.549999999999977
 30
0.0
 11
-0.7825315308051324
 21
-37.67855170325253
 31
0.0
  0
LINE
  5
355E
330
326E
100
AcDbEntity
  8
AM_5
 62
     3
100
AcDbLine
 10
-78.78253644307459
 20
-3.608486237723654
 30
0.0
 11
-78.78253644307459
 21
-37.67855170325253
 31
0.0
  0
LINE
  5
355F
330
326E
100
AcDbEntity
  8
AM_5
 62
     3
100
AcDbLine
 10
-2.032531530805132
 20
-37.17855170325254
 30
0.0
 11
-77.53253644307459
 21
-37.17855170325254
 31
0.0
  0
INSERT
  5
3560
330
326E
100
AcDbEntity
  8
AM_5
 62
     3
100
AcDbBlockReference
  2
_OPEN30
 10
-0.7825315308051323
 20
-37.17855170325254
 30
0.0
 41
1.25
 42
1.25
 43
1.25
  0
INSERT
  5
3561
330
326E
100
AcDbEntity
  8
AM_5
 62
     3
100
AcDbBlockReference
  2
_OPEN30
 10
-78.78253644307459
 20
-37.17855170325254
 30
0.0
 41
1.25
 42
1.25
 43
1.25
 50
180.0
  0
MTEXT
  5
3562
330
326E
100
AcDbEntity
  8
AM_5
 62
     2
100
AcDbMText
 10
-39.78253398693986
 20
-35.47855170325253
 30
0.0
 40
1.9
 41
0.0
 71
     5
 72
     1
  1
78
1001
ACAD
1000
MTEXTBEGIN
1070
    73
1070
     1
1070
    44
1040
1.0
1070
    74
1070
     0
1000
MTEXTEND
  0
POINT
  5
3563
330
326E
100
AcDbEntity
  8
DEFPOINTS
 62
     0
100
AcDbPoint
 10
-0.7825315308051302
 20
-2.149999999999977
 30
0.0
  0
POINT
  5
3564
330
326E
100
AcDbEntity
  8
DEFPOINTS
 62
     0
100
AcDbPoint
 10
-78.78253644307459
 20
-3.208486237723654
 30
0.0
  0
POINT
  5
3565
330
326E
100
AcDbEntity
  8
DEFPOINTS
 62
     0
100
AcDbPoint
 10
-78.78253644307459
 20
-37.17855170325254
 30
0.0
  0
ENDBLK
  5
3279
330
326E
100
AcDbEntity
  8
0
100
AcDbBlockEnd
  0
BLOCK
  5
3286
330
327A
100
AcDbEntity
  8
0
100
AcDbBlockBegin
  2
*D12
 70
     1
 10
0.0
 20
0.0
 30
0.0
  3
*D12
  1

  0
LINE
  5
33BD
330
327A
100
AcDbEntity
  8
AM_5
100
AcDbLine
 10
-11.13608492139861
 20
3.853717755870347
 30
0.0
 11
-27.65836579757066
 21
20.37599863204517
 31
0.0
  0
LINE
  5
33BE
330
327A
100
AcDbEntity
  8
AM_5
100
AcDbLine
 10
-11.13608492139828
 20
-3.85371775586958
 30
0.0
 11
-27.65836579757225
 21
-20.37599863204373
 31
0.0
  0
ARC
  5
33BF
330
327A
100
AcDbEntity
  8
AM_5
100
AcDbCircle
 10
-7.282367165528826
 20
-0.000000000000085
 30
0.0
 40
28.31601361233161
100
AcDbArc
 50
137.5295065193553
 51
222.4704934806401
  0
INSERT
  5
33C0
330
327A
100
AcDbEntity
  8
AM_5
100
AcDbBlockReference
  2
_OPEN30
 10
-27.30481240697741
 20
20.02244524145186
 30
0.0
 41
1.25
 42
1.25
 43
1.25
 50
46.26475325967529
  0
INSERT
  5
33C1
330
327A
100
AcDbEntity
  8
AM_5
100
AcDbBlockReference
  2
_OPEN30
 10
-27.30481240697898
 20
-20.02244524145046
 30
0.0
 41
1.25
 42
1.25
 43
1.25
 50
313.7352467403203
  0
MTEXT
  5
33C2
330
327A
100
AcDbEntity
  8
AM_5
 62
     2
100
AcDbMText
 10
-37.14838077786044
 20
0.0000000000010178
 30
0.0
 40
1.6
 41
0.0
 71
     5
 72
     1
  1
90°
  7
ASAMI
 11
0.0000000000000001
 21
1.0
 31
0.0
1001
ACAD
1000
MTEXTBEGIN
1070
    73
1070
     1
1070
    44
1040
1.0
1070
    74
1070
     0
1000
MTEXTEND
  0
POINT
  5
33C3
330
327A
100
AcDbEntity
  8
DEFPOINTS
 62
     0
100
AcDbPoint
 10
-34.63353601123235
 20
7.328723604255043
 30
0.0
  0
POINT
  5
33C4
330
327A
100
AcDbEntity
  8
DEFPOINTS
 62
     0
100
AcDbPoint
 10
-9.432367165528638
 20
2.15000000000009
 30
0.0
  0
POINT
  5
33C5
330
327A
100
AcDbEntity
  8
DEFPOINTS
 62
     0
100
AcDbPoint
 10
-9.432367165528695
 20
-2.149999999999977
 30
0.0
  0
POINT
  5
33C6
330
327A
100
AcDbEntity
  8
DEFPOINTS
 62
     0
100
AcDbPoint
 10
-10.78253153080501
 20
-3.500164365276305
 30
0.0
  0
POINT
  5
33C7
330
327A
100
AcDbEntity
  8
DEFPOINTS
 62
     0
100
AcDbPoint
 10
-10.78253153080536
 20
3.500164365277043
 30
0.0
  0
ENDBLK
  5
3287
330
327A
100
AcDbEntity
  8
0
100
AcDbBlockEnd
  0
BLOCK
  5
3292
330
3288
100
AcDbEntity
  8
0
100
AcDbBlockBegin
  2
*D13
 70
     1
 10
0.0
 20
0.0
 30
0.0
  3
*D13
  1

  0
LINE
  5
3554
330
3288
100
AcDbEntity
  8
AM_5
 62
     3
100
AcDbLine
 10
-0.7825315308051302
 20
-2.549999999999977
 30
0.0
 11
-0.7825315308051318
 21
-27.87837854341593
 31
0.0
  0
LINE
  5
3555
330
3288
100
AcDbEntity
  8
AM_5
 62
     3
100
AcDbLine
 10
-25.78292898621223
 20
-2.625757086415285
 30
0.0
 11
-25.78292898621223
 21
-27.87837854341593
 31
0.0
  0
LINE
  5
3556
330
3288
100
AcDbEntity
  8
AM_5
 62
     3
100
AcDbLine
 10
-2.032531530805131
 20
-27.37837854341593
 30
0.0
 11
-24.53292898621223
 21
-27.37837854341593
 31
0.0
  0
INSERT
  5
3557
330
3288
100
AcDbEntity
  8
AM_5
 62
     3
100
AcDbBlockReference
  2
_OPEN30
 10
-0.7825315308051318
 20
-27.37837854341593
 30
0.0
 41
1.25
 42
1.25
 43
1.25
  0
INSERT
  5
3558
330
3288
100
AcDbEntity
  8
AM_5
 62
     3
100
AcDbBlockReference
  2
_OPEN30
 10
-25.78292898621223
 20
-27.37837854341593
 30
0.0
 41
1.25
 42
1.25
 43
1.25
 50
180.0
  0
MTEXT
  5
3559
330
3288
100
AcDbEntity
  8
AM_5
 62
     2
100
AcDbMText
 10
-13.28273025850868
 20
-25.67837854341593
 30
0.0
 40
1.9
 41
0.0
 71
     5
 72
     1
  1
25
1001
ACAD
1000
MTEXTBEGIN
1070
    73
1070
     1
1070
    44
1040
1.0
1070
    74
1070
     0
1000
MTEXTEND
  0
POINT
  5
355A
330
3288
100
AcDbEntity
  8
DEFPOINTS
 62
     0
100
AcDbPoint
 10
-0.7825315308051302
 20
-2.149999999999977
 30
0.0
  0
POINT
  5
355B
330
3288
100
AcDbEntity
  8
DEFPOINTS
 62
     0
100
AcDbPoint
 10
-25.78292898621223
 20
-2.225757086415285
 30
0.0
  0
POINT
  5
355C
330
3288
100
AcDbEntity
  8
DEFPOINTS
 62
     0
100
AcDbPoint
 10
-25.78292898621223
 20
-27.37837854341593
 30
0.0
  0
ENDBLK
  5
3293
330
3288
100
AcDbEntity
  8
0
100
AcDbBlockEnd
  0
BLOCK
  5
32A0
330
3294
100
AcDbEntity
  8
0
100
AcDbBlockBegin
  2
*D14
 70
     1
 10
0.0
 20
0.0
 30
0.0
  3
*D14
  1

  0
LINE
  5
3487
330
3294
100
AcDbEntity
  8
AM_5
 62
     3
100
AcDbLine
 10
-78.9436475541857
 20
3.500164365276447
 30
0.0
 11
-93.39897802178542
 21
3.500164365276451
 31
0.0
  0
LINE
  5
3488
330
3294
100
AcDbEntity
  8
AM_5
 62
     3
100
AcDbLine
 10
-78.94364755418568
 20
-3.50016658098977
 30
0.0
 11
-93.39897802178542
 21
-3.500166580989765
 31
0.0
  0
LINE
  5
3489
330
3294
100
AcDbEntity
  8
AM_5
 62
     3
100
AcDbLine
 10
-92.89897802178542
 20
2.250164365276451
 30
0.0
 11
-92.89897802178542
 21
-2.250166580989766
 31
0.0
  0
INSERT
  5
348A
330
3294
100
AcDbEntity
  8
AM_5
 62
     3
100
AcDbBlockReference
  2
_OPEN30
 10
-92.89897802178542
 20
3.500164365276451
 30
0.0
 41
1.25
 42
1.25
 43
1.25
 50
90.0
  0
INSERT
  5
348B
330
3294
100
AcDbEntity
  8
AM_5
 62
     3
100
AcDbBlockReference
  2
_OPEN30
 10
-92.89897802178542
 20
-3.500166580989766
 30
0.0
 41
1.25
 42
1.25
 43
1.25
 50
270.0
  0
MTEXT
  5
348C
330
3294
100
AcDbEntity
  8
AM_5
 62
     2
100
AcDbMText
 10
-94.59897802178543
 20
-0.0000011078566721
 30
0.0
 40
1.9
 41
0.0
 71
     5
 72
     1
  1
%%C7
 11
0.0000000000000001
 21
1.0
 31
0.0
1001
ACAD
1000
MTEXTBEGIN
1070
    73
1070
     1
1070
    44
1040
1.0
1070
    74
1070
     0
1000
MTEXTEND
  0
POINT
  5
348D
330
3294
100
AcDbEntity
  8
DEFPOINTS
 62
     0
100
AcDbPoint
 10
-78.54364755418569
 20
3.500164365276447
 30
0.0
  0
POINT
  5
348E
330
3294
100
AcDbEntity
  8
DEFPOINTS
 62
     0
100
AcDbPoint
 10
-78.54364755418568
 20
-3.50016658098977
 30
0.0
  0
POINT
  5
348F
330
3294
100
AcDbEntity
  8
DEFPOINTS
 62
     0
100
AcDbPoint
 10
-92.89897802178542
 20
-3.500166580989766
 30
0.0
  0
ENDBLK
  5
32A1
330
3294
100
AcDbEntity
  8
0
100
AcDbBlockEnd
  0
ENDSEC
  0
SECTION
  2
ENTITIES
  0
TEXT
  5
19BD
330
1F
100
AcDbEntity
  8
AM_6
100
AcDbText
 10
-50.67539112979698
 20
-48.42855170325257
 30
0.0
 40
2.5
  1
MDW043S2K
 50
0.0000000000001527
 72
     4
 11
-39.78253398693983
 21
-47.17855170325253
 31
0.0
100
AcDbText
  0
DIMENSION
  5
31FC
330
1F
100
AcDbEntity
  8
AM_5
100
AcDbDimension
  2
*D8
 10
-0.2869274775186525
 20
0.7883267720540062
 30
0.0
 11
26.05339580202647
 21
-0.0000079336795372
 31
0.0
 70
    34
  1
<>
  3
AM_JIS$2
100
AcDb2LineAngularDimension
 13
-0.0000006834663893
 23
0.0000013669331338
 33
0.0
 14
-0.286932261784635
 24
-0.7883349736532637
 34
0.0
 15
-0.0000000000000213
 25
0.0
 35
0.0
 16
25.34588761859608
 26
10.93313673060979
 36
0.0
1001
ACAD
1000
DSTYLE
1002
{
1070
   179
1070
     3
1002
}
1001
GENIUS_GENDTOL_13
1000

1000
h7
1000

1040
0.0
  0
DIMENSION
  5
31FD
330
1F
100
AcDbEntity
  8
AM_5
100
AcDbDimension
  2
*D9
 10
-10.78722994580753
 20
-17.57820495491972
 30
0.0
 11
-5.784880738306377
 21
-17.57820495491972
 31
0.0
 70
   160
  1
<>
  3
AM_JIS$0
100
AcDbAlignedDimension
 13
-0.7825315308051302
 23
-2.149999999999977
 33
0.0
 14
-10.78722994580753
 24
-3.489336777346988
 34
0.0
 50
180.0
100
AcDbRotatedDimension
1001
ACAD
1000
DSTYLE
1002
{
1070
   271
1070
     1
1002
}
1001
GENIUS_GENDTOL_13
1000

1000
h7
1000

1040
0.0
  0
DIMENSION
  5
31FE
330
1F
100
AcDbEntity
  8
AM_5
100
AcDbDimension
  2
*D10
 10
14.32627734269679
 20
2.15000000000003
 30
0.0
 11
14.32627734269679
 21
8.250000000000031
 31
0.0
 70
   160
  1
%%C<>
  3
AM_JIS$0
100
AcDbAlignedDimension
 13
-0.782537810007689
 23
-2.149999999999977
 33
0.0
 14
-0.7825323422749549
 24
2.150000000000034
 34
0.0
 50
90.0
100
AcDbRotatedDimension
1001
ACAD
1000
DSTYLE
1002
{
1070
   271
1070
     1
1002
}
1001
GENIUS_GENDTOL_13
1000

1000
h7
1000

1040
0.0
  0
LINE
  5
31FF
330
1F
100
AcDbEntity
  8
AM_0
100
AcDbLine
 10
-34.54969788778115
 20
3.500164365276532
 30
0.0
 11
-78.54364755418569
 21
3.500164365276447
 31
0.0
  0
LINE
  5
3200
330
1F
100
AcDbEntity
  8
AM_0
100
AcDbLine
 10
-23.20984925860501
 20
-3.500164768883308
 30
0.0
 11
-78.54364755418568
 21
-3.50016658098977
 31
0.0
  0
LINE
  5
3201
330
1F
100
AcDbEntity
  8
AM_7
100
AcDbLine
 10
3.226237378435541
 20
0.0
 30
0.0
 11
-82.78949374408364
 21
-0.0000000000002084
 31
0.0
  0
DIMENSION
  5
3202
330
1F
100
AcDbEntity
  8
AM_5
100
AcDbDimension
  2
*D11
 10
-78.78253644307459
 20
-37.17855170325254
 30
0.0
 11
-39.78253398693986
 21
-35.47855170325253
 31
0.0
 70
    32
  1
<>
  3
AM_JIS$0
100
AcDbAlignedDimension
 13
-0.7825315308051302
 23
-2.149999999999977
 33
0.0
 14
-78.78253644307459
 24
-3.208486237723654
 34
0.0
 50
180.0
100
AcDbRotatedDimension
1001
GENIUS_GENDTOL_13
1000

1000
h7
1000

1040
0.0
1001
ACAD
1000
DSTYLE
1002
{
1070
   271
1070
     1
1002
}
  0
DIMENSION
  5
3203
330
1F
100
AcDbEntity
  8
AM_5
100
AcDbDimension
  2
*D12
 10
-10.78253153080536
 20
3.500164365277043
 30
0.0
 11
-37.14838077786044
 21
0.0000000000010238
 31
0.0
 70
    34
  1
<>
  3
AM_JIS$2
100
AcDb2LineAngularDimension
 13
-9.432367165528695
 23
-2.149999999999977
 33
0.0
 14
-10.78253153080501
 24
-3.500164365276305
 34
0.0
 15
-9.432367165528638
 25
2.15000000000009
 35
0.0
 16
-34.63353601123235
 26
7.328723604255043
 36
0.0
1001
ACAD
1000
DSTYLE
1002
{
1070
   179
1070
     3
1002
}
1001
GENIUS_GENDTOL_13
1000

1000
h7
1000

1040
0.0
  0
LINE
  5
3204
330
1F
100
AcDbEntity
  8
AM_0
100
AcDbLine
 10
-24.42415123917335
 20
3.500164365276589
 30
0.0
 11
-34.54969788778115
 21
3.500164365276495
 31
0.0
  0
ELLIPSE
  5
3205
330
1F
100
AcDbEntity
  8
AM_0
100
AcDbEllipse
 10
-4.946093310504629
 20
-5.960665345983358
 30
0.0
 11
17.42258171537449
 21
-2.314009257553401
 31
0.0
210
0.0
220
0.0
230
1.0
 40
0.2582985359049393
 41
1.887394388832707
 42
1.987878996353903
  0
SPLINE
  5
3206
330
1F
100
AcDbEntity
  8
AM_0
100
AcDbSpline
210
0.0
220
0.0
230
1.0
 70
     8
 71
     3
 72
    13
 73
     9
 74
     0
 42
0.0000000001
 43
0.0000000001
 40
16.03460024169435
 40
16.03460024169435
 40
16.03460024169435
 40
16.03460024169435
 40
16.35212704903564
 40
17.38177054169784
 40
18.41822485651776
 40
19.46214173629503
 40
20.51396345435107
 40
21.27054030077571
 40
21.27054030077571
 40
21.27054030077571
 40
21.27054030077571
 10
-11.47142900489367
 20
3.500164365276646
 30
0.0
 10
-11.44593072177988
 20
3.472876664968453
 30
0.0
 10
-11.33818550666971
 20
3.355936287242798
 30
0.0
 10
-11.15081920624894
 20
3.140437848938233
 30
0.0
 10
-10.91279608274692
 20
2.843290683759676
 30
0.0
 10
-10.67941951429853
 20
2.529092242694105
 30
0.0
 10
-10.47245534358771
 20
2.230503367521293
 30
0.0
 10
-10.34411077449693
 20
2.035033123377161
 30
0.0
 10
-9.716466508888437
 20
1.331710670307188
 30
0.0
  0
ELLIPSE
  5
3207
330
1F
100
AcDbEntity
  8
AM_0
100
AcDbEllipse
 10
-4.213648549524684
 20
-0.0000000000004832
 30
0.0
 11
-0.0000000000003401
 21
-8.070698981931849
 31
0.0
210
0.0
220
0.0
230
1.0
 40
0.9032857142857233
 41
-1.459008725831112
 42
-1.122214747494195
  0
LINE
  5
3208
330
1F
100
AcDbEntity
  8
AM_0
 48
0.5
100
AcDbLine
 10
-12.02410377173936
 20
3.500164365276646
 30
0.0
 11
-10.78722994580752
 21
3.500164365276646
 31
0.0
  0
ELLIPSE
  5
3209
330
1F
100
AcDbEntity
  8
AM_0
100
AcDbEllipse
 10
-4.213648549524684
 20
-0.0000000000004832
 30
0.0
 11
-0.0000000000165543
 21
-8.070698981935725
 31
0.0
210
0.0
220
0.0
230
1.0
 40
0.9032857142853746
 41
4.26380740108599
 42
4.338183022772901
  0
LINE
  5
320A
330
1F
100
AcDbEntity
  8
AM_0
 48
0.5
100
AcDbLine
 10
-11.83031489127452
 20
-3.500164365276589
 30
0.0
 11
-10.78722994580752
 21
-3.500164365276589
 31
0.0
  0
DIMENSION
  5
320B
330
1F
100
AcDbEntity
  8
AM_5
100
AcDbDimension
  2
*D13
 10
-25.78292898621223
 20
-27.37837854341593
 30
0.0
 11
-13.28273025850868
 21
-25.67837854341593
 31
0.0
 70
    32
  1
<>
  3
AM_JIS$0
100
AcDbAlignedDimension
 13
-0.7825315308051302
 23
-2.149999999999977
 33
0.0
 14
-25.78292898621223
 24
-2.225757086415285
 34
0.0
 50
180.0
100
AcDbRotatedDimension
1001
GENIUS_GENDTOL_13
1000

1000
h7
1000

1040
0.0
1001
ACAD
1000
DSTYLE
1002
{
1070
   271
1070
     1
1002
}
  0
LINE
  5
320C
330
1F
100
AcDbEntity
  8
AM_0
 48
0.5
100
AcDbLine
 10
-1.727561058317803
 20
2.150000000000034
 30
0.0
 11
-0.7825315308051586
 21
2.150000000000034
 31
0.0
  0
LINE
  5
320D
330
1F
100
AcDbEntity
  8
AM_0
 48
0.5
100
AcDbLine
 10
-0.7119680553922195
 20
1.863333606719834
 30
0.0
 11
-1.727538791521936
 21
1.863333606719834
 31
0.0
  0
LINE
  5
320E
330
1F
100
AcDbEntity
  8
AM_0
 48
0.5
100
AcDbLine
 10
-1.727561058317775
 20
-2.149999999999977
 30
0.0
 11
-0.7825315308051302
 21
-2.149999999999977
 31
0.0
  0
SPLINE
  5
320F
330
1F
100
AcDbEntity
  8
AM_0
100
AcDbSpline
210
0.0
220
0.0
230
1.0
 70
     8
 71
     3
 72
    37
 73
    33
 74
     0
 42
0.0000000001
 43
0.0000000001
 40
0.0
 40
0.0
 40
0.0
 40
0.0
 40
2.022498070421493
 40
3.03724345144935
 40
4.055877238956151
 40
5.079521497617194
 40
6.109164734642943
 40
7.145625816632033
 40
8.189544964155905
 40
9.24138217828764
 40
10.30134845588002
 40
11.3694988608849
 40
12.44566928012083
 40
13.52950732809102
 40
14.62048014516917
 40
15.71789008644548
 40
16.82089612140135
 40
17.92853298546491
 40
19.03973327691977
 40
20.1533523495664
 40
21.2681925255582
 40
22.3830327015509
 40
23.49665177419753
 40
24.60785206565148
 40
25.71548892971504
 40
26.81849496467183
 40
27.91590490594683
 40
29.00687772302536
 40
30.09072288467331
 40
31.16689330390925
 40
32.23504370891412
 40
32.37258236425404
 40
32.37258236425404
 40
32.37258236425404
 40
32.37258236425404
 10
-0.9013916859812596
 20
-2.149999999999977
 30
0.0
 10
-1.0982037893611
 20
-2.14510213380305
 30
0.0
 10
-1.393762178710638
 20
-2.137746867436987
 30
0.0
 10
-1.78677905780902
 20
-2.092461843655371
 30
0.0
 10
-2.081883476997482
 20
-2.046802493333245
 30
0.0
 10
-2.376962671783182
 20
-1.988183643485456
 30
0.0
 10
-2.672015864826484
 20
-1.917384770190778
 30
0.0
 10
-2.967041540381309
 20
-1.834744352378578
 30
0.0
 10
-3.262039204323919
 20
-1.740800739911009
 30
0.0
 10
-3.557007543810563
 20
-1.63613076047531
 30
0.0
 10
-3.8519471484122
 20
-1.521383616100166
 30
0.0
 10
-4.146857224830945
 20
-1.397266877968746
 30
0.0
 10
-4.441742510954988
 20
-1.264551540035057
 30
0.0
 10
-4.736604439985747
 20
-1.124053474249222
 30
0.0
 10
-5.031445723453664
 20
-0.9766390623539962
 30
0.0
 10
-5.326269637821134
 20
-0.8232177575361845
 30
0.0
 10
-5.621078766939852
 20
-0.6647330167706685
 30
0.0
 10
-5.915875980046457
 20
-0.5021596046395587
 30
0.0
 10
-6.210664402831817
 20
-0.3364980652332576
 30
0.0
 10
-6.505446728207409
 20
-0.1687671005690277
 30
0.0
 10
-6.800226575590734
 20
-0.0000000000341629
 30
0.0
 10
-7.095006422909285
 20
0.1687671007058498
 30
0.0
 10
-7.389788748479112
 20
0.3364980647550055
 30
0.0
 10
-7.684577170554497
 20
0.5021596064088385
 30
0.0
 10
-7.979374386293805
 20
0.6647330102050546
 30
0.0
 10
-8.27418350565069
 20
0.8232177818750869
 30
0.0
 10
-8.569007456169551
 20
0.9766389722425401
 30
0.0
 10
-8.863849246886339
 20
1.124054127963518
 30
0.0
 10
-9.041060398529062
 20
1.264550917253188
 30
0.0
 10
-9.335946210683253
 20
1.397266935705658
 30
0.0
 10
-9.415379462515751
 20
1.485653846975196
 30
0.0
 10
-9.526833824692936
 20
1.53054539250678
 30
0.0
 10
-9.645850736957136
 20
1.575303648174497
 30
0.0
  0
SPLINE
  5
3210
330
1F
100
AcDbEntity
  8
AM_0
 48
0.5
100
AcDbSpline
210
0.0
220
0.0
230
1.0
 70
     8
 71
     3
 72
    10
 73
     6
 74
     0
 42
0.0000000001
 43
0.0000000001
 40
0.0
 40
0.0
 40
0.0
 40
0.0
 40
2.69986029516136
 40
4.147722969032201
 40
6.285750005020438
 40
6.285750005020438
 40
6.285750005020438
 40
6.285750005020438
 10
-2.071712198514809
 20
0.3891385396321425
 30
0.0
 10
-1.861660716045086
 20
0.1893886824624928
 30
0.0
 10
-1.538964256498509
 20
-0.1174816663951788
 30
0.0
 10
-0.775830478266478
 20
0.0310796454018032
 30
0.0
 10
-0.9195507658220734
 20
0.531453801121586
 30
0.0
 10
-1.014511949173318
 20
0.8364472601420516
 30
0.0
  0
ELLIPSE
  5
3211
330
1F
100
AcDbEntity
  8
AM_0
 48
0.5
100
AcDbEllipse
 10
0.9726931698452361
 20
2.581207275390625
 30
0.0
 11
0.0000000000018168
 21
-4.333206224441861
 31
0.0
210
0.0
220
0.0
230
1.0
 40
0.8144800295859711
 41
-1.040428773561198
 42
-0.6323078433663572
  0
LINE
  5
3212
330
1F
100
AcDbEntity
  8
AM_0
 48
0.5
100
AcDbLine
 10
-0.7173255284627374
 20
-1.970830599467149
 30
0.0
 11
-0.7825378100076819
 21
-2.149999999999977
 31
0.0
  0
ARC
  5
3213
330
1F
100
AcDbEntity
  8
AM_0
 48
0.5
100
AcDbCircle
 10
3.010422929127997
 20
2.658049424489348
 30
0.0
 40
3.790563138325913
100
AcDbArc
 50
190.4452443731646
 51
209.5547271424571
  0
LINE
  5
3214
330
1F
100
AcDbEntity
  8
AM_0
 48
0.5
100
AcDbLine
 10
-0.7173282623289197
 20
1.970842901865751
 30
0.0
 11
-0.7825364430746049
 21
2.1499986330669
 31
0.0
  0
ARC
  5
3215
330
1F
100
AcDbEntity
  8
AM_0
 48
0.5
100
AcDbCircle
 10
3.010422929128012
 20
-2.658050791422311
 30
0.0
 40
3.790563138325913
100
AcDbArc
 50
150.4452250462215
 51
169.5547078155142
  0
LINE
  5
3216
330
1F
100
AcDbEntity
  8
AM_0
 48
0.5
100
AcDbLine
 10
-0.0000011809904129
 20
-0.0000000000000119
 30
0.0
 11
-1.005779537325082
 21
0.8255346933999589
 31
0.0
  0
LINE
  5
3217
330
1F
100
AcDbEntity
  8
AM_0
 48
0.5
100
AcDbLine
 10
-0.0000006834663679
 20
0.0000013669331338
 30
0.0
 11
-0.2869322617846137
 21
-0.7883349736532637
 31
0.0
  0
LINE
  5
3218
330
1F
100
AcDbEntity
  8
AM_0
 48
0.5
100
AcDbLine
 10
0.0
 20
0.0
 30
0.0
 11
-0.2869274775186454
 21
0.7883267720540062
 31
0.0
  0
ELLIPSE
  5
3219
330
1F
100
AcDbEntity
  8
AM_0
 48
0.5
100
AcDbEllipse
 10
1.666023292696756
 20
-0.4779153823851062
 30
0.0
 11
-0.0000000000000415
 21
-3.440000136693299
 31
0.0
210
0.0
220
0.0
230
1.0
 40
0.8144800295859891
 41
-1.443613828220574
 42
-1.063207999863884
  0
ELLIPSE
  5
321A
330
1F
100
AcDbEntity
  8
AM_0
 48
0.5
100
AcDbEllipse
 10
86.04729662556177
 20
-102.5902350643451
 30
0.0
 11
-94.6807630682284
 21
94.68076306822842
 31
0.0
210
0.0
220
0.0
230
0.9999999999999998
 40
0.999999999987521
 41
-0.0874731682643351
 42
-0.0796919002258316
  0
ELLIPSE
  5
321B
330
1F
100
AcDbEntity
  8
AM_0
 48
0.5
100
AcDbEllipse
 10
-3.176470357938221
 20
3.608479436238468
 30
0.0
 11
-0.0000000000095222
 21
-5.1838777939489
 31
0.0
210
0.0
220
0.0
230
1.0
 40
0.8144800295862856
 41
0.5105833252303227
 42
0.5990781029097283
  0
LINE
  5
321E
330
1F
100
AcDbEntity
  8
AM_7
 48
0.5
100
AcDbLine
 10
-7.287090062452648
 20
2.150000000000034
 30
0.0
 11
-1.727561058317803
 21
2.150000000000034
 31
0.0
  0
LINE
  5
321F
330
1F
100
AcDbEntity
  8
AM_7
 48
0.5
100
AcDbLine
 10
-7.28709006245262
 20
-2.149999999999977
 30
0.0
 11
-1.727561058317775
 21
-2.149999999999977
 31
0.0
  0
SPLINE
  5
3220
330
1F
100
AcDbEntity
  8
AM_0
100
AcDbSpline
210
0.0
220
0.0
230
1.0
 70
     8
 71
     3
 72
    33
 73
    29
 74
     0
 42
0.0000000001
 43
0.0000000001
 40
0.0
 40
0.0
 40
0.0
 40
0.0
 40
1.010743684496582
 40
2.022833576467832
 40
3.037578957496688
 40
4.056212745003489
 40
5.079857003664532
 40
6.109500240690281
 40
7.145961322679372
 40
8.189895241603872
 40
9.241717795325891
 40
10.30168407291828
 40
11.36983447792315
 40
12.44600489715814
 40
13.52984294512926
 40
14.62081576220742
 40
15.7182257034828
 40
16.82123173843959
 40
17.92886860250316
 40
19.0400688939571
 40
20.15368796660465
 40
21.26852814259644
 40
22.38336992938901
 40
23.49698739941135
 40
24.6081876908653
 40
25.71582455492886
 40
26.81883757994213
 40
27.56016774795276
 40
27.56016774795276
 40
27.56016774795276
 40
27.56016774795276
 10
-1.727561058317782
 20
-2.149999999999977
 30
0.0
 10
-1.825896815681296
 20
-2.148720802086927
 30
0.0
 10
-2.022699303605214
 20
-2.146160702499685
 30
0.0
 10
-2.317831415314493
 20
-2.125523425753954
 30
0.0
 10
-2.612950928946709
 20
-2.092715546786394
 30
0.0
 10
-2.908052177578419
 20
-2.046734056635756
 30
0.0
 10
-3.203132216563723
 20
-1.98820209265196
 30
0.0
 10
-3.498185224633182
 20
-1.917379937151196
 30
0.0
 10
-3.793212188726052
 20
-1.834744673416054
 30
0.0
 10
-4.088210492549372
 20
-1.740802320263725
 30
0.0
 10
-4.383178126627051
 20
-1.636129678043658
 30
0.0
 10
-4.678116561209726
 20
-1.521383766110915
 30
0.0
 10
-4.973026586201292
 20
-1.397266837312969
 30
0.0
 10
-5.267911886266325
 20
-1.26455155105944
 30
0.0
 10
-5.562773811499546
 20
-1.124053471219355
 30
0.0
 10
-5.857615096078298
 20
-0.9766390633468233
 30
0.0
 10
-6.152439009832342
 20
-0.8232177566152643
 30
0.0
 10
-6.447248140293758
 20
-0.6647330194721804
 30
0.0
 10
-6.742045348618724
 20
-0.5021595947031301
 30
0.0
 10
-7.036833789262665
 20
-0.3364981024228655
 30
0.0
 10
-7.3316160478008
 20
-0.1687669614049696
 30
0.0
 10
-7.626396287015246
 20
-0.0000004386781143
 30
0.0
 10
-7.921175202913055
 20
0.1687691219514136
 30
0.0
 10
-8.215958449497072
 20
0.3364976509517419
 30
0.0
 10
-8.510746526220721
 20
0.5021596446799208
 30
0.0
 10
-8.805544260165852
 20
0.6647336887812685
 30
0.0
 10
-8.955880914825549
 20
0.8061579116582038
 30
0.0
 10
-9.116359208539797
 20
0.8925149796775713
 30
0.0
 10
-9.716466508888466
 20
1.331710670307131
 30
0.0
  0
SPLINE
  5
3221
330
1F
100
AcDbEntity
  8
AM_0
100
AcDbSpline
210
0.0
220
0.0
230
1.0
 70
     8
 71
     3
 72
    17
 73
    13
 74
     0
 42
0.0000000001
 43
0.0000000001
 40
1.580019955310467
 40
1.580019955310467
 40
1.580019955310467
 40
1.580019955310467
 40
2.030549285115227
 40
3.082371838836284
 40
4.126290986361125
 40
5.162752068350215
 40
6.192395305374981
 40
7.216039564037012
 40
8.234688489606833
 40
9.249433870634691
 40
10.26152376260694
 40
11.27226744710342
 40
11.27226744710342
 40
11.27226744710342
 40
11.27226744710352
 10
-4.507108684824466
 20
-1.586763310169288
 30
0.0
 10
-4.54886495242858
 20
-1.603105654079598
 30
0.0
 10
-4.688344914753663
 20
-1.656669869077774
 30
0.0
 10
-4.92647180002573
 20
-1.740687256863253
 30
0.0
 10
-5.221427174613332
 20
-1.834775585514108
 30
0.0
 10
-5.516463750139415
 20
-1.917372645807319
 30
0.0
 10
-5.811513844138382
 20
-1.988201058250552
 30
0.0
 10
-6.106596083316311
 20
-2.046745613551166
 30
0.0
 10
-6.401698708879386
 20
-2.092672223746546
 30
0.0
 10
-6.696819709894207
 20
-2.125683269035562
 30
0.0
 10
-6.991951815343561
 20
-2.145566253485981
 30
0.0
 10
-7.188754306386449
 20
-2.150000012302427
 30
0.0
 10
-7.287090062452598
 20
-2.149999999999977
 30
0.0
  0
SPLINE
  5
3222
330
1F
100
AcDbEntity
  8
AM_0
 48
0.5
100
AcDbSpline
210
0.0
220
0.0
230
1.0
 70
     8
 71
     3
 72
    25
 73
    21
 74
     0
 42
0.0000000001
 43
0.0000000001
 40
6.846175049578289
 40
6.846175049578289
 40
6.846175049578289
 40
6.846175049578289
 40
7.604337694224321
 40
8.711974558287883
 40
9.814980593243754
 40
10.91239053451967
 40
12.0033633515982
 40
13.08720139956839
 40
14.16337181880432
 40
15.23152222380919
 40
16.29148850140128
 40
17.34331105512262
 40
18.38723020264746
 40
19.42369128463655
 40
20.45333379090873
 40
21.47697865721768
 40
22.49561244472435
 40
23.5103574802404
 40
24.52244778960836
 40
25.53320666051913
 40
25.53320666051913
 40
25.53320666051913
 40
25.53320666051913
 10
-2.071759383641911
 20
0.3891640757292976
 30
0.0
 10
-2.138803296722024
 20
0.4269142519683556
 30
0.0
 10
-2.30393603629637
 20
0.5194377493441494
 30
0.0
 10
-2.5674030071767
 20
0.6647329470866339
 30
0.0
 10
-2.862212103825847
 20
0.8232177759141166
 30
0.0
 10
-3.157036026615948
 20
0.976639058060897
 30
0.0
 10
-3.451877308633932
 20
1.124053473205464
 30
0.0
 10
-3.746739235139294
 20
1.26455154837734
 30
0.0
 10
-4.041624532678703
 20
1.397266845980908
 30
0.0
 10
-4.336534566415728
 20
1.521383734451688
 30
0.0
 10
-4.631472968885482
 20
1.636129794754225
 30
0.0
 10
-4.926439340706146
 20
1.740801399735772
 30
0.0
 10
-5.221435800559255
 20
1.834745399677018
 30
0.0
 10
-5.516461307388773
 20
1.917380389809324
 30
0.0
 10
-5.811514708675936
 20
1.988199876765776
 30
0.0
 10
-6.106594362587237
 20
2.046734436138109
 30
0.0
 10
-6.401695677801775
 20
2.092716170897062
 30
0.0
 10
-6.696815402003529
 20
2.125520535001498
 30
0.0
 10
-6.991948744510118
 20
2.146163578706989
 30
0.0
 10
-7.188752801920351
 20
2.148721754165592
 30
0.0
 10
-7.287090062452641
 20
2.149999999999977
 30
0.0
  0
SPLINE
  5
3223
330
1F
100
AcDbEntity
  8
AM_0
 48
0.5
100
AcDbSpline
210
0.0
220
0.0
230
1.0
 70
     8
 71
     3
 72
    16
 73
    12
 74
     0
 42
0.0000000001
 43
0.0000000001
 40
0.0
 40
0.0
 40
0.0
 40
0.0
 40
1.010743614677189
 40
2.022833924044153
 40
3.037578959561199
 40
4.056212747067873
 40
5.079857613375832
 40
6.109500119648989
 40
7.14596120163808
 40
8.18989512056258
 40
8.362086094421943
 40
8.362086094421943
 40
8.362086094421943
 40
8.362086094421943
 10
-1.727538775842866
 20
1.863333606719834
 30
0.0
 10
-1.825869084273428
 20
1.863320687048883
 30
0.0
 10
-2.022679663397987
 20
1.858909075180974
 30
0.0
 10
-2.317808299733734
 20
1.839012224152554
 30
0.0
 10
-2.612928891715831
 20
1.806007200621422
 30
0.0
 10
-2.908029970420862
 20
1.760079525085672
 30
0.0
 10
-3.203109698298966
 20
1.701530399294966
 30
0.0
 10
-3.498163041425023
 20
1.630714762258634
 30
0.0
 10
-3.793190109129007
 20
1.548078665246322
 30
0.0
 10
-4.0053422524878
 20
1.480516164235922
 30
0.0
 10
-4.119378080362871
 20
1.441802484682995
 30
0.0
 10
-4.135514332305682
 20
1.436276748000437
 30
0.0
  0
SPLINE
  5
3224
330
1F
100
AcDbEntity
  8
AM_0
 48
0.5
100
AcDbSpline
210
0.0
220
0.0
230
1.0
 70
     8
 71
     3
 72
    17
 73
    13
 74
     0
 42
0.0000000001
 43
0.0000000001
 40
0.0
 40
0.0
 40
0.0
 40
0.0
 40
1.010743614677189
 40
2.022833924044153
 40
3.037578959561199
 40
4.056212747067873
 40
5.079857613375832
 40
6.109500119648989
 40
7.14596120163808
 40
8.18989512056258
 40
9.241717674284874
 40
9.693948937866434
 40
9.693948937866434
 40
9.693948937866434
 40
9.693948937866434
 10
-1.727561058317796
 20
2.149999999999977
 30
0.0
 10
-1.825896833577253
 20
2.148721723939161
 30
0.0
 10
-2.022699404727326
 20
2.14616346866785
 30
0.0
 10
-2.317831267801359
 20
2.125520544728772
 30
0.0
 10
-2.612950980467893
 20
2.092716138220851
 30
0.0
 10
-2.908052339199862
 20
2.046734557829012
 30
0.0
 10
-3.203131829425579
 20
1.988199419327798
 30
0.0
 10
-3.498185847040765
 20
1.917382112568049
 30
0.0
 10
-3.793210431924599
 20
1.83473851197354
 30
0.0
 10
-4.088217032215233
 20
1.740824995547455
 30
0.0
 10
-4.326354052643786
 20
1.656223113359686
 30
0.0
 10
-4.466202073270075
 20
1.603334770709324
 30
0.0
 10
-4.508176946123036
 20
1.587146003074195
 30
0.0
  0
ELLIPSE
  5
3225
330
1F
100
AcDbEntity
  8
AM_0
100
AcDbEllipse
 10
-4.94223501188194
 20
0.2301992724972877
 30
0.0
 11
0.0000000000012792
 21
-5.511358859739296
 31
0.0
210
0.0
220
0.0
230
1.0
 40
0.9032857142856434
 41
-1.352446422541615
 42
-1.124229503791887
  0
LINE
  5
3226
330
1F
100
AcDbEntity
  8
AM_0
100
AcDbLine
 10
-9.432367165528631
 20
2.15000000000009
 30
0.0
 11
-10.78253153080535
 21
3.500164365277043
 31
0.0
  0
ELLIPSE
  5
3227
330
1F
100
AcDbEntity
  8
AM_0
100
AcDbEllipse
 10
-4.942235011881898
 20
-0.230199272497174
 30
0.0
 11
-0.0000000000003703
 21
-5.511358859738848
 31
0.0
210
0.0
220
0.0
230
1.0
 40
0.9032857142857174
 41
4.265822157381497
 42
4.425053098654932
  0
LINE
  5
3228
330
1F
100
AcDbEntity
  8
AM_0
100
AcDbLine
 10
-9.432367165528688
 20
-2.149999999999977
 30
0.0
 11
-10.78253153080501
 21
-3.500164365276305
 31
0.0
  0
LINE
  5
3229
330
1F
100
AcDbEntity
  8
AM_0
 48
0.5
100
AcDbLine
 10
-9.43236716552866
 20
2.15000000000009
 30
0.0
 11
-7.287090062452648
 21
2.150000000000034
 31
0.0
  0
LINE
  5
322A
330
1F
100
AcDbEntity
  8
AM_0
 48
0.5
100
AcDbLine
 10
-9.432367165528688
 20
-2.149999999999977
 30
0.0
 11
-7.28709006245262
 21
-2.149999999999977
 31
0.0
  0
SPLINE
  5
322B
330
1F
100
AcDbEntity
  8
AM_0
100
AcDbSpline
210
0.0
220
0.0
230
1.0
 70
     8
 71
     3
 72
    11
 73
     7
 74
     0
 42
0.0000000001
 43
0.0000000001
 40
11.27226913003534
 40
11.27226913003534
 40
11.27226913003534
 40
11.2722691300354
 40
12.28301561507924
 40
13.29510212255852
 40
14.30984805882082
 40
15.09690564740603
 40
15.09690564740603
 40
15.09690564740603
 40
15.09690564740603
 10
-7.287090062452627
 20
-2.149999999999977
 30
0.0
 10
-7.385051897562455
 20
-2.139477275214062
 30
0.0
 10
-7.580790793133026
 20
-2.114002216475057
 30
0.0
 10
-7.873388377323102
 20
-2.062612721757602
 30
0.0
 10
-8.760554210858565
 20
-1.697577222152347
 30
0.0
 10
-9.468395426977387
 20
-1.311439635279441
 30
0.0
 10
-9.802362324678007
 20
-0.9636657860207833
 30
0.0
  0
SPLINE
  5
322C
330
1F
100
AcDbEntity
  8
AM_0
100
AcDbSpline
210
0.0
220
0.0
230
1.0
 70
     8
 71
     3
 72
    23
 73
    19
 74
     0
 42
0.0000000001
 43
0.0000000001
 40
16.03905285852473
 40
16.03905285852473
 40
16.03905285852473
 40
16.03905285852473
 40
16.35212704903564
 40
17.38177054169784
 40
18.41822485651776
 40
19.46214173629503
 40
20.51396345435107
 40
21.57393551351153
 40
22.64208202342361
 40
23.7182574881101
 40
24.80209208578934
 40
25.89306333925047
 40
26.99048218457928
 40
28.09348763352352
 40
29.20111863782268
 40
30.31232390128032
 40
31.42594612798585
 40
32.5407912310448
 40
32.5407912310486
 40
32.5407912310486
 40
32.5407912310486
 10
-24.42415123917335
 20
3.500164365276532
 30
0.0
 10
-24.38872150966044
 20
3.488505493418131
 30
0.0
 10
-24.23692037444487
 20
3.437202273035666
 30
0.0
 10
-23.9691315452687
 20
3.336572212917275
 30
0.0
 10
-23.62169529866477
 20
3.18665637082725
 30
0.0
 10
-23.27458176718898
 20
3.018325868601181
 30
0.0
 10
-22.92777043962592
 20
2.832554917328337
 30
0.0
 10
-22.58124900702699
 20
2.630379194220978
 30
0.0
 10
-22.23499744128385
 20
2.412954420972681
 30
0.0
 10
-21.88899163075357
 20
2.181545955225629
 30
0.0
 10
-21.54321191414319
 20
1.937464249629471
 30
0.0
 10
-21.19763056903905
 20
1.68212955875694
 30
0.0
 10
-20.85221958993765
 20
1.417025998148091
 30
0.0
 10
-20.50695596309058
 20
1.14367780213783
 30
0.0
 10
-20.16181080070955
 20
0.8636744530526527
 30
0.0
 10
-19.81675213504282
 20
0.5786509650246501
 30
0.0
 10
-19.47175186857453
 20
0.2902589719853665
 30
0.0
 10
-19.24181346889644
 20
0.0969079097637007
 30
0.0
 10
-17.54607428099149
 20
-1.057935543528202
 30
0.0
  0
SPLINE
  5
322D
330
1F
100
AcDbEntity
  8
AM_0
 48
0.5
100
AcDbSpline
210
0.0
220
0.0
230
1.0
 70
     8
 71
     3
 72
    16
 73
    12
 74
     0
 42
0.0000000001
 43
0.0000000001
 40
0.0
 40
0.0
 40
0.0
 40
0.0
 40
1.010743614677189
 40
2.022833924044153
 40
3.037578959561199
 40
4.056212747067873
 40
5.079857613375832
 40
6.109500119648989
 40
7.14596120163808
 40
8.18989512056258
 40
8.545190612624931
 40
8.545190612624931
 40
8.545190612624931
 40
8.545190612624931
 10
-18.34680862508901
 20
3.50016436527656
 30
0.0
 10
-18.46334305309314
 20
3.500148590519046
 30
0.0
 10
-18.69658963422877
 20
3.494762067267771
 30
0.0
 10
-19.04635612405233
 20
3.470468259494197
 30
0.0
 10
-19.39611308025228
 20
3.430169536038846
 30
0.0
 10
-19.74584691063659
 20
3.374092415123669
 30
0.0
 10
-20.09555543746555
 20
3.302604660340847
 30
0.0
 10
-20.44523269487171
 20
3.216139647808716
 30
0.0
 10
-20.79487881242556
 20
3.11524200058264
 30
0.0
 10
-21.0667448744059
 20
3.02604347299021
 30
0.0
 10
-21.22213795687522
 20
2.971184169974236
 30
0.0
 10
-22.55897858370212
 20
2.614289630057868
 30
0.0
  0
SPLINE
  5
322E
330
1F
100
AcDbEntity
  8
AM_0
 48
0.5
100
AcDbSpline
210
0.0
220
0.0
230
1.0
 70
     8
 71
     3
 72
    15
 73
    11
 74
     0
 42
0.0000000001
 43
0.0000000001
 40
0.0
 40
0.0
 40
0.0
 40
0.0
 40
1.010743684496582
 40
2.022833993863546
 40
3.037578683882831
 40
4.056212471389632
 40
5.079857945358201
 40
6.109499720892564
 40
7.145961650132166
 40
7.907745354493536
 40
7.907745354493536
 40
7.907745354493536
 40
7.907745354493536
 10
-18.15301976320592
 20
-3.500164446083175
 30
0.0
 10
-18.34340273959973
 20
-3.472537882379327
 30
0.0
 10
-18.5751482245512
 20
-3.45480566993919
 30
0.0
 10
-18.9249184666584
 20
-3.421199166574041
 30
0.0
 10
-19.27467452334364
 20
-3.367797475260857
 30
0.0
 10
-19.62440874107941
 20
-3.292940302398591
 30
0.0
 10
-19.9741166841209
 20
-3.197642345103389
 30
0.0
 10
-20.32379470421015
 20
-3.082354741497425
 30
0.0
 10
-20.64171947724632
 20
-2.960026901167196
 30
0.0
 10
-20.84263242875497
 20
-2.873579437876657
 30
0.0
 10
-20.92751336943217
 20
-2.835493818959633
 30
0.0
  0
SPLINE
  5
322F
330
1F
100
AcDbEntity
  8
AM_0
100
AcDbSpline
210
0.0
220
0.0
230
1.0
 70
     8
 71
     3
 72
    23
 73
    19
 74
     0
 42
0.0000000001
 43
0.0000000001
 40
16.03905285852473
 40
16.03905285852473
 40
16.03905285852473
 40
16.03905285852473
 40
16.35212704903564
 40
17.38177054169784
 40
18.41822485651776
 40
19.46214173629503
 40
20.51396345435107
 40
21.57393551351153
 40
22.64208202342361
 40
23.7182574881101
 40
24.80209208578934
 40
25.89306333925047
 40
26.99048218457928
 40
28.09348763352352
 40
29.20111863782268
 40
30.31232390128032
 40
31.42594612798585
 40
32.5407912310448
 40
32.5407912310486
 40
32.5407912310486
 40
32.5407912310486
 10
-18.10144636724194
 20
3.50016436527656
 30
0.0
 10
-18.06601663772904
 20
3.488505493418159
 30
0.0
 10
-17.91421550251346
 20
3.437202273035694
 30
0.0
 10
-17.64642667333729
 20
3.336572212917275
 30
0.0
 10
-17.29899042673334
 20
3.18665637082725
 30
0.0
 10
-16.95187689525756
 20
3.018325868601181
 30
0.0
 10
-16.6050655676945
 20
2.832554917328337
 30
0.0
 10
-16.25854413509555
 20
2.630379194220978
 30
0.0
 10
-15.91229256935243
 20
2.412954420972681
 30
0.0
 10
-15.56628675882215
 20
2.181545955225629
 30
0.0
 10
-15.22050704221175
 20
1.937464249629471
 30
0.0
 10
-14.87492569710763
 20
1.68212955875694
 30
0.0
 10
-14.52951471800623
 20
1.417025998148091
 30
0.0
 10
-14.18425109115916
 20
1.14367780213783
 30
0.0
 10
-13.83910592877814
 20
0.8636744530526527
 30
0.0
 10
-13.49404726311141
 20
0.5786509650246785
 30
0.0
 10
-13.1490469966431
 20
0.290258971985395
 30
0.0
 10
-12.91910859696501
 20
0.0969079097637291
 30
0.0
 10
-11.45376295275972
 20
-0.9088282339096167
 30
0.0
  0
SPLINE
  5
3230
330
1F
100
AcDbEntity
  8
AM_0
 48
0.5
100
AcDbSpline
210
0.0
220
0.0
230
1.0
 70
     8
 71
     3
 72
    15
 73
    11
 74
     0
 42
0.0000000001
 43
0.0000000001
 40
7.907745354493536
 40
7.907745354493536
 40
7.907745354493536
 40
7.907745354493536
 40
8.189873411961459
 40
9.241710626092514
 40
10.30166235592959
 40
11.36982472628033
 40
12.44598212828784
 40
13.52983440361964
 40
14.62080578343036
 40
14.90544694398022
 40
14.90544694398022
 40
14.90544694398022
 40
14.90544694398022
 10
-14.60480849750073
 20
-2.835493818959633
 30
0.0
 10
-14.63624431684449
 20
-2.821388736872648
 30
0.0
 10
-14.78473015853628
 20
-2.753747132734901
 30
0.0
 10
-15.04991767473442
 20
-2.624483973463753
 30
0.0
 10
-15.39945824905085
 20
-2.437669292810795
 30
0.0
 10
-15.74896711199708
 20
-2.23562553812772
 30
0.0
 10
-16.09844400105098
 20
-2.019553850982987
 30
0.0
 10
-16.44789546325035
 20
-1.790830705850936
 30
0.0
 10
-16.71053265830847
 20
-1.610457758985177
 30
0.0
 10
-16.85688326847981
 20
-1.507362380489183
 30
0.0
 10
-17.54607428100303
 20
-1.093996615059467
 30
0.0
  0
SPLINE
  5
3231
330
1F
100
AcDbEntity
  8
AM_0
 48
0.5
100
AcDbSpline
210
0.0
220
0.0
230
1.0
 70
     8
 71
     3
 72
    16
 73
    12
 74
     0
 42
0.0000000001
 43
0.0000000001
 40
0.0
 40
0.0
 40
0.0
 40
0.0
 40
1.010743614677189
 40
2.022833924044153
 40
3.037578959561199
 40
4.056212747067873
 40
5.079857613375832
 40
6.109500119648989
 40
7.14596120163808
 40
8.18989512056258
 40
8.545190612624931
 40
8.545190612624931
 40
8.545190612624931
 40
8.545190612624931
 10
-12.02410375315759
 20
3.500164365276589
 30
0.0
 10
-12.14063818116174
 20
3.500148590519074
 30
0.0
 10
-12.37388476229737
 20
3.494762067267799
 30
0.0
 10
-12.72365125212091
 20
3.470468259494225
 30
0.0
 10
-13.07340820832084
 20
3.430169536038874
 30
0.0
 10
-13.42314203870517
 20
3.374092415123698
 30
0.0
 10
-13.77285056553414
 20
3.302604660340847
 30
0.0
 10
-14.1225278229403
 20
3.216139647808716
 30
0.0
 10
-14.47217394049415
 20
3.11524200058264
 30
0.0
 10
-14.74404000247449
 20
3.02604347299021
 30
0.0
 10
-14.8994330849438
 20
2.971184169974236
 30
0.0
 10
-16.23627371177068
 20
2.614289630057868
 30
0.0
  0
LINE
  5
3232
330
1F
100
AcDbEntity
  8
AM_0
100
AcDbLine
 10
-16.11952887693821
 20
-3.198576266143419
 30
0.0
 11
-15.17129309891932
 21
-2.558745835596909
 31
0.0
  0
SPLINE
  5
3233
330
1F
100
AcDbEntity
  8
AM_0
 48
0.5
100
AcDbSpline
210
0.0
220
0.0
230
1.0
 70
     8
 71
     3
 72
    15
 73
    11
 74
     0
 42
0.0000000001
 43
0.0000000001
 40
0.0
 40
0.0
 40
0.0
 40
0.0
 40
1.010743684496582
 40
2.022833993863546
 40
3.037578683882831
 40
4.056212471389632
 40
5.079857945358201
 40
6.109499720892564
 40
7.145961650132166
 40
7.907745354493536
 40
7.907745354493536
 40
7.907745354493536
 40
7.907745354493536
 10
-11.83031489127451
 20
-3.500164365276589
 30
0.0
 10
-12.01920626793344
 20
-3.45897222535649
 30
0.0
 10
-12.25244335261979
 20
-3.454805669939162
 30
0.0
 10
-12.60221359472698
 20
-3.421199166574012
 30
0.0
 10
-12.95196965141223
 20
-3.367797475260829
 30
0.0
 10
-13.30170386914799
 20
-3.292940302398562
 30
0.0
 10
-13.65141181218948
 20
-3.197642345103389
 30
0.0
 10
-14.00108983227872
 20
-3.082354741497425
 30
0.0
 10
-14.31901460531489
 20
-2.960026901167196
 30
0.0
 10
-14.51992755682355
 20
-2.873579437876657
 30
0.0
 10
-14.60480849750073
 20
-2.835493818959633
 30
0.0
  0
SPLINE
  5
3234
330
1F
100
AcDbEntity
  8
AM_0
100
AcDbSpline
210
0.0
220
0.0
230
1.0
 70
     8
 71
     3
 72
     8
 73
     4
 74
     0
 42
0.0000000001
 43
0.0000000001
 40
16.03460024169435
 40
16.03460024169435
 40
16.03460024169435
 40
16.03460024169435
 40
16.03905285852473
 40
16.03905285852473
 40
16.03905285852473
 40
16.03905285852473
 10
-18.10295805906425
 20
3.500661627146058
 30
0.0
 10
-18.10245415469646
 20
3.500495934532096
 30
0.0
 10
-18.10195025742101
 20
3.500330180571012
 30
0.0
 10
-18.10144636724194
 20
3.50016436527656
 30
0.0
  0
ELLIPSE
  5
3235
330
1F
100
AcDbEntity
  8
AM_0
100
AcDbEllipse
 10
-16.39085472179805
 20
-2.555191875746317
 30
0.0
 11
0.0000000000149796
 21
-0.7292009094312637
 31
0.0
210
0.0
220
0.0
230
1.0
 40
0.7905622000756569
 41
0.2863257179288445
 42
0.4900394311561751
  0
LINE
  5
3236
330
1F
100
AcDbEntity
  8
AM_0
100
AcDbLine
 10
-18.10144636724195
 20
3.500164365276617
 30
0.0
 11
-18.34680864347462
 21
3.500164365276617
 31
0.0
  0
LINE
  5
3237
330
1F
100
AcDbEntity
  8
AM_0
100
AcDbLine
 10
-16.88714370813499
 20
-3.500164365276617
 30
0.0
 11
-16.22804016975886
 21
-3.254705611693253
 31
0.0
  0
LINE
  5
3238
330
1F
100
AcDbEntity
  8
AM_0
100
AcDbLine
 10
-16.88714370813499
 20
-3.500164365276617
 30
0.0
 11
-18.15301976320584
 21
-3.500164446083175
 31
0.0
  0
ELLIPSE
  5
3239
330
1F
100
AcDbEntity
  8
AM_0
100
AcDbEllipse
 10
-24.21905205247819
 20
-2.376934372682114
 30
0.0
 11
-1.56293271485551
 21
-0.1039964169023237
 31
0.0
210
0.0
220
0.0
230
1.0
 40
0.7163125681865049
 41
3.963766038016707
 42
7.806354755419555
  0
ELLIPSE
  5
323A
330
1F
100
AcDbEntity
  8
AM_0
100
AcDbEllipse
 10
-22.71355959372947
 20
-2.555191875746317
 30
0.0
 11
0.0000000000076676
 21
-0.7292009094318624
 31
0.0
210
0.0
220
0.0
230
1.0
 40
0.7905622000802577
 41
0.2863257179395604
 42
0.4900394311653096
  0
SPLINE
  5
323B
330
1F
100
AcDbEntity
  8
AM_0
 48
0.5
100
AcDbSpline
210
0.0
220
0.0
230
1.0
 70
     8
 71
     3
 72
    15
 73
    11
 74
     0
 42
0.0000000001
 43
0.0000000001
 40
7.907745354493536
 40
7.907745354493536
 40
7.907745354493536
 40
7.907745354493536
 40
8.189873411961459
 40
9.241710626092514
 40
10.30166235592959
 40
11.36982472628033
 40
12.44598212828784
 40
13.52983440361964
 40
14.62080578343036
 40
14.90544694398022
 40
14.90544694398022
 40
14.90544694398022
 40
14.90544694398022
 10
-20.92751336943217
 20
-2.835493818959633
 30
0.0
 10
-20.95894918877591
 20
-2.821388736872648
 30
0.0
 10
-21.1074350304677
 20
-2.753747132734901
 30
0.0
 10
-21.37262254666585
 20
-2.624483973463753
 30
0.0
 10
-21.72216312098228
 20
-2.437669292810795
 30
0.0
 10
-22.07167198392852
 20
-2.23562553812772
 30
0.0
 10
-22.4211488729824
 20
-2.019553850982987
 30
0.0
 10
-22.77060033518177
 20
-1.790830705850936
 30
0.0
 10
-23.03323753023989
 20
-1.610457758985177
 30
0.0
 10
-23.17958814041123
 20
-1.507362380489183
 30
0.0
 10
-23.20984858006641
 20
-1.48594007849411
 30
0.0
  0
LINE
  5
323C
330
1F
100
AcDbEntity
  8
AM_0
100
AcDbLine
 10
-23.20984925860501
 20
-3.500164768883308
 30
0.0
 11
-22.55074504169026
 21
-3.254705611693253
 31
0.0
  0
LINE
  5
323D
330
1F
100
AcDbEntity
  8
AM_0
100
AcDbLine
 10
-22.44223374886963
 20
-3.198576266143419
 30
0.0
 11
-21.49399797085075
 21
-2.558745835596909
 31
0.0
  0
DIMENSION
  5
323E
330
1F
100
AcDbEntity
  8
AM_5
100
AcDbDimension
  2
*D14
 10
-92.89897802178542
 20
-3.500166580989766
 30
0.0
 11
-94.59897802178543
 21
-0.0000011078566721
 31
0.0
 70
    32
  1
%%C<>
  3
AM_JIS$0
100
AcDbAlignedDimension
 13
-78.54364755418569
 23
3.500164365276447
 33
0.0
 14
-78.54364755418568
 24
-3.50016658098977
 34
0.0
 50
270.0
100
AcDbRotatedDimension
1001
ACAD
1000
DSTYLE
1002
{
1070
   271
1070
     1
1002
}
1001
GENIUS_GENDTOL_13
1000

1000
h7
1000

1040
0.0
  0
LINE
  5
323F
330
1F
100
AcDbEntity
  8
AM_0
100
AcDbLine
 10
-78.54364755418568
 20
-3.50016658098977
 30
0.0
 11
-78.54364755418569
 21
3.500164365276447
 31
0.0
  0
LINE
  5
3240
330
1F
100
AcDbEntity
  8
AM_0
 48
0.5
100
AcDbLine
 10
-78.78253644307458
 20
-0.000000000000199
 30
0.0
 11
-78.78253644307456
 21
-3.20848623772369
 31
0.0
  0
LINE
  5
3241
330
1F
100
AcDbEntity
  8
AM_0
 48
0.5
100
AcDbLine
 10
-78.78253644307458
 20
-0.000000000000199
 30
0.0
 11
-78.78253644307458
 21
3.208484001503364
 31
0.0
  0
LINE
  5
3242
330
1F
100
AcDbEntity
  8
AM_0
100
AcDbLine
 10
-78.78253644307458
 20
3.208484001503364
 30
0.0
 11
-78.54364755418569
 21
3.500164365276447
 31
0.0
1001
GENIUS_GENFIL_13
1070
     0
1040
1.0
1040
1.0
1040
20.0
1040
0.0
1002
{
1002
}
1001
GENIUS_GENODEF_13
1002
{
1000
HIER
1070
     0
1002
}
1002
{
1000
MANEDIT
1070
     0
1002
}
1002
{
1000
NOSEL
1070
     0
1002
}
1002
{
1000
BEHIND
1070
     0
1002
}
1002
{
1000
REACTOR
1002
}
1001
GENIUS_GENOBJ-N-CHA_13
1002
{
1000
OWNER
1000
GEN
1002
}
  0
LINE
  5
3243
330
1F
100
AcDbEntity
  8
AM_0
 48
0.5
100
AcDbLine
 10
-78.54364755418568
 20
-3.50016658098977
 30
0.0
 11
-78.78253644307456
 21
-3.20848623772369
 31
0.0
1001
GENIUS_GENFIL_13
1070
     0
1040
1.0
1040
1.0
1040
20.0
1040
0.0
1002
{
1002
}
1001
GENIUS_GENODEF_13
1002
{
1000
HIER
1070
     0
1002
}
1002
{
1000
MANEDIT
1070
     0
1002
}
1002
{
1000
NOSEL
1070
     0
1002
}
1002
{
1000
BEHIND
1070
     0
1002
}
1002
{
1000
REACTOR
1002
}
1001
GENIUS_GENOBJ-N-CHA_13
1002
{
1000
OWNER
1000
GEN
1002
}
  0
VIEWPORT
  5
110
330
101
100
AcDbEntity
 67
     1
  8
0
100
AcDbViewport
 10
420.5
 20
297.0
 30
0.0
 40
948.9782706766916
 41
628.452
 68
     1
 69
     1
1001
ACAD
1000
MVIEW
1002
{
1070
    16
1010
0.0
1020
0.0
1030
0.0
1010
0.0
1020
0.0
1030
1.0
1040
0.0
1040
628.452
1040
420.5
1040
297.0
1040
50.0
1040
0.0
1040
0.0
1070
     0
1070
   100
1070
     1
1070
     1
1070
     0
1070
     0
1070
     0
1070
     0
1040
0.0
1040
0.0
1040
0.0
1040
10.0
1040
10.0
1040
10.0
1040
10.0
1070
     0
1002
{
1002
}
1002
}
  0
ENDSEC
  0
SECTION
  2
OBJECTS
  0
DICTIONARY
  5
C
330
0
100
AcDbDictionary
  3
ACAD_GROUP
350
D
  3
ACAD_LAYOUT
350
1A
  3
ACAD_MLINESTYLE
350
17
  3
ACAD_PLOTSETTINGS
350
19
  3
ACAD_PLOTSTYLENAME
350
E
  3
ACDBVARIABLEDICTIONARY
350
34
  3
ACMDICTIONARY
350
43
  3
AMG
350
2B
  3
AMGSNAPSETTINGS
350
6E
  3
DWGPROPS
350
35BB
  3
ACDBHEADERROUNDTRIPXREC
350
35CA
  0
DICTIONARY
  5
74
330
1F
100
AcDbDictionary
280
     1
  3
ACAD_INDEX
360
35BD
  3
ACAD_LAYOUTSELFREF
360
35ED
  0
DICTIONARY
  5
35F2
330
101
100
AcDbDictionary
280
     1
  3
ACAD_LAYOUTSELFREF
360
35F3
  0
DICTIONARY
  5
D
102
{ACAD_REACTORS
330
C
102
}
330
C
100
AcDbDictionary
  0
DICTIONARY
  5
1A
102
{ACAD_REACTORS
330
C
102
}
330
C
100
AcDbDictionary
  0
DICTIONARY
  5
17
102
{ACAD_REACTORS
330
C
102
}
330
C
100
AcDbDictionary
  3
STANDARD
350
18
  0
DICTIONARY
  5
19
102
{ACAD_REACTORS
330
C
102
}
330
C
100
AcDbDictionary
  0
ACDBDICTIONARYWDFLT
  5
E
102
{ACAD_REACTORS
330
C
102
}
330
C
100
AcDbDictionary
281
     1
  3
Normal
350
F
100
AcDbDictionaryWithDefault
340
F
  0
DICTIONARY
  5
34
102
{ACAD_REACTORS
330
C
102
}
330
C
100
AcDbDictionary
  3
INDEXCTL
350
35
  3
SORTENTS
350
B5E
  0
DICTIONARY
  5
43
102
{ACAD_REACTORS
330
C
102
}
330
C
100
AcDbDictionary
  3
ACMSTDDICTIONARY
350
260
  0
DICTIONARY
  5
2B
102
{ACAD_REACTORS
330
C
102
}
330
C
100
AcDbDictionary
  3
ACMGSETTINGS
350
2C
  0
DICTIONARY
  5
6E
102
{ACAD_REACTORS
330
C
102
}
330
C
100
AcDbDictionary
  0
XRECORD
  5
35BB
102
{ACAD_REACTORS
330
C
102
}
330
C
100
AcDbXrecord
  1
DWGPROPS COOKIE
  2

  3

  4

  6

  7

  8

  9

300
AmdtFileType=82
301
=
302
=
303
=
304
=
305
=
306
=
307
=
308
=
309
=
 40
0.2004488078703704
 41
2452800.443498622
 42
2452983.895503634
  1

 90
        1
  0
DICTIONARY
  5
35CA
102
{ACAD_REACTORS
330
C
102
}
330
C
100
AcDbDictionary
  3
TSTACKALIGN
350
35CB
  3
TSTACKSIZE
350
35CC
  3
HYPERLINKBASE
350
35CD
  3
STYLESHEET
350
35CE
  3
LAYOUTDICT
350
35CF
  3
PLOTSETDICT
350
35D0
  3
PLOTSTYLNAMDICT
350
35D1
  3
LWETCUNION
350
35D2
  3
INSUNITS
350
35D3
  3
CEPSNTYPE
350
35D4
  3
FINGERPRINTGUID
350
35D5
  3
VERSIONGUID
350
35D6
  3
PSVPSCALE
350
35D7
  3
DIMSTYLEDATA
350
35D8
  3
PUCSORTHOREF
350
35D9
  3
PUCSORTHOVIEW
350
35DA
  3
PUCSBASE
350
35DB
  3
PUCSORGTOP
350
35DC
  3
PUCSORGBOTTOM
350
35DD
  3
PUCSORGLEFT
350
35DE
  3
PUCSORGRIGHT
350
35DF
  3
PUCSORGFRONT
350
35E0
  3
PUCSORGBACK
350
35E1
  3
UCSORTHOREF
350
35E2
  3
UCSORTHOVIEW
350
35E3
  3
UCSBASE
350
35E4
  3
UCSORGTOP
350
35E5
  3
UCSORGBOTTOM
350
35E6
  3
UCSORGLEFT
350
35E7
  3
UCSORGRIGHT
350
35E8
  3
UCSORGFRONT
350
35E9
  3
UCSORGBACK
350
35EA
  0
DICTIONARY
  5
35BD
102
{ACAD_REACTORS
330
74
102
}
330
74
100
AcDbDictionary
  3
*A1
350
35BE
  0
XRECORD
  5
35ED
102
{ACAD_REACTORS
330
74
102
}
330
74
100
AcDbXrecord
340
1F
  0
XRECORD
  5
35F3
102
{ACAD_REACTORS
330
35F2
102
}
330
35F2
100
AcDbXrecord
340
101
  0
MLINESTYLE
  5
18
102
{ACAD_REACTORS
330
17
102
}
330
17
100
AcDbMlineStyle
  2
STANDARD
 70
     0
  3

 62
   256
 51
90.0
 52
90.0
 71
     2
 49
0.5
 62
   256
  6
BYLAYER
 49
-0.5
 62
   256
  6
BYLAYER
  0
ACDBPLACEHOLDER
  5
F
102
{ACAD_REACTORS
330
E
102
}
330
E
100
AcDbPlaceHolder
280
     0
  0
DICTIONARYVAR
  5
35
102
{ACAD_REACTORS
330
34
102
}
330
34
100
DictionaryVariables
280
     0
  1
1
  0
DICTIONARYVAR
  5
B5E
102
{ACAD_REACTORS
330
34
102
}
330
34
100
DictionaryVariables
280
     0
  1
96
  0
DICTIONARY
  5
260
102
{ACAD_REACTORS
330
43
102
}
330
43
100
AcDbDictionary
  0
DICTIONARY
  5
2C
102
{ACAD_REACTORS
330
2B
102
}
330
2B
100
AcDbDictionary
  3
DWGSETTINGS
350
2D
  0
XRECORD
  5
35CB
102
{ACAD_REACTORS
330
35CA
102
}
330
35CA
100
AcDbXrecord
 90
        1
  0
XRECORD
  5
35CC
102
{ACAD_REACTORS
330
35CA
102
}
330
35CA
100
AcDbXrecord
 90
       70
  0
XRECORD
  5
35CD
102
{ACAD_REACTORS
330
35CA
102
}
330
35CA
100
AcDbXrecord
  1

  0
XRECORD
  5
35CE
102
{ACAD_REACTORS
330
35CA
102
}
330
35CA
100
AcDbXrecord
  1
ASAMI.ctb
  0
XRECORD
  5
35CF
102
{ACAD_REACTORS
330
35CA
102
}
330
35CA
100
AcDbXrecord
340
1A
  0
XRECORD
  5
35D0
102
{ACAD_REACTORS
330
35CA
102
}
330
35CA
100
AcDbXrecord
340
19
  0
XRECORD
  5
35D1
102
{ACAD_REACTORS
330
35CA
102
}
330
35CA
100
AcDbXrecord
340
E
  0
XRECORD
  5
35D2
102
{ACAD_REACTORS
330
35CA
102
}
330
35CA
100
AcDbXrecord
 90
    10781
  0
XRECORD
  5
35D3
102
{ACAD_REACTORS
330
35CA
102
}
330
35CA
100
AcDbXrecord
 90
        4
  0
XRECORD
  5
35D4
102
{ACAD_REACTORS
330
35CA
102
}
330
35CA
100
AcDbXrecord
 90
        0
  0
XRECORD
  5
35D5
102
{ACAD_REACTORS
330
35CA
102
}
330
35CA
100
AcDbXrecord
  1
{AFB28963-8C59-40AE-9337-C84526B81ACE}
  0
XRECORD
  5
35D6
102
{ACAD_REACTORS
330
35CA
102
}
330
35CA
100
AcDbXrecord
  1
{345FCA31-D9B2-4090-8527-FCE816ED0DAB}
  0
XRECORD
  5
35D7
102
{ACAD_REACTORS
330
35CA
102
}
330
35CA
100
AcDbXrecord
 40
0.0
  0
XRECORD
  5
35D8
102
{ACAD_REACTORS
330
35CA
102
}
330
35CA
100
AcDbXrecord
1000
DSTYLE
1002
{
1070
    79
 70
     2
1070
   341
340
59
1070
   342
340
59
1070
   371
 70
    -1
1070
   372
 70
    -1
1002
}
  0
XRECORD
  5
35D9
102
{ACAD_REACTORS
330
35CA
102
}
330
35CA
100
AcDbXrecord
340
0
  0
XRECORD
  5
35DA
102
{ACAD_REACTORS
330
35CA
102
}
330
35CA
100
AcDbXrecord
 70
     0
  0
XRECORD
  5
35DB
102
{ACAD_REACTORS
330
35CA
102
}
330
35CA
100
AcDbXrecord
340
0
  0
XRECORD
  5
35DC
102
{ACAD_REACTORS
330
35CA
102
}
330
35CA
100
AcDbXrecord
 10
0.0
 20
0.0
 30
0.0
  0
XRECORD
  5
35DD
102
{ACAD_REACTORS
330
35CA
102
}
330
35CA
100
AcDbXrecord
 10
0.0
 20
0.0
 30
0.0
  0
XRECORD
  5
35DE
102
{ACAD_REACTORS
330
35CA
102
}
330
35CA
100
AcDbXrecord
 10
0.0
 20
0.0
 30
0.0
  0
XRECORD
  5
35DF
102
{ACAD_REACTORS
330
35CA
102
}
330
35CA
100
AcDbXrecord
 10
0.0
 20
0.0
 30
0.0
  0
XRECORD
  5
35E0
102
{ACAD_REACTORS
330
35CA
102
}
330
35CA
100
AcDbXrecord
 10
0.0
 20
0.0
 30
0.0
  0
XRECORD
  5
35E1
102
{ACAD_REACTORS
330
35CA
102
}
330
35CA
100
AcDbXrecord
 10
0.0
 20
0.0
 30
0.0
  0
XRECORD
  5
35E2
102
{ACAD_REACTORS
330
35CA
102
}
330
35CA
100
AcDbXrecord
340
0
  0
XRECORD
  5
35E3
102
{ACAD_REACTORS
330
35CA
102
}
330
35CA
100
AcDbXrecord
 70
     0
  0
XRECORD
  5
35E4
102
{ACAD_REACTORS
330
35CA
102
}
330
35CA
100
AcDbXrecord
340
0
  0
XRECORD
  5
35E5
102
{ACAD_REACTORS
330
35CA
102
}
330
35CA
100
AcDbXrecord
 10
0.0
 20
0.0
 30
0.0
  0
XRECORD
  5
35E6
102
{ACAD_REACTORS
330
35CA
102
}
330
35CA
100
AcDbXrecord
 10
0.0
 20
0.0
 30
0.0
  0
XRECORD
  5
35E7
102
{ACAD_REACTORS
330
35CA
102
}
330
35CA
100
AcDbXrecord
 10
0.0
 20
0.0
 30
0.0
  0
XRECORD
  5
35E8
102
{ACAD_REACTORS
330
35CA
102
}
330
35CA
100
AcDbXrecord
 10
0.0
 20
0.0
 30
0.0
  0
XRECORD
  5
35E9
102
{ACAD_REACTORS
330
35CA
102
}
330
35CA
100
AcDbXrecord
 10
0.0
 20
0.0
 30
0.0
  0
XRECORD
  5
35EA
102
{ACAD_REACTORS
330
35CA
102
}
330
35CA
100
AcDbXrecord
 10
0.0
 20
0.0
 30
0.0
  0
LAYER_INDEX
  5
35BE
102
{ACAD_REACTORS
330
35BD
102
}
330
35BD
100
AcDbIndex
 40
2453151.580723541
100
AcDbLayerIndex
  8
0
360
35BF
 90
        0
  8
AM_0
360
35C0
 90
       60
  8
PV0001_1
360
35C1
 90
        0
  8
AM_CL
360
35C2
 90
        0
  8
AM_7
360
35C3
 90
        3
  8
AM_11
360
35C4
 90
        0
  8
AM_5
360
35C5
 90
        7
  8
Defpoints
360
35C6
 90
        0
  8
AM_6
360
35C7
 90
        1
  8
AM_4
360
35C8
 90
        0
  0
XRECORD
  5
2D
102
{ACAD_REACTORS
330
2C
102
}
330
2C
100
AcDbXrecord
  1
VERSION
140
15.0
  1
PRODUCT
  2
AutoCAD Mechanical 2000
  0
IDBUFFER
  5
35BF
330
0
100
AcDbIdBuffer
  0
IDBUFFER
  5
35C0
330
0
100
AcDbIdBuffer
330
3237
330
3238
330
3239
330
323A
330
323B
330
323C
330
323D
330
323F
330
3240
330
3241
330
3242
330
3243
330
31FF
330
3200
330
3204
330
3205
330
3206
330
3207
330
3208
330
3209
330
320A
330
320C
330
320D
330
320E
330
320F
330
3210
330
3211
330
3212
330
3213
330
3214
330
3215
330
3216
330
3217
330
3218
330
3219
330
321A
330
321B
330
3220
330
3221
330
3222
330
3223
330
3224
330
3225
330
3226
330
3227
330
3228
330
3229
330
322A
330
322B
330
322C
330
322D
330
322E
330
322F
330
3230
330
3231
330
3232
330
3233
330
3234
330
3235
330
3236
  0
IDBUFFER
  5
35C1
330
0
100
AcDbIdBuffer
  0
IDBUFFER
  5
35C2
330
0
100
AcDbIdBuffer
  0
IDBUFFER
  5
35C3
330
0
100
AcDbIdBuffer
330
3201
330
321E
330
321F
  0
IDBUFFER
  5
35C4
330
0
100
AcDbIdBuffer
  0
IDBUFFER
  5
35C5
330
0
100
AcDbIdBuffer
330
31FC
330
31FD
330
31FE
330
3202
330
3203
330
320B
330
323E
  0
IDBUFFER
  5
35C6
330
0
100
AcDbIdBuffer
  0
IDBUFFER
  5
35C7
330
0
100
AcDbIdBuffer
330
19BD
  0
IDBUFFER
  5
35C8
330
0
100
AcDbIdBuffer
  0
ENDSEC
  0
EOF
