  0
SECTION
  2
HEADER
  9
$ACADVER
  1
AC1014
  9
$ACADMAINTVER
 70
     9
  9
$DWGCODEPAGE
  3
ANSI_932
  9
$INSBASE
 10
0.0
 20
0.0
 30
0.0
  9
$EXTMIN
 10
-116.4000014553626
 20
-25.75000860448054
 30
-0.00000001
  9
$EXTMAX
 10
16.34568481111605
 20
15.87466033093877
 30
0.00000001
  9
$LIMMIN
 10
-119.9359872720406
 20
-37.82076807591767
  9
$LIMMAX
 10
20.77596073031594
 20
27.25400443257498
  9
$ORTHOMODE
 70
     0
  9
$REGENMODE
 70
     1
  9
$FILLMODE
 70
     1
  9
$QTEXTMODE
 70
     0
  9
$MIRRTEXT
 70
     0
  9
$DRAGMODE
 70
     2
  9
$LTSCALE
 40
1.0
  9
$OSMODE
 70
    55
  9
$ATTMODE
 70
     1
  9
$TEXTSIZE
 40
2.5
  9
$TRACEWID
 40
1.0
  9
$TEXTSTYLE
  7
STANDARD
  9
$CLAYER
  8
AM_0
  9
$CELTYPE
  6
BYLAYER
  9
$CECOLOR
 62
   256
  9
$CELTSCALE
 40
1.0
  9
$DELOBJ
 70
     1
  9
$DISPSILH
 70
     0
  9
$DIMSCALE
 40
0.5
  9
$DIMASZ
 40
2.5
  9
$DIMEXO
 40
1.0
  9
$DIMDLI
 40
12.0
  9
$DIMRND
 40
0.0
  9
$DIMDLE
 40
0.0
  9
$DIMEXE
 40
1.0
  9
$DIMTP
 40
0.1
  9
$DIMTM
 40
0.1
  9
$DIMTXT
 40
3.2
  9
$DIMCEN
 40
0.0
  9
$DIMTSZ
 40
0.0
  9
$DIMTOL
 70
     0
  9
$DIMLIM
 70
     0
  9
$DIMTIH
 70
     0
  9
$DIMTOH
 70
     0
  9
$DIMSE1
 70
     0
  9
$DIMSE2
 70
     0
  9
$DIMTAD
 70
     3
  9
$DIMZIN
 70
     8
  9
$DIMBLK
  1
OPEN30
  9
$DIMASO
 70
     1
  9
$DIMSHO
 70
     1
  9
$DIMPOST
  1

  9
$DIMAPOST
  1
"
  9
$DIMALT
 70
     0
  9
$DIMALTD
 70
     2
  9
$DIMALTF
 40
0.0393701
  9
$DIMLFAC
 40
1.0
  9
$DIMTOFL
 70
     1
  9
$DIMTVP
 40
0.0
  9
$DIMTIX
 70
     0
  9
$DIMSOXD
 70
     0
  9
$DIMSAH
 70
     0
  9
$DIMBLK1
  1

  9
$DIMBLK2
  1

  9
$DIMSTYLE
  2
AM_JIS
  9
$DIMCLRD
 70
   256
  9
$DIMCLRE
 70
   256
  9
$DIMCLRT
 70
     2
  9
$DIMTFAC
 40
0.71
  9
$DIMGAP
 40
1.5
  9
$DIMJUST
 70
     0
  9
$DIMSD1
 70
     0
  9
$DIMSD2
 70
     0
  9
$DIMTOLJ
 70
     0
  9
$DIMTZIN
 70
     0
  9
$DIMALTZ
 70
     0
  9
$DIMALTTZ
 70
     0
  9
$DIMFIT
 70
     3
  9
$DIMUPT
 70
     0
  9
$DIMUNIT
 70
     2
  9
$DIMDEC
 70
     3
  9
$DIMTDEC
 70
     3
  9
$DIMALTU
 70
     2
  9
$DIMALTTD
 70
     2
  9
$DIMTXSTY
  7
ASAMI
  9
$DIMAUNIT
 70
     0
  9
$LUNITS
 70
     2
  9
$LUPREC
 70
     2
  9
$SKETCHINC
 40
1.0
  9
$FILLETRAD
 40
2.5
  9
$AUNITS
 70
     0
  9
$AUPREC
 70
     0
  9
$MENU
  1
.
  9
$ELEVATION
 40
0.0
  9
$PELEVATION
 40
0.0
  9
$THICKNESS
 40
0.0
  9
$LIMCHECK
 70
     0
  9
$BLIPMODE
 70
     0
  9
$CHAMFERA
 40
0.5
  9
$CHAMFERB
 40
0.5
  9
$CHAMFERC
 40
20.0
  9
$CHAMFERD
 40
0.0
  9
$SKPOLY
 70
     0
  9
$TDCREATE
 40
2452800.443498622
  9
$TDUPDATE
 40
2453151.721536805
  9
$TDINDWG
 40
0.1225575116
  9
$TDUSRTIMER
 40
0.1225575116
  9
$USRTIMER
 70
     1
  9
$ANGBASE
 50
0.0
  9
$ANGDIR
 70
     0
  9
$PDMODE
 70
     0
  9
$PDSIZE
 40
0.0
  9
$PLINEWID
 40
0.0
  9
$COORDS
 70
     1
  9
$SPLFRAME
 70
     0
  9
$SPLINETYPE
 70
     6
  9
$SPLINESEGS
 70
     8
  9
$ATTDIA
 70
     1
  9
$ATTREQ
 70
     1
  9
$HANDLING
 70
 12289
  9
$HANDSEED
  5
4B8C
  9
$SURFTAB1
 70
     6
  9
$SURFTAB2
 70
     6
  9
$SURFTYPE
 70
     6
  9
$SURFU
 70
     6
  9
$SURFV
 70
     6
  9
$UCSNAME
  2

  9
$UCSORG
 10
0.0
 20
0.0
 30
0.0
  9
$UCSXDIR
 10
1.0
 20
0.000000000000002
 30
0.0
  9
$UCSYDIR
 10
-0.000000000000002
 20
1.0
 30
0.0
  9
$PUCSNAME
  2

  9
$PUCSORG
 10
0.0
 20
0.0
 30
0.0
  9
$PUCSXDIR
 10
1.0
 20
0.0
 30
0.0
  9
$PUCSYDIR
 10
0.0
 20
1.0
 30
0.0
  9
$USERI1
 70
     0
  9
$USERI2
 70
     0
  9
$USERI3
 70
     0
  9
$USERI4
 70
     0
  9
$USERI5
 70
     0
  9
$USERR1
 40
0.0
  9
$USERR2
 40
0.0
  9
$USERR3
 40
0.0
  9
$USERR4
 40
0.0
  9
$USERR5
 40
0.0
  9
$WORLDVIEW
 70
     1
  9
$SHADEDGE
 70
     3
  9
$SHADEDIF
 70
    70
  9
$TILEMODE
 70
     1
  9
$MAXACTVP
 70
    64
  9
$PINSBASE
 10
0.0
 20
0.0
 30
0.0
  9
$PLIMCHECK
 70
     0
  9
$PEXTMIN
 10
1.000000000000000E+20
 20
1.000000000000000E+20
 30
1.000000000000000E+20
  9
$PEXTMAX
 10
-1.000000000000000E+20
 20
-1.000000000000000E+20
 30
-1.000000000000000E+20
  9
$PLIMMIN
 10
0.0
 20
0.0
  9
$PLIMMAX
 10
841.0
 20
594.0
  9
$UNITMODE
 70
     0
  9
$VISRETAIN
 70
     1
  9
$PLINEGEN
 70
     0
  9
$PSLTSCALE
 70
     0
  9
$TREEDEPTH
 70
  3020
  9
$PICKSTYLE
 70
     0
  9
$CMLSTYLE
  2
STANDARD
  9
$CMLJUST
 70
     0
  9
$CMLSCALE
 40
20.0
  9
$PROXYGRAPHICS
 70
     1
  9
$MEASUREMENT
 70
     1
  0
ENDSEC
  0
SECTION
  2
CLASSES
  0
CLASS
  1
ACDBDICTIONARYWDFLT
  2
AcDbDictionaryWithDefault
  3
AutoCAD 2000
 90
        0
280
     0
281
     0
  0
CLASS
  1
ACDBPLACEHOLDER
  2
AcDbPlaceHolder
  3
AutoCAD 2000
 90
        0
280
     0
281
     0
  0
CLASS
  1
LAYOUT
  2
AcDbLayout
  3
AutoCAD 2000
 90
        0
280
     0
281
     0
  0
CLASS
  1
AMGSETTINGSOBJ
  2
AmgSettingsObj
  3
"AcadM|Product Description: AutoCAD Mechanical 2000|Company: Autodesk"
 90
        0
280
     0
281
     0
  0
CLASS
  1
ACME_DOCUMENT
  2
AcMeDbDoc
  3
AcMeServices
 90
        0
280
     0
281
     0
  0
CLASS
  1
ACMESCOPE
  2
AcMeScope
  3
AcMeServices
 90
        0
280
     0
281
     0
  0
CLASS
  1
ACMECOMMANDHISTORY
  2
AcMeCommandHistory
  3
AcMeServices
 90
        0
280
     0
281
     0
  0
CLASS
  1
DICTIONARYVAR
  2
AcDbDictionaryVar
  3
AutoCAD 2000
 90
        0
280
     0
281
     0
  0
CLASS
  1
ACIMSYSVARMAN
  2
AcImSysVarManager
  3
AcMeServices
 90
        0
280
     0
281
     0
  0
CLASS
  1
ACIMREALSYSVAR
  2
AcImRealSysVar
  3
AcMeServices
 90
        0
280
     0
281
     0
  0
CLASS
  1
ACIMINTSYSVAR
  2
AcImIntSysVar
  3
AcMeServices
 90
        0
280
     0
281
     0
  0
CLASS
  1
ACMEDRAWINGMAN
  2
AcMeDrawingMan
  3
AcMeServices
 90
        0
280
     0
281
     0
  0
CLASS
  1
ACMEVIEW
  2
AcMeView
  3
AcMeServices
 90
        0
280
     0
281
     0
  0
CLASS
  1
ACDBENTITYCACHE
  2
AcMeEntityCache
  3
AcMeServices
 90
        0
280
     0
281
     0
  0
CLASS
  1
GSMANAGER
  2
AcMeGSManager
  3
AcMeServices
 90
        0
280
     0
281
     0
  0
CLASS
  1
AmdtInternalReactor
  2
AmdtInternalReactor
  3
AcMeServices
 90
        0
280
     0
281
     0
  0
CLASS
  1
ACMESTATEMGR
  2
AcMeStateMgr
  3
AcMeServices
 90
        0
280
     0
281
     0
  0
CLASS
  1
ACME_DATABASE
  2
AcMeDbDatabase
  3
AcMeServices
 90
        0
280
     0
281
     0
  0
CLASS
  1
ACRFINSADJUSTERMGR
  2
AcRfInsAdjusterMgr
  3
AcMeServices
 90
        0
280
     0
281
     0
  0
CLASS
  1
ACMDATADICTIONARY
  2
AcmDataDictionary
  3
"AcmSymBB|Product Description: AutoCAD Mechanical 2000|Company: Autodesk"
 90
        0
280
     0
281
     0
  0
CLASS
  1
ACMDATAENTRYBLOCK
  2
AcmDataEntryBlock
  3
"AcmSymBB|Product Description: AutoCAD Mechanical 2000|Company: Autodesk"
 90
        0
280
     0
281
     0
  0
CLASS
  1
AMGOBJPROPCFG
  2
AmgObjPropCfg
  3
"AmgLay|Product Description: AutoCAD Mechanical 2000|Company: Autodesk"
 90
        1
280
     0
281
     0
  0
CLASS
  1
ACAMGFILTERDAT
  2
AcAmgFilterDat
  3
"AcadM|Product Description: AutoCAD Mechanical 2000|Company: Autodesk"
 90
        0
280
     0
281
     0
  0
CLASS
  1
LAYER_INDEX
  2
AcDbLayerIndex
  3
AutoCAD 2000
 90
        0
280
     0
281
     0
  0
CLASS
  1
IDBUFFER
  2
AcDbIdBuffer
  3
AutoCAD 2000
 90
        0
280
     0
281
     0
  0
CLASS
  1
ACIMSTRSYSVAR
  2
AcImStrSysVar
  3
AcMeServices
 90
        0
280
     0
281
     0
  0
CLASS
  1
ACMSTANDARDJIS
  2
AcmStandardJIS
  3
"AcmSymBB|Product Description: AutoCAD Mechanical 2000|Company: Autodesk"
 90
        0
280
     0
281
     0
  0
CLASS
  1
ACMSURFSTANDARDJIS
  2
AcmSurfTextStdJIS
  3
"AcmSymBB|Product Description: AutoCAD Mechanical 2000|Company: Autodesk"
 90
        0
280
     0
281
     0
  0
CLASS
  1
ACMFCFSTANDARDJIS
  2
AcmFCFStdJIS
  3
"AcmSymBB|Product Description: AutoCAD Mechanical 2000|Company: Autodesk"
 90
        0
280
     0
281
     0
  0
CLASS
  1
ACMWELDSTANDARDJIS
  2
AcmWeldingStdJIS
  3
"AcmSymBB|Product Description: AutoCAD Mechanical 2000|Company: Autodesk"
 90
        0
280
     0
281
     0
  0
CLASS
  1
ACMIDSTANDARDJIS
  2
AcmIdStdJIS
  3
"AcmSymBB|Product Description: AutoCAD Mechanical 2000|Company: Autodesk"
 90
        0
280
     0
281
     0
  0
CLASS
  1
ACMDATUMSTANDARDJIS
  2
AcmDatumStdJIS
  3
"AcmSymBB|Product Description: AutoCAD Mechanical 2000|Company: Autodesk"
 90
        0
280
     0
281
     0
  0
CLASS
  1
ACMBOMSTANDARDJIS
  2
AcmBOMStdJIS
  3
"AcmSymBB|Product Description: AutoCAD Mechanical 2000|Company: Autodesk"
 90
        0
280
     0
281
     0
  0
CLASS
  1
ACMSTANDARDANSI
  2
AcmStandardANSI
  3
"AcmSymBB|Product Description: AutoCAD Mechanical 2000|Company: Autodesk"
 90
        0
280
     0
281
     0
  0
CLASS
  1
ACMSURFSTANDARDANSI
  2
AcmSurfTextStdANSI
  3
"AcmSymBB|Product Description: AutoCAD Mechanical 2000|Company: Autodesk"
 90
        0
280
     0
281
     0
  0
CLASS
  1
ACMFCFSTANDARDANSI
  2
AcmFCFStdANSI
  3
"AcmSymBB|Product Description: AutoCAD Mechanical 2000|Company: Autodesk"
 90
        0
280
     0
281
     0
  0
CLASS
  1
ACMWELDSTANDARDANSI
  2
AcmWeldingStdANSI
  3
"AcmSymBB|Product Description: AutoCAD Mechanical 2000|Company: Autodesk"
 90
        0
280
     0
281
     0
  0
CLASS
  1
ACMIDSTANDARDANSI
  2
AcmIdStdANSI
  3
"AcmSymBB|Product Description: AutoCAD Mechanical 2000|Company: Autodesk"
 90
        0
280
     0
281
     0
  0
CLASS
  1
ACMDATUMSTANDARDANSI
  2
AcmDatumStdANSI
  3
"AcmSymBB|Product Description: AutoCAD Mechanical 2000|Company: Autodesk"
 90
        0
280
     0
281
     0
  0
CLASS
  1
ACMBOMSTANDARDANSI
  2
AcmBOMStdANSI
  3
"AcmSymBB|Product Description: AutoCAD Mechanical 2000|Company: Autodesk"
 90
        0
280
     0
281
     0
  0
CLASS
  1
ACMSTANDARDBSI
  2
AcmStandardBSI
  3
"AcmSymBB|Product Description: AutoCAD Mechanical 2000|Company: Autodesk"
 90
        0
280
     0
281
     0
  0
CLASS
  1
ACMSURFSTANDARDBSI
  2
AcmSurfTextStdBSI
  3
"AcmSymBB|Product Description: AutoCAD Mechanical 2000|Company: Autodesk"
 90
        0
280
     0
281
     0
  0
CLASS
  1
ACMFCFSTANDARDBSI
  2
AcmFCFStdBSI
  3
"AcmSymBB|Product Description: AutoCAD Mechanical 2000|Company: Autodesk"
 90
        0
280
     0
281
     0
  0
CLASS
  1
ACMWELDSTANDARDBSI
  2
AcmWeldingStdBSI
  3
"AcmSymBB|Product Description: AutoCAD Mechanical 2000|Company: Autodesk"
 90
        0
280
     0
281
     0
  0
CLASS
  1
ACMIDSTANDARDBSI
  2
AcmIdStdBSI
  3
"AcmSymBB|Product Description: AutoCAD Mechanical 2000|Company: Autodesk"
 90
        0
280
     0
281
     0
  0
CLASS
  1
ACMDATUMSTANDARDBSI
  2
AcmDatumStdBSI
  3
"AcmSymBB|Product Description: AutoCAD Mechanical 2000|Company: Autodesk"
 90
        0
280
     0
281
     0
  0
CLASS
  1
ACMBOMSTANDARDBSI
  2
AcmBOMStdBSI
  3
"AcmSymBB|Product Description: AutoCAD Mechanical 2000|Company: Autodesk"
 90
        0
280
     0
281
     0
  0
CLASS
  1
LONG_TRANSACTION
  2
AcDbLongTransaction
  3
AutoCAD 2000
 90
        0
280
     0
281
     0
  0
CLASS
  1
LWPOLYLINE
  2
AcDbPolyline
  3
AutoCAD 2000
 90
        0
280
     0
281
     1
  0
CLASS
  1
HATCH
  2
AcDbHatch
  3
AutoCAD 2000
 90
        0
280
     0
281
     1
  0
CLASS
  1
XRECORD
  2
AcDbXrecord
  3
AutoCAD 2000
 90
        0
280
     0
281
     0
  0
ENDSEC
  0
SECTION
  2
TABLES
  0
TABLE
  2
VPORT
  5
8
330
0
100
AcDbSymbolTable
 70
     3
  0
VPORT
  5
4B61
330
8
100
AcDbSymbolTableRecord
100
AcDbViewportTableRecord
  2
*ACTIVE
 70
     0
 10
0.0
 20
0.0
 11
1.0
 21
1.0
 12
-43.43190745653768
 22
-8.231491768253967
 13
0.0
 23
0.0
 14
2.5
 24
2.5
 15
10.0
 25
10.0
 16
0.0
 26
0.0
 36
1.0
 17
0.0
 27
0.0
 37
0.0
 40
105.6986999548154
 41
1.56570841889117
 42
50.0
 43
0.0
 44
0.0
 50
0.0
 51
0.0
 71
     0
 72
   100
 73
     1
 74
     1
 75
     0
 76
     0
 77
     0
 78
     0
  0
ENDTAB
  0
TABLE
  2
LTYPE
  5
5
330
0
100
AcDbSymbolTable
 70
    10
  0
LTYPE
  5
14
330
5
100
AcDbSymbolTableRecord
100
AcDbLinetypeTableRecord
  2
BYBLOCK
 70
     0
  3

 72
    65
 73
     0
 40
0.0
  0
LTYPE
  5
15
330
5
100
AcDbSymbolTableRecord
100
AcDbLinetypeTableRecord
  2
BYLAYER
 70
     0
  3

 72
    65
 73
     0
 40
0.0
  0
LTYPE
  5
16
330
5
100
AcDbSymbolTableRecord
100
AcDbLinetypeTableRecord
  2
CONTINUOUS
 70
     0
  3
Solid line
 72
    65
 73
     0
 40
0.0
  0
LTYPE
  5
4B
330
5
100
AcDbSymbolTableRecord
100
AcDbLinetypeTableRecord
  2
AM_ISO02W050
 70
     0
  3
__ __ __ __ __ __ __ __ __ __ __ __ __ __ __
 72
    65
 73
     2
 40
7.5
 49
6.0
 74
     0
 49
-1.5
 74
     0
  0
LTYPE
  5
4C
330
5
100
AcDbSymbolTableRecord
100
AcDbLinetypeTableRecord
  2
AM_ISO08W050
 70
     0
  3
____ . ____ . ____ . ____ . ____ . ____ . ____
 72
    65
 73
     4
 40
18.0
 49
12.0
 74
     0
 49
-1.5
 74
     0
 49
3.0
 74
     0
 49
-1.5
 74
     0
  0
LTYPE
  5
4D
330
5
100
AcDbSymbolTableRecord
100
AcDbLinetypeTableRecord
  2
AM_ISO09W050
 70
     0
  3
_____ . . _____ . . _____ . . ____ .. ____
 72
    65
 73
     6
 40
22.5
 49
12.0
 74
     0
 49
-1.5
 74
     0
 49
3.0
 74
     0
 49
-1.5
 74
     0
 49
3.0
 74
     0
 49
-1.5
 74
     0
  0
LTYPE
  5
4E
330
5
100
AcDbSymbolTableRecord
100
AcDbLinetypeTableRecord
  2
AMCONSTR
 70
     0
  3
_______________________
 72
    65
 73
     2
 40
9999.0
 49
9999.0
 74
     0
 49
0.0
 74
     0
  0
LTYPE
  5
4F
330
5
100
AcDbSymbolTableRecord
100
AcDbLinetypeTableRecord
  2
AM_ISO02W050X2
 70
     0
  3
 _ _ _ _ _ _ _ _ _ _ _ _
 72
    65
 73
     2
 40
3.75
 49
3.0
 74
     0
 49
-0.75
 74
     0
  0
LTYPE
  5
50
330
5
100
AcDbSymbolTableRecord
100
AcDbLinetypeTableRecord
  2
AM_ISO08W050X2
 70
     0
  3
__ . __ . __ . __ . __ . __
 72
    65
 73
     4
 40
9.0
 49
6.0
 74
     0
 49
-0.75
 74
     0
 49
1.5
 74
     0
 49
-0.75
 74
     0
  0
LTYPE
  5
53
330
5
100
AcDbSymbolTableRecord
100
AcDbLinetypeTableRecord
  2
AMZIGZAG
 70
     0
  3
/\/-/\/-/\/-/\/-/\/-/\/
 72
    65
 73
     2
 40
11.00009999999999
 49
0.0001
 74
     4
 75
   135
340
52
 46
0.04
 50
0.0
 44
0.0
 45
0.0
 49
-11.0
 74
     0
  0
LTYPE
  5
166
330
5
100
AcDbSymbolTableRecord
100
AcDbLinetypeTableRecord
  2
ACJISTGL
 70
     0
  3
_ _ _ _ _
 72
    65
 73
     2
 40
3.0
 49
2.0
 74
     0
 49
-1.0
 74
     0
  0
LTYPE
  5
26A
330
5
100
AcDbSymbolTableRecord
100
AcDbLinetypeTableRecord
  2
ACJISTGB
 70
     0
  3
__ . . __ . .
 72
    65
 73
     6
 40
9.0
 49
4.0
 74
     0
 49
-1.0
 74
     0
 49
1.0
 74
     0
 49
-1.0
 74
     0
 49
1.0
 74
     0
 49
-1.0
 74
     0
  0
ENDTAB
  0
TABLE
  2
LAYER
  5
2
330
0
100
AcDbSymbolTable
 70
     7
  0
LAYER
  5
10
330
2
100
AcDbSymbolTableRecord
100
AcDbLayerTableRecord
  2
0
 70
     0
 62
     7
  6
CONTINUOUS
  0
LAYER
  5
3F9
330
2
100
AcDbSymbolTableRecord
100
AcDbLayerTableRecord
  2
AM_0
 70
     0
 62
     7
  6
CONTINUOUS
  0
LAYER
  5
C7C
330
2
100
AcDbSymbolTableRecord
100
AcDbLayerTableRecord
  2
AM_7
 70
     0
 62
     4
  6
AM_ISO08W050
  0
LAYER
  5
C97
330
2
100
AcDbSymbolTableRecord
100
AcDbLayerTableRecord
  2
AM_11
 70
     0
 62
     3
  6
AM_ISO09W050
  0
LAYER
  5
CC5
330
2
100
AcDbSymbolTableRecord
100
AcDbLayerTableRecord
  2
AM_5
 70
     0
 62
     3
  6
CONTINUOUS
  0
LAYER
  5
CC7
330
2
100
AcDbSymbolTableRecord
100
AcDbLayerTableRecord
  2
DEFPOINTS
 70
     0
 62
     7
  6
CONTINUOUS
  0
LAYER
  5
19BC
330
2
100
AcDbSymbolTableRecord
100
AcDbLayerTableRecord
  2
AM_6
 70
     0
 62
     2
  6
CONTINUOUS
  0
ENDTAB
  0
TABLE
  2
STYLE
  5
3
330
0
100
AcDbSymbolTable
 70
     5
  0
STYLE
  5
11
330
3
100
AcDbSymbolTableRecord
100
AcDbTextStyleTableRecord
  2
STANDARD
 70
     0
 40
0.0
 41
1.0
 50
0.0
 71
     0
 42
2.5
  3
simplex.shx
  4
EXTFONT.SHX
  0
STYLE
  5
52
330
3
100
AcDbSymbolTableRecord
100
AcDbTextStyleTableRecord
  2

 70
     1
 40
0.0
 41
1.0
 50
0.0
 71
     0
 42
2.5
  3
ltypeshp.shx
  4

  0
STYLE
  5
6B
330
3
100
AcDbSymbolTableRecord
100
AcDbTextStyleTableRecord
  2
ASAMI
 70
     0
 40
0.0
 41
1.0
 50
0.0
 71
     0
 42
2.5
  3
simplex.shx
  4
EXTFONT.SHX
  0
STYLE
  5
262
330
3
100
AcDbSymbolTableRecord
100
AcDbTextStyleTableRecord
  2
ACJISTS
 70
     0
 40
1.0
 41
1.0
 50
0.0
 71
     0
 42
2.5
  3
simplex.shx
  4
bigfont.shx
  0
STYLE
  5
269
330
3
100
AcDbSymbolTableRecord
100
AcDbTextStyleTableRecord
  2
ACJISGDT
 70
     0
 40
0.0
 41
1.0
 50
0.0
 71
     0
 42
2.5
  3
amgdtans.shx
  4

  0
ENDTAB
  0
TABLE
  2
VIEW
  5
6
330
0
100
AcDbSymbolTable
 70
     0
  0
ENDTAB
  0
TABLE
  2
UCS
  5
7
330
0
100
AcDbSymbolTable
 70
     0
  0
ENDTAB
  0
TABLE
  2
APPID
  5
9
330
0
100
AcDbSymbolTable
 70
    18
  0
APPID
  5
12
330
9
100
AcDbSymbolTableRecord
100
AcDbRegAppTableRecord
  2
ACAD
 70
     0
  0
APPID
  5
30
330
9
100
AcDbSymbolTableRecord
100
AcDbRegAppTableRecord
  2
MCAD_NO_VIS
 70
     0
  0
APPID
  5
31
330
9
100
AcDbSymbolTableRecord
100
AcDbRegAppTableRecord
  2
ACAD_TEMP_GRAPHIC
 70
     0
  0
APPID
  5
2C2
330
9
100
AcDbSymbolTableRecord
100
AcDbRegAppTableRecord
  2
GENIUS_GENDTOL_13
 70
     0
  0
APPID
  5
339
330
9
100
AcDbSymbolTableRecord
100
AcDbRegAppTableRecord
  2
GENIUS_GENODEF_13
 70
     0
  0
APPID
  5
33A
330
9
100
AcDbSymbolTableRecord
100
AcDbRegAppTableRecord
  2
GENIUS_GENOBJ-N-RSBK_13
 70
     0
  0
APPID
  5
33B
330
9
100
AcDbSymbolTableRecord
100
AcDbRegAppTableRecord
  2
GENIUS_GENOBJ-N-LIB_13
 70
     0
  0
APPID
  5
33C
330
9
100
AcDbSymbolTableRecord
100
AcDbRegAppTableRecord
  2
GENIUS_GENSCALE_13
 70
     0
  0
APPID
  5
378
330
9
100
AcDbSymbolTableRecord
100
AcDbRegAppTableRecord
  2
GENIUS_GENDIMSH_14
 70
     0
  0
APPID
  5
C82
330
9
100
AcDbSymbolTableRecord
100
AcDbRegAppTableRecord
  2
GENIUS_GENOBJ-N-CRS_13
 70
     0
  0
APPID
  5
C83
330
9
100
AcDbSymbolTableRecord
100
AcDbRegAppTableRecord
  2
GENIUS_GENOENT_13
 70
     0
  0
APPID
  5
C84
330
9
100
AcDbSymbolTableRecord
100
AcDbRegAppTableRecord
  2
GENIUS_GENOREF_13
 70
     0
  0
APPID
  5
C85
330
9
100
AcDbSymbolTableRecord
100
AcDbRegAppTableRecord
  2
GENIUS_GENOLIS_13
 70
     0
  0
APPID
  5
CA0
330
9
100
AcDbSymbolTableRecord
100
AcDbRegAppTableRecord
  2
GENIUS_GENOBJ-N-CEN_13
 70
     0
  0
APPID
  5
1B5D
330
9
100
AcDbSymbolTableRecord
100
AcDbRegAppTableRecord
  2
GENIUS_GENFIL_13
 70
     0
  0
APPID
  5
1B5E
330
9
100
AcDbSymbolTableRecord
100
AcDbRegAppTableRecord
  2
GENIUS_GENOBJ-N-CHA_13
 70
     0
  0
APPID
  5
1FBC
330
9
100
AcDbSymbolTableRecord
100
AcDbRegAppTableRecord
  2
GENIUS_GENREC_14
 70
     0
  0
APPID
  5
1FBD
330
9
100
AcDbSymbolTableRecord
100
AcDbRegAppTableRecord
  2
GENIUS_GENOBJ-N-REC_13
 70
     0
  0
ENDTAB
  0
TABLE
  2
DIMSTYLE
  5
A
330
0
100
AcDbSymbolTable
 70
     9
  0
DIMSTYLE
105
58
330
A
100
AcDbSymbolTableRecord
100
AcDbDimStyleTableRecord
  2
AM_JIS
 70
     0
  3

  4
"
  5
OPEN30
  6

  7

 40
0.5
 41
2.5
 42
1.0
 43
12.0
 44
1.0
 45
0.0
 46
0.0
 47
0.1
 48
0.1
140
3.2
141
0.0
142
0.0
143
0.0393701
144
1.0
145
0.0
146
0.71
147
1.5
 71
     0
 72
     0
 73
     0
 74
     0
 75
     0
 76
     0
 77
     3
 78
     8
170
     0
171
     2
172
     1
173
     0
174
     0
175
     0
176
   256
177
   256
178
     2
270
     2
271
     3
272
     3
273
     2
274
     2
340
6B
275
     0
280
     0
281
     0
282
     0
283
     0
284
     0
285
     0
286
     0
287
     3
288
     0
  0
DIMSTYLE
105
5F
330
A
100
AcDbSymbolTableRecord
100
AcDbDimStyleTableRecord
  2
AM_JIS$3
 70
     0
  3

  4
"
  5
OPEN30
  6

  7

 40
0.5
 41
2.5
 42
1.0
 43
10.0
 44
1.0
 45
0.0
 46
0.0
 47
0.1
 48
0.1
140
3.2
141
0.0
142
0.0
143
0.0393701
144
1.0
145
0.0
146
0.71
147
1.5
 71
     0
 72
     0
 73
     0
 74
     1
 75
     0
 76
     0
 77
     3
 78
     8
170
     0
171
     2
172
     0
173
     0
174
     0
175
     0
176
   256
177
   256
178
     2
270
     2
271
     2
272
     3
273
     2
274
     2
340
6B
275
     0
280
     0
281
     0
282
     0
283
     0
284
     0
285
     0
286
     0
287
     0
288
     1
  0
DIMSTYLE
105
60
330
A
100
AcDbSymbolTableRecord
100
AcDbDimStyleTableRecord
  2
AM_JIS$4
 70
     0
  3

  4
"
  5
OPEN30
  6

  7

 40
0.5
 41
2.5
 42
1.0
 43
10.0
 44
1.0
 45
0.0
 46
0.0
 47
0.1
 48
0.1
140
3.2
141
0.0
142
0.0
143
0.0393701
144
1.0
145
0.0
146
0.71
147
1.5
 71
     0
 72
     0
 73
     0
 74
     1
 75
     0
 76
     0
 77
     3
 78
     8
170
     0
171
     2
172
     0
173
     0
174
     0
175
     0
176
   256
177
   256
178
     2
270
     2
271
     2
272
     3
273
     2
274
     2
340
6B
275
     0
280
     0
281
     0
282
     0
283
     0
284
     0
285
     0
286
     0
287
     0
288
     1
  0
DIMSTYLE
105
61
330
A
100
AcDbSymbolTableRecord
100
AcDbDimStyleTableRecord
  2
AM_JIS$6
 70
     0
  3

  4
"
  5
OPEN30
  6

  7

 40
0.5
 41
2.5
 42
1.0
 43
10.0
 44
1.0
 45
0.0
 46
0.0
 47
0.1
 48
0.1
140
3.2
141
0.0
142
0.0
143
0.0393701
144
1.0
145
0.0
146
0.71
147
1.5
 71
     0
 72
     0
 73
     0
 74
     0
 75
     0
 76
     0
 77
     0
 78
     8
170
     0
171
     2
172
     1
173
     0
174
     0
175
     0
176
   256
177
   256
178
     2
270
     2
271
     2
272
     2
273
     2
274
     2
340
6B
275
     0
280
     0
281
     0
282
     0
283
     0
284
     0
285
     0
286
     0
287
     3
288
     0
  0
DIMSTYLE
105
62
330
A
100
AcDbSymbolTableRecord
100
AcDbDimStyleTableRecord
  2
AM_JIS$7
 70
     0
  3

  4
"
  5
OPEN30
  6

  7

 40
0.5
 41
2.5
 42
1.0
 43
10.0
 44
1.0
 45
0.0
 46
0.0
 47
0.1
 48
0.1
140
3.2
141
0.0
142
0.0
143
0.0393701
144
1.0
145
0.0
146
0.71
147
1.5
 71
     0
 72
     0
 73
     0
 74
     0
 75
     0
 76
     0
 77
     3
 78
     8
170
     0
171
     2
172
     1
173
     0
174
     0
175
     0
176
   256
177
   256
178
     2
270
     2
271
     2
272
     3
273
     2
274
     2
340
6B
275
     0
280
     0
281
     0
282
     0
283
     0
284
     0
285
     0
286
     0
287
     3
288
     0
  0
DIMSTYLE
105
63
330
A
100
AcDbSymbolTableRecord
100
AcDbDimStyleTableRecord
  2
AM_JIS$SF
 70
     0
  3

  4
"
  5
OPEN30
  6

  7

 40
0.5
 41
2.5
 42
1.0
 43
10.0
 44
1.0
 45
0.0
 46
0.0
 47
0.1
 48
0.1
140
3.2
141
0.0
142
0.0
143
0.0393701
144
1.0
145
0.0
146
0.71
147
1.5
 71
     0
 72
     0
 73
     0
 74
     0
 75
     1
 76
     1
 77
     3
 78
     8
170
     0
171
     2
172
     1
173
     0
174
     0
175
     0
176
   256
177
   256
178
     2
270
     2
271
     2
272
     2
273
     2
274
     2
340
6B
275
     0
280
     0
281
     0
282
     0
283
     0
284
     0
285
     0
286
     0
287
     3
288
     0
  0
DIMSTYLE
105
68
330
A
100
AcDbSymbolTableRecord
100
AcDbDimStyleTableRecord
  2
AM_JIS$SH
 70
     0
  3

  4
"
  5

  6
GENAXEH
  7
OPEN30
 40
0.5
 41
2.5
 42
1.0
 43
10.0
 44
1.0
 45
0.0
 46
0.0
 47
0.1
 48
0.1
140
3.2
141
0.0
142
0.0
143
0.0393701
144
2.0
145
0.0
146
0.71
147
1.5
 71
     0
 72
     0
 73
     0
 74
     0
 75
     1
 76
     1
 77
     3
 78
     8
170
     0
171
     2
172
     1
173
     1
174
     0
175
     0
176
   256
177
   256
178
     2
270
     2
271
     2
272
     2
273
     2
274
     2
340
6B
275
     0
280
     0
281
     0
282
     0
283
     0
284
     0
285
     0
286
     0
287
     3
288
     0
  0
DIMSTYLE
105
B34
102
{ACAD_REACTORS
330
48D2
102
}
330
A
100
AcDbSymbolTableRecord
100
AcDbDimStyleTableRecord
  2
AM_JIS$2
 70
     0
  3

  4
"
  5
OPEN30
  6

  7

 40
0.5
 41
2.5
 42
1.0
 43
12.0
 44
1.0
 45
0.0
 46
0.0
 47
0.1
 48
0.1
140
3.2
141
0.0
142
0.0
143
0.0393701
144
1.0
145
0.0
146
0.71
147
1.5
 71
     0
 72
     0
 73
     0
 74
     0
 75
     0
 76
     0
 77
     3
 78
     8
170
     0
171
     2
172
     1
173
     0
174
     0
175
     0
176
   256
177
   256
178
     2
270
     2
271
     3
272
     3
273
     2
274
     2
340
6B
275
     0
280
     0
281
     0
282
     0
283
     0
284
     0
285
     0
286
     0
287
     3
288
     0
  0
DIMSTYLE
105
BA5
102
{ACAD_REACTORS
330
CC6
330
DF5
330
4527
330
46D1
102
}
330
A
100
AcDbSymbolTableRecord
100
AcDbDimStyleTableRecord
  2
AM_JIS$0
 70
     0
  3

  4
"
  5
OPEN30
  6

  7

 40
0.5
 41
2.5
 42
0.0
 43
10.0
 44
1.0
 45
0.0
 46
0.0
 47
0.1
 48
0.1000000001
140
3.799999999999999
141
0.0
142
0.0
143
0.0393701
144
1.0
145
0.0
146
0.71
147
1.5
 71
     0
 72
     0
 73
     0
 74
     0
 75
     0
 76
     0
 77
     3
 78
     1
170
     0
171
     2
172
     1
173
     0
174
     0
175
     0
176
     3
177
     3
178
     2
270
     2
271
     2
272
     2
273
     2
274
     2
340
11
275
     1
280
     0
281
     0
282
     0
283
     0
284
     8
285
     0
286
     0
287
     0
288
     0
  0
ENDTAB
  0
TABLE
  2
BLOCK_RECORD
  5
1
330
0
100
AcDbSymbolTable
 70
    10
  0
BLOCK_RECORD
  5
1F
102
{ACAD_XDICTIONARY
360
74
102
}
330
1
100
AcDbSymbolTableRecord
100
AcDbBlockTableRecord
  2
*MODEL_SPACE
  0
BLOCK_RECORD
  5
101
102
{ACAD_XDICTIONARY
360
4B8A
102
}
330
1
100
AcDbSymbolTableRecord
100
AcDbBlockTableRecord
  2
*PAPER_SPACE
  0
BLOCK_RECORD
  5
59
330
1
100
AcDbSymbolTableRecord
100
AcDbBlockTableRecord
  2
_OPEN30
  0
BLOCK_RECORD
  5
64
330
1
100
AcDbSymbolTableRecord
100
AcDbBlockTableRecord
  2
GENAXEH
  0
BLOCK_RECORD
  5
CC8
330
1
100
AcDbSymbolTableRecord
100
AcDbBlockTableRecord
  2
*D5
  0
BLOCK_RECORD
  5
DF6
330
1
100
AcDbSymbolTableRecord
100
AcDbBlockTableRecord
  2
*D6
  0
BLOCK_RECORD
  5
4528
330
1
100
AcDbSymbolTableRecord
100
AcDbBlockTableRecord
  2
*D7
  0
BLOCK_RECORD
  5
46D2
330
1
100
AcDbSymbolTableRecord
100
AcDbBlockTableRecord
  2
*D8
  0
BLOCK_RECORD
  5
48D3
330
1
100
AcDbSymbolTableRecord
100
AcDbBlockTableRecord
  2
*D9
  0
ENDTAB
  0
ENDSEC
  0
SECTION
  2
BLOCKS
  0
BLOCK
  5
20
330
1F
100
AcDbEntity
  8
0
100
AcDbBlockBegin
  2
*MODEL_SPACE
 70
     0
 10
0.0
 20
0.0
 30
0.0
  3
*MODEL_SPACE
  1

  0
ENDBLK
  5
21
330
1F
100
AcDbEntity
  8
0
100
AcDbBlockEnd
  0
BLOCK
  5
103
330
101
100
AcDbEntity
 67
     1
  8
0
100
AcDbBlockBegin
  2
*PAPER_SPACE
 70
     0
 10
0.0
 20
0.0
 30
0.0
  3
*PAPER_SPACE
  1

  0
ENDBLK
  5
104
330
101
100
AcDbEntity
 67
     1
  8
0
100
AcDbBlockEnd
  0
BLOCK
  5
5D
330
59
100
AcDbEntity
  8
0
100
AcDbBlockBegin
  2
_OPEN30
 70
     0
 10
0.0
 20
0.0
 30
0.0
  3
_OPEN30
  1

  0
LINE
  5
5A
330
59
100
AcDbEntity
  8
0
 62
     0
100
AcDbLine
 10
-1.0
 20
0.26794919
 30
0.0
 11
0.0
 21
0.0
 31
0.0
  0
LINE
  5
5B
330
59
100
AcDbEntity
  8
0
 62
     0
100
AcDbLine
 10
0.0
 20
0.0
 30
0.0
 11
-1.0
 21
-0.26794919
 31
0.0
  0
LINE
  5
5C
330
59
100
AcDbEntity
  8
0
 62
     0
100
AcDbLine
 10
0.0
 20
0.0
 30
0.0
 11
-1.0
 21
0.0
 31
0.0
  0
ENDBLK
  5
5E
330
59
100
AcDbEntity
  8
0
100
AcDbBlockEnd
  0
BLOCK
  5
66
330
64
100
AcDbEntity
  8
0
100
AcDbBlockBegin
  2
GENAXEH
 70
     0
 10
0.0
 20
0.0
 30
0.0
  3
GENAXEH
  1

  0
LINE
  5
65
330
64
100
AcDbEntity
  8
0
100
AcDbLine
 10
-1.0
 20
0.0
 30
0.0
 11
1.0
 21
0.0
 31
0.0
  0
ENDBLK
  5
67
330
64
100
AcDbEntity
  8
0
100
AcDbBlockEnd
  0
BLOCK
  5
CD2
330
CC8
100
AcDbEntity
  8
0
100
AcDbBlockBegin
  2
*D5
 70
     1
 10
0.0
 20
0.0
 30
0.0
  3
*D5
  1

  0
LINE
  5
4B0B
330
CC8
100
AcDbEntity
  8
AM_5
 62
     3
100
AcDbLine
 10
-106.0
 20
-2.000007626435093
 30
0.0
 11
-106.0
 21
-15.00000860448051
 31
0.0
  0
LINE
  5
4B0C
330
CC8
100
AcDbEntity
  8
AM_5
 62
     3
100
AcDbLine
 10
-0.9999999999999795
 20
-2.249999999999994
 30
0.0
 11
-0.9999999999999802
 21
-15.00000860448051
 31
0.0
  0
LINE
  5
4B0D
330
CC8
100
AcDbEntity
  8
AM_5
 62
     3
100
AcDbLine
 10
-104.75
 20
-14.50000860448051
 30
0.0
 11
-2.24999999999998
 21
-14.50000860448051
 31
0.0
  0
INSERT
  5
4B0E
330
CC8
100
AcDbEntity
  8
AM_5
 62
     3
100
AcDbBlockReference
  2
_OPEN30
 10
-106.0
 20
-14.50000860448051
 30
0.0
 41
1.25
 42
1.25
 43
1.25
 50
180.0
  0
INSERT
  5
4B0F
330
CC8
100
AcDbEntity
  8
AM_5
 62
     3
100
AcDbBlockReference
  2
_OPEN30
 10
-0.9999999999999802
 20
-14.50000860448051
 30
0.0
 41
1.25
 42
1.25
 43
1.25
  0
MTEXT
  5
4B10
330
CC8
100
AcDbEntity
  8
AM_5
 62
     2
100
AcDbMText
 10
-53.49999999999999
 20
-12.80000860448051
 30
0.0
 40
1.9
 41
0.0
 71
     5
 72
     1
  1
105
1001
ACAD
1000
MTEXTBEGIN
1070
    73
1070
     1
1070
    44
1040
1.0
1070
    74
1070
     0
1000
MTEXTEND
  0
POINT
  5
4B11
330
CC8
100
AcDbEntity
  8
DEFPOINTS
 62
     0
100
AcDbPoint
 10
-106.0
 20
-2.000007626435093
 30
0.0
  0
POINT
  5
4B12
330
CC8
100
AcDbEntity
  8
DEFPOINTS
 62
     0
100
AcDbPoint
 10
-0.9999999999999795
 20
-2.249999999999994
 30
0.0
  0
POINT
  5
4B13
330
CC8
100
AcDbEntity
  8
DEFPOINTS
 62
     0
100
AcDbPoint
 10
-0.9999999999999802
 20
-14.50000860448051
 30
0.0
  0
ENDBLK
  5
CD3
330
CC8
100
AcDbEntity
  8
0
100
AcDbBlockEnd
  0
BLOCK
  5
E00
330
DF6
100
AcDbEntity
  8
0
100
AcDbBlockBegin
  2
*D6
 70
     1
 10
0.0
 20
0.0
 30
0.0
  3
*D6
  1

  0
LINE
  5
4B2A
330
DF6
100
AcDbEntity
  8
AM_5
 62
     3
100
AcDbLine
 10
-56.0
 20
-2.500003235563659
 30
0.0
 11
-56.0
 21
-10.00000860448044
 31
0.0
  0
LINE
  5
4B2B
330
DF6
100
AcDbEntity
  8
AM_5
 62
     3
100
AcDbLine
 10
-0.9999999999999795
 20
-2.249999999999994
 30
0.0
 11
-0.9999999999999801
 21
-10.00000860448044
 31
0.0
  0
LINE
  5
4B2C
330
DF6
100
AcDbEntity
  8
AM_5
 62
     3
100
AcDbLine
 10
-54.75
 20
-9.500008604480443
 30
0.0
 11
-2.24999999999998
 21
-9.500008604480443
 31
0.0
  0
INSERT
  5
4B2D
330
DF6
100
AcDbEntity
  8
AM_5
 62
     3
100
AcDbBlockReference
  2
_OPEN30
 10
-56.0
 20
-9.500008604480443
 30
0.0
 41
1.25
 42
1.25
 43
1.25
 50
180.0
  0
INSERT
  5
4B2E
330
DF6
100
AcDbEntity
  8
AM_5
 62
     3
100
AcDbBlockReference
  2
_OPEN30
 10
-0.9999999999999801
 20
-9.500008604480443
 30
0.0
 41
1.25
 42
1.25
 43
1.25
  0
MTEXT
  5
4B2F
330
DF6
100
AcDbEntity
  8
AM_5
 62
     2
100
AcDbMText
 10
-28.49999999999999
 20
-7.800008604480443
 30
0.0
 40
1.9
 41
0.0
 71
     5
 72
     1
  1
55
1001
ACAD
1000
MTEXTBEGIN
1070
    73
1070
     1
1070
    44
1040
1.0
1070
    74
1070
     0
1000
MTEXTEND
  0
POINT
  5
4B30
330
DF6
100
AcDbEntity
  8
DEFPOINTS
 62
     0
100
AcDbPoint
 10
-56.0
 20
-2.500003235563659
 30
0.0
  0
POINT
  5
4B31
330
DF6
100
AcDbEntity
  8
DEFPOINTS
 62
     0
100
AcDbPoint
 10
-0.9999999999999795
 20
-2.249999999999994
 30
0.0
  0
POINT
  5
4B32
330
DF6
100
AcDbEntity
  8
DEFPOINTS
 62
     0
100
AcDbPoint
 10
-0.9999999999999801
 20
-9.500008604480443
 30
0.0
  0
ENDBLK
  5
E01
330
DF6
100
AcDbEntity
  8
0
100
AcDbBlockEnd
  0
BLOCK
  5
4534
330
4528
100
AcDbEntity
  8
0
100
AcDbBlockBegin
  2
*D7
 70
     1
 10
0.0
 20
0.0
 30
0.0
  3
*D7
  1

  0
LINE
  5
4B14
330
4528
100
AcDbEntity
  8
AM_5
 62
     3
100
AcDbLine
 10
-105.4999999999999
 20
-2.500007582526706
 30
0.0
 11
-114.2500014553626
 21
-2.500007582526731
 31
0.0
  0
LINE
  5
4B15
330
4528
100
AcDbEntity
  8
AM_5
 62
     3
100
AcDbLine
 10
-105.5
 20
2.500006725995496
 30
0.0
 11
-114.2500014553626
 21
2.500006725995471
 31
0.0
  0
LINE
  5
4B16
330
4528
100
AcDbEntity
  8
AM_5
 62
     3
100
AcDbLine
 10
-113.7500014553626
 20
-3.75000758252673
 30
0.0
 11
-113.7500014553626
 21
-5.00000758252673
 31
0.0
  0
LINE
  5
4B17
330
4528
100
AcDbEntity
  8
AM_5
 62
     3
100
AcDbLine
 10
-113.7500014553626
 20
3.750006725995473
 30
0.0
 11
-113.7500014553626
 21
5.000006725995472
 31
0.0
  0
LINE
  5
4B18
330
4528
100
AcDbEntity
  8
AM_5
 62
     3
100
AcDbLine
 10
-113.7500014553626
 20
-2.50000758252673
 30
0.0
 11
-113.7500014553626
 21
2.500006725995473
 31
0.0
  0
INSERT
  5
4B19
330
4528
100
AcDbEntity
  8
AM_5
 62
     3
100
AcDbBlockReference
  2
_OPEN30
 10
-113.7500014553626
 20
-2.50000758252673
 30
0.0
 41
1.25
 42
1.25
 43
1.25
 50
90.00000000000017
  0
INSERT
  5
4B1A
330
4528
100
AcDbEntity
  8
AM_5
 62
     3
100
AcDbBlockReference
  2
_OPEN30
 10
-113.7500014553626
 20
2.500006725995473
 30
0.0
 41
1.25
 42
1.25
 43
1.25
 50
270.0000000000001
  0
MTEXT
  5
4B1B
330
4528
100
AcDbEntity
  8
AM_5
 62
     2
100
AcDbMText
 10
-115.4500014553626
 20
-0.0000003373743509
 30
0.0
 40
1.9
 41
0.0
 71
     5
 72
     1
  1
%%c5
 11
-0.0000000000000028
 21
1.0
 31
0.0
1001
ACAD
1000
MTEXTBEGIN
1070
    73
1070
     1
1070
    44
1040
1.0
1070
    74
1070
     0
1000
MTEXTEND
  0
POINT
  5
4B1C
330
4528
100
AcDbEntity
  8
DEFPOINTS
 62
     0
100
AcDbPoint
 10
-105.4999999999999
 20
-2.500007582526378
 30
0.0
  0
POINT
  5
4B1D
330
4528
100
AcDbEntity
  8
DEFPOINTS
 62
     0
100
AcDbPoint
 10
-105.5
 20
2.500006725995824
 30
0.0
  0
POINT
  5
4B1E
330
4528
100
AcDbEntity
  8
DEFPOINTS
 62
     0
100
AcDbPoint
 10
-113.7500014553626
 20
2.500006725995826
 30
0.0
  0
ENDBLK
  5
4535
330
4528
100
AcDbEntity
  8
0
100
AcDbBlockEnd
  0
BLOCK
  5
46DE
330
46D2
100
AcDbEntity
  8
0
100
AcDbBlockBegin
  2
*D8
 70
     1
 10
0.0
 20
0.0
 30
0.0
  3
*D8
  1

  0
LINE
  5
4B33
330
46D2
100
AcDbEntity
  8
AM_5
 62
     3
100
AcDbLine
 10
-0.9999999999999857
 20
-2.250000000000001
 30
0.0
 11
8.225249504141132
 21
-2.250000000000003
 31
0.0
  0
LINE
  5
4B34
330
46D2
100
AcDbEntity
  8
AM_5
 62
     3
100
AcDbLine
 10
-1.0
 20
2.249999999999998
 30
0.0
 11
8.225249504141133
 21
2.249999999999996
 31
0.0
  0
LINE
  5
4B35
330
46D2
100
AcDbEntity
  8
AM_5
 62
     3
100
AcDbLine
 10
7.725249504141132
 20
-3.500000000000003
 30
0.0
 11
7.725249504141132
 21
-4.750000000000003
 31
0.0
  0
LINE
  5
4B36
330
46D2
100
AcDbEntity
  8
AM_5
 62
     3
100
AcDbLine
 10
7.725249504141133
 20
3.499999999999996
 30
0.0
 11
7.725249504141135
 21
12.71250177147097
 31
0.0
  0
LINE
  5
4B37
330
46D2
100
AcDbEntity
  8
AM_5
 62
     3
100
AcDbLine
 10
7.725249504141132
 20
-2.250000000000003
 30
0.0
 11
7.725249504141133
 21
2.249999999999996
 31
0.0
  0
INSERT
  5
4B38
330
46D2
100
AcDbEntity
  8
AM_5
 62
     3
100
AcDbBlockReference
  2
_OPEN30
 10
7.725249504141132
 20
-2.250000000000003
 30
0.0
 41
1.25
 42
1.25
 43
1.25
 50
90.0
  0
INSERT
  5
4B39
330
46D2
100
AcDbEntity
  8
AM_5
 62
     3
100
AcDbBlockReference
  2
_OPEN30
 10
7.725249504141133
 20
2.249999999999996
 30
0.0
 41
1.25
 42
1.25
 43
1.25
 50
270.0
  0
MTEXT
  5
4B3A
330
46D2
100
AcDbEntity
  8
AM_5
 62
     2
100
AcDbMText
 10
6.025249504141133
 20
9.112501771470975
 30
0.0
 40
1.9
 41
0.0
 71
     5
 72
     1
  1
%%c4.5
 11
0.0000000000000001
 21
1.0
 31
0.0
1001
ACAD
1000
MTEXTBEGIN
1070
    73
1070
     1
1070
    44
1040
1.0
1070
    74
1070
     0
1000
MTEXTEND
  0
POINT
  5
4B3B
330
46D2
100
AcDbEntity
  8
DEFPOINTS
 62
     0
100
AcDbPoint
 10
-0.9999999999999857
 20
-2.250000000000001
 30
0.0
  0
POINT
  5
4B3C
330
46D2
100
AcDbEntity
  8
DEFPOINTS
 62
     0
100
AcDbPoint
 10
-1.0
 20
2.249999999999998
 30
0.0
  0
POINT
  5
4B3D
330
46D2
100
AcDbEntity
  8
DEFPOINTS
 62
     0
100
AcDbPoint
 10
7.725249504141133
 20
2.249999999999996
 30
0.0
  0
ENDBLK
  5
46DF
330
46D2
100
AcDbEntity
  8
0
100
AcDbBlockEnd
  0
BLOCK
  5
48E1
330
48D3
100
AcDbEntity
  8
0
100
AcDbBlockBegin
  2
*D9
 70
     1
 10
0.0
 20
0.0
 30
0.0
  3
*D9
  1

  0
LINE
  5
4B1F
330
48D3
100
AcDbEntity
  8
AM_5
100
AcDbLine
 10
0.1710100716628411
 20
-0.4698463103929549
 30
0.0
 11
5.777903839548232
 21
-15.87466033093873
 31
0.0
  0
LINE
  5
4B20
330
48D3
100
AcDbEntity
  8
AM_5
100
AcDbLine
 10
0.1710100716628376
 20
0.4698463103929568
 30
0.0
 11
5.77790383954811
 21
15.87466033093877
 31
0.0
  0
ARC
  5
4B21
330
48D3
100
AcDbEntity
  8
AM_5
100
AcDbCircle
 10
0.0000000000000045
 20
0.0000000000000002
 30
0.0
 40
16.39346066979013
100
AcDbArc
 50
294.3698574217496
 51
65.63014257825078
  0
INSERT
  5
4B22
330
48D3
100
AcDbEntity
  8
AM_5
100
AcDbBlockReference
  2
_OPEN30
 10
5.606893767885395
 20
-15.40481402054578
 30
0.0
 41
1.25
 42
1.25
 43
1.25
 50
202.1849287108749
  0
INSERT
  5
4B23
330
48D3
100
AcDbEntity
  8
AM_5
100
AcDbBlockReference
  2
_OPEN30
 10
5.606893767885277
 20
15.40481402054582
 30
0.0
 41
1.25
 42
1.25
 43
1.25
 50
157.8150712891254
  0
MTEXT
  5
4B24
330
48D3
100
AcDbEntity
  8
AM_5
 62
     2
100
AcDbMText
 10
14.84346066979013
 20
0.0000000000000555
 30
0.0
 40
1.6
 41
0.0
 71
     5
 72
     1
  1
140°
  7
ASAMI
 11
-0.000000000000002
 21
1.0
 31
0.0
1001
ACAD
1000
MTEXTBEGIN
1070
    73
1070
     1
1070
    44
1040
1.0
1070
    74
1070
     0
1000
MTEXTEND
  0
POINT
  5
4B25
330
48D3
100
AcDbEntity
  8
DEFPOINTS
 62
     0
100
AcDbPoint
 10
15.05273963450959
 20
-6.49311806666257
 30
0.0
  0
POINT
  5
4B26
330
48D3
100
AcDbEntity
  8
DEFPOINTS
 62
     0
100
AcDbPoint
 10
0.0000000000000051
 20
0.0000000000000018
 30
0.0
  0
POINT
  5
4B27
330
48D3
100
AcDbEntity
  8
DEFPOINTS
 62
     0
100
AcDbPoint
 10
0.0000000000000051
 20
-0.0000000000000013
 30
0.0
  0
POINT
  5
4B28
330
48D3
100
AcDbEntity
  8
DEFPOINTS
 62
     0
100
AcDbPoint
 10
-0.2431446527750222
 20
0.6680344431605171
 30
0.0
  0
POINT
  5
4B29
330
48D3
100
AcDbEntity
  8
DEFPOINTS
 62
     0
100
AcDbPoint
 10
-0.2431446527750196
 20
-0.6680344431605177
 30
0.0
  0
ENDBLK
  5
48E2
330
48D3
100
AcDbEntity
  8
0
100
AcDbBlockEnd
  0
ENDSEC
  0
SECTION
  2
ENTITIES
  0
LINE
  5
C1D
330
1F
100
AcDbEntity
  8
AM_0
 48
0.5
100
AcDbLine
 10
0.0000000000000051
 20
-0.0000000000000013
 30
0.0
 11
-0.2431446527750222
 21
0.6680344431605171
 31
0.0
  0
LINE
  5
C9F
330
1F
100
AcDbEntity
  8
AM_7
100
AcDbLine
 10
-106.7499999999999
 20
-0.0000000000001675
 30
0.0
 11
0.725248481372006
 21
0.0000000000000011
 31
0.0
1001
GENIUS_GENODEF_13
1002
{
1000
HIER
1070
     0
1002
}
1002
{
1000
MANEDIT
1070
     0
1002
}
1002
{
1000
NOSEL
1070
     0
1002
}
1002
{
1000
BEHIND
1070
     0
1002
}
1002
{
1000
REACTOR
1002
}
1001
GENIUS_GENOBJ-N-CEN_13
1002
{
1000
OWNER
1000
GEN
1002
}
  0
DIMENSION
  5
CC6
330
1F
100
AcDbEntity
  8
AM_5
100
AcDbDimension
  2
*D5
 10
-0.9999999999999802
 20
-14.50000860448051
 30
0.0
 11
-53.49999999999999
 21
-12.80000860448051
 31
0.0
 70
    32
  1
<>
  3
AM_JIS$0
100
AcDbAlignedDimension
 13
-106.0
 23
-2.000007626435093
 33
0.0
 14
-0.9999999999999795
 24
-2.249999999999994
 34
0.0
 50
0.0000000000001132
100
AcDbRotatedDimension
1001
GENIUS_GENDTOL_13
1000

1000
h7
1000

1040
0.0
1001
ACAD
1000
DSTYLE
1002
{
1070
   271
1070
     0
1002
}
  0
DIMENSION
  5
DF5
330
1F
100
AcDbEntity
  8
AM_5
100
AcDbDimension
  2
*D6
 10
-0.9999999999999801
 20
-9.500008604480443
 30
0.0
 11
-28.49999999999999
 21
-7.800008604480443
 31
0.0
 70
    32
  1
<>
  3
AM_JIS$0
100
AcDbAlignedDimension
 13
-56.0
 23
-2.500003235563659
 33
0.0
 14
-0.9999999999999795
 24
-2.249999999999994
 34
0.0
 50
0.0000000000001527
100
AcDbRotatedDimension
1001
GENIUS_GENDTOL_13
1000

1000
h7
1000

1040
0.0
1001
ACAD
1000
DSTYLE
1002
{
1070
   271
1070
     0
1002
}
  0
TEXT
  5
19BD
330
1F
100
AcDbEntity
  8
AM_6
100
AcDbText
 10
-64.57142857142854
 20
-25.75000860448054
 30
0.0
 40
2.5
  1
MDW045DHK
 50
0.0000000000001527
 72
     4
 11
-53.49999999999996
 21
-24.50000860448051
 31
0.0
100
AcDbText
  0
LINE
  5
4347
330
1F
100
AcDbEntity
  8
AM_0
100
AcDbLine
 10
-56.0
 20
2.500011275279373
 30
0.0
 11
-56.0
 21
-2.500003235563659
 31
0.0
  0
LINE
  5
44BC
330
1F
100
AcDbEntity
  8
AM_0
100
AcDbLine
 10
-56.0
 20
2.500011275279373
 30
0.0
 11
-55.56745089105189
 21
2.250278930790452
 31
0.0
  0
LINE
  5
44BD
330
1F
100
AcDbEntity
  8
AM_0
100
AcDbLine
 10
-55.56745089105191
 20
2.250278930790457
 30
0.0
 11
-55.56713918444396
 21
-2.250090927180724
 31
0.0
  0
LINE
  5
44BE
330
1F
100
AcDbEntity
  8
AM_0
100
AcDbLine
 10
-55.56698169394735
 20
-2.250000000000115
 30
0.0
 11
-56.0
 21
-2.500003235563658
 31
0.0
  0
LINE
  5
4522
330
1F
100
AcDbEntity
  8
AM_0
 48
0.5
100
AcDbLine
 10
-56.00000000000001
 20
-2.500003235563659
 30
0.0
 11
-105.4999999999999
 21
-2.500007582526378
 31
0.0
  0
LINE
  5
4525
330
1F
100
AcDbEntity
  8
AM_0
 48
0.5
100
AcDbLine
 10
-105.4999999999997
 20
-2.50000760448072
 30
0.0
 11
-105.4999999999997
 21
2.500006703019654
 31
0.0
  0
LINE
  5
4526
330
1F
100
AcDbEntity
  8
AM_0
 48
0.5
100
AcDbLine
 10
-106.0
 20
-2.000007626435093
 30
0.0
 11
-106.0
 21
2.000006680043465
 31
0.0
  0
DIMENSION
  5
4527
330
1F
100
AcDbEntity
  8
AM_5
100
AcDbDimension
  2
*D7
 10
-113.7500014553626
 20
2.500006725995826
 30
0.0
 11
-113.7500014553626
 21
-0.0000003373740152
 31
0.0
 70
   160
  1
%%c<>
 51
359.9999999999998
  3
AM_JIS$0
100
AcDbAlignedDimension
 13
-105.4999999999999
 23
-2.500007582526378
 33
0.0
 14
-105.5
 24
2.500006725995824
 34
0.0
 50
270.0000052180549
100
AcDbRotatedDimension
1001
ACAD
1000
DSTYLE
1002
{
1070
   271
1070
     0
1002
}
1001
GENIUS_GENDTOL_13
1000

1000
h7
1000

1040
0.0
  0
LINE
  5
4536
330
1F
100
AcDbEntity
  8
AM_0
 48
0.5
100
AcDbLine
 10
-56.0
 20
2.500011275279373
 30
0.0
 11
-105.5
 21
2.500006725995824
 31
0.0
  0
LINE
  5
4544
330
1F
100
AcDbEntity
  8
AM_0
 48
0.5
100
AcDbLine
 10
-105.5
 20
2.500006725995824
 30
0.0
 11
-106.0
 21
2.000006680043465
 31
0.0
1001
GENIUS_GENFIL_13
1070
     0
1040
0.5
1040
0.5
1040
20.0
1040
0.0
1002
{
1002
}
1001
GENIUS_GENODEF_13
1002
{
1000
HIER
1070
     0
1002
}
1002
{
1000
MANEDIT
1070
     0
1002
}
1002
{
1000
NOSEL
1070
     0
1002
}
1002
{
1000
BEHIND
1070
     0
1002
}
1002
{
1000
REACTOR
1002
}
1001
GENIUS_GENOBJ-N-CHA_13
1002
{
1000
OWNER
1000
GEN
1002
}
  0
LINE
  5
4547
330
1F
100
AcDbEntity
  8
AM_0
 48
0.5
100
AcDbLine
 10
-106.0
 20
-2.000007626435093
 30
0.0
 11
-105.4999999999999
 21
-2.500007582526378
 31
0.0
1001
GENIUS_GENFIL_13
1070
     0
1040
0.5
1040
0.5
1040
20.0
1040
0.0
1002
{
1002
}
1001
GENIUS_GENODEF_13
1002
{
1000
HIER
1070
     0
1002
}
1002
{
1000
MANEDIT
1070
     0
1002
}
1002
{
1000
NOSEL
1070
     0
1002
}
1002
{
1000
BEHIND
1070
     0
1002
}
1002
{
1000
REACTOR
1002
}
1001
GENIUS_GENOBJ-N-CHA_13
1002
{
1000
OWNER
1000
GEN
1002
}
  0
LINE
  5
4658
330
1F
100
AcDbEntity
  8
AM_0
 48
0.5
100
AcDbLine
 10
0.0000000000000051
 20
0.0000000000000018
 30
0.0
 11
-0.2431446527750196
 21
-0.6680344431605177
 31
0.0
  0
ELLIPSE
  5
46CF
330
1F
100
AcDbEntity
  8
AM_0
 48
0.5
100
AcDbEllipse
 10
1.010801821380137
 20
-4.606569784497568
 30
0.0
 11
-0.7638710278256731
 21
4.261772627765246
 31
0.0
210
0.0
220
0.0
230
-0.9999999999999998
 40
0.3860132617414851
 41
-0.8307090809446997
 42
-0.3286322522009812
  0
ELLIPSE
  5
46D0
330
1F
100
AcDbEntity
  8
AM_0
 48
0.5
100
AcDbEllipse
 10
1.010801821380137
 20
4.606569784497571
 30
0.0
 11
0.7638710278256563
 21
4.261772627765271
 31
0.0
210
0.0
220
0.0
230
1.0
 40
0.3860132617414855
 41
2.310883572645086
 42
2.812960401388799
  0
DIMENSION
  5
46D1
330
1F
100
AcDbEntity
  8
AM_5
100
AcDbDimension
  2
*D8
 10
7.725249504141133
 20
2.249999999999996
 30
0.0
 11
7.725249504141133
 21
9.112501771470975
 31
0.0
 70
   160
  1
%%c<>
  3
AM_JIS$0
100
AcDbAlignedDimension
 13
-0.9999999999999857
 23
-2.250000000000001
 33
0.0
 14
-1.0
 24
2.249999999999998
 34
0.0
 50
89.99999999999982
100
AcDbRotatedDimension
1001
GENIUS_GENDTOL_13
1000

1000
h7
1000

1040
0.0
1001
ACAD
1000
DSTYLE
1002
{
1070
   271
1070
     1
1002
}
  0
LINE
  5
46E1
330
1F
100
AcDbEntity
  8
AM_0
 48
0.5
100
AcDbLine
 10
-0.7190747896449853
 20
1.950364153585608
 30
0.0
 11
-1.0
 21
2.249999999999998
 31
0.0
  0
LINE
  5
46E4
330
1F
100
AcDbEntity
  8
AM_0
 48
0.5
100
AcDbLine
 10
-0.7190747896449854
 20
-1.950364153585608
 30
0.0
 11
-0.9999999999999857
 21
-2.250000000000001
 31
0.0
  0
ELLIPSE
  5
46F0
330
1F
100
AcDbEntity
  8
AM_0
 48
0.5
100
AcDbEllipse
 10
-1.090051376649543
 20
-0.4532178902351008
 30
0.0
 11
-0.1785914942171444
 21
0.3468296430982678
 31
0.0
210
0.0
220
0.0
230
1.0
 40
0.733355463254151
 41
1.532727865088391
 42
4.668069754800364
  0
ELLIPSE
  5
46F1
330
1F
100
AcDbEntity
  8
AM_0
 48
0.5
100
AcDbEllipse
 10
-1.090051376649543
 20
-0.4532178902351008
 30
0.0
 11
-0.5335682230308759
 21
0.1562289091646008
 31
0.0
210
0.0
220
0.0
230
1.0
 40
0.361069918082882
 41
4.30813249169542
 42
7.451572833024931
  0
ELLIPSE
  5
46F2
330
1F
100
AcDbEntity
  8
AM_0
 48
0.5
100
AcDbEllipse
 10
-6.182316594320202
 20
3.776317362608121
 30
0.0
 11
-7.802792772507459
 21
1.982949600936081
 31
0.0
210
0.0
220
0.0
230
1.0
 40
0.5198613069925726
 41
2.450258174234317
 42
2.605646225739912
  0
LINE
  5
478E
330
1F
100
AcDbEntity
  8
AM_0
100
AcDbLine
 10
-1.0
 20
2.250000041556142
 30
0.0
 11
-3.001364766537186
 21
2.250001771471336
 31
0.0
  0
LINE
  5
478F
330
1F
100
AcDbEntity
  8
AM_0
 48
0.5
100
AcDbLine
 10
-3.979410631161341
 20
-2.249998228528637
 30
0.0
 11
-0.9999999736254723
 21
-2.249999971868849
 31
0.0
  0
ELLIPSE
  5
4790
330
1F
100
AcDbEntity
  8
AM_0
 48
0.5
100
AcDbEllipse
 10
-18.85034937353045
 20
65.9443885256698
 30
0.0
 11
-15.85007154067616
 21
67.07159184326441
 31
0.0
210
0.0
220
0.0
230
0.9999999999999998
 40
0.3652224087372518
 41
3.169309322074345
 42
3.210515041429385
  0
ELLIPSE
  5
4791
330
1F
100
AcDbEntity
  8
AM_0
 48
0.5
100
AcDbEllipse
 10
1.106614507869094
 20
2.70126519920555
 30
0.0
 11
5.929421828445498
 21
1.282375905408863
 31
0.0
210
0.0
220
0.0
230
1.0
 40
0.637308162577466
 41
3.24586681954709
 42
3.964352509475685
  0
ELLIPSE
  5
4792
330
1F
100
AcDbEntity
  8
AM_0
 48
0.5
100
AcDbEllipse
 10
-0.5188019166719088
 20
-0.7225990183330693
 30
0.0
 11
-1.748928948644964
 21
1.160669765660735
 31
0.0
210
0.0
220
0.0
230
0.9999999999999998
 40
0.7500115062376029
 41
0.8494089379537825
 42
1.783761221424238
  0
LINE
  5
4793
330
1F
100
AcDbEntity
  8
AM_0
 48
0.5
100
AcDbLine
 10
0.0000000000000049
 20
0.0000000000000034
 30
0.0
 11
-2.147234103857053
 21
0.6844613714435691
 31
0.0
  0
SPLINE
  5
4794
330
1F
100
AcDbEntity
  8
AM_0
 48
0.5
100
AcDbSpline
210
0.0
220
0.0
230
1.0
 70
     8
 71
     3
 72
    10
 73
     6
 74
     0
 42
0.0000000001
 43
0.0000000001
 40
0.0
 40
0.0
 40
0.0
 40
0.0
 40
2.69986029516136
 40
4.147722969032201
 40
6.201687855798567
 40
6.201687855798567
 40
6.201687855798567
 40
6.201687855798567
 10
-4.70553526056152
 20
1.032529956725267
 30
0.0
 10
-3.763070658872632
 20
0.0449138847410569
 30
0.0
 10
-3.155558236406549
 20
-0.2762295035984396
 30
0.0
 10
-1.738086401276172
 20
-0.1228375485156036
 30
0.0
 10
-1.977356046723106
 20
0.3785768514994562
 30
0.0
 10
-2.147234103857052
 20
0.6844613714435682
 30
0.0
  0
LINE
  5
4795
330
1F
100
AcDbEntity
  8
AM_11
 48
0.5
100
AcDbLine
 10
-25.08493891890671
 20
-2.249998228527724
 30
0.0
 11
-17.41326495029259
 21
-2.250317881861323
 31
0.0
  0
LINE
  5
4796
330
1F
100
AcDbEntity
  8
AM_0
 48
0.5
100
AcDbLine
 10
-17.41326495029259
 20
-2.249998228528064
 30
0.0
 11
-10.58666852604343
 21
-2.249998228528319
 31
0.0
  0
LINE
  5
4797
330
1F
100
AcDbEntity
  8
AM_11
 48
0.5
100
AcDbLine
 10
-37.77253990273708
 20
-2.250205164780437
 30
0.0
 11
-31.9233637993386
 21
-2.249882016137605
 31
0.0
  0
LINE
  5
4798
330
1F
100
AcDbEntity
  8
AM_0
 48
0.5
100
AcDbLine
 10
-31.9233637993386
 20
-2.249882016137605
 30
0.0
 11
-25.08493891890825
 21
-2.249998228527679
 31
0.0
  0
LINE
  5
4799
330
1F
100
AcDbEntity
  8
AM_11
 48
0.5
100
AcDbLine
 10
-10.58666739575317
 20
-2.249998228528312
 30
0.0
 11
-3.979410631161274
 21
-2.249998228528652
 31
0.0
  0
SPLINE
  5
479A
330
1F
100
AcDbEntity
  8
AM_0
100
AcDbSpline
210
0.0
220
0.0
230
1.0
 70
     8
 71
     3
 72
    22
 73
    18
 74
     0
 42
0.0000000001
 43
0.0000000001
 40
17.17441611292
 40
17.17441611292
 40
17.17441611292
 40
17.17441611292
 40
17.38177636558528
 40
18.41823744757437
 40
19.46215659509824
 40
20.51397914882054
 40
21.57394542641293
 40
22.64209583141747
 40
23.71826625065247
 40
24.80210429862395
 40
25.8930771157021
 40
26.99048705697709
 40
28.09349309193389
 40
29.20112995599786
 40
30.31233024745139
 40
31.42594771747373
 40
32.5407895042663
 40
32.54078950426994
 40
32.54078950426994
 40
32.54078950426994
 10
-26.63934883023054
 20
-2.020514513238039
 30
0.0
 10
-26.66661934178661
 20
-2.015305983922019
 30
0.0
 10
-26.83009116527151
 20
-1.983580262551861
 30
0.0
 10
-27.12956233429528
 20
-1.919966062010123
 30
0.0
 10
-27.5366321576708
 20
-1.821652726990242
 30
0.0
 10
-27.94366050148579
 20
-1.712112633724288
 30
0.0
 10
-28.35065023933754
 20
-1.592029558635237
 30
0.0
 10
-28.75760083362095
 20
-1.462139788518435
 30
0.0
 10
-29.16451729342591
 20
-1.323251687434684
 30
0.0
 10
-29.57140150289003
 20
-1.176218816965899
 30
0.0
 10
-29.97825722665977
 20
-1.021947920767794
 30
0.0
 10
-30.38508898871286
 20
-0.8613907525530917
 30
0.0
 10
-30.79190032010352
 20
-0.6955345832045158
 30
0.0
 10
-31.1986953160455
 20
-0.5253997879022236
 30
0.0
 10
-31.60547758242239
 20
-0.3520325030558101
 30
0.0
 10
-32.01225314535971
 20
-0.176502498519181
 30
0.0
 10
-32.28338362387013
 20
-0.0587782478411635
 30
0.0
 10
-32.4190233446198
 20
0.0001162123908536
 30
0.0
  0
SPLINE
  5
479B
330
1F
100
AcDbEntity
  8
AM_0
100
AcDbSpline
210
0.0
220
0.0
230
1.0
 70
     8
 71
     3
 72
    22
 73
    18
 74
     0
 42
0.0000000001
 43
0.0000000001
 40
17.17441611292
 40
17.17441611292
 40
17.17441611292
 40
17.17441611292
 40
17.38177636558528
 40
18.41823744757437
 40
19.46215659509824
 40
20.51397914882054
 40
21.57394542641293
 40
22.64209583141747
 40
23.71826625065247
 40
24.80210429862395
 40
25.8930771157021
 40
26.99048705697709
 40
28.09349309193389
 40
29.20112995599786
 40
30.31233024745139
 40
31.42594771747373
 40
32.5407895042663
 40
32.54078950426994
 40
32.54078950426994
 40
32.54078950426994
 10
-12.14107843736625
 20
-2.020514513238631
 30
0.0
 10
-12.16834894892232
 20
-2.015305983922611
 30
0.0
 10
-12.33182077240724
 20
-1.983580262552455
 30
0.0
 10
-12.631291941431
 20
-1.919966062010716
 30
0.0
 10
-13.03836176480652
 20
-1.821652726990834
 30
0.0
 10
-13.44539010862153
 20
-1.712112633724883
 30
0.0
 10
-13.8523798464733
 20
-1.59202955863583
 30
0.0
 10
-14.25933044075671
 20
-1.462139788519029
 30
0.0
 10
-14.66624690056169
 20
-1.323251687435277
 30
0.0
 10
-15.07313111002582
 20
-1.176218816966493
 30
0.0
 10
-15.47998683379557
 20
-1.021947920768387
 30
0.0
 10
-15.88681859584865
 20
-0.8613907525536852
 30
0.0
 10
-16.29362992723927
 20
-0.6955345832051091
 30
0.0
 10
-16.70042492318125
 20
-0.5253997879028163
 30
0.0
 10
-17.10720718955814
 20
-0.3520325030564027
 30
0.0
 10
-17.51398275249546
 20
-0.1765024985197738
 30
0.0
 10
-17.78511323100588
 20
-0.0587782478417564
 30
0.0
 10
-17.92075295175557
 20
0.0001162123902607
 30
0.0
  0
SPLINE
  5
479C
330
1F
100
AcDbEntity
  8
AM_0
100
AcDbSpline
210
0.0
220
0.0
230
1.0
 70
     8
 71
     3
 72
    17
 73
    13
 74
     0
 42
0.0000000001
 43
0.0000000001
 40
1.580019955310467
 40
1.580019955310467
 40
1.580019955310467
 40
1.580019955310467
 40
2.030549285115227
 40
3.082371838836284
 40
4.126290986361125
 40
5.162752068350215
 40
6.192395305374981
 40
7.216039564037012
 40
8.234688489606833
 40
9.249433870634691
 40
10.26152376260694
 40
11.27226744710342
 40
11.27226744710342
 40
11.27226744710342
 40
11.27226744710352
 10
-6.750532272032874
 20
-1.660564483356799
 30
0.0
 10
-6.808152345777747
 20
-1.677666936286209
 30
0.0
 10
-7.000622750252117
 20
-1.733722510121479
 30
0.0
 10
-7.329217461352717
 20
-1.82164768338533
 30
0.0
 10
-7.736230621540194
 20
-1.920112213368742
 30
0.0
 10
-8.143355832069604
 20
-2.006550997396534
 30
0.0
 10
-8.550499696934041
 20
-2.080673754604547
 30
0.0
 10
-8.957687919392858
 20
-2.141941312477251
 30
0.0
 10
-9.364904273317529
 20
-2.190004044077121
 30
0.0
 10
-9.772145983792135
 20
-2.224550486821401
 30
0.0
 10
-10.17940301743553
 20
-2.245358261246209
 30
0.0
 10
-10.45097360306776
 20
-2.249998241402942
 30
0.0
 10
-10.5866685260434
 20
-2.249998228528319
 30
0.0
  0
SPLINE
  5
479D
330
1F
100
AcDbEntity
  8
AM_0
100
AcDbSpline
210
0.0
220
0.0
230
1.0
 70
     8
 71
     3
 72
    11
 73
     7
 74
     0
 42
0.0000000001
 43
0.0000000001
 40
11.27226913003534
 40
11.27226913003534
 40
11.27226913003534
 40
11.2722691300354
 40
12.28301561507924
 40
13.29510212255852
 40
14.30984805882082
 40
15.18258238371378
 40
15.18258238371378
 40
15.18258238371378
 40
15.18258238371378
 10
-10.58666852604342
 20
-2.249998228528319
 30
0.0
 10
-10.72184747011781
 20
-2.238986074682582
 30
0.0
 10
-10.99195038507288
 20
-2.212326129490562
 30
0.0
 10
-11.39570999640711
 20
-2.158546425716453
 30
0.0
 10
-11.77888498695385
 20
-2.094312466272829
 30
0.0
 10
-12.02670007891877
 20
-2.044933909923249
 30
0.0
 10
-12.14090032982449
 20
-2.020542266971427
 30
0.0
  0
SPLINE
  5
479E
330
1F
100
AcDbEntity
  8
AM_0
100
AcDbSpline
210
0.0
220
0.0
230
1.0
 70
     8
 71
     3
 72
    17
 73
    13
 74
     0
 42
0.0000000001
 43
0.0000000001
 40
1.580019955310467
 40
1.580019955310467
 40
1.580019955310467
 40
1.580019955310467
 40
2.030549285115227
 40
3.082371838836284
 40
4.126290986361125
 40
5.162752068350215
 40
6.192395305374981
 40
7.216039564037012
 40
8.234688489606833
 40
9.249433870634691
 40
10.26152376260694
 40
11.27226744710342
 40
11.27226744710342
 40
11.27226744710342
 40
11.27226744710352
 10
-21.24880266489714
 20
-1.660564483356204
 30
0.0
 10
-21.30642273864201
 20
-1.677666936285616
 30
0.0
 10
-21.49889314311637
 20
-1.733722510120886
 30
0.0
 10
-21.82748785421697
 20
-1.821647683384736
 30
0.0
 10
-22.23450101440445
 20
-1.920112213368149
 30
0.0
 10
-22.64162622493385
 20
-2.006550997395942
 30
0.0
 10
-23.04877008979829
 20
-2.080673754603954
 30
0.0
 10
-23.45595831225711
 20
-2.141941312476656
 30
0.0
 10
-23.86317466618177
 20
-2.190004044076527
 30
0.0
 10
-24.27041637665638
 20
-2.224550486820809
 30
0.0
 10
-24.67767341029977
 20
-2.245358261245616
 30
0.0
 10
-24.949243995932
 20
-2.249998241402349
 30
0.0
 10
-25.08493891890764
 20
-2.249998228527724
 30
0.0
  0
SPLINE
  5
479F
330
1F
100
AcDbEntity
  8
AM_0
100
AcDbSpline
210
0.0
220
0.0
230
1.0
 70
     8
 71
     3
 72
    11
 73
     7
 74
     0
 42
0.0000000001
 43
0.0000000001
 40
11.27226913003534
 40
11.27226913003534
 40
11.27226913003534
 40
11.2722691300354
 40
12.28301561507924
 40
13.29510212255852
 40
14.30984805882082
 40
15.18258238371378
 40
15.18258238371378
 40
15.18258238371378
 40
15.18258238371378
 10
-25.08493891890767
 20
-2.249998228527724
 30
0.0
 10
-25.22011786298207
 20
-2.238986074681989
 30
0.0
 10
-25.49022077793713
 20
-2.212326129489968
 30
0.0
 10
-25.89398038927136
 20
-2.15854642571586
 30
0.0
 10
-26.2771553798181
 20
-2.094312466272235
 30
0.0
 10
-26.52497047178305
 20
-2.044933909922654
 30
0.0
 10
-26.63917072268877
 20
-2.020542266970835
 30
0.0
  0
LINE
  5
47A0
330
1F
100
AcDbEntity
  8
AM_0
100
AcDbLine
 10
-37.77253990273708
 20
-2.250205164780437
 30
0.0
 11
-44.40893688391601
 21
-2.249903040349481
 31
0.0
  0
LINE
  5
47A1
330
1F
100
AcDbEntity
  8
AM_11
 48
0.5
100
AcDbLine
 10
-24.09053022887686
 20
2.250321424805542
 30
0.0
 11
-19.1947620221011
 21
2.250001771472061
 31
0.0
  0
LINE
  5
47A2
330
1F
100
AcDbEntity
  8
AM_0
 48
0.5
100
AcDbLine
 10
-19.19476862966877
 20
2.250001771472061
 30
0.0
 11
-10.58666852604328
 21
2.25000177147168
 31
0.0
  0
LINE
  5
47A3
330
1F
100
AcDbEntity
  8
AM_11
 48
0.5
100
AcDbLine
 10
-38.96406582622117
 20
2.250001771472717
 30
0.0
 11
-33.6930949437878
 21
2.250001771472653
 31
0.0
  0
LINE
  5
47A4
330
1F
100
AcDbEntity
  8
AM_0
100
AcDbLine
 10
-33.6930949437878
 20
2.250001771472653
 30
0.0
 11
-24.09053022887686
 21
2.250321424805542
 31
0.0
  0
LINE
  5
47A5
330
1F
100
AcDbEntity
  8
AM_11
 48
0.5
100
AcDbLine
 10
-10.58666852603434
 20
2.250001771471607
 30
0.0
 11
-2.914994557430225
 21
2.250001771471322
 31
0.0
  0
SPLINE
  5
47A6
330
1F
100
AcDbEntity
  8
AM_0
 48
0.5
100
AcDbSpline
210
0.0
220
0.0
230
1.0
 70
     8
 71
     3
 72
    17
 73
    13
 74
     0
 42
0.0000000001
 43
0.0000000001
 40
0.0
 40
0.0
 40
0.0
 40
0.0
 40
1.010743614677189
 40
2.022833924044153
 40
3.037578959561199
 40
4.056212747067873
 40
5.079857613375832
 40
6.109500119648989
 40
7.14596120163808
 40
8.18989512056258
 40
9.241717674284874
 40
9.693948937866434
 40
9.693948937866434
 40
9.693948937866434
 40
9.693948937866434
 10
-2.914994557428197
 20
2.250001771471342
 30
0.0
 10
-3.05068950688891
 20
2.248664040709996
 30
0.0
 10
-3.322260203062211
 20
2.245986796821461
 30
0.0
 10
-3.729516902248419
 20
2.224383736885174
 30
0.0
 10
-4.13675683491272
 20
2.190053544028039
 30
0.0
 10
-4.543971440718937
 20
2.141933285478533
 30
0.0
 10
-4.951155869859094
 20
2.080675582395868
 30
0.0
 10
-5.358305148977909
 20
2.006564447414772
 30
0.0
 10
-5.76541381344777
 20
1.920076958420531
 30
0.0
 10
-6.172497660719039
 20
1.82179537146305
 30
0.0
 10
-6.501106357467748
 20
1.733258518010748
 30
0.0
 10
-6.694084650881286
 20
1.67791025244643
 30
0.0
 10
-6.752006381150597
 20
1.660968518874743
 30
0.0
  0
SPLINE
  5
47A7
330
1F
100
AcDbEntity
  8
AM_0
100
AcDbSpline
210
0.0
220
0.0
230
1.0
 70
     8
 71
     3
 72
    52
 73
    48
 74
     0
 42
0.0000000001
 43
0.0000000001
 40
3.537595802313026
 40
3.537595802313026
 40
3.537595802313026
 40
3.537595802313026
 40
4.056212745003489
 40
5.079857003664532
 40
6.109500240690281
 40
7.145961322679372
 40
8.189895241603872
 40
9.241717795325891
 40
10.30168407291828
 40
11.36983447792315
 40
12.44600489715814
 40
13.52984294512926
 40
14.62081576220742
 40
15.7182257034828
 40
16.82123173843959
 40
17.92886860250316
 40
19.0400688939571
 40
20.15368796660465
 40
21.26852814259644
 40
22.38336992938901
 40
23.49698739941135
 40
24.6081876908653
 40
25.71582455492886
 40
26.81883757994213
 40
27.91624752121713
 40
29.00722033829659
 40
30.09105838626677
 40
31.16722880550176
 40
32.23537921050758
 40
33.29534548809967
 40
34.347168041821
 40
35.39108718934584
 40
36.42754827133493
 40
37.45720575381954
 40
38.48085062012849
 40
39.49948440763516
 40
40.51422944315121
 40
41.52631975251916
 40
42.53706336719636
 40
43.54780698187354
 40
44.55989729124051
 40
45.57464232675757
 40
46.59327611426424
 40
47.6169209805722
 40
48.64656348684535
 40
49.68302456883444
 40
50.58557219878025
 40
50.58557219878025
 40
50.58557219878025
 40
50.58557219878025
 10
-3.979410631161274
 20
-2.249998228528652
 30
0.0
 10
-4.405057563307225
 20
-2.190729020562212
 30
0.0
 10
-4.61024877931914
 20
-2.131958838111824
 30
0.0
 10
-4.95115640407672
 20
-2.080674837117793
 30
0.0
 10
-5.358304290108898
 20
-2.0065586278728
 30
0.0
 10
-5.76541623768348
 20
-1.920079863498816
 30
0.0
 10
-6.172488636540251
 20
-1.82176809857195
 30
0.0
 10
-6.579518713774279
 20
-1.712226961364871
 30
0.0
 10
-6.986508498205486
 20
-1.59214403027242
 30
0.0
 10
-7.393459079833681
 20
-1.462254221065222
 30
0.0
 10
-7.800375543180399
 20
-1.323366130799859
 30
0.0
 10
-8.20725975126079
 20
-1.176333256548659
 30
0.0
 10
-8.614115477005473
 20
-1.022062364588966
 30
0.0
 10
-9.020947232499496
 20
-0.8615051831257154
 30
0.0
 10
-9.427758588315562
 20
-0.6956490628597232
 30
0.0
 10
-9.834553492604223
 20
-0.5255140834502469
 30
0.0
 10
-10.2413362982438
 20
-0.3521474054825091
 30
0.0
 10
-10.64811057310677
 20
-0.1766148160451919
 30
0.0
 10
-11.05488206147595
 20
0.0000013123899688
 30
0.0
 10
-11.46165172378149
 20
0.1766206200255093
 30
0.0
 10
-11.86842736206316
 20
0.3521504759561153
 30
0.0
 10
-12.27520966552393
 20
0.5255176786949182
 30
0.0
 10
-12.68200529512339
 20
0.6956533062428325
 30
0.0
 10
-13.0888183385881
 20
0.8615080110635705
 30
0.0
 10
-13.49565073617012
 20
1.022066006775126
 30
0.0
 10
-13.90250652065123
 20
1.176336773637033
 30
0.0
 10
-14.30939071392641
 20
1.323369678808693
 30
0.0
 10
-14.71630717831508
 20
1.462257769277224
 30
0.0
 10
-15.12325777030863
 20
1.592147547425806
 30
0.0
 10
-15.53024751273405
 20
1.712230601133978
 30
0.0
 10
-15.93727584070232
 20
1.82177077109422
 30
0.0
 10
-16.34434572228649
 20
1.920083823659922
 30
0.0
 10
-16.75145751884367
 20
2.006564327013067
 30
0.0
 10
-17.1586083120482
 20
2.08067207115812
 30
0.0
 10
-17.56579484365439
 20
2.141945411597179
 30
0.0
 10
-17.97300941824827
 20
2.190008535464796
 30
0.0
 10
-18.38024935922472
 20
2.224550859114438
 30
0.0
 10
-18.78750605620085
 20
2.245365162512015
 30
0.0
 10
-19.1947717023959
 20
2.252318532551603
 30
0.0
 10
-19.60203734799171
 20
2.245365162501148
 30
0.0
 10
-20.00929404676902
 20
2.224550859158239
 30
0.0
 10
-20.41653398111398
 20
2.190008535300066
 30
0.0
 10
-20.82374858057089
 20
2.141945412216687
 30
0.0
 10
-21.23093303359559
 20
2.080672367546652
 30
0.0
 10
-21.63808222278098
 20
2.006565084724894
 30
0.0
 10
-22.02668352945145
 20
1.924009491000973
 30
0.0
 10
-22.2788124827367
 20
1.863635804857036
 30
0.0
 10
-22.39578562192284
 20
1.834212762393322
 30
0.0
  0
SPLINE
  5
47A8
330
1F
100
AcDbEntity
  8
AM_0
100
AcDbSpline
210
0.0
220
0.0
230
1.0
 70
     8
 71
     3
 72
    23
 73
    19
 74
     0
 42
0.0000000001
 43
0.0000000001
 40
16.03460024169435
 40
16.03460024169435
 40
16.03460024169435
 40
16.03460024169435
 40
16.35212704903564
 40
17.38177054169784
 40
18.41822485651776
 40
19.46214173629503
 40
20.51396345435107
 40
21.57393551351153
 40
22.64208202342361
 40
23.7182574881101
 40
24.80209208578934
 40
25.89306333925047
 40
26.99048218457928
 40
28.09348763352352
 40
29.20111863782268
 40
30.31232390128032
 40
31.42594612798585
 40
32.5407912310448
 40
32.5407912310486
 40
32.5407912310486
 40
32.5407912310486
 10
-24.09053022887686
 20
2.250321424805541
 30
0.0
 10
-24.04868957277461
 20
2.242725821029674
 30
0.0
 10
-23.87135048676708
 20
2.209649104415264
 30
0.0
 10
-23.55896577695373
 20
2.144840326352675
 30
0.0
 10
-23.15442675996992
 20
2.048470382115506
 30
0.0
 10
-22.75026349785329
 20
1.940262997980595
 30
0.0
 10
-22.34645210827437
 20
1.8208444230958
 30
0.0
 10
-21.94297825925138
 20
1.69088041868953
 30
0.0
 10
-21.53981863096276
 20
1.551113913818506
 30
0.0
 10
-21.13694514890438
 20
1.402358314482631
 30
0.0
 10
-20.73433492035801
 20
1.245456014967948
 30
0.0
 10
-20.33195566660175
 20
1.081319993196272
 30
0.0
 10
-19.92977477929672
 20
0.9109042786408402
 30
0.0
 10
-19.5277654622775
 20
0.7351886902174999
 30
0.0
 10
-19.12589407991275
 20
0.555194990009662
 30
0.0
 10
-18.72412341040142
 20
0.3719742091728851
 30
0.0
 10
-18.32242073826959
 20
0.1865880625176802
 30
0.0
 10
-18.05469088831346
 20
0.0622967879950958
 30
0.0
 10
-17.92075295175376
 20
0.0001162123894523
 30
0.0
  0
SPLINE
  5
47A9
330
1F
100
AcDbEntity
  8
AM_0
100
AcDbSpline
210
0.0
220
0.0
230
1.0
 70
     8
 71
     3
 72
    46
 73
    42
 74
     0
 42
0.0000000001
 43
0.0000000001
 40
0.0
 40
0.0
 40
0.0
 40
0.0
 40
0.5056245176053715
 40
0.759310862862336
 40
1.013969309739036
 40
1.269880374404297
 40
1.527291183660732
 40
1.786406454158005
 40
2.047386241038974
 40
2.310345544571907
 40
2.575337113970003
 40
2.842374715221223
 40
3.111417320030211
 40
3.382376832022752
 40
3.655120036292296
 40
3.929472521611371
 40
4.205224030350333
 40
4.482133246366229
 40
4.759933319229942
 40
5.038338087391601
 40
5.317048131389549
 40
5.595758175387723
 40
5.874162943549382
 40
6.151963016412868
 40
6.428872232428759
 40
6.704623741167953
 40
6.978976226486702
 40
7.251719430756334
 40
7.522680721168324
 40
7.791723325977308
 40
8.058760927228528
 40
8.323752496626548
 40
8.586708135057122
 40
8.84768792193809
 40
9.106803192435362
 40
9.364213819003406
 40
9.620125035580642
 40
9.874787266973068
 40
10.12847352585207
 40
10.38149610319407
 40
10.63418200686337
 40
10.63418200686337
 40
10.63418200686337
 40
10.63418200686337
 10
-16.2732219605524
 20
-2.249998228528113
 30
0.0
 10
-16.54480581038652
 20
-2.244872554601045
 30
0.0
 10
-16.95265107930992
 20
-2.237175182822582
 30
0.0
 10
-17.49498071881048
 20
-2.189783878865102
 30
0.0
 10
-17.90219954778457
 20
-2.142000837830278
 30
0.0
 10
-18.30938356924282
 20
-2.080655529850043
 30
0.0
 10
-18.71653171052306
 20
-2.006563685704427
 30
0.0
 10
-19.12364188002547
 20
-1.920079527528821
 30
0.0
 10
-19.53071339590167
 20
-1.821766444713921
 30
0.0
 10
-19.93774444653964
 20
-1.712228094141665
 30
0.0
 10
-20.34473584549684
 20
-1.59214387328389
 30
0.0
 10
-20.75168649809012
 20
-1.462254263611483
 30
0.0
 10
-21.15860294219947
 20
-1.323366119262242
 30
0.0
 10
-21.56548715552017
 20
-1.176333259718916
 30
0.0
 10
-21.972342879732
 20
-1.022062363549458
 30
0.0
 10
-22.37917463607246
 20
-0.8615051840888996
 30
0.0
 10
-22.78598599003572
 20
-0.6956490600319455
 30
0.0
 10
-23.19278090092261
 20
-0.5255140938482642
 30
0.0
 10
-23.59956368191891
 20
-0.3521473665625285
 30
0.0
 10
-24.00633804901183
 20
-0.1766149616814152
 30
0.0
 10
-24.41310899668764
 20
0.0000017714365077
 30
0.0
 10
-24.81987994427403
 20
0.1766185047690563
 30
0.0
 10
-25.22665431163503
 20
0.3521509090066077
 30
0.0
 10
-25.63343709165156
 20
0.5255176386442752
 30
0.0
 10
-26.04023200617141
 20
0.6956525961055038
 30
0.0
 10
-26.44704334666414
 20
0.8615087525044206
 30
0.0
 10
-26.85387515289047
 20
1.022065812191317
 30
0.0
 10
-27.26073157706229
 20
1.176337486783008
 30
0.0
 10
-27.66761737133874
 20
1.323369010458273
 30
0.0
 10
-28.07453454132465
 20
1.462257866978353
 30
0.0
 10
-28.48148518444299
 20
1.592147515299831
 30
0.0
 10
-28.8884749115257
 20
1.712230632686238
 30
0.0
 10
-29.29550325019949
 20
1.821770677723987
 30
0.0
 10
-29.70257310443706
 20
1.92008416215859
 30
0.0
 10
-30.10968303832548
 20
2.006562662086534
 30
0.0
 10
-30.51683147810185
 20
2.080675995786621
 30
0.0
 10
-30.92401809823991
 20
2.14193370188045
 30
0.0
 10
-31.33123482891861
 20
2.190053126622582
 30
0.0
 10
-31.73847675389827
 20
2.224383802393898
 30
0.0
 10
-32.14573346145691
 20
2.245986780489061
 30
0.0
 10
-32.41730415651613
 20
2.248664035269125
 30
0.0
 10
-32.55299910542014
 20
2.250001771472602
 30
0.0
  0
SPLINE
  5
47AA
330
1F
100
AcDbEntity
  8
AM_0
100
AcDbSpline
210
0.0
220
0.0
230
1.0
 70
     8
 71
     3
 72
    42
 73
    38
 74
     0
 42
0.0000000001
 43
0.0000000001
 40
1.278384351700087
 40
1.278384351700087
 40
1.278384351700087
 40
1.278384351700087
 40
1.527291183660732
 40
1.786406454158005
 40
2.047386241038974
 40
2.310345544571907
 40
2.575337113970003
 40
2.842374715221223
 40
3.111417320030211
 40
3.382376832022752
 40
3.655120036292296
 40
3.929472521611371
 40
4.205224030350333
 40
4.482133246366229
 40
4.759933319229942
 40
5.038338087391601
 40
5.317048131389549
 40
5.595758175387723
 40
5.874162943549383
 40
6.151963016412869
 40
6.428872232428759
 40
6.704623741167955
 40
6.978976226486705
 40
7.251719430756336
 40
7.522680721168327
 40
7.791723325977311
 40
8.058760927228529
 40
8.32375249662655
 40
8.586708135057122
 40
8.84768792193809
 40
9.106803192435362
 40
9.364213819003406
 40
9.620125035580644
 40
9.87478726697307
 40
10.12847352585208
 40
10.38149610319407
 40
10.63418200686337
 40
10.63418200686337
 40
10.63418200686337
 40
10.63418200686337
 10
-2.750831607209747
 20
-2.249998228528706
 30
0.0
 10
-3.853259780503285
 20
-2.121480970493078
 30
0.0
 10
-4.122101101208322
 20
-2.071902684864268
 30
0.0
 10
-4.625371487161222
 20
-1.920079527529414
 30
0.0
 10
-5.032443003037419
 20
-1.821766444714513
 30
0.0
 10
-5.439474053675383
 20
-1.712228094142257
 30
0.0
 10
-5.846465452632575
 20
-1.592143873284484
 30
0.0
 10
-6.253416105225863
 20
-1.462254263612077
 30
0.0
 10
-6.660332549335221
 20
-1.323366119262837
 30
0.0
 10
-7.067216762655908
 20
-1.176333259719509
 30
0.0
 10
-7.474072486867738
 20
-1.022062363550052
 30
0.0
 10
-7.880904243208219
 20
-0.8615051840894924
 30
0.0
 10
-8.287715597171477
 20
-0.6956490600325383
 30
0.0
 10
-8.694510508058389
 20
-0.5255140938488571
 30
0.0
 10
-9.101293289054664
 20
-0.3521473665631215
 30
0.0
 10
-9.508067656147595
 20
-0.1766149616820082
 30
0.0
 10
-9.91483860382338
 20
0.0000017714359152
 30
0.0
 10
-10.32160955140978
 20
0.1766185047684627
 30
0.0
 10
-10.72838391877076
 20
0.3521509090060154
 30
0.0
 10
-11.1351666987873
 20
0.5255176386436818
 30
0.0
 10
-11.54196161330711
 20
0.695652596104912
 30
0.0
 10
-11.94877295379987
 20
0.8615087525038269
 30
0.0
 10
-12.35560476002621
 20
1.022065812190724
 30
0.0
 10
-12.76246118419803
 20
1.176337486782416
 30
0.0
 10
-13.16934697847448
 20
1.32336901045768
 30
0.0
 10
-13.57626414846039
 20
1.46225786697776
 30
0.0
 10
-13.98321479157872
 20
1.592147515299238
 30
0.0
 10
-14.39020451866149
 20
1.712230632685644
 30
0.0
 10
-14.79723285733526
 20
1.821770677723395
 30
0.0
 10
-15.20430271157284
 20
1.920084162157998
 30
0.0
 10
-15.61141264546126
 20
2.006562662085941
 30
0.0
 10
-16.01856108523761
 20
2.08067599578603
 30
0.0
 10
-16.42574770537569
 20
2.141933701879857
 30
0.0
 10
-16.8329644360544
 20
2.19005312662199
 30
0.0
 10
-17.24020636103408
 20
2.224383802393303
 30
0.0
 10
-17.64746306859269
 20
2.245986780488468
 30
0.0
 10
-17.91903376365191
 20
2.248664035268534
 30
0.0
 10
-18.05472871255591
 20
2.25000177147201
 30
0.0
  0
SPLINE
  5
47AB
330
1F
100
AcDbEntity
  8
AM_0
100
AcDbSpline
210
0.0
220
0.0
230
1.0
 70
     8
 71
     3
 72
    23
 73
    19
 74
     0
 42
0.0000000001
 43
0.0000000001
 40
16.03460024169435
 40
16.03460024169435
 40
16.03460024169435
 40
16.03460024169435
 40
16.35212704903564
 40
17.38177054169784
 40
18.41822485651776
 40
19.46214173629503
 40
20.51396345435107
 40
21.57393551351153
 40
22.64208202342361
 40
23.7182574881101
 40
24.80209208578934
 40
25.89306333925047
 40
26.99048218457928
 40
28.09348763352352
 40
29.20111863782268
 40
30.31232390128032
 40
31.42594612798585
 40
32.5407912310448
 40
32.5407912310486
 40
32.5407912310486
 40
32.5407912310486
 10
-38.96406582622116
 20
2.250001771472717
 30
0.0
 10
-38.54959596139883
 20
2.217839204320637
 30
0.0
 10
-38.35230604539391
 20
2.188478496159751
 30
0.0
 10
-38.05729209107277
 20
2.144840326353268
 30
0.0
 10
-37.65275307408895
 20
2.048470382116096
 30
0.0
 10
-37.24858981197233
 20
1.940262997981185
 30
0.0
 10
-36.84477842239344
 20
1.820844423096392
 30
0.0
 10
-36.44130457337043
 20
1.690880418690122
 30
0.0
 10
-36.03814494508186
 20
1.551113913819097
 30
0.0
 10
-35.63527146302348
 20
1.402358314483223
 30
0.0
 10
-35.23266123447713
 20
1.245456014968539
 30
0.0
 10
-34.83028198072085
 20
1.081319993196864
 30
0.0
 10
-34.42810109341582
 20
0.9109042786414317
 30
0.0
 10
-34.02609177639656
 20
0.7351886902180917
 30
0.0
 10
-33.62422039403181
 20
0.5551949900102541
 30
0.0
 10
-33.22244972452049
 20
0.3719742091734768
 30
0.0
 10
-32.82074705238865
 20
0.186588062518272
 30
0.0
 10
-32.5530172024325
 20
0.0622967879956873
 30
0.0
 10
-32.41907926587281
 20
0.0001162123900438
 30
0.0
  0
SPLINE
  5
47AC
330
1F
100
AcDbEntity
  8
AM_0
100
AcDbSpline
210
0.0
220
0.0
230
1.0
 70
     8
 71
     3
 72
    55
 73
    51
 74
     0
 42
0.0000000001
 43
0.0000000001
 40
0.0
 40
0.0
 40
0.0
 40
0.0
 40
1.010743684496582
 40
2.022833576467832
 40
3.037578957496688
 40
4.056212745003489
 40
5.079857003664532
 40
6.109500240690281
 40
7.145961322679372
 40
8.189895241603872
 40
9.241717795325891
 40
10.30168407291828
 40
11.36983447792315
 40
12.44600489715814
 40
13.52984294512926
 40
14.62081576220742
 40
15.7182257034828
 40
16.82123173843959
 40
17.92886860250316
 40
19.0400688939571
 40
20.15368796660465
 40
21.26852814259644
 40
22.38336992938901
 40
23.49698739941135
 40
24.6081876908653
 40
25.71582455492886
 40
26.81883757994213
 40
27.91624752121713
 40
29.00722033829659
 40
30.09105838626677
 40
31.16722880550176
 40
32.23537921050758
 40
33.29534548809967
 40
34.347168041821
 40
35.39108718934584
 40
36.42754827133493
 40
37.45720575381954
 40
38.48085062012849
 40
39.49948440763516
 40
40.51422944315121
 40
41.52631975251916
 40
42.53706336719636
 40
43.54780698187354
 40
44.55989729124051
 40
45.57464232675757
 40
46.59327611426424
 40
47.6169209805722
 40
48.64656348684535
 40
49.68302456883444
 40
50.58557219878025
 40
50.58557219878025
 40
50.58557219878025
 40
50.58557219878025
 10
-17.41326495029259
 20
-2.249998228528064
 30
0.0
 10
-17.54895987505845
 20
-2.248659533037639
 30
0.0
 10
-17.82053045638675
 20
-2.245980359050976
 30
0.0
 10
-18.22778749866831
 20
-2.224383208968204
 30
0.0
 10
-18.63502715668227
 20
-2.190049382141645
 30
0.0
 10
-19.04224161055957
 20
-2.141929218030469
 30
0.0
 10
-19.44942679694098
 20
-2.080674837117201
 30
0.0
 10
-19.85657468297314
 20
-2.006558627872207
 30
0.0
 10
-20.26368663054773
 20
-1.920079863498221
 30
0.0
 10
-20.67075902940449
 20
-1.821768098571356
 30
0.0
 10
-21.07778910663853
 20
-1.712226961364278
 30
0.0
 10
-21.48477889106974
 20
-1.592144030271827
 30
0.0
 10
-21.89172947269794
 20
-1.46225422106463
 30
0.0
 10
-22.29864593604465
 20
-1.323366130799267
 30
0.0
 10
-22.70553014412506
 20
-1.176333256548067
 30
0.0
 10
-23.11238586986974
 20
-1.022062364588373
 30
0.0
 10
-23.51921762536373
 20
-0.8615051831251223
 30
0.0
 10
-23.92602898117978
 20
-0.6956490628591303
 30
0.0
 10
-24.33282388546845
 20
-0.5255140834496546
 30
0.0
 10
-24.73960669110804
 20
-0.3521474054819161
 30
0.0
 10
-25.14638096597103
 20
-0.176614816044599
 30
0.0
 10
-25.55315245434019
 20
0.0000013123905617
 30
0.0
 10
-25.95992211664574
 20
0.1766206200261023
 30
0.0
 10
-26.36669775492742
 20
0.3521504759567083
 30
0.0
 10
-26.77348005838819
 20
0.5255176786955116
 30
0.0
 10
-27.18027568798766
 20
0.6956533062434249
 30
0.0
 10
-27.58708873145237
 20
0.8615080110641644
 30
0.0
 10
-27.99392112903438
 20
1.02206600677572
 30
0.0
 10
-28.40077691351551
 20
1.176336773637626
 30
0.0
 10
-28.8076611067907
 20
1.323369678809285
 30
0.0
 10
-29.21457757117935
 20
1.462257769277816
 30
0.0
 10
-29.62152816317288
 20
1.592147547426401
 30
0.0
 10
-30.02851790559827
 20
1.712230601134573
 30
0.0
 10
-30.43554623356655
 20
1.821770771094812
 30
0.0
 10
-30.84261611515072
 20
1.920083823660515
 30
0.0
 10
-31.24972791170788
 20
2.006564327013661
 30
0.0
 10
-31.65687870491242
 20
2.080672071158714
 30
0.0
 10
-32.06406523651862
 20
2.141945411597771
 30
0.0
 10
-32.47127981111249
 20
2.19000853546539
 30
0.0
 10
-32.87851975208896
 20
2.224550859115033
 30
0.0
 10
-33.28577644906508
 20
2.245365162512607
 30
0.0
 10
-33.69304209526011
 20
2.252318532552196
 30
0.0
 10
-34.10030774085594
 20
2.24536516250174
 30
0.0
 10
-34.50756443963324
 20
2.224550859158835
 30
0.0
 10
-34.91480437397821
 20
2.190008535300659
 30
0.0
 10
-35.32201897343512
 20
2.141945412217281
 30
0.0
 10
-35.72920342645982
 20
2.080672367547246
 30
0.0
 10
-36.13635261564523
 20
2.006565084725488
 30
0.0
 10
-36.52495392231568
 20
1.924009491001565
 30
0.0
 10
-36.77708287560096
 20
1.86363580485763
 30
0.0
 10
-36.8940560147871
 20
1.834212762393915
 30
0.0
  0
SPLINE
  5
47AD
330
1F
100
AcDbEntity
  8
AM_0
 48
0.5
100
AcDbSpline
210
0.0
220
0.0
230
1.0
 70
     8
 71
     3
 72
    20
 73
    16
 74
     0
 42
0.0000000001
 43
0.0000000001
 40
12.04260318190555
 40
12.04260318190555
 40
12.04260318190555
 40
12.04260318190555
 40
13.08720139956839
 40
14.16337181880432
 40
15.23152222380919
 40
16.29148850140128
 40
17.34331105512262
 40
18.38723020264746
 40
19.42369128463655
 40
20.45333379090873
 40
21.47697865721768
 40
22.49561244472435
 40
23.5103574802404
 40
24.52244778960836
 40
25.53320666051913
 40
25.53320666051913
 40
25.53320666051913
 40
25.53320666051913
 10
-4.705535260561524
 20
1.032529956725282
 30
0.0
 10
-4.828644098333075
 20
1.092199162621829
 30
0.0
 10
-5.212675141799703
 20
1.214625410585014
 30
0.0
 10
-6.108204001029292
 20
1.462257773079465
 30
0.0
 10
-6.515154594725478
 20
1.592147540083748
 30
0.0
 10
-6.922144334843615
 20
1.71223062644694
 30
0.0
 10
-7.329172670271018
 20
1.821770678171764
 30
0.0
 10
-7.736242524606812
 20
1.920084166482371
 30
0.0
 10
-8.14335246128275
 20
2.006562644527837
 30
0.0
 10
-8.550500889921671
 20
2.080676061110205
 30
0.0
 10
-8.957685544933941
 20
2.141933158127796
 30
0.0
 10
-9.364900090689827
 20
2.190053578224329
 30
0.0
 10
-9.772140039271745
 20
2.224383726705752
 30
0.0
 10
-10.17939877994818
 20
2.245986911978906
 30
0.0
 10
-10.45097152703322
 20
2.248664072342693
 30
0.0
 10
-10.58666852604328
 20
2.250001771471679
 30
0.0
  0
LINE
  5
47AE
330
1F
100
AcDbEntity
  8
AM_0
100
AcDbLine
 10
-38.96406582622117
 20
2.250001771472717
 30
0.0
 11
-48.1913684091203
 21
2.250001771472588
 31
0.0
  0
SPLINE
  5
47AF
330
1F
100
AcDbEntity
  8
AM_0
100
AcDbSpline
210
0.0
220
0.0
230
1.0
 70
     8
 71
     3
 72
    53
 73
    49
 74
     0
 42
0.0000000001
 43
0.0000000001
 40
0.0
 40
0.0
 40
0.0
 40
0.0
 40
1.010743684496582
 40
2.022833576467832
 40
3.037578957496688
 40
4.056212745003489
 40
5.079857003664532
 40
6.109500240690281
 40
7.145961322679372
 40
8.189895241603872
 40
9.241717795325891
 40
10.30168407291828
 40
11.36983447792315
 40
12.44600489715814
 40
13.52984294512926
 40
14.62081576220742
 40
15.7182257034828
 40
16.82123173843959
 40
17.92886860250316
 40
19.0400688939571
 40
20.15368796660465
 40
21.26852814259644
 40
22.38336992938901
 40
23.49698739941135
 40
24.6081876908653
 40
25.71582455492886
 40
26.81883757994213
 40
27.91624752121713
 40
29.00722033829659
 40
30.09105838626677
 40
31.16722880550176
 40
32.23537921050758
 40
33.29534548809967
 40
34.347168041821
 40
35.39108718934584
 40
36.42754827133493
 40
37.45720575381954
 40
38.48085062012849
 40
39.49948440763516
 40
40.51422944315121
 40
41.52631975251916
 40
42.53706336719636
 40
43.54780698187354
 40
44.55989729124051
 40
45.57464232675757
 40
46.59327611426424
 40
47.6169209805722
 40
48.09406548152615
 40
48.09406548152615
 40
48.09406548152615
 40
48.09406548152615
 10
-31.91159126441165
 20
-2.249998228528076
 30
0.0
 10
-32.0472861891775
 20
-2.24865953303765
 30
0.0
 10
-32.31885677050581
 20
-2.245980359050988
 30
0.0
 10
-32.72611381278737
 20
-2.224383208968216
 30
0.0
 10
-33.13335347080133
 20
-2.190049382141657
 30
0.0
 10
-33.54056792467863
 20
-2.14192921803048
 30
0.0
 10
-33.94775311106004
 20
-2.080674837117212
 30
0.0
 10
-34.35490099709221
 20
-2.006558627872219
 30
0.0
 10
-34.7620129446668
 20
-1.920079863498233
 30
0.0
 10
-35.16908534352355
 20
-1.821768098571368
 30
0.0
 10
-35.57611542075759
 20
-1.712226961364289
 30
0.0
 10
-35.98310520518881
 20
-1.592144030271839
 30
0.0
 10
-36.390055786817
 20
-1.462254221064641
 30
0.0
 10
-36.79697225016372
 20
-1.323366130799278
 30
0.0
 10
-37.20385645824412
 20
-1.176333256548078
 30
0.0
 10
-37.61071218398879
 20
-1.022062364588385
 30
0.0
 10
-38.0175439394828
 20
-0.861505183125134
 30
0.0
 10
-38.42435529529885
 20
-0.695649062859142
 30
0.0
 10
-38.83115019958751
 20
-0.5255140834496662
 30
0.0
 10
-39.2379330052271
 20
-0.3521474054819277
 30
0.0
 10
-39.64470728009008
 20
-0.1766148160446106
 30
0.0
 10
-40.05147876845925
 20
0.0000013123905501
 30
0.0
 10
-40.4582484307648
 20
0.1766206200260906
 30
0.0
 10
-40.86502406904648
 20
0.3521504759566967
 30
0.0
 10
-41.27180637250726
 20
0.5255176786955
 30
0.0
 10
-41.67860200210672
 20
0.6956533062434131
 30
0.0
 10
-42.08541504557143
 20
0.8615080110641526
 30
0.0
 10
-42.49224744315345
 20
1.022066006775708
 30
0.0
 10
-42.89910322763456
 20
1.176336773637615
 30
0.0
 10
-43.30598742090976
 20
1.323369678809274
 30
0.0
 10
-43.71290388529842
 20
1.462257769277805
 30
0.0
 10
-44.11985447729194
 20
1.59214754742639
 30
0.0
 10
-44.52684421971733
 20
1.712230601134561
 30
0.0
 10
-44.9338725476856
 20
1.821770771094801
 30
0.0
 10
-45.34094242926977
 20
1.920083823660504
 30
0.0
 10
-45.74805422582694
 20
2.006564327013649
 30
0.0
 10
-46.15520501903148
 20
2.080672071158703
 30
0.0
 10
-46.56239155063768
 20
2.14194541159776
 30
0.0
 10
-46.96960612523155
 20
2.190008535465378
 30
0.0
 10
-47.37684606620802
 20
2.224550859115021
 30
0.0
 10
-47.78410276318413
 20
2.245365162512595
 30
0.0
 10
-48.19136840937917
 20
2.252318532552185
 30
0.0
 10
-48.59863405497499
 20
2.245365162501729
 30
0.0
 10
-49.00589075375229
 20
2.224550859158824
 30
0.0
 10
-49.41313068809727
 20
2.190008535300647
 30
0.0
 10
-49.82034528755418
 20
2.14194541221727
 30
0.0
 10
-50.15429589557789
 20
2.091692583625651
 30
0.0
 10
-50.35237469873008
 20
2.057327280188059
 30
0.0
 10
-50.41525896065849
 20
2.045965981952655
 30
0.0
  0
SPLINE
  5
47B0
330
1F
100
AcDbEntity
  8
AM_0
100
AcDbSpline
210
0.0
220
0.0
230
1.0
 70
     8
 71
     3
 72
    46
 73
    42
 74
     0
 42
0.0000000001
 43
0.0000000001
 40
0.0
 40
0.0
 40
0.0
 40
0.0
 40
0.5056245176053715
 40
0.759310862862336
 40
1.013969309739036
 40
1.269880374404297
 40
1.527291183660732
 40
1.786406454158005
 40
2.047386241038974
 40
2.310345544571907
 40
2.575337113970003
 40
2.842374715221223
 40
3.111417320030211
 40
3.382376832022752
 40
3.655120036292296
 40
3.929472521611371
 40
4.205224030350333
 40
4.482133246366229
 40
4.759933319229942
 40
5.038338087391601
 40
5.317048131389549
 40
5.595758175387723
 40
5.874162943549382
 40
6.151963016412868
 40
6.428872232428759
 40
6.704623741167953
 40
6.978976226486702
 40
7.251719430756334
 40
7.522680721168324
 40
7.791723325977308
 40
8.058760927228528
 40
8.323752496626548
 40
8.586708135057122
 40
8.84768792193809
 40
9.106803192435362
 40
9.364213819003406
 40
9.620125035580642
 40
9.874787266973068
 40
10.12847352585207
 40
10.38149610319407
 40
10.63418200686337
 40
10.63418200686337
 40
10.63418200686337
 40
10.63418200686337
 10
-30.77154827467146
 20
-2.249998228528125
 30
0.0
 10
-31.04313212450559
 20
-2.244872554601057
 30
0.0
 10
-31.45097739342899
 20
-2.237175182822594
 30
0.0
 10
-31.99330703292954
 20
-2.189783878865114
 30
0.0
 10
-32.40052586190364
 20
-2.14200083783029
 30
0.0
 10
-32.80770988336188
 20
-2.080655529850055
 30
0.0
 10
-33.21485802464212
 20
-2.006563685704438
 30
0.0
 10
-33.62196819414453
 20
-1.920079527528833
 30
0.0
 10
-34.02903971002074
 20
-1.821766444713933
 30
0.0
 10
-34.43607076065869
 20
-1.712228094141677
 30
0.0
 10
-34.8430621596159
 20
-1.592143873283901
 30
0.0
 10
-35.25001281220918
 20
-1.462254263611495
 30
0.0
 10
-35.65692925631852
 20
-1.323366119262254
 30
0.0
 10
-36.06381346963922
 20
-1.176333259718928
 30
0.0
 10
-36.47066919385105
 20
-1.022062363549469
 30
0.0
 10
-36.87750095019153
 20
-0.8615051840889114
 30
0.0
 10
-37.28431230415478
 20
-0.6956490600319572
 30
0.0
 10
-37.69110721504168
 20
-0.5255140938482759
 30
0.0
 10
-38.09788999603797
 20
-0.3521473665625402
 30
0.0
 10
-38.50466436313089
 20
-0.1766149616814269
 30
0.0
 10
-38.91143531080669
 20
0.0000017714364961
 30
0.0
 10
-39.31820625839309
 20
0.1766185047690447
 30
0.0
 10
-39.72498062575408
 20
0.3521509090065961
 30
0.0
 10
-40.13176340577063
 20
0.5255176386442636
 30
0.0
 10
-40.53855832029046
 20
0.6956525961054921
 30
0.0
 10
-40.9453696607832
 20
0.861508752504409
 30
0.0
 10
-41.35220146700954
 20
1.022065812191305
 30
0.0
 10
-41.75905789118135
 20
1.176337486782996
 30
0.0
 10
-42.16594368545781
 20
1.323369010458262
 30
0.0
 10
-42.57286085544371
 20
1.462257866978342
 30
0.0
 10
-42.97981149856205
 20
1.592147515299819
 30
0.0
 10
-43.38680122564476
 20
1.712230632686226
 30
0.0
 10
-43.79382956431854
 20
1.821770677723976
 30
0.0
 10
-44.20089941855612
 20
1.920084162158579
 30
0.0
 10
-44.60800935244454
 20
2.006562662086522
 30
0.0
 10
-45.0151577922209
 20
2.080675995786609
 30
0.0
 10
-45.42234441235897
 20
2.141933701880438
 30
0.0
 10
-45.82956114303768
 20
2.19005312662257
 30
0.0
 10
-46.23680306801733
 20
2.224383802393886
 30
0.0
 10
-46.64405977557597
 20
2.24598678048905
 30
0.0
 10
-46.91563047063519
 20
2.248664035269114
 30
0.0
 10
-47.05132541953919
 20
2.25000177147259
 30
0.0
  0
SPLINE
  5
4830
330
1F
100
AcDbEntity
  8
AM_0
100
AcDbSpline
210
0.0
220
0.0
230
1.0
 70
     8
 71
     3
 72
    20
 73
    16
 74
     0
 42
0.0000000001
 43
0.0000000001
 40
19.06958205160103
 40
19.06958205160103
 40
19.06958205160103
 40
19.06958205160103
 40
19.46214173629503
 40
20.51396345435107
 40
21.57393551351153
 40
22.64208202342361
 40
23.7182574881101
 40
24.80209208578934
 40
25.89306333925047
 40
26.99048218457928
 40
28.09348763352352
 40
29.20111863782268
 40
30.31232390128032
 40
31.42594612798585
 40
32.5407912310448
 40
32.5407912310486
 40
32.5407912310486
 40
32.5407912310486
 10
-50.5
 20
2.250258791751217
 30
0.0
 10
-50.40899345336088
 20
2.013908914637543
 30
0.0
 10
-50.32238504746556
 20
1.900939872960588
 30
0.0
 10
-49.98711212028223
 20
1.806169992595822
 30
0.0
 10
-49.56499121085511
 20
1.676205988189568
 30
0.0
 10
-49.14319904427586
 20
1.536439483318563
 30
0.0
 10
-48.72170624854115
 20
1.387683883982702
 30
0.0
 10
-48.30048887291649
 20
1.230781584468036
 30
0.0
 10
-47.8795131468775
 20
1.066645562696379
 30
0.0
 10
-47.45874495504921
 20
0.8962298481409652
 30
0.0
 10
-47.0381562628471
 20
0.7205142597176425
 30
0.0
 10
-46.6177118801261
 20
0.5405205595098187
 30
0.0
 10
-46.19737286483197
 20
0.357299778673063
 30
0.0
 10
-45.77710498950327
 20
0.1719136320178725
 30
0.0
 10
-45.49700166182062
 20
0.0476223574952959
 30
0.0
 10
-45.35687361207396
 20
-0.0145582181103416
 30
0.0
  0
SPLINE
  5
4841
330
1F
100
AcDbEntity
  8
AM_0
100
AcDbSpline
210
0.0
220
0.0
230
1.0
 70
     8
 71
     3
 72
    14
 73
    10
 74
     0
 42
0.0000000001
 43
0.0000000001
 40
1.580019955310467
 40
1.580019955310467
 40
1.580019955310467
 40
1.580019955310467
 40
2.030549285115227
 40
3.082371838836284
 40
4.126290986361125
 40
5.162752068350215
 40
6.192395305374981
 40
7.216039564037012
 40
8.092146932806128
 40
8.092146932806128
 40
8.092146932806128
 40
8.092146932806128
 10
-47.79671287100143
 20
-1.675558567189444
 30
0.0
 10
-47.85699593021169
 20
-1.692661020118858
 30
0.0
 10
-48.05836160080287
 20
-1.748716593954139
 30
0.0
 10
-48.40214273709857
 20
-1.836641767218001
 30
0.0
 10
-48.82796653148615
 20
-1.935106297201432
 30
0.0
 10
-49.25390755476566
 20
-2.021545081229241
 30
0.0
 10
-49.67986809451416
 20
-2.095667838437268
 30
0.0
 10
-50.08610780548588
 20
-2.154092507694155
 30
0.0
 10
-50.37267909729568
 20
-2.222044617137772
 30
0.0
 10
-50.5
 20
-2.24996797097474
 30
0.0
  0
SPLINE
  5
4842
330
1F
100
AcDbEntity
  8
AM_0
100
AcDbSpline
210
0.0
220
0.0
230
1.0
 70
     8
 71
     3
 72
    25
 73
    21
 74
     0
 42
0.0000000001
 43
0.0000000001
 40
1.163660092745933
 40
1.163660092745933
 40
1.163660092745933
 40
1.163660092745933
 40
1.685415058684573
 40
2.531036209541122
 40
3.379897699130124
 40
4.232934581347659
 40
5.09097061220244
 40
5.954688180526682
 40
6.824620803463244
 40
7.701151815239697
 40
8.58445704656667
 40
9.47458238407075
 40
10.37139106676736
 40
11.27458944007584
 40
12.18373345430765
 40
13.09824173870457
 40
14.01741343450111
 40
14.9404441545541
 40
15.86644439743314
 40
16.55140071192301
 40
16.55140071192301
 40
16.55140071192301
 40
16.55140071192301
 10
-43.17925531587561
 20
-2.250000000000093
 30
0.0
 10
-43.26709742781203
 20
-2.24659467673047
 30
0.0
 10
-43.49716891276817
 20
-2.235533329793197
 30
0.0
 10
-43.86921571701437
 20
-2.204458309364877
 30
0.0
 10
-44.29525468543483
 20
-2.156675268330069
 30
0.0
 10
-44.72125723766551
 20
-2.095329960349847
 30
0.0
 10
-45.14722225146988
 20
-2.021238116204251
 30
0.0
 10
-45.57314753858206
 20
-1.934753958028661
 30
0.0
 10
-45.99903238564124
 20
-1.836440875213778
 30
0.0
 10
-46.42487489730939
 20
-1.726902524641541
 30
0.0
 10
-46.85067592474359
 20
-1.606818303783779
 30
0.0
 10
-47.27643432266851
 20
-1.476928694111397
 30
0.0
 10
-47.70215693112063
 20
-1.338040549762166
 30
0.0
 10
-48.12784581919693
 20
-1.191007690218864
 30
0.0
 10
-48.55350490150375
 20
-1.036736794049417
 30
0.0
 10
-48.97913890823335
 20
-0.8761796145888817
 30
0.0
 10
-49.40475156966375
 20
-0.7103234905319378
 30
0.0
 10
-49.83034702807997
 20
-0.5401885243482776
 30
0.0
 10
-50.2186808859604
 20
-0.3819956295492909
 30
0.0
 10
-50.42686085718165
 20
-0.2805253427680655
 30
0.0
 10
-50.5
 20
-0.2372791688393825
 30
0.0
  0
SPLINE
  5
4843
330
1F
100
AcDbEntity
  8
AM_0
100
AcDbSpline
210
0.0
220
0.0
230
1.0
 70
     8
 71
     3
 72
    19
 73
    15
 74
     0
 42
0.0000000001
 43
0.0000000001
 40
1.479671614733745
 40
1.479671614733745
 40
1.479671614733745
 40
1.479671614733745
 40
2.022833576467832
 40
3.037578957496688
 40
4.056212745003489
 40
5.079857003664532
 40
6.109500240690281
 40
7.145961322679372
 40
8.189895241603872
 40
9.241717795325891
 40
10.30168407291828
 40
11.36983447792315
 40
12.44600489715814
 40
13.01371853178965
 40
13.01371853178965
 40
13.01371853178965
 40
13.01371853178965
 10
-44.40691756108928
 20
-2.250000000000093
 30
0.0
 10
-44.48309969149894
 20
-2.246348540408906
 30
0.0
 10
-44.70149306202496
 20
-2.233771067832894
 30
0.0
 10
-45.06195086034245
 20
-2.204723812641464
 30
0.0
 10
-45.48798525146541
 20
-2.156603648530303
 30
0.0
 10
-45.91398902245769
 20
-2.095349267617056
 30
0.0
 10
-46.33995376921736
 20
-2.021233058372079
 30
0.0
 10
-46.76588091657761
 20
-1.934754293998114
 30
0.0
 10
-47.19176668742543
 20
-1.836442529071263
 30
0.0
 10
-47.61760818070253
 20
-1.726901391864203
 30
0.0
 10
-48.04340751899335
 20
-1.606818460771766
 30
0.0
 10
-48.46916584267344
 20
-1.476928651564588
 30
0.0
 10
-48.82682309695709
 20
-1.360246263355957
 30
0.0
 10
-49.03147254851749
 20
-1.28042917827753
 30
0.0
 10
-49.11517421192845
 20
-1.258348739174825
 30
0.0
  0
SPLINE
  5
4846
330
1F
100
AcDbEntity
  8
AM_0
100
AcDbSpline
210
0.0
220
0.0
230
1.0
 70
     8
 71
     3
 72
    22
 73
    18
 74
     0
 42
0.0000000001
 43
0.0000000001
 40
17.17441611292
 40
17.17441611292
 40
17.17441611292
 40
17.17441611292
 40
17.38177636558528
 40
18.41823744757437
 40
19.46215659509824
 40
20.51397914882054
 40
21.57394542641293
 40
22.64209583141747
 40
23.71826625065247
 40
24.80210429862395
 40
25.8930771157021
 40
26.99048705697709
 40
28.09349309193389
 40
29.20112995599786
 40
30.31233024745139
 40
31.42594771747373
 40
32.5407895042663
 40
32.54078950426994
 40
32.54078950426994
 40
32.54078950426994
 10
-39.31008404166267
 20
-2.035188943738182
 30
0.0
 10
-39.33861489481826
 20
-2.029980414422164
 30
0.0
 10
-39.50964177787959
 20
-1.998254693052009
 30
0.0
 10
-39.82295339032143
 20
-1.934640492510288
 30
0.0
 10
-40.24883646665883
 20
-1.836327157490421
 30
0.0
 10
-40.67467614640473
 20
-1.726787064224487
 30
0.0
 10
-41.1004754359634
 20
-1.606703989135452
 30
0.0
 10
-41.52623377288358
 20
-1.476814219018669
 30
0.0
 10
-41.95195639775671
 20
-1.337926117934932
 30
0.0
 10
-42.37764528179821
 20
-1.190893247466165
 30
0.0
 10
-42.8033043636425
 20
-1.036622351268077
 30
0.0
 10
-43.22893837634872
 20
-0.87606518305339
 30
0.0
 10
-43.65455101416329
 20
-0.710209013704832
 30
0.0
 10
-44.08014656156552
 20
-0.5400742184025573
 30
0.0
 10
-44.50572879108952
 20
-0.3667069335561647
 30
0.0
 10
-44.93130400736589
 20
-0.1911769290195535
 30
0.0
 10
-45.21496512800449
 20
-0.0734526783415445
 30
0.0
 10
-45.35687361207585
 20
-0.0145582181095334
 30
0.0
  0
POLYLINE
  5
485B
330
1F
100
AcDbEntity
  8
AM_0
100
AcDb2dPolyline
 66
     1
 10
0.0
 20
0.0
 30
0.0
  0
VERTEX
  5
485C
330
485B
100
AcDbEntity
  8
AM_0
100
AcDbVertex
100
AcDb2dVertex
 10
-49.11371674778774
 20
-1.992404151667559
 30
0.0
 42
-0.0215137390222128
  0
VERTEX
  5
485D
330
485B
100
AcDbEntity
  8
AM_0
100
AcDbVertex
100
AcDb2dVertex
 10
-49.30921067351762
 20
-1.996497669219785
 30
0.0
 42
-0.0481074754172279
  0
VERTEX
  5
485E
330
485B
100
AcDbEntity
  8
AM_0
100
AcDbVertex
100
AcDb2dVertex
 10
-49.55196629213484
 20
-1.972179602937817
 30
0.0
 42
-0.0393662058969625
  0
VERTEX
  5
485F
330
485B
100
AcDbEntity
  8
AM_0
100
AcDbVertex
100
AcDb2dVertex
 10
-50.05413344126118
 20
-1.840309480230331
 30
0.0
 42
-0.0705719844457379
  0
VERTEX
  5
4860
330
485B
100
AcDbEntity
  8
AM_0
100
AcDbVertex
100
AcDb2dVertex
 10
-50.31039325842697
 20
-1.713776059928274
 30
0.0
 42
-0.0827458522828334
  0
VERTEX
  5
4861
330
485B
100
AcDbEntity
  8
AM_0
100
AcDbVertex
100
AcDb2dVertex
 10
-50.46549101737323
 20
-1.568033391624542
 30
0.0
 42
-0.154978185678887
  0
VERTEX
  5
4862
330
485B
100
AcDbEntity
  8
AM_0
100
AcDbVertex
100
AcDb2dVertex
 10
-50.5
 20
-1.463444704991523
 30
0.0
 42
-0.1662693739572807
  0
VERTEX
  5
4863
330
485B
100
AcDbEntity
  8
AM_0
100
AcDbVertex
100
AcDb2dVertex
 10
-50.45984297300345
 20
-1.365961726479675
 30
0.0
 42
-0.0979726163363275
  0
VERTEX
  5
4864
330
485B
100
AcDbEntity
  8
AM_0
100
AcDbVertex
100
AcDb2dVertex
 10
-50.31039325842696
 20
-1.255164158805957
 30
0.0
 42
-0.091851179068373
  0
VERTEX
  5
4865
330
485B
100
AcDbEntity
  8
AM_0
100
AcDbVertex
100
AcDb2dVertex
 10
-50.07613157973259
 20
-1.186988904529407
 30
0.0
 42
-0.04285893167511
  0
VERTEX
  5
4866
330
485B
100
AcDbEntity
  8
AM_0
100
AcDbVertex
100
AcDb2dVertex
 10
-49.55196629213483
 20
-1.164963850801132
 30
0.0
 42
-0.0486913360624554
  0
VERTEX
  5
4867
330
485B
100
AcDbEntity
  8
AM_0
100
AcDbVertex
100
AcDb2dVertex
 10
-49.29727632223889
 20
-1.208916254779448
 30
0.0
 42
-0.0386862742512597
  0
VERTEX
  5
4868
330
485B
100
AcDbEntity
  8
AM_0
100
AcDbVertex
100
AcDb2dVertex
 10
-49.11517421192845
 20
-1.258348739174825
 30
0.0
  0
SEQEND
  5
4869
330
485B
100
AcDbEntity
  8
AM_0
  0
SPLINE
  5
4871
330
1F
100
AcDbEntity
  8
AM_0
100
AcDbSpline
210
0.0
220
0.0
230
1.0
 70
     8
 71
     3
 72
    11
 73
     7
 74
     0
 42
0.0000000001
 43
0.0000000001
 40
11.27226913003534
 40
11.27226913003534
 40
11.27226913003534
 40
11.2722691300354
 40
12.28301561507924
 40
13.29510212255852
 40
14.30984805882082
 40
15.18258238371378
 40
15.18258238371378
 40
15.18258238371378
 40
15.18258238371378
 10
-37.67568154801292
 20
-2.250199813659984
 30
0.0
 10
-37.8254478375691
 20
-2.253632751449279
 30
0.0
 10
-38.10803390448728
 20
-2.22697280625727
 30
0.0
 10
-38.53045378309662
 20
-2.173193102483178
 30
0.0
 10
-38.93133769631919
 20
-2.108959143039569
 30
0.0
 10
-39.19060587997795
 20
-2.059580586689999
 30
0.0
 10
-39.31008404166267
 20
-2.035188943738182
 30
0.0
  0
SPLINE
  5
4872
330
1F
100
AcDbEntity
  8
AM_0
100
AcDbSpline
210
0.0
220
0.0
230
1.0
 70
     8
 71
     3
 72
    15
 73
    11
 74
     0
 42
0.0000000001
 43
0.0000000001
 40
4.116313036328508
 40
4.116313036328508
 40
4.116313036328508
 40
4.116313036328508
 40
4.126290986361125
 40
5.162752068350215
 40
6.192395305374981
 40
7.216039564037012
 40
8.234688489606833
 40
9.249433870634691
 40
10.26152376260694
 40
11.27226744710342
 40
11.27226744710342
 40
11.27226744710342
 40
11.27226744710352
 10
-34.69930392982445
 20
-1.932198431949369
 30
0.0
 10
-34.70066538145937
 20
-1.932494211194517
 30
0.0
 10
-34.84345288091631
 20
-1.963495850106536
 30
0.0
 10
-35.12778790783952
 20
-2.021197674163122
 30
0.0
 10
-35.55374844758802
 20
-2.095320431371151
 30
0.0
 10
-35.97975539497391
 20
-2.156587989243872
 30
0.0
 10
-36.40579177395736
 20
-2.204650720843758
 30
0.0
 10
-36.83185468137615
 20
-2.239197163588059
 30
0.0
 10
-37.23852871891912
 20
-2.240600036788381
 30
0.0
 10
-37.48429794568724
 20
-2.242772379012563
 30
0.0
 10
-37.67568154801291
 20
-2.250199813659984
 30
0.0
  0
LINE
  5
4873
330
1F
100
AcDbEntity
  8
AM_11
100
AcDbLine
 10
-44.40893688391601
 20
-2.249903040349481
 30
0.0
 11
-50.5
 21
-2.250000000000107
 31
0.0
  0
LINE
  5
4874
330
1F
100
AcDbEntity
  8
AM_0
100
AcDbLine
 10
-50.5
 20
-2.250000000000107
 30
0.0
 11
-55.56698169394734
 21
-2.250000000000115
 31
0.0
  0
LINE
  5
4876
330
1F
100
AcDbEntity
  8
AM_11
100
AcDbLine
 10
-48.1913684091203
 20
2.250001771472588
 30
0.0
 11
-50.49995195734098
 21
2.250134024691378
 31
0.0
  0
LINE
  5
4877
330
1F
100
AcDbEntity
  8
AM_0
100
AcDbLine
 10
-50.49995195734098
 20
2.250134024691378
 30
0.0
 11
-55.56745089105189
 21
2.250278930790452
 31
0.0
  0
DIMENSION
  5
48D2
330
1F
100
AcDbEntity
  8
AM_5
100
AcDbDimension
  2
*D9
 10
-0.2431446527750196
 20
-0.6680344431605177
 30
0.0
 11
14.84346066979013
 21
0.0000000000000231
 31
0.0
 70
    34
  1
<>
 51
359.9999999999998
  3
AM_JIS$2
100
AcDb2LineAngularDimension
 13
0.0000000000000051
 23
-0.0000000000000013
 33
0.0
 14
-0.2431446527750222
 24
0.6680344431605171
 34
0.0
 15
0.0000000000000051
 25
0.0000000000000018
 35
0.0
 16
15.05273963450959
 26
-6.49311806666257
 36
0.0
1001
ACAD
1000
DSTYLE
1002
{
1070
   179
1070
     3
1002
}
1001
GENIUS_GENDTOL_13
1000

1000
h7
1000

1040
0.0
  0
ELLIPSE
  5
4A77
330
1F
100
AcDbEntity
  8
AM_11
 48
0.5
100
AcDbEllipse
 10
1.245973742738179
 20
9.938177349711942
 30
0.0
 11
-11.30211982727068
 21
0.0000000000045709
 31
0.0
210
0.0
220
0.0
230
1.0
 40
0.9722222222221983
 41
1.130070686340713
 42
1.291800737381399
  0
ELLIPSE
  5
4A78
330
1F
100
AcDbEntity
  8
AM_11
 48
0.5
100
AcDbEllipse
 10
-8.396883400118973
 20
-9.938170192097057
 30
0.0
 11
11.30211982727035
 21
0.0000000000000506
 31
0.0
210
0.0
220
0.0
230
1.0
 40
0.9722222222222226
 41
1.130071552591889
 42
2.011521013575197
  0
ELLIPSE
  5
4A79
330
1F
100
AcDbEntity
  8
AM_11
 48
0.5
100
AcDbEllipse
 10
-8.396883400118973
 20
9.938177349711942
 30
0.0
 11
-11.30211982727035
 21
0.000000000000006
 31
0.0
210
0.0
220
0.0
230
1.0
 40
0.9722222222222219
 41
1.130070686340307
 42
2.011520147323599
  0
ELLIPSE
  5
4A7A
330
1F
100
AcDbEntity
  8
AM_11
 48
0.5
100
AcDbEllipse
 10
-18.03974054297611
 20
-9.938170192097057
 30
0.0
 11
-11.30211982727035
 21
-0.0000000000000041
 31
0.0
210
0.0
220
0.0
230
1.0
 40
0.9722222222222219
 41
4.271664206181687
 42
5.153113667164993
  0
ELLIPSE
  5
4A7B
330
1F
100
AcDbEntity
  8
AM_11
 48
0.5
100
AcDbEllipse
 10
-18.03974054297611
 20
9.938177349711942
 30
0.0
 11
11.30211982727035
 21
0.0000000000001083
 31
0.0
210
0.0
220
0.0
230
1.0
 40
0.9722222222222223
 41
4.271663339930089
 42
5.153112800913382
  0
ELLIPSE
  5
4A7C
330
1F
100
AcDbEntity
  8
AM_11
 48
0.5
100
AcDbEllipse
 10
-27.68259768583057
 20
-9.938170192097057
 30
0.0
 11
-11.30211982727035
 21
-0.0000000000000166
 31
0.0
210
0.0
220
0.0
230
1.0
 40
0.9722222222222226
 41
4.271664206181685
 42
5.153113667164992
  0
ELLIPSE
  5
4A7D
330
1F
100
AcDbEntity
  8
AM_11
 48
0.5
100
AcDbEllipse
 10
-27.68259768583055
 20
9.938177349711942
 30
0.0
 11
-11.30211982727035
 21
-0.0000000000000216
 31
0.0
210
0.0
220
0.0
230
1.0
 40
0.9722222222222223
 41
1.130070686340304
 42
2.011520147323597
  0
ELLIPSE
  5
4A82
330
1F
100
AcDbEntity
  8
AM_11
 48
0.5
100
AcDbEllipse
 10
-37.32544323923979
 20
-9.938170192097111
 30
0.0
 11
-11.30211982727035
 21
-0.0000000000000041
 31
0.0
210
0.0
220
0.0
230
1.0
 40
0.9722222222222219
 41
4.271664206181687
 42
5.153113667164993
  0
ELLIPSE
  5
4A83
330
1F
100
AcDbEntity
  8
AM_11
 48
0.5
100
AcDbEllipse
 10
-37.32544323923979
 20
9.938177349711889
 30
0.0
 11
11.30211982727035
 21
0.0000000000001083
 31
0.0
210
0.0
220
0.0
230
1.0
 40
0.9722222222222223
 41
4.271663339930089
 42
5.153112800913382
  0
ELLIPSE
  5
4A84
330
1F
100
AcDbEntity
  8
AM_11
 48
0.5
100
AcDbEllipse
 10
-46.96830038209424
 20
-9.938170192097111
 30
0.0
 11
-11.30211982727035
 21
-0.0000000000000166
 31
0.0
210
0.0
220
0.0
230
1.0
 40
0.9722222222222226
 41
4.271664206181685
 42
5.153113667164992
  0
ELLIPSE
  5
4A85
330
1F
100
AcDbEntity
  8
AM_11
 48
0.5
100
AcDbEllipse
 10
-46.96830038209422
 20
9.938177349711889
 30
0.0
 11
-11.30211982727035
 21
-0.0000000000000216
 31
0.0
210
0.0
220
0.0
230
1.0
 40
0.9722222222222223
 41
1.130070686340304
 42
2.011520147323597
  0
ELLIPSE
  5
4A86
330
1F
100
AcDbEntity
  8
AM_11
 48
0.5
100
AcDbEllipse
 10
-56.61113554045782
 20
-9.938170192097164
 30
0.0
 11
-11.30211982727035
 21
-0.0000000000000041
 31
0.0
210
0.0
220
0.0
230
1.0
 40
0.9722222222222219
 41
4.271664206181687
 42
5.153113667164993
  0
ELLIPSE
  5
4A87
330
1F
100
AcDbEntity
  8
AM_11
 48
0.5
100
AcDbEllipse
 10
-56.61113554045782
 20
9.938177349711835
 30
0.0
 11
11.30211982727035
 21
0.0000000000001083
 31
0.0
210
0.0
220
0.0
230
1.0
 40
0.9722222222222223
 41
4.271663339930089
 42
5.153112800913382
  0
ELLIPSE
  5
4A88
330
1F
100
AcDbEntity
  8
AM_11
 48
0.5
100
AcDbEllipse
 10
-66.25399268331228
 20
-9.938170192097164
 30
0.0
 11
-11.30211982727035
 21
-0.0000000000000166
 31
0.0
210
0.0
220
0.0
230
1.0
 40
0.9722222222222226
 41
4.271664206181685
 42
5.153113667164992
  0
ELLIPSE
  5
4A89
330
1F
100
AcDbEntity
  8
AM_11
 48
0.5
100
AcDbEllipse
 10
-66.25399268331226
 20
9.938177349711835
 30
0.0
 11
-11.30211982727035
 21
-0.0000000000000216
 31
0.0
210
0.0
220
0.0
230
1.0
 40
0.9722222222222223
 41
1.130070686340304
 42
2.011520147323597
  0
ELLIPSE
  5
4A8A
330
1F
100
AcDbEntity
  8
AM_11
 48
0.5
100
AcDbEllipse
 10
-75.89682784167601
 20
-9.938160954954556
 30
0.0
 11
-11.30211982727035
 21
-0.0000000000000041
 31
0.0
210
0.0
220
0.0
230
1.0
 40
0.9722222222222219
 41
4.271664206181687
 42
5.153113667164993
  0
ELLIPSE
  5
4A8B
330
1F
100
AcDbEntity
  8
AM_11
 48
0.5
100
AcDbEllipse
 10
-75.89682784167601
 20
9.938186586854444
 30
0.0
 11
11.30211982727035
 21
0.0000000000001083
 31
0.0
210
0.0
220
0.0
230
1.0
 40
0.9722222222222223
 41
4.271663339930089
 42
5.153112800913382
  0
ELLIPSE
  5
4A8C
330
1F
100
AcDbEntity
  8
AM_11
 48
0.5
100
AcDbEllipse
 10
-85.53968498453047
 20
-9.938160954954556
 30
0.0
 11
-11.30211982727035
 21
-0.0000000000000166
 31
0.0
210
0.0
220
0.0
230
1.0
 40
0.9722222222222226
 41
4.271664206181685
 42
5.153113667164992
  0
ELLIPSE
  5
4A8D
330
1F
100
AcDbEntity
  8
AM_11
 48
0.5
100
AcDbEllipse
 10
-85.53968498453045
 20
9.938186586854444
 30
0.0
 11
-11.30211982727035
 21
-0.0000000000000216
 31
0.0
210
0.0
220
0.0
230
1.0
 40
0.9722222222222223
 41
1.130070686340304
 42
2.011520147323597
  0
ELLIPSE
  5
4A8E
330
1F
100
AcDbEntity
  8
AM_11
 48
0.5
100
AcDbEllipse
 10
-95.18249999917442
 20
-9.938170192097269
 30
0.0
 11
-11.30211982727035
 21
-0.0000000000000041
 31
0.0
210
0.0
220
0.0
230
1.0
 40
0.9722222222222219
 41
4.271664206181687
 42
5.153113667164993
  0
ELLIPSE
  5
4A8F
330
1F
100
AcDbEntity
  8
AM_11
 48
0.5
100
AcDbEllipse
 10
-95.18249999917442
 20
9.938177349711731
 30
0.0
 11
11.30211982727035
 21
0.0000000000001083
 31
0.0
210
0.0
220
0.0
230
1.0
 40
0.9722222222222223
 41
4.271663339930089
 42
5.153112800913382
  0
ELLIPSE
  5
4A90
330
1F
100
AcDbEntity
  8
AM_11
 48
0.5
100
AcDbEllipse
 10
-104.8253571420288
 20
-9.938170192097269
 30
0.0
 11
-11.30211982727035
 21
-0.0000000000000166
 31
0.0
210
0.0
220
0.0
230
1.0
 40
0.9722222222222226
 41
4.271664206181685
 42
4.816508199639075
  0
ELLIPSE
  5
4A91
330
1F
100
AcDbEntity
  8
AM_11
 48
0.5
100
AcDbEllipse
 10
-104.8253571420288
 20
9.938177349711731
 30
0.0
 11
-11.30211982727035
 21
-0.0000000000000216
 31
0.0
210
0.0
220
0.0
230
1.0
 40
0.9722222222222223
 41
1.466677107540508
 42
2.011520147323597
  0
SPLINE
  5
4AED
330
1F
100
AcDbEntity
  8
AM_0
100
AcDbSpline
210
0.0
220
0.0
230
1.0
 70
     8
 71
     3
 72
    15
 73
    11
 74
     0
 42
0.0000000001
 43
0.0000000001
 40
10.02645856327646
 40
10.02645856327646
 40
10.02645856327646
 40
10.02645856327646
 40
10.37139106676736
 40
11.27458944007584
 40
12.18373345430765
 40
13.09824173870457
 40
14.01741343450111
 40
14.9404441545541
 40
15.86644439743314
 40
16.55140071192301
 40
16.55140071192301
 40
16.55140071192301
 40
16.55140071192301
 10
-47.51123384043263
 20
0.9168856472759836
 30
0.0
 10
-47.5657780081774
 20
0.8989816025413176
 30
0.0
 10
-47.76286906916236
 20
0.8335304188320494
 30
0.0
 10
-48.10184165719071
 20
0.7164493525401097
 30
0.0
 10
-48.52750073949755
 20
0.5621784563706596
 30
0.0
 10
-48.95313474622714
 20
0.40162127691012
 30
0.0
 10
-49.37874740765752
 20
0.2357651528531759
 30
0.0
 10
-49.80434286607377
 20
0.0656301866695122
 30
0.0
 10
-50.19267672395417
 20
-0.0925627081294744
 30
0.0
 10
-50.43908889994503
 20
-0.1940329949107069
 30
0.0
 10
-50.49999999999999
 20
-0.2372791688393827
 30
0.0
  0
VIEWPORT
  5
110
330
101
100
AcDbEntity
 67
     1
  8
0
100
AcDbViewport
 10
420.5
 20
297.0
 30
0.0
 40
948.9782706766916
 41
628.452
 68
     1
 69
     1
1001
ACAD
1000
MVIEW
1002
{
1070
    16
1010
0.0
1020
0.0
1030
0.0
1010
0.0
1020
0.0
1030
1.0
1040
0.0
1040
628.452
1040
420.5
1040
297.0
1040
50.0
1040
0.0
1040
0.0
1070
     0
1070
   100
1070
     1
1070
     1
1070
     0
1070
     0
1070
     0
1070
     0
1040
0.0
1040
0.0
1040
0.0
1040
10.0
1040
10.0
1040
10.0
1040
10.0
1070
     0
1002
{
1002
}
1002
}
  0
ENDSEC
  0
SECTION
  2
OBJECTS
  0
DICTIONARY
  5
C
330
0
100
AcDbDictionary
  3
ACAD_GROUP
350
D
  3
ACAD_LAYOUT
350
1A
  3
ACAD_MLINESTYLE
350
17
  3
ACAD_PLOTSETTINGS
350
19
  3
ACAD_PLOTSTYLENAME
350
E
  3
ACDBVARIABLEDICTIONARY
350
34
  3
ACMDICTIONARY
350
43
  3
AMG
350
2B
  3
AMGSNAPSETTINGS
350
6E
  3
DWGPROPS
350
4B56
  3
ACDBHEADERROUNDTRIPXREC
350
4B62
  0
DICTIONARY
  5
74
330
1F
100
AcDbDictionary
280
     1
  3
ACAD_INDEX
360
4B58
  3
ACAD_LAYOUTSELFREF
360
4B85
  0
DICTIONARY
  5
4B8A
330
101
100
AcDbDictionary
280
     1
  3
ACAD_LAYOUTSELFREF
360
4B8B
  0
DICTIONARY
  5
D
102
{ACAD_REACTORS
330
C
102
}
330
C
100
AcDbDictionary
  0
DICTIONARY
  5
1A
102
{ACAD_REACTORS
330
C
102
}
330
C
100
AcDbDictionary
  0
DICTIONARY
  5
17
102
{ACAD_REACTORS
330
C
102
}
330
C
100
AcDbDictionary
  3
STANDARD
350
18
  0
DICTIONARY
  5
19
102
{ACAD_REACTORS
330
C
102
}
330
C
100
AcDbDictionary
  0
ACDBDICTIONARYWDFLT
  5
E
102
{ACAD_REACTORS
330
C
102
}
330
C
100
AcDbDictionary
281
     1
  3
Normal
350
F
100
AcDbDictionaryWithDefault
340
F
  0
DICTIONARY
  5
34
102
{ACAD_REACTORS
330
C
102
}
330
C
100
AcDbDictionary
  3
INDEXCTL
350
35
  3
SORTENTS
350
B5E
  0
DICTIONARY
  5
43
102
{ACAD_REACTORS
330
C
102
}
330
C
100
AcDbDictionary
  3
ACMSTDDICTIONARY
350
260
  0
DICTIONARY
  5
2B
102
{ACAD_REACTORS
330
C
102
}
330
C
100
AcDbDictionary
  3
ACMGSETTINGS
350
2C
  0
DICTIONARY
  5
6E
102
{ACAD_REACTORS
330
C
102
}
330
C
100
AcDbDictionary
  0
XRECORD
  5
4B56
102
{ACAD_REACTORS
330
C
102
}
330
C
100
AcDbXrecord
  1
DWGPROPS COOKIE
  2

  3

  4

  6

  7

  8

  9

300
AmdtFileType=82
301
=
302
=
303
=
304
=
305
=
306
=
307
=
308
=
309
=
 40
0.1223811805555556
 41
2452800.443498622
 42
2452946.582651365
  1

 90
        1
  0
DICTIONARY
  5
4B62
102
{ACAD_REACTORS
330
C
102
}
330
C
100
AcDbDictionary
  3
TSTACKALIGN
350
4B63
  3
TSTACKSIZE
350
4B64
  3
HYPERLINKBASE
350
4B65
  3
STYLESHEET
350
4B66
  3
LAYOUTDICT
350
4B67
  3
PLOTSETDICT
350
4B68
  3
PLOTSTYLNAMDICT
350
4B69
  3
LWETCUNION
350
4B6A
  3
INSUNITS
350
4B6B
  3
CEPSNTYPE
350
4B6C
  3
FINGERPRINTGUID
350
4B6D
  3
VERSIONGUID
350
4B6E
  3
PSVPSCALE
350
4B6F
  3
DIMSTYLEDATA
350
4B70
  3
PUCSORTHOREF
350
4B71
  3
PUCSORTHOVIEW
350
4B72
  3
PUCSBASE
350
4B73
  3
PUCSORGTOP
350
4B74
  3
PUCSORGBOTTOM
350
4B75
  3
PUCSORGLEFT
350
4B76
  3
PUCSORGRIGHT
350
4B77
  3
PUCSORGFRONT
350
4B78
  3
PUCSORGBACK
350
4B79
  3
UCSORTHOREF
350
4B7A
  3
UCSORTHOVIEW
350
4B7B
  3
UCSBASE
350
4B7C
  3
UCSORGTOP
350
4B7D
  3
UCSORGBOTTOM
350
4B7E
  3
UCSORGLEFT
350
4B7F
  3
UCSORGRIGHT
350
4B80
  3
UCSORGFRONT
350
4B81
  3
UCSORGBACK
350
4B82
  0
DICTIONARY
  5
4B58
102
{ACAD_REACTORS
330
74
102
}
330
74
100
AcDbDictionary
  3
*A1
350
4B59
  0
XRECORD
  5
4B85
102
{ACAD_REACTORS
330
74
102
}
330
74
100
AcDbXrecord
340
1F
  0
XRECORD
  5
4B8B
102
{ACAD_REACTORS
330
4B8A
102
}
330
4B8A
100
AcDbXrecord
340
101
  0
MLINESTYLE
  5
18
102
{ACAD_REACTORS
330
17
102
}
330
17
100
AcDbMlineStyle
  2
STANDARD
 70
     0
  3

 62
   256
 51
90.0
 52
90.0
 71
     2
 49
0.5
 62
   256
  6
BYLAYER
 49
-0.5
 62
   256
  6
BYLAYER
  0
ACDBPLACEHOLDER
  5
F
102
{ACAD_REACTORS
330
E
102
}
330
E
100
AcDbPlaceHolder
280
     0
  0
DICTIONARYVAR
  5
35
102
{ACAD_REACTORS
330
34
102
}
330
34
100
DictionaryVariables
280
     0
  1
1
  0
DICTIONARYVAR
  5
B5E
102
{ACAD_REACTORS
330
34
102
}
330
34
100
DictionaryVariables
280
     0
  1
96
  0
DICTIONARY
  5
260
102
{ACAD_REACTORS
330
43
102
}
330
43
100
AcDbDictionary
  0
DICTIONARY
  5
2C
102
{ACAD_REACTORS
330
2B
102
}
330
2B
100
AcDbDictionary
  3
DWGSETTINGS
350
2D
  0
XRECORD
  5
4B63
102
{ACAD_REACTORS
330
4B62
102
}
330
4B62
100
AcDbXrecord
 90
        1
  0
XRECORD
  5
4B64
102
{ACAD_REACTORS
330
4B62
102
}
330
4B62
100
AcDbXrecord
 90
       70
  0
XRECORD
  5
4B65
102
{ACAD_REACTORS
330
4B62
102
}
330
4B62
100
AcDbXrecord
  1

  0
XRECORD
  5
4B66
102
{ACAD_REACTORS
330
4B62
102
}
330
4B62
100
AcDbXrecord
  1
ASAMI.ctb
  0
XRECORD
  5
4B67
102
{ACAD_REACTORS
330
4B62
102
}
330
4B62
100
AcDbXrecord
340
1A
  0
XRECORD
  5
4B68
102
{ACAD_REACTORS
330
4B62
102
}
330
4B62
100
AcDbXrecord
340
19
  0
XRECORD
  5
4B69
102
{ACAD_REACTORS
330
4B62
102
}
330
4B62
100
AcDbXrecord
340
E
  0
XRECORD
  5
4B6A
102
{ACAD_REACTORS
330
4B62
102
}
330
4B62
100
AcDbXrecord
 90
    10781
  0
XRECORD
  5
4B6B
102
{ACAD_REACTORS
330
4B62
102
}
330
4B62
100
AcDbXrecord
 90
        4
  0
XRECORD
  5
4B6C
102
{ACAD_REACTORS
330
4B62
102
}
330
4B62
100
AcDbXrecord
 90
        0
  0
XRECORD
  5
4B6D
102
{ACAD_REACTORS
330
4B62
102
}
330
4B62
100
AcDbXrecord
  1
{AFB28963-8C59-40AE-9337-C84526B81ACE}
  0
XRECORD
  5
4B6E
102
{ACAD_REACTORS
330
4B62
102
}
330
4B62
100
AcDbXrecord
  1
{3B1FFDA0-5D5D-4D90-A637-DCE09C19EB84}
  0
XRECORD
  5
4B6F
102
{ACAD_REACTORS
330
4B62
102
}
330
4B62
100
AcDbXrecord
 40
0.0
  0
XRECORD
  5
4B70
102
{ACAD_REACTORS
330
4B62
102
}
330
4B62
100
AcDbXrecord
1000
DSTYLE
1002
{
1070
    79
 70
     2
1070
   341
340
59
1070
   342
340
59
1070
   371
 70
    -1
1070
   372
 70
    -1
1002
}
  0
XRECORD
  5
4B71
102
{ACAD_REACTORS
330
4B62
102
}
330
4B62
100
AcDbXrecord
340
0
  0
XRECORD
  5
4B72
102
{ACAD_REACTORS
330
4B62
102
}
330
4B62
100
AcDbXrecord
 70
     0
  0
XRECORD
  5
4B73
102
{ACAD_REACTORS
330
4B62
102
}
330
4B62
100
AcDbXrecord
340
0
  0
XRECORD
  5
4B74
102
{ACAD_REACTORS
330
4B62
102
}
330
4B62
100
AcDbXrecord
 10
0.0
 20
0.0
 30
0.0
  0
XRECORD
  5
4B75
102
{ACAD_REACTORS
330
4B62
102
}
330
4B62
100
AcDbXrecord
 10
0.0
 20
0.0
 30
0.0
  0
XRECORD
  5
4B76
102
{ACAD_REACTORS
330
4B62
102
}
330
4B62
100
AcDbXrecord
 10
0.0
 20
0.0
 30
0.0
  0
XRECORD
  5
4B77
102
{ACAD_REACTORS
330
4B62
102
}
330
4B62
100
AcDbXrecord
 10
0.0
 20
0.0
 30
0.0
  0
XRECORD
  5
4B78
102
{ACAD_REACTORS
330
4B62
102
}
330
4B62
100
AcDbXrecord
 10
0.0
 20
0.0
 30
0.0
  0
XRECORD
  5
4B79
102
{ACAD_REACTORS
330
4B62
102
}
330
4B62
100
AcDbXrecord
 10
0.0
 20
0.0
 30
0.0
  0
XRECORD
  5
4B7A
102
{ACAD_REACTORS
330
4B62
102
}
330
4B62
100
AcDbXrecord
340
0
  0
XRECORD
  5
4B7B
102
{ACAD_REACTORS
330
4B62
102
}
330
4B62
100
AcDbXrecord
 70
     0
  0
XRECORD
  5
4B7C
102
{ACAD_REACTORS
330
4B62
102
}
330
4B62
100
AcDbXrecord
340
0
  0
XRECORD
  5
4B7D
102
{ACAD_REACTORS
330
4B62
102
}
330
4B62
100
AcDbXrecord
 10
0.0
 20
0.0
 30
0.0
  0
XRECORD
  5
4B7E
102
{ACAD_REACTORS
330
4B62
102
}
330
4B62
100
AcDbXrecord
 10
0.0
 20
0.0
 30
0.0
  0
XRECORD
  5
4B7F
102
{ACAD_REACTORS
330
4B62
102
}
330
4B62
100
AcDbXrecord
 10
0.0
 20
0.0
 30
0.0
  0
XRECORD
  5
4B80
102
{ACAD_REACTORS
330
4B62
102
}
330
4B62
100
AcDbXrecord
 10
0.0
 20
0.0
 30
0.0
  0
XRECORD
  5
4B81
102
{ACAD_REACTORS
330
4B62
102
}
330
4B62
100
AcDbXrecord
 10
0.0
 20
0.0
 30
0.0
  0
XRECORD
  5
4B82
102
{ACAD_REACTORS
330
4B62
102
}
330
4B62
100
AcDbXrecord
 10
0.0
 20
0.0
 30
0.0
  0
LAYER_INDEX
  5
4B59
102
{ACAD_REACTORS
330
4B58
102
}
330
4B58
100
AcDbIndex
 40
2453151.721536805
100
AcDbLayerIndex
  8
0
360
4B5A
 90
        0
  8
AM_0
360
4B5B
 90
       59
  8
AM_7
360
4B5C
 90
        1
  8
AM_11
360
4B5D
 90
       31
  8
AM_5
360
4B5E
 90
        5
  8
Defpoints
360
4B5F
 90
        0
  8
AM_6
360
4B60
 90
        1
  0
XRECORD
  5
2D
102
{ACAD_REACTORS
330
2C
102
}
330
2C
100
AcDbXrecord
  1
VERSION
140
15.0
  1
PRODUCT
  2
AutoCAD Mechanical 2000
  0
IDBUFFER
  5
4B5A
330
0
100
AcDbIdBuffer
  0
IDBUFFER
  5
4B5B
330
0
100
AcDbIdBuffer
330
4830
330
4841
330
4842
330
4843
330
4846
330
485B
330
4871
330
4872
330
4874
330
4877
330
4AED
330
C1D
330
4347
330
44BC
330
44BD
330
44BE
330
4522
330
4525
330
4526
330
4536
330
4544
330
4547
330
4658
330
46CF
330
46D0
330
46E1
330
46E4
330
46F0
330
46F1
330
46F2
330
478E
330
478F
330
4790
330
4791
330
4792
330
4793
330
4794
330
4796
330
4798
330
479A
330
479B
330
479C
330
479D
330
479E
330
479F
330
47A0
330
47A2
330
47A4
330
47A6
330
47A7
330
47A8
330
47A9
330
47AA
330
47AB
330
47AC
330
47AD
330
47AE
330
47AF
330
47B0
  0
IDBUFFER
  5
4B5C
330
0
100
AcDbIdBuffer
330
C9F
  0
IDBUFFER
  5
4B5D
330
0
100
AcDbIdBuffer
330
4A83
330
4A84
330
4A85
330
4A86
330
4A87
330
4A88
330
4A89
330
4A8A
330
4A8B
330
4A8C
330
4A8D
330
4A8E
330
4A8F
330
4A90
330
4A91
330
4795
330
4797
330
4799
330
47A1
330
47A3
330
47A5
330
4873
330
4876
330
4A77
330
4A78
330
4A79
330
4A7A
330
4A7B
330
4A7C
330
4A7D
330
4A82
  0
IDBUFFER
  5
4B5E
330
0
100
AcDbIdBuffer
330
CC6
330
DF5
330
4527
330
46D1
330
48D2
  0
IDBUFFER
  5
4B5F
330
0
100
AcDbIdBuffer
  0
IDBUFFER
  5
4B60
330
0
100
AcDbIdBuffer
330
19BD
  0
ENDSEC
  0
EOF
