  0
SECTION
  2
HEADER
  9
$ACADVER
  1
AC1014
  9
$ACADMAINTVER
 70
     9
  9
$DWGCODEPAGE
  3
ANSI_932
  9
$INSBASE
 10
0.0
 20
0.0
 30
0.0
  9
$EXTMIN
 10
-91.9000009999999
 20
-25.75000099999998
 30
-0.00000001
  9
$EXTMAX
 10
15.31866414182032
 20
14.89710932908359
 30
0.00000001
  9
$LIMMIN
 10
-115.2743125114289
 20
-61.81965462428931
  9
$LIMMAX
 10
34.68289694917223
 20
37.20838581210049
  9
$ORTHOMODE
 70
     0
  9
$REGENMODE
 70
     1
  9
$FILLMODE
 70
     1
  9
$QTEXTMODE
 70
     0
  9
$MIRRTEXT
 70
     0
  9
$DRAGMODE
 70
     2
  9
$LTSCALE
 40
1.0
  9
$OSMODE
 70
    55
  9
$ATTMODE
 70
     1
  9
$TEXTSIZE
 40
2.5
  9
$TRACEWID
 40
1.0
  9
$TEXTSTYLE
  7
STANDARD
  9
$CLAYER
  8
AM_0
  9
$CELTYPE
  6
BYLAYER
  9
$CECOLOR
 62
   256
  9
$CELTSCALE
 40
1.0
  9
$DELOBJ
 70
     1
  9
$DISPSILH
 70
     0
  9
$DIMSCALE
 40
0.5
  9
$DIMASZ
 40
2.5
  9
$DIMEXO
 40
1.0
  9
$DIMDLI
 40
12.0
  9
$DIMRND
 40
0.0
  9
$DIMDLE
 40
0.0
  9
$DIMEXE
 40
1.0
  9
$DIMTP
 40
0.1
  9
$DIMTM
 40
0.1
  9
$DIMTXT
 40
3.2
  9
$DIMCEN
 40
0.0
  9
$DIMTSZ
 40
0.0
  9
$DIMTOL
 70
     0
  9
$DIMLIM
 70
     0
  9
$DIMTIH
 70
     0
  9
$DIMTOH
 70
     0
  9
$DIMSE1
 70
     0
  9
$DIMSE2
 70
     0
  9
$DIMTAD
 70
     3
  9
$DIMZIN
 70
     8
  9
$DIMBLK
  1
OPEN30
  9
$DIMASO
 70
     1
  9
$DIMSHO
 70
     1
  9
$DIMPOST
  1

  9
$DIMAPOST
  1
"
  9
$DIMALT
 70
     0
  9
$DIMALTD
 70
     2
  9
$DIMALTF
 40
0.0393701
  9
$DIMLFAC
 40
1.0
  9
$DIMTOFL
 70
     1
  9
$DIMTVP
 40
0.0
  9
$DIMTIX
 70
     0
  9
$DIMSOXD
 70
     0
  9
$DIMSAH
 70
     0
  9
$DIMBLK1
  1

  9
$DIMBLK2
  1

  9
$DIMSTYLE
  2
AM_JIS
  9
$DIMCLRD
 70
   256
  9
$DIMCLRE
 70
   256
  9
$DIMCLRT
 70
     2
  9
$DIMTFAC
 40
0.71
  9
$DIMGAP
 40
1.5
  9
$DIMJUST
 70
     0
  9
$DIMSD1
 70
     0
  9
$DIMSD2
 70
     0
  9
$DIMTOLJ
 70
     0
  9
$DIMTZIN
 70
     0
  9
$DIMALTZ
 70
     0
  9
$DIMALTTZ
 70
     0
  9
$DIMFIT
 70
     3
  9
$DIMUPT
 70
     0
  9
$DIMUNIT
 70
     2
  9
$DIMDEC
 70
     3
  9
$DIMTDEC
 70
     3
  9
$DIMALTU
 70
     2
  9
$DIMALTTD
 70
     2
  9
$DIMTXSTY
  7
ASAMI
  9
$DIMAUNIT
 70
     0
  9
$LUNITS
 70
     2
  9
$LUPREC
 70
     2
  9
$SKETCHINC
 40
1.0
  9
$FILLETRAD
 40
2.5
  9
$AUNITS
 70
     0
  9
$AUPREC
 70
     0
  9
$MENU
  1
.
  9
$ELEVATION
 40
0.0
  9
$PELEVATION
 40
0.0
  9
$THICKNESS
 40
0.0
  9
$LIMCHECK
 70
     0
  9
$BLIPMODE
 70
     0
  9
$CHAMFERA
 40
0.25
  9
$CHAMFERB
 40
0.25
  9
$CHAMFERC
 40
20.0
  9
$CHAMFERD
 40
0.0
  9
$SKPOLY
 70
     0
  9
$TDCREATE
 40
2452800.443498622
  9
$TDUPDATE
 40
2453151.578384676
  9
$TDINDWG
 40
0.0535089236
  9
$TDUSRTIMER
 40
0.0535089236
  9
$USRTIMER
 70
     1
  9
$ANGBASE
 50
0.0
  9
$ANGDIR
 70
     0
  9
$PDMODE
 70
     3
  9
$PDSIZE
 40
0.0
  9
$PLINEWID
 40
0.0
  9
$COORDS
 70
     1
  9
$SPLFRAME
 70
     0
  9
$SPLINETYPE
 70
     6
  9
$SPLINESEGS
 70
     8
  9
$ATTDIA
 70
     1
  9
$ATTREQ
 70
     1
  9
$HANDLING
 70
 12289
  9
$HANDSEED
  5
2D59
  9
$SURFTAB1
 70
     6
  9
$SURFTAB2
 70
     6
  9
$SURFTYPE
 70
     6
  9
$SURFU
 70
     6
  9
$SURFV
 70
     6
  9
$UCSNAME
  2

  9
$UCSORG
 10
0.0
 20
0.0
 30
0.0
  9
$UCSXDIR
 10
1.0
 20
0.000000000000002
 30
0.0
  9
$UCSYDIR
 10
-0.000000000000002
 20
1.0
 30
0.0
  9
$PUCSNAME
  2

  9
$PUCSORG
 10
0.0
 20
0.0
 30
0.0
  9
$PUCSXDIR
 10
1.0
 20
0.0
 30
0.0
  9
$PUCSYDIR
 10
0.0
 20
1.0
 30
0.0
  9
$USERI1
 70
     0
  9
$USERI2
 70
     0
  9
$USERI3
 70
     0
  9
$USERI4
 70
     0
  9
$USERI5
 70
     0
  9
$USERR1
 40
0.0
  9
$USERR2
 40
0.0
  9
$USERR3
 40
0.0
  9
$USERR4
 40
0.0
  9
$USERR5
 40
0.0
  9
$WORLDVIEW
 70
     1
  9
$SHADEDGE
 70
     3
  9
$SHADEDIF
 70
    70
  9
$TILEMODE
 70
     1
  9
$MAXACTVP
 70
    64
  9
$PINSBASE
 10
0.0
 20
0.0
 30
0.0
  9
$PLIMCHECK
 70
     0
  9
$PEXTMIN
 10
1.000000000000000E+20
 20
1.000000000000000E+20
 30
1.000000000000000E+20
  9
$PEXTMAX
 10
-1.000000000000000E+20
 20
-1.000000000000000E+20
 30
-1.000000000000000E+20
  9
$PLIMMIN
 10
0.0
 20
0.0
  9
$PLIMMAX
 10
841.0
 20
594.0
  9
$UNITMODE
 70
     0
  9
$VISRETAIN
 70
     1
  9
$PLINEGEN
 70
     0
  9
$PSLTSCALE
 70
     0
  9
$TREEDEPTH
 70
  3020
  9
$PICKSTYLE
 70
     0
  9
$CMLSTYLE
  2
STANDARD
  9
$CMLJUST
 70
     0
  9
$CMLSCALE
 40
20.0
  9
$PROXYGRAPHICS
 70
     1
  9
$MEASUREMENT
 70
     1
  0
ENDSEC
  0
SECTION
  2
CLASSES
  0
CLASS
  1
ACDBDICTIONARYWDFLT
  2
AcDbDictionaryWithDefault
  3
AutoCAD 2000
 90
        0
280
     0
281
     0
  0
CLASS
  1
ACDBPLACEHOLDER
  2
AcDbPlaceHolder
  3
AutoCAD 2000
 90
        0
280
     0
281
     0
  0
CLASS
  1
LAYOUT
  2
AcDbLayout
  3
AutoCAD 2000
 90
        0
280
     0
281
     0
  0
CLASS
  1
AMGSETTINGSOBJ
  2
AmgSettingsObj
  3
"AcadM|Product Description: AutoCAD Mechanical 2000|Company: Autodesk"
 90
        0
280
     0
281
     0
  0
CLASS
  1
ACME_DOCUMENT
  2
AcMeDbDoc
  3
AcMeServices
 90
        0
280
     0
281
     0
  0
CLASS
  1
ACMESCOPE
  2
AcMeScope
  3
AcMeServices
 90
        0
280
     0
281
     0
  0
CLASS
  1
ACMECOMMANDHISTORY
  2
AcMeCommandHistory
  3
AcMeServices
 90
        0
280
     0
281
     0
  0
CLASS
  1
DICTIONARYVAR
  2
AcDbDictionaryVar
  3
AutoCAD 2000
 90
        0
280
     0
281
     0
  0
CLASS
  1
ACIMSYSVARMAN
  2
AcImSysVarManager
  3
AcMeServices
 90
        0
280
     0
281
     0
  0
CLASS
  1
ACIMREALSYSVAR
  2
AcImRealSysVar
  3
AcMeServices
 90
        0
280
     0
281
     0
  0
CLASS
  1
ACIMINTSYSVAR
  2
AcImIntSysVar
  3
AcMeServices
 90
        0
280
     0
281
     0
  0
CLASS
  1
ACMEDRAWINGMAN
  2
AcMeDrawingMan
  3
AcMeServices
 90
        0
280
     0
281
     0
  0
CLASS
  1
ACMEVIEW
  2
AcMeView
  3
AcMeServices
 90
        0
280
     0
281
     0
  0
CLASS
  1
ACDBENTITYCACHE
  2
AcMeEntityCache
  3
AcMeServices
 90
        0
280
     0
281
     0
  0
CLASS
  1
GSMANAGER
  2
AcMeGSManager
  3
AcMeServices
 90
        0
280
     0
281
     0
  0
CLASS
  1
AmdtInternalReactor
  2
AmdtInternalReactor
  3
AcMeServices
 90
        0
280
     0
281
     0
  0
CLASS
  1
ACMESTATEMGR
  2
AcMeStateMgr
  3
AcMeServices
 90
        0
280
     0
281
     0
  0
CLASS
  1
ACME_DATABASE
  2
AcMeDbDatabase
  3
AcMeServices
 90
        0
280
     0
281
     0
  0
CLASS
  1
ACRFINSADJUSTERMGR
  2
AcRfInsAdjusterMgr
  3
AcMeServices
 90
        0
280
     0
281
     0
  0
CLASS
  1
ACMDATADICTIONARY
  2
AcmDataDictionary
  3
"AcmSymBB|Product Description: AutoCAD Mechanical 2000|Company: Autodesk"
 90
        0
280
     0
281
     0
  0
CLASS
  1
ACMDATAENTRYBLOCK
  2
AcmDataEntryBlock
  3
"AcmSymBB|Product Description: AutoCAD Mechanical 2000|Company: Autodesk"
 90
        0
280
     0
281
     0
  0
CLASS
  1
AMGOBJPROPCFG
  2
AmgObjPropCfg
  3
"AmgLay|Product Description: AutoCAD Mechanical 2000|Company: Autodesk"
 90
        1
280
     0
281
     0
  0
CLASS
  1
ACAMGFILTERDAT
  2
AcAmgFilterDat
  3
"AcadM|Product Description: AutoCAD Mechanical 2000|Company: Autodesk"
 90
        0
280
     0
281
     0
  0
CLASS
  1
LAYER_INDEX
  2
AcDbLayerIndex
  3
AutoCAD 2000
 90
        0
280
     0
281
     0
  0
CLASS
  1
IDBUFFER
  2
AcDbIdBuffer
  3
AutoCAD 2000
 90
        0
280
     0
281
     0
  0
CLASS
  1
ACIMSTRSYSVAR
  2
AcImStrSysVar
  3
AcMeServices
 90
        0
280
     0
281
     0
  0
CLASS
  1
ACMSTANDARDJIS
  2
AcmStandardJIS
  3
"AcmSymBB|Product Description: AutoCAD Mechanical 2000|Company: Autodesk"
 90
        0
280
     0
281
     0
  0
CLASS
  1
ACMSURFSTANDARDJIS
  2
AcmSurfTextStdJIS
  3
"AcmSymBB|Product Description: AutoCAD Mechanical 2000|Company: Autodesk"
 90
        0
280
     0
281
     0
  0
CLASS
  1
ACMFCFSTANDARDJIS
  2
AcmFCFStdJIS
  3
"AcmSymBB|Product Description: AutoCAD Mechanical 2000|Company: Autodesk"
 90
        0
280
     0
281
     0
  0
CLASS
  1
ACMWELDSTANDARDJIS
  2
AcmWeldingStdJIS
  3
"AcmSymBB|Product Description: AutoCAD Mechanical 2000|Company: Autodesk"
 90
        0
280
     0
281
     0
  0
CLASS
  1
ACMIDSTANDARDJIS
  2
AcmIdStdJIS
  3
"AcmSymBB|Product Description: AutoCAD Mechanical 2000|Company: Autodesk"
 90
        0
280
     0
281
     0
  0
CLASS
  1
ACMDATUMSTANDARDJIS
  2
AcmDatumStdJIS
  3
"AcmSymBB|Product Description: AutoCAD Mechanical 2000|Company: Autodesk"
 90
        0
280
     0
281
     0
  0
CLASS
  1
ACMBOMSTANDARDJIS
  2
AcmBOMStdJIS
  3
"AcmSymBB|Product Description: AutoCAD Mechanical 2000|Company: Autodesk"
 90
        0
280
     0
281
     0
  0
CLASS
  1
ACMSTANDARDANSI
  2
AcmStandardANSI
  3
"AcmSymBB|Product Description: AutoCAD Mechanical 2000|Company: Autodesk"
 90
        0
280
     0
281
     0
  0
CLASS
  1
ACMSURFSTANDARDANSI
  2
AcmSurfTextStdANSI
  3
"AcmSymBB|Product Description: AutoCAD Mechanical 2000|Company: Autodesk"
 90
        0
280
     0
281
     0
  0
CLASS
  1
ACMFCFSTANDARDANSI
  2
AcmFCFStdANSI
  3
"AcmSymBB|Product Description: AutoCAD Mechanical 2000|Company: Autodesk"
 90
        0
280
     0
281
     0
  0
CLASS
  1
ACMWELDSTANDARDANSI
  2
AcmWeldingStdANSI
  3
"AcmSymBB|Product Description: AutoCAD Mechanical 2000|Company: Autodesk"
 90
        0
280
     0
281
     0
  0
CLASS
  1
ACMIDSTANDARDANSI
  2
AcmIdStdANSI
  3
"AcmSymBB|Product Description: AutoCAD Mechanical 2000|Company: Autodesk"
 90
        0
280
     0
281
     0
  0
CLASS
  1
ACMDATUMSTANDARDANSI
  2
AcmDatumStdANSI
  3
"AcmSymBB|Product Description: AutoCAD Mechanical 2000|Company: Autodesk"
 90
        0
280
     0
281
     0
  0
CLASS
  1
ACMBOMSTANDARDANSI
  2
AcmBOMStdANSI
  3
"AcmSymBB|Product Description: AutoCAD Mechanical 2000|Company: Autodesk"
 90
        0
280
     0
281
     0
  0
CLASS
  1
ACMSTANDARDBSI
  2
AcmStandardBSI
  3
"AcmSymBB|Product Description: AutoCAD Mechanical 2000|Company: Autodesk"
 90
        0
280
     0
281
     0
  0
CLASS
  1
ACMSURFSTANDARDBSI
  2
AcmSurfTextStdBSI
  3
"AcmSymBB|Product Description: AutoCAD Mechanical 2000|Company: Autodesk"
 90
        0
280
     0
281
     0
  0
CLASS
  1
ACMFCFSTANDARDBSI
  2
AcmFCFStdBSI
  3
"AcmSymBB|Product Description: AutoCAD Mechanical 2000|Company: Autodesk"
 90
        0
280
     0
281
     0
  0
CLASS
  1
ACMWELDSTANDARDBSI
  2
AcmWeldingStdBSI
  3
"AcmSymBB|Product Description: AutoCAD Mechanical 2000|Company: Autodesk"
 90
        0
280
     0
281
     0
  0
CLASS
  1
ACMIDSTANDARDBSI
  2
AcmIdStdBSI
  3
"AcmSymBB|Product Description: AutoCAD Mechanical 2000|Company: Autodesk"
 90
        0
280
     0
281
     0
  0
CLASS
  1
ACMDATUMSTANDARDBSI
  2
AcmDatumStdBSI
  3
"AcmSymBB|Product Description: AutoCAD Mechanical 2000|Company: Autodesk"
 90
        0
280
     0
281
     0
  0
CLASS
  1
ACMBOMSTANDARDBSI
  2
AcmBOMStdBSI
  3
"AcmSymBB|Product Description: AutoCAD Mechanical 2000|Company: Autodesk"
 90
        0
280
     0
281
     0
  0
CLASS
  1
LONG_TRANSACTION
  2
AcDbLongTransaction
  3
AutoCAD 2000
 90
        0
280
     0
281
     0
  0
CLASS
  1
LWPOLYLINE
  2
AcDbPolyline
  3
AutoCAD 2000
 90
        0
280
     0
281
     1
  0
CLASS
  1
HATCH
  2
AcDbHatch
  3
AutoCAD 2000
 90
        0
280
     0
281
     1
  0
CLASS
  1
XRECORD
  2
AcDbXrecord
  3
AutoCAD 2000
 90
        0
280
     0
281
     0
  0
ENDSEC
  0
SECTION
  2
TABLES
  0
TABLE
  2
VPORT
  5
8
330
0
100
AcDbSymbolTable
 70
     3
  0
VPORT
  5
2D2E
330
8
100
AcDbSymbolTableRecord
100
AcDbViewportTableRecord
  2
*ACTIVE
 70
     0
 10
0.0
 20
0.0
 11
1.0
 21
1.0
 12
-36.282453408308
 22
-5.426588237241062
 13
0.0
 23
0.0
 14
2.5
 24
2.5
 15
10.0
 25
10.0
 16
0.0
 26
0.0
 36
1.0
 17
0.0
 27
0.0
 37
0.0
 40
71.4119173977747
 41
1.56570841889117
 42
50.0
 43
0.0
 44
0.0
 50
0.0
 51
0.0
 71
     0
 72
   100
 73
     1
 74
     1
 75
     0
 76
     0
 77
     0
 78
     0
  0
ENDTAB
  0
TABLE
  2
LTYPE
  5
5
330
0
100
AcDbSymbolTable
 70
    10
  0
LTYPE
  5
14
330
5
100
AcDbSymbolTableRecord
100
AcDbLinetypeTableRecord
  2
BYBLOCK
 70
     0
  3

 72
    65
 73
     0
 40
0.0
  0
LTYPE
  5
15
330
5
100
AcDbSymbolTableRecord
100
AcDbLinetypeTableRecord
  2
BYLAYER
 70
     0
  3

 72
    65
 73
     0
 40
0.0
  0
LTYPE
  5
16
330
5
100
AcDbSymbolTableRecord
100
AcDbLinetypeTableRecord
  2
CONTINUOUS
 70
     0
  3
Solid line
 72
    65
 73
     0
 40
0.0
  0
LTYPE
  5
4B
330
5
100
AcDbSymbolTableRecord
100
AcDbLinetypeTableRecord
  2
AM_ISO02W050
 70
     0
  3
__ __ __ __ __ __ __ __ __ __ __ __ __ __ __
 72
    65
 73
     2
 40
7.5
 49
6.0
 74
     0
 49
-1.5
 74
     0
  0
LTYPE
  5
4C
330
5
100
AcDbSymbolTableRecord
100
AcDbLinetypeTableRecord
  2
AM_ISO08W050
 70
     0
  3
____ . ____ . ____ . ____ . ____ . ____ . ____
 72
    65
 73
     4
 40
18.0
 49
12.0
 74
     0
 49
-1.5
 74
     0
 49
3.0
 74
     0
 49
-1.5
 74
     0
  0
LTYPE
  5
4D
330
5
100
AcDbSymbolTableRecord
100
AcDbLinetypeTableRecord
  2
AM_ISO09W050
 70
     0
  3
_____ . . _____ . . _____ . . ____ .. ____
 72
    65
 73
     6
 40
22.5
 49
12.0
 74
     0
 49
-1.5
 74
     0
 49
3.0
 74
     0
 49
-1.5
 74
     0
 49
3.0
 74
     0
 49
-1.5
 74
     0
  0
LTYPE
  5
4E
330
5
100
AcDbSymbolTableRecord
100
AcDbLinetypeTableRecord
  2
AMCONSTR
 70
     0
  3
_______________________
 72
    65
 73
     2
 40
9999.0
 49
9999.0
 74
     0
 49
0.0
 74
     0
  0
LTYPE
  5
4F
330
5
100
AcDbSymbolTableRecord
100
AcDbLinetypeTableRecord
  2
AM_ISO02W050X2
 70
     0
  3
 _ _ _ _ _ _ _ _ _ _ _ _
 72
    65
 73
     2
 40
3.75
 49
3.0
 74
     0
 49
-0.75
 74
     0
  0
LTYPE
  5
50
330
5
100
AcDbSymbolTableRecord
100
AcDbLinetypeTableRecord
  2
AM_ISO08W050X2
 70
     0
  3
__ . __ . __ . __ . __ . __
 72
    65
 73
     4
 40
9.0
 49
6.0
 74
     0
 49
-0.75
 74
     0
 49
1.5
 74
     0
 49
-0.75
 74
     0
  0
LTYPE
  5
53
330
5
100
AcDbSymbolTableRecord
100
AcDbLinetypeTableRecord
  2
AMZIGZAG
 70
     0
  3
/\/-/\/-/\/-/\/-/\/-/\/
 72
    65
 73
     2
 40
11.00009999999999
 49
0.0001
 74
     4
 75
   135
340
52
 46
0.04
 50
0.0
 44
0.0
 45
0.0
 49
-11.0
 74
     0
  0
LTYPE
  5
166
330
5
100
AcDbSymbolTableRecord
100
AcDbLinetypeTableRecord
  2
ACJISTGL
 70
     0
  3
_ _ _ _ _
 72
    65
 73
     2
 40
3.0
 49
2.0
 74
     0
 49
-1.0
 74
     0
  0
LTYPE
  5
26A
330
5
100
AcDbSymbolTableRecord
100
AcDbLinetypeTableRecord
  2
ACJISTGB
 70
     0
  3
__ . . __ . .
 72
    65
 73
     6
 40
9.0
 49
4.0
 74
     0
 49
-1.0
 74
     0
 49
1.0
 74
     0
 49
-1.0
 74
     0
 49
1.0
 74
     0
 49
-1.0
 74
     0
  0
ENDTAB
  0
TABLE
  2
LAYER
  5
2
330
0
100
AcDbSymbolTable
 70
     7
  0
LAYER
  5
10
330
2
100
AcDbSymbolTableRecord
100
AcDbLayerTableRecord
  2
0
 70
     0
 62
     7
  6
CONTINUOUS
  0
LAYER
  5
3F9
330
2
100
AcDbSymbolTableRecord
100
AcDbLayerTableRecord
  2
AM_0
 70
     0
 62
     7
  6
CONTINUOUS
  0
LAYER
  5
C7C
330
2
100
AcDbSymbolTableRecord
100
AcDbLayerTableRecord
  2
AM_7
 70
     0
 62
     4
  6
AM_ISO08W050
  0
LAYER
  5
C97
330
2
100
AcDbSymbolTableRecord
100
AcDbLayerTableRecord
  2
AM_11
 70
     0
 62
     3
  6
AM_ISO09W050
  0
LAYER
  5
CC5
330
2
100
AcDbSymbolTableRecord
100
AcDbLayerTableRecord
  2
AM_5
 70
     0
 62
     3
  6
CONTINUOUS
  0
LAYER
  5
CC7
330
2
100
AcDbSymbolTableRecord
100
AcDbLayerTableRecord
  2
DEFPOINTS
 70
     0
 62
     7
  6
CONTINUOUS
  0
LAYER
  5
19BC
330
2
100
AcDbSymbolTableRecord
100
AcDbLayerTableRecord
  2
AM_6
 70
     0
 62
     2
  6
CONTINUOUS
  0
ENDTAB
  0
TABLE
  2
STYLE
  5
3
330
0
100
AcDbSymbolTable
 70
     5
  0
STYLE
  5
11
330
3
100
AcDbSymbolTableRecord
100
AcDbTextStyleTableRecord
  2
STANDARD
 70
     0
 40
0.0
 41
1.0
 50
0.0
 71
     0
 42
2.5
  3
simplex.shx
  4
EXTFONT.SHX
  0
STYLE
  5
52
330
3
100
AcDbSymbolTableRecord
100
AcDbTextStyleTableRecord
  2

 70
     1
 40
0.0
 41
1.0
 50
0.0
 71
     0
 42
2.5
  3
ltypeshp.shx
  4

  0
STYLE
  5
6B
330
3
100
AcDbSymbolTableRecord
100
AcDbTextStyleTableRecord
  2
ASAMI
 70
     0
 40
0.0
 41
1.0
 50
0.0
 71
     0
 42
2.5
  3
simplex.shx
  4
EXTFONT.SHX
  0
STYLE
  5
262
330
3
100
AcDbSymbolTableRecord
100
AcDbTextStyleTableRecord
  2
ACJISTS
 70
     0
 40
1.0
 41
1.0
 50
0.0
 71
     0
 42
2.5
  3
simplex.shx
  4
bigfont.shx
  0
STYLE
  5
269
330
3
100
AcDbSymbolTableRecord
100
AcDbTextStyleTableRecord
  2
ACJISGDT
 70
     0
 40
0.0
 41
1.0
 50
0.0
 71
     0
 42
2.5
  3
amgdtans.shx
  4

  0
ENDTAB
  0
TABLE
  2
VIEW
  5
6
330
0
100
AcDbSymbolTable
 70
     0
  0
ENDTAB
  0
TABLE
  2
UCS
  5
7
330
0
100
AcDbSymbolTable
 70
     0
  0
ENDTAB
  0
TABLE
  2
APPID
  5
9
330
0
100
AcDbSymbolTable
 70
    16
  0
APPID
  5
12
330
9
100
AcDbSymbolTableRecord
100
AcDbRegAppTableRecord
  2
ACAD
 70
     0
  0
APPID
  5
30
330
9
100
AcDbSymbolTableRecord
100
AcDbRegAppTableRecord
  2
MCAD_NO_VIS
 70
     0
  0
APPID
  5
31
330
9
100
AcDbSymbolTableRecord
100
AcDbRegAppTableRecord
  2
ACAD_TEMP_GRAPHIC
 70
     0
  0
APPID
  5
2C2
330
9
100
AcDbSymbolTableRecord
100
AcDbRegAppTableRecord
  2
GENIUS_GENDTOL_13
 70
     0
  0
APPID
  5
339
330
9
100
AcDbSymbolTableRecord
100
AcDbRegAppTableRecord
  2
GENIUS_GENODEF_13
 70
     0
  0
APPID
  5
33A
330
9
100
AcDbSymbolTableRecord
100
AcDbRegAppTableRecord
  2
GENIUS_GENOBJ-N-RSBK_13
 70
     0
  0
APPID
  5
33B
330
9
100
AcDbSymbolTableRecord
100
AcDbRegAppTableRecord
  2
GENIUS_GENOBJ-N-LIB_13
 70
     0
  0
APPID
  5
33C
330
9
100
AcDbSymbolTableRecord
100
AcDbRegAppTableRecord
  2
GENIUS_GENSCALE_13
 70
     0
  0
APPID
  5
378
330
9
100
AcDbSymbolTableRecord
100
AcDbRegAppTableRecord
  2
GENIUS_GENDIMSH_14
 70
     0
  0
APPID
  5
C82
330
9
100
AcDbSymbolTableRecord
100
AcDbRegAppTableRecord
  2
GENIUS_GENOBJ-N-CRS_13
 70
     0
  0
APPID
  5
C83
330
9
100
AcDbSymbolTableRecord
100
AcDbRegAppTableRecord
  2
GENIUS_GENOENT_13
 70
     0
  0
APPID
  5
C84
330
9
100
AcDbSymbolTableRecord
100
AcDbRegAppTableRecord
  2
GENIUS_GENOREF_13
 70
     0
  0
APPID
  5
C85
330
9
100
AcDbSymbolTableRecord
100
AcDbRegAppTableRecord
  2
GENIUS_GENOLIS_13
 70
     0
  0
APPID
  5
CA0
330
9
100
AcDbSymbolTableRecord
100
AcDbRegAppTableRecord
  2
GENIUS_GENOBJ-N-CEN_13
 70
     0
  0
APPID
  5
1CFA
330
9
100
AcDbSymbolTableRecord
100
AcDbRegAppTableRecord
  2
GENIUS_GENFIL_13
 70
     0
  0
APPID
  5
1CFB
330
9
100
AcDbSymbolTableRecord
100
AcDbRegAppTableRecord
  2
GENIUS_GENOBJ-N-CHA_13
 70
     0
  0
ENDTAB
  0
TABLE
  2
DIMSTYLE
  5
A
330
0
100
AcDbSymbolTable
 70
     9
  0
DIMSTYLE
105
58
330
A
100
AcDbSymbolTableRecord
100
AcDbDimStyleTableRecord
  2
AM_JIS
 70
     0
  3

  4
"
  5
OPEN30
  6

  7

 40
0.5
 41
2.5
 42
1.0
 43
12.0
 44
1.0
 45
0.0
 46
0.0
 47
0.1
 48
0.1
140
3.2
141
0.0
142
0.0
143
0.0393701
144
1.0
145
0.0
146
0.71
147
1.5
 71
     0
 72
     0
 73
     0
 74
     0
 75
     0
 76
     0
 77
     3
 78
     8
170
     0
171
     2
172
     1
173
     0
174
     0
175
     0
176
   256
177
   256
178
     2
270
     2
271
     3
272
     3
273
     2
274
     2
340
6B
275
     0
280
     0
281
     0
282
     0
283
     0
284
     0
285
     0
286
     0
287
     3
288
     0
  0
DIMSTYLE
105
5F
330
A
100
AcDbSymbolTableRecord
100
AcDbDimStyleTableRecord
  2
AM_JIS$3
 70
     0
  3

  4
"
  5
OPEN30
  6

  7

 40
0.5
 41
2.5
 42
1.0
 43
10.0
 44
1.0
 45
0.0
 46
0.0
 47
0.1
 48
0.1
140
3.2
141
0.0
142
0.0
143
0.0393701
144
1.0
145
0.0
146
0.71
147
1.5
 71
     0
 72
     0
 73
     0
 74
     1
 75
     0
 76
     0
 77
     3
 78
     8
170
     0
171
     2
172
     0
173
     0
174
     0
175
     0
176
   256
177
   256
178
     2
270
     2
271
     2
272
     3
273
     2
274
     2
340
6B
275
     0
280
     0
281
     0
282
     0
283
     0
284
     0
285
     0
286
     0
287
     0
288
     1
  0
DIMSTYLE
105
60
330
A
100
AcDbSymbolTableRecord
100
AcDbDimStyleTableRecord
  2
AM_JIS$4
 70
     0
  3

  4
"
  5
OPEN30
  6

  7

 40
0.5
 41
2.5
 42
1.0
 43
10.0
 44
1.0
 45
0.0
 46
0.0
 47
0.1
 48
0.1
140
3.2
141
0.0
142
0.0
143
0.0393701
144
1.0
145
0.0
146
0.71
147
1.5
 71
     0
 72
     0
 73
     0
 74
     1
 75
     0
 76
     0
 77
     3
 78
     8
170
     0
171
     2
172
     0
173
     0
174
     0
175
     0
176
   256
177
   256
178
     2
270
     2
271
     2
272
     3
273
     2
274
     2
340
6B
275
     0
280
     0
281
     0
282
     0
283
     0
284
     0
285
     0
286
     0
287
     0
288
     1
  0
DIMSTYLE
105
61
330
A
100
AcDbSymbolTableRecord
100
AcDbDimStyleTableRecord
  2
AM_JIS$6
 70
     0
  3

  4
"
  5
OPEN30
  6

  7

 40
0.5
 41
2.5
 42
1.0
 43
10.0
 44
1.0
 45
0.0
 46
0.0
 47
0.1
 48
0.1
140
3.2
141
0.0
142
0.0
143
0.0393701
144
1.0
145
0.0
146
0.71
147
1.5
 71
     0
 72
     0
 73
     0
 74
     0
 75
     0
 76
     0
 77
     0
 78
     8
170
     0
171
     2
172
     1
173
     0
174
     0
175
     0
176
   256
177
   256
178
     2
270
     2
271
     2
272
     2
273
     2
274
     2
340
6B
275
     0
280
     0
281
     0
282
     0
283
     0
284
     0
285
     0
286
     0
287
     3
288
     0
  0
DIMSTYLE
105
62
330
A
100
AcDbSymbolTableRecord
100
AcDbDimStyleTableRecord
  2
AM_JIS$7
 70
     0
  3

  4
"
  5
OPEN30
  6

  7

 40
0.5
 41
2.5
 42
1.0
 43
10.0
 44
1.0
 45
0.0
 46
0.0
 47
0.1
 48
0.1
140
3.2
141
0.0
142
0.0
143
0.0393701
144
1.0
145
0.0
146
0.71
147
1.5
 71
     0
 72
     0
 73
     0
 74
     0
 75
     0
 76
     0
 77
     3
 78
     8
170
     0
171
     2
172
     1
173
     0
174
     0
175
     0
176
   256
177
   256
178
     2
270
     2
271
     2
272
     3
273
     2
274
     2
340
6B
275
     0
280
     0
281
     0
282
     0
283
     0
284
     0
285
     0
286
     0
287
     3
288
     0
  0
DIMSTYLE
105
63
330
A
100
AcDbSymbolTableRecord
100
AcDbDimStyleTableRecord
  2
AM_JIS$SF
 70
     0
  3

  4
"
  5
OPEN30
  6

  7

 40
0.5
 41
2.5
 42
1.0
 43
10.0
 44
1.0
 45
0.0
 46
0.0
 47
0.1
 48
0.1
140
3.2
141
0.0
142
0.0
143
0.0393701
144
1.0
145
0.0
146
0.71
147
1.5
 71
     0
 72
     0
 73
     0
 74
     0
 75
     1
 76
     1
 77
     3
 78
     8
170
     0
171
     2
172
     1
173
     0
174
     0
175
     0
176
   256
177
   256
178
     2
270
     2
271
     2
272
     2
273
     2
274
     2
340
6B
275
     0
280
     0
281
     0
282
     0
283
     0
284
     0
285
     0
286
     0
287
     3
288
     0
  0
DIMSTYLE
105
68
330
A
100
AcDbSymbolTableRecord
100
AcDbDimStyleTableRecord
  2
AM_JIS$SH
 70
     0
  3

  4
"
  5

  6
GENAXEH
  7
OPEN30
 40
0.5
 41
2.5
 42
1.0
 43
10.0
 44
1.0
 45
0.0
 46
0.0
 47
0.1
 48
0.1
140
3.2
141
0.0
142
0.0
143
0.0393701
144
2.0
145
0.0
146
0.71
147
1.5
 71
     0
 72
     0
 73
     0
 74
     0
 75
     1
 76
     1
 77
     3
 78
     8
170
     0
171
     2
172
     1
173
     1
174
     0
175
     0
176
   256
177
   256
178
     2
270
     2
271
     2
272
     2
273
     2
274
     2
340
6B
275
     0
280
     0
281
     0
282
     0
283
     0
284
     0
285
     0
286
     0
287
     3
288
     0
  0
DIMSTYLE
105
B34
102
{ACAD_REACTORS
330
260B
102
}
330
A
100
AcDbSymbolTableRecord
100
AcDbDimStyleTableRecord
  2
AM_JIS$2
 70
     0
  3

  4
"
  5
OPEN30
  6

  7

 40
0.5
 41
2.5
 42
1.0
 43
12.0
 44
1.0
 45
0.0
 46
0.0
 47
0.1
 48
0.1
140
3.2
141
0.0
142
0.0
143
0.0393701
144
1.0
145
0.0
146
0.71
147
1.5
 71
     0
 72
     0
 73
     0
 74
     0
 75
     0
 76
     0
 77
     3
 78
     8
170
     0
171
     2
172
     1
173
     0
174
     0
175
     0
176
   256
177
   256
178
     2
270
     2
271
     3
272
     3
273
     2
274
     2
340
6B
275
     0
280
     0
281
     0
282
     0
283
     0
284
     0
285
     0
286
     0
287
     3
288
     0
  0
DIMSTYLE
105
BA5
102
{ACAD_REACTORS
330
CC6
330
DF5
330
218E
330
245D
102
}
330
A
100
AcDbSymbolTableRecord
100
AcDbDimStyleTableRecord
  2
AM_JIS$0
 70
     0
  3

  4
"
  5
OPEN30
  6

  7

 40
0.5
 41
2.5
 42
0.0
 43
10.0
 44
1.0
 45
0.0
 46
0.0
 47
0.1
 48
0.1000000001
140
3.799999999999999
141
0.0
142
0.0
143
0.0393701
144
1.0
145
0.0
146
0.71
147
1.5
 71
     0
 72
     0
 73
     0
 74
     0
 75
     0
 76
     0
 77
     3
 78
     1
170
     0
171
     2
172
     1
173
     0
174
     0
175
     0
176
     3
177
     3
178
     2
270
     2
271
     2
272
     2
273
     2
274
     2
340
11
275
     1
280
     0
281
     0
282
     0
283
     0
284
     8
285
     0
286
     0
287
     0
288
     0
  0
ENDTAB
  0
TABLE
  2
BLOCK_RECORD
  5
1
330
0
100
AcDbSymbolTable
 70
    10
  0
BLOCK_RECORD
  5
1F
102
{ACAD_XDICTIONARY
360
74
102
}
330
1
100
AcDbSymbolTableRecord
100
AcDbBlockTableRecord
  2
*MODEL_SPACE
  0
BLOCK_RECORD
  5
101
102
{ACAD_XDICTIONARY
360
2D57
102
}
330
1
100
AcDbSymbolTableRecord
100
AcDbBlockTableRecord
  2
*PAPER_SPACE
  0
BLOCK_RECORD
  5
59
330
1
100
AcDbSymbolTableRecord
100
AcDbBlockTableRecord
  2
_OPEN30
  0
BLOCK_RECORD
  5
64
330
1
100
AcDbSymbolTableRecord
100
AcDbBlockTableRecord
  2
GENAXEH
  0
BLOCK_RECORD
  5
CC8
330
1
100
AcDbSymbolTableRecord
100
AcDbBlockTableRecord
  2
*D5
  0
BLOCK_RECORD
  5
DF6
330
1
100
AcDbSymbolTableRecord
100
AcDbBlockTableRecord
  2
*D6
  0
BLOCK_RECORD
  5
218F
330
1
100
AcDbSymbolTableRecord
100
AcDbBlockTableRecord
  2
*D7
  0
BLOCK_RECORD
  5
245E
330
1
100
AcDbSymbolTableRecord
100
AcDbBlockTableRecord
  2
*D8
  0
BLOCK_RECORD
  5
260C
330
1
100
AcDbSymbolTableRecord
100
AcDbBlockTableRecord
  2
*D9
  0
ENDTAB
  0
ENDSEC
  0
SECTION
  2
BLOCKS
  0
BLOCK
  5
20
330
1F
100
AcDbEntity
  8
0
100
AcDbBlockBegin
  2
*MODEL_SPACE
 70
     0
 10
0.0
 20
0.0
 30
0.0
  3
*MODEL_SPACE
  1

  0
ENDBLK
  5
21
330
1F
100
AcDbEntity
  8
0
100
AcDbBlockEnd
  0
BLOCK
  5
103
330
101
100
AcDbEntity
 67
     1
  8
0
100
AcDbBlockBegin
  2
*PAPER_SPACE
 70
     0
 10
0.0
 20
0.0
 30
0.0
  3
*PAPER_SPACE
  1

  0
ENDBLK
  5
104
330
101
100
AcDbEntity
 67
     1
  8
0
100
AcDbBlockEnd
  0
BLOCK
  5
5D
330
59
100
AcDbEntity
  8
0
100
AcDbBlockBegin
  2
_OPEN30
 70
     0
 10
0.0
 20
0.0
 30
0.0
  3
_OPEN30
  1

  0
LINE
  5
5A
330
59
100
AcDbEntity
  8
0
 62
     0
100
AcDbLine
 10
-1.0
 20
0.26794919
 30
0.0
 11
0.0
 21
0.0
 31
0.0
  0
LINE
  5
5B
330
59
100
AcDbEntity
  8
0
 62
     0
100
AcDbLine
 10
0.0
 20
0.0
 30
0.0
 11
-1.0
 21
-0.26794919
 31
0.0
  0
LINE
  5
5C
330
59
100
AcDbEntity
  8
0
 62
     0
100
AcDbLine
 10
0.0
 20
0.0
 30
0.0
 11
-1.0
 21
0.0
 31
0.0
  0
ENDBLK
  5
5E
330
59
100
AcDbEntity
  8
0
100
AcDbBlockEnd
  0
BLOCK
  5
66
330
64
100
AcDbEntity
  8
0
100
AcDbBlockBegin
  2
GENAXEH
 70
     0
 10
0.0
 20
0.0
 30
0.0
  3
GENAXEH
  1

  0
LINE
  5
65
330
64
100
AcDbEntity
  8
0
100
AcDbLine
 10
-1.0
 20
0.0
 30
0.0
 11
1.0
 21
0.0
 31
0.0
  0
ENDBLK
  5
67
330
64
100
AcDbEntity
  8
0
100
AcDbBlockEnd
  0
BLOCK
  5
CD2
330
CC8
100
AcDbEntity
  8
0
100
AcDbBlockBegin
  2
*D5
 70
     1
 10
0.0
 20
0.0
 30
0.0
  3
*D5
  1

  0
LINE
  5
2CD8
330
CC8
100
AcDbEntity
  8
AM_5
 62
     3
100
AcDbLine
 10
-80.99999999999992
 20
-2.352702618522132
 30
0.0
 11
-80.99999999999992
 21
-15.00000099999994
 31
0.0
  0
LINE
  5
2CD9
330
CC8
100
AcDbEntity
  8
AM_5
 62
     3
100
AcDbLine
 10
-0.999999999999936
 20
-2.299999579117664
 30
0.0
 11
-0.9999999999999367
 21
-15.00000099999994
 31
0.0
  0
LINE
  5
2CDA
330
CC8
100
AcDbEntity
  8
AM_5
 62
     3
100
AcDbLine
 10
-79.74999999999991
 20
-14.50000099999995
 30
0.0
 11
-2.249999999999936
 21
-14.50000099999995
 31
0.0
  0
INSERT
  5
2CDB
330
CC8
100
AcDbEntity
  8
AM_5
 62
     3
100
AcDbBlockReference
  2
_OPEN30
 10
-80.99999999999992
 20
-14.50000099999995
 30
0.0
 41
1.25
 42
1.25
 43
1.25
 50
180.0
  0
INSERT
  5
2CDC
330
CC8
100
AcDbEntity
  8
AM_5
 62
     3
100
AcDbBlockReference
  2
_OPEN30
 10
-0.9999999999999367
 20
-14.50000099999995
 30
0.0
 41
1.25
 42
1.25
 43
1.25
  0
MTEXT
  5
2CDD
330
CC8
100
AcDbEntity
  8
AM_5
 62
     2
100
AcDbMText
 10
-40.99999999999993
 20
-12.80000099999995
 30
0.0
 40
1.9
 41
0.0
 71
     5
 72
     1
  1
80
1001
ACAD
1000
MTEXTBEGIN
1070
    73
1070
     1
1070
    44
1040
1.0
1070
    74
1070
     0
1000
MTEXTEND
  0
POINT
  5
2CDE
330
CC8
100
AcDbEntity
  8
DEFPOINTS
 62
     0
100
AcDbPoint
 10
-80.99999999999992
 20
-2.352702618522132
 30
0.0
  0
POINT
  5
2CDF
330
CC8
100
AcDbEntity
  8
DEFPOINTS
 62
     0
100
AcDbPoint
 10
-0.999999999999936
 20
-2.299999579117664
 30
0.0
  0
POINT
  5
2CE0
330
CC8
100
AcDbEntity
  8
DEFPOINTS
 62
     0
100
AcDbPoint
 10
-0.9999999999999367
 20
-14.50000099999995
 30
0.0
  0
ENDBLK
  5
CD3
330
CC8
100
AcDbEntity
  8
0
100
AcDbBlockEnd
  0
BLOCK
  5
E00
330
DF6
100
AcDbEntity
  8
0
100
AcDbBlockBegin
  2
*D6
 70
     1
 10
0.0
 20
0.0
 30
0.0
  3
*D6
  1

  0
LINE
  5
2D02
330
DF6
100
AcDbEntity
  8
AM_5
 62
     3
100
AcDbLine
 10
-30.99999999999991
 20
-2.500000000000035
 30
0.0
 11
-30.99999999999991
 21
-10.00000099999991
 31
0.0
  0
LINE
  5
2D03
330
DF6
100
AcDbEntity
  8
AM_5
 62
     3
100
AcDbLine
 10
-0.9999999999999186
 20
-2.299999579117623
 30
0.0
 11
-0.9999999999999191
 21
-10.00000099999991
 31
0.0
  0
LINE
  5
2D04
330
DF6
100
AcDbEntity
  8
AM_5
 62
     3
100
AcDbLine
 10
-29.74999999999991
 20
-9.500000999999915
 30
0.0
 11
-2.249999999999919
 21
-9.500000999999915
 31
0.0
  0
INSERT
  5
2D05
330
DF6
100
AcDbEntity
  8
AM_5
 62
     3
100
AcDbBlockReference
  2
_OPEN30
 10
-30.99999999999991
 20
-9.500000999999915
 30
0.0
 41
1.25
 42
1.25
 43
1.25
 50
180.0
  0
INSERT
  5
2D06
330
DF6
100
AcDbEntity
  8
AM_5
 62
     3
100
AcDbBlockReference
  2
_OPEN30
 10
-0.9999999999999191
 20
-9.500000999999915
 30
0.0
 41
1.25
 42
1.25
 43
1.25
  0
MTEXT
  5
2D07
330
DF6
100
AcDbEntity
  8
AM_5
 62
     2
100
AcDbMText
 10
-15.99999999999991
 20
-7.800000999999915
 30
0.0
 40
1.9
 41
0.0
 71
     5
 72
     1
  1
30
1001
ACAD
1000
MTEXTBEGIN
1070
    73
1070
     1
1070
    44
1040
1.0
1070
    74
1070
     0
1000
MTEXTEND
  0
POINT
  5
2D08
330
DF6
100
AcDbEntity
  8
DEFPOINTS
 62
     0
100
AcDbPoint
 10
-30.99999999999991
 20
-2.500000000000035
 30
0.0
  0
POINT
  5
2D09
330
DF6
100
AcDbEntity
  8
DEFPOINTS
 62
     0
100
AcDbPoint
 10
-0.9999999999999186
 20
-2.299999579117623
 30
0.0
  0
POINT
  5
2D0A
330
DF6
100
AcDbEntity
  8
DEFPOINTS
 62
     0
100
AcDbPoint
 10
-0.9999999999999191
 20
-9.500000999999915
 30
0.0
  0
ENDBLK
  5
E01
330
DF6
100
AcDbEntity
  8
0
100
AcDbBlockEnd
  0
BLOCK
  5
219B
330
218F
100
AcDbEntity
  8
0
100
AcDbBlockBegin
  2
*D7
 70
     1
 10
0.0
 20
0.0
 30
0.0
  3
*D7
  1

  0
LINE
  5
2CE1
330
218F
100
AcDbEntity
  8
AM_5
 62
     3
100
AcDbLine
 10
-80.74999999999988
 20
2.499999999999766
 30
0.0
 11
-89.75000099999988
 21
2.499999999999749
 31
0.0
  0
LINE
  5
2CE2
330
218F
100
AcDbEntity
  8
AM_5
 62
     3
100
AcDbLine
 10
-80.7499999999997
 20
-2.500000000000233
 30
0.0
 11
-89.75000099999988
 21
-2.50000000000025
 31
0.0
  0
LINE
  5
2CE3
330
218F
100
AcDbEntity
  8
AM_5
 62
     3
100
AcDbLine
 10
-89.25000099999989
 20
3.749999999999749
 30
0.0
 11
-89.25000099999989
 21
4.99999999999975
 31
0.0
  0
LINE
  5
2CE4
330
218F
100
AcDbEntity
  8
AM_5
 62
     3
100
AcDbLine
 10
-89.25000099999987
 20
-3.75000000000025
 30
0.0
 11
-89.25000099999987
 21
-5.000000000000249
 31
0.0
  0
LINE
  5
2CE5
330
218F
100
AcDbEntity
  8
AM_5
 62
     3
100
AcDbLine
 10
-89.25000099999989
 20
2.499999999999749
 30
0.0
 11
-89.25000099999989
 21
-2.50000000000025
 31
0.0
  0
INSERT
  5
2CE6
330
218F
100
AcDbEntity
  8
AM_5
 62
     3
100
AcDbBlockReference
  2
_OPEN30
 10
-89.25000099999989
 20
2.499999999999749
 30
0.0
 41
1.25
 42
1.25
 43
1.25
 50
270.0000000000001
  0
INSERT
  5
2CE7
330
218F
100
AcDbEntity
  8
AM_5
 62
     3
100
AcDbBlockReference
  2
_OPEN30
 10
-89.25000099999989
 20
-2.50000000000025
 30
0.0
 41
1.25
 42
1.25
 43
1.25
 50
90.0000000000001
  0
MTEXT
  5
2CE8
330
218F
100
AcDbEntity
  8
AM_5
 62
     2
100
AcDbMText
 10
-90.95000099999989
 20
-0.0000000000002428
 30
0.0
 40
1.9
 41
0.0
 71
     5
 72
     1
  1
%%c5
 11
-0.000000000000002
 21
1.0
 31
0.0
1001
ACAD
1000
MTEXTBEGIN
1070
    73
1070
     1
1070
    44
1040
1.0
1070
    74
1070
     0
1000
MTEXTEND
  0
POINT
  5
2CE9
330
218F
100
AcDbEntity
  8
DEFPOINTS
 62
     0
100
AcDbPoint
 10
-80.74999999999988
 20
2.499999999999945
 30
0.0
  0
POINT
  5
2CEA
330
218F
100
AcDbEntity
  8
DEFPOINTS
 62
     0
100
AcDbPoint
 10
-80.7499999999997
 20
-2.500000000000054
 30
0.0
  0
POINT
  5
2CEB
330
218F
100
AcDbEntity
  8
DEFPOINTS
 62
     0
100
AcDbPoint
 10
-89.25000099999989
 20
-2.500000000000051
 30
0.0
  0
ENDBLK
  5
219C
330
218F
100
AcDbEntity
  8
0
100
AcDbBlockEnd
  0
BLOCK
  5
246A
330
245E
100
AcDbEntity
  8
0
100
AcDbBlockBegin
  2
*D8
 70
     1
 10
0.0
 20
0.0
 30
0.0
  3
*D8
  1

  0
LINE
  5
2CF7
330
245E
100
AcDbEntity
  8
AM_5
 62
     3
100
AcDbLine
 10
-0.9999999999999186
 20
-2.299999579117664
 30
0.0
 11
8.704574799195889
 21
-2.299999579117666
 31
0.0
  0
LINE
  5
2CF8
330
245E
100
AcDbEntity
  8
AM_5
 62
     3
100
AcDbLine
 10
-0.9999999999999104
 20
2.30000042088233
 30
0.0
 11
8.704574799195889
 21
2.300000420882328
 31
0.0
  0
LINE
  5
2CF9
330
245E
100
AcDbEntity
  8
AM_5
 62
     3
100
AcDbLine
 10
8.204574799195889
 20
-3.549999579117666
 30
0.0
 11
8.204574799195887
 21
-4.799999579117667
 31
0.0
  0
LINE
  5
2CFA
330
245E
100
AcDbEntity
  8
AM_5
 62
     3
100
AcDbLine
 10
8.204574799195889
 20
3.550000420882328
 30
0.0
 11
8.20457479919589
 21
11.90952423040613
 31
0.0
  0
LINE
  5
2CFB
330
245E
100
AcDbEntity
  8
AM_5
 62
     3
100
AcDbLine
 10
8.204574799195889
 20
-2.299999579117666
 30
0.0
 11
8.204574799195889
 21
2.300000420882328
 31
0.0
  0
INSERT
  5
2CFC
330
245E
100
AcDbEntity
  8
AM_5
 62
     3
100
AcDbBlockReference
  2
_OPEN30
 10
8.204574799195889
 20
-2.299999579117666
 30
0.0
 41
1.25
 42
1.25
 43
1.25
 50
90.0
  0
INSERT
  5
2CFD
330
245E
100
AcDbEntity
  8
AM_5
 62
     3
100
AcDbBlockReference
  2
_OPEN30
 10
8.204574799195889
 20
2.300000420882328
 30
0.0
 41
1.25
 42
1.25
 43
1.25
 50
270.0
  0
MTEXT
  5
2CFE
330
245E
100
AcDbEntity
  8
AM_5
 62
     2
100
AcDbMText
 10
6.504574799195889
 20
8.354762325644234
 30
0.0
 40
1.9
 41
0.0
 71
     5
 72
     1
  1
%%c4.6
 11
0.0000000000000001
 21
1.0
 31
0.0
1001
ACAD
1000
MTEXTBEGIN
1070
    73
1070
     1
1070
    44
1040
1.0
1070
    74
1070
     0
1000
MTEXTEND
  0
POINT
  5
2CFF
330
245E
100
AcDbEntity
  8
DEFPOINTS
 62
     0
100
AcDbPoint
 10
-0.9999999999999186
 20
-2.299999579117664
 30
0.0
  0
POINT
  5
2D00
330
245E
100
AcDbEntity
  8
DEFPOINTS
 62
     0
100
AcDbPoint
 10
-0.9999999999999104
 20
2.30000042088233
 30
0.0
  0
POINT
  5
2D01
330
245E
100
AcDbEntity
  8
DEFPOINTS
 62
     0
100
AcDbPoint
 10
8.204574799195889
 20
2.300000420882328
 30
0.0
  0
ENDBLK
  5
246B
330
245E
100
AcDbEntity
  8
0
100
AcDbBlockEnd
  0
BLOCK
  5
261C
330
260C
100
AcDbEntity
  8
0
100
AcDbBlockBegin
  2
*D9
 70
     1
 10
0.0
 20
0.0
 30
0.0
  3
*D9
  1

  0
LINE
  5
2CEC
330
260C
100
AcDbEntity
  8
AM_5
100
AcDbLine
 10
0.1710100704081408
 20
-0.4698463108496862
 30
0.0
 11
5.422109646484566
 21
-14.89712394330939
 31
0.0
  0
LINE
  5
2CED
330
260C
100
AcDbEntity
  8
AM_5
100
AcDbLine
 10
0.1710113367807697
 20
0.4698458499257564
 30
0.0
 11
5.422149798571753
 21
14.89710932908359
 31
0.0
  0
ARC
  5
2CEE
330
260C
100
AcDbEntity
  8
AM_5
100
AcDbCircle
 10
0.0000000000000699
 20
-0.0000000000000265
 30
0.0
 40
15.353188158879
100
AcDbArc
 50
294.6661004141936
 51
65.33374515691979
  0
INSERT
  5
2CEF
330
260C
100
AcDbEntity
  8
AM_5
100
AcDbBlockReference
  2
_OPEN30
 10
5.251099576076498
 20
-14.42727763245973
 30
0.0
 41
1.25
 42
1.25
 43
1.25
 50
202.33305013059
  0
INSERT
  5
2CF0
330
260C
100
AcDbEntity
  8
AM_5
100
AcDbBlockReference
  2
_OPEN30
 10
5.251138461791055
 20
14.42726347915781
 30
0.0
 41
1.25
 42
1.25
 43
1.25
 50
157.6667954405233
  0
MTEXT
  5
2CF1
330
260C
100
AcDbEntity
  8
AM_5
 62
     2
100
AcDbMText
 10
13.80318815886653
 20
-0.0000186018149914
 30
0.0
 40
1.6
 41
0.0
 71
     5
 72
     1
  1
140°
  7
ASAMI
 11
0.0000013476462646
 21
0.9999999999990919
 31
0.0
1001
ACAD
1000
MTEXTBEGIN
1070
    73
1070
     1
1070
    44
1040
1.0
1070
    74
1070
     0
1000
MTEXTEND
  0
POINT
  5
2CF2
330
260C
100
AcDbEntity
  8
DEFPOINTS
 62
     0
100
AcDbPoint
 10
14.09753919059091
 20
-6.081099852140065
 30
0.0
  0
POINT
  5
2CF3
330
260C
100
AcDbEntity
  8
DEFPOINTS
 62
     0
100
AcDbPoint
 10
0.000000000000071
 20
-0.0000000000000234
 30
0.0
  0
POINT
  5
2CF4
330
260C
100
AcDbEntity
  8
DEFPOINTS
 62
     0
100
AcDbPoint
 10
0.0000000000000727
 20
-0.0000000000000344
 30
0.0
  0
POINT
  5
2CF5
330
260C
100
AcDbEntity
  8
DEFPOINTS
 62
     0
100
AcDbPoint
 10
-0.2203534757973607
 20
0.6054162040824024
 30
0.0
  0
POINT
  5
2CF6
330
260C
100
AcDbEntity
  8
DEFPOINTS
 62
     0
100
AcDbPoint
 10
-0.2203570834776433
 20
-0.6054210388784097
 30
0.0
  0
ENDBLK
  5
261D
330
260C
100
AcDbEntity
  8
0
100
AcDbBlockEnd
  0
ENDSEC
  0
SECTION
  2
ENTITIES
  0
LINE
  5
C1D
330
1F
100
AcDbEntity
  8
AM_0
 48
0.5
100
AcDbLine
 10
0.0000000000000744
 20
-0.0000000000000352
 30
0.0
 11
-0.2252502197039687
 21
0.6188698975064558
 31
0.0
  0
LINE
  5
C20
330
1F
100
AcDbEntity
  8
AM_0
 48
0.5
100
AcDbLine
 10
0.0000000000000726
 20
-0.0000000000000239
 30
0.0
 11
-0.2252539075549244
 21
-0.6188748397423744
 31
0.0
  0
LINE
  5
C30
330
1F
100
AcDbEntity
  8
AM_0
 48
0.5
100
AcDbLine
 10
-80.99999999999992
 20
-2.250000000000054
 30
0.0
 11
-80.99999999999988
 21
2.249999999999945
 31
0.0
  0
LINE
  5
C9F
330
1F
100
AcDbEntity
  8
AM_7
100
AcDbLine
 10
-82.2499999999999
 20
-0.0000000000000553
 30
0.0
 11
1.204573799195893
 21
0.0000000000000008
 31
0.0
1001
GENIUS_GENODEF_13
1002
{
1000
HIER
1070
     0
1002
}
1002
{
1000
MANEDIT
1070
     0
1002
}
1002
{
1000
NOSEL
1070
     0
1002
}
1002
{
1000
BEHIND
1070
     0
1002
}
1002
{
1000
REACTOR
1002
}
1001
GENIUS_GENOBJ-N-CEN_13
1002
{
1000
OWNER
1000
GEN
1002
}
  0
DIMENSION
  5
CC6
330
1F
100
AcDbEntity
  8
AM_5
100
AcDbDimension
  2
*D5
 10
-0.9999999999999367
 20
-14.50000099999995
 30
0.0
 11
-40.99999999999993
 21
-12.80000099999995
 31
0.0
 70
    32
  1
<>
  3
AM_JIS$0
100
AcDbAlignedDimension
 13
-80.99999999999992
 23
-2.352702618522132
 33
0.0
 14
-0.999999999999936
 24
-2.299999579117664
 34
0.0
 50
0.0000000000001132
100
AcDbRotatedDimension
1001
GENIUS_GENDTOL_13
1000

1000
h7
1000

1040
0.0
1001
ACAD
1000
DSTYLE
1002
{
1070
   271
1070
     0
1002
}
  0
DIMENSION
  5
DF5
330
1F
100
AcDbEntity
  8
AM_5
100
AcDbDimension
  2
*D6
 10
-0.9999999999999191
 20
-9.500000999999915
 30
0.0
 11
-15.99999999999991
 21
-7.800000999999915
 31
0.0
 70
    32
  1
<>
  3
AM_JIS$0
100
AcDbAlignedDimension
 13
-30.99999999999991
 23
-2.500000000000035
 33
0.0
 14
-0.9999999999999186
 24
-2.299999579117623
 34
0.0
 50
0.0000000000001527
100
AcDbRotatedDimension
1001
GENIUS_GENDTOL_13
1000

1000
h7
1000

1040
0.0
1001
ACAD
1000
DSTYLE
1002
{
1070
   271
1070
     0
1002
}
  0
ARC
  5
144A
330
1F
100
AcDbEntity
  8
AM_11
 48
0.5
100
AcDbCircle
 10
-40.36613718668319
 20
-11.04241155161759
 30
0.0
 40
12.20908006032291
100
AcDbArc
 50
64.74833051131179
 51
115.2516644797366
  0
ARC
  5
144B
330
1F
100
AcDbEntity
  8
AM_11
 48
0.5
100
AcDbCircle
 10
-40.36613718668318
 20
11.0424190503924
 30
0.0
 40
12.20908006032291
100
AcDbArc
 50
244.7482808787518
 51
295.2516148471758
  0
ARC
  5
144E
330
1F
100
AcDbEntity
  8
AM_11
 48
0.5
100
AcDbCircle
 10
-29.94947052001652
 20
-11.04241155161759
 30
0.0
 40
12.20908006032291
100
AcDbArc
 50
64.74833051131179
 51
115.2516644797366
  0
ARC
  5
144F
330
1F
100
AcDbEntity
  8
AM_11
 48
0.5
100
AcDbCircle
 10
-29.94947052001652
 20
11.0424190503924
 30
0.0
 40
12.20908006032291
100
AcDbArc
 50
244.7482808787518
 51
295.2516148471758
  0
ARC
  5
1450
330
1F
100
AcDbEntity
  8
AM_11
 48
0.5
100
AcDbCircle
 10
-19.53280385335277
 20
11.0424190503924
 30
0.0
 40
12.20908006032291
100
AcDbArc
 50
244.7482808787518
 51
295.2516148471758
  0
ARC
  5
1451
330
1F
100
AcDbEntity
  8
AM_11
 48
0.5
100
AcDbCircle
 10
-19.53280385335277
 20
-11.04241155161759
 30
0.0
 40
12.20908006032291
100
AcDbArc
 50
64.74833051131179
 51
115.2516644797366
  0
ARC
  5
1452
330
1F
100
AcDbEntity
  8
AM_11
 48
0.5
100
AcDbCircle
 10
-9.116137186686112
 20
-11.04241155161759
 30
0.0
 40
12.20908006032291
100
AcDbArc
 50
64.74833051131179
 51
115.2516644797366
  0
ARC
  5
1453
330
1F
100
AcDbEntity
  8
AM_11
 48
0.5
100
AcDbCircle
 10
-9.116137186686112
 20
11.0424190503924
 30
0.0
 40
12.20908006032291
100
AcDbArc
 50
244.7482808787518
 51
295.2516148471758
  0
ARC
  5
1454
330
1F
100
AcDbEntity
  8
AM_11
 48
0.5
100
AcDbCircle
 10
1.329430135091246
 20
11.28780614040112
 30
0.0
 40
12.48039295055231
100
AcDbArc
 50
244.7482808787518
 51
254.0147302238188
  0
TEXT
  5
19BD
330
1F
100
AcDbEntity
  8
AM_6
100
AcDbText
 10
-52.24999999999988
 20
-25.75000099999998
 30
0.0
 40
2.5
  1
MDW046MHK
 50
0.0000000000001527
 72
     4
 11
-40.99999999999988
 21
-24.50000099999995
 31
0.0
100
AcDbText
  0
LINE
  5
1CF0
330
1F
100
AcDbEntity
  8
AM_0
100
AcDbLine
 10
-80.74999999999988
 20
2.499999999999945
 30
0.0
 11
-30.99999999999989
 21
2.499999999999963
 31
0.0
1001
GENIUS_GENODEF_13
1002
{
1000
HIER
1070
     0
1002
}
1002
{
1000
MANEDIT
1070
     0
1002
}
1002
{
1000
NOSEL
1070
     0
1002
}
1002
{
1000
BEHIND
1070
     0
1002
}
1002
{
1000
REACTOR
1002
}
1001
GENIUS_GENOBJ-N-CEN_13
1002
{
1000
OWNER
1000
GEN
1002
}
  0
LINE
  5
1CF4
330
1F
100
AcDbEntity
  8
AM_0
100
AcDbLine
 10
-80.74999999999992
 20
-2.500000000000054
 30
0.0
 11
-30.99999999999991
 21
-2.500000000000035
 31
0.0
1001
GENIUS_GENODEF_13
1002
{
1000
HIER
1070
     0
1002
}
1002
{
1000
MANEDIT
1070
     0
1002
}
1002
{
1000
NOSEL
1070
     0
1002
}
1002
{
1000
BEHIND
1070
     0
1002
}
1002
{
1000
REACTOR
1002
}
1001
GENIUS_GENOBJ-N-CEN_13
1002
{
1000
OWNER
1000
GEN
1002
}
  0
LINE
  5
1CFE
330
1F
100
AcDbEntity
  8
AM_0
100
AcDbLine
 10
-80.74999999999992
 20
-2.500000000000054
 30
0.0
 11
-80.7499999999999
 21
2.499999999999945
 31
0.0
  0
ARC
  5
1DAB
330
1F
100
AcDbEntity
  8
AM_11
 48
0.5
100
AcDbCircle
 10
-50.78278106749326
 20
-11.04241155161762
 30
0.0
 40
12.20908006032291
100
AcDbArc
 50
64.74833051131179
 51
115.2516644797366
  0
ARC
  5
1DAC
330
1F
100
AcDbEntity
  8
AM_11
 48
0.5
100
AcDbCircle
 10
-50.78278106749325
 20
11.04241905039237
 30
0.0
 40
12.20908006032291
100
AcDbArc
 50
244.7482808787518
 51
295.2516148471758
  0
ARC
  5
1DAD
330
1F
100
AcDbEntity
  8
AM_11
 48
0.5
100
AcDbCircle
 10
-61.19942494830334
 20
-11.04241155161765
 30
0.0
 40
12.20908006032291
100
AcDbArc
 50
64.74833051131179
 51
115.2516644797366
  0
ARC
  5
1DAE
330
1F
100
AcDbEntity
  8
AM_11
 48
0.5
100
AcDbCircle
 10
-61.19942494830333
 20
11.04241905039234
 30
0.0
 40
12.20908006032291
100
AcDbArc
 50
244.7482808787518
 51
295.2516148471758
  0
ARC
  5
1DAF
330
1F
100
AcDbEntity
  8
AM_11
 48
0.5
100
AcDbCircle
 10
-71.61606882911342
 20
-11.04241155161768
 30
0.0
 40
12.20908006032291
100
AcDbArc
 50
64.74833051131179
 51
115.2516644797366
  0
ARC
  5
1DB0
330
1F
100
AcDbEntity
  8
AM_11
 48
0.5
100
AcDbCircle
 10
-71.6160688291134
 20
11.04241905039231
 30
0.0
 40
12.20908006032291
100
AcDbArc
 50
244.7482808787518
 51
295.2516148471758
  0
LINE
  5
1EB2
330
1F
100
AcDbEntity
  8
AM_0
100
AcDbLine
 10
-80.99999999999988
 20
2.249999999999945
 30
0.0
 11
-80.74999999999988
 21
2.499999999999945
 31
0.0
1001
GENIUS_GENFIL_13
1070
     0
1040
0.25
1040
0.25
1040
20.0
1040
0.0
1002
{
1002
}
1001
GENIUS_GENODEF_13
1002
{
1000
HIER
1070
     0
1002
}
1002
{
1000
MANEDIT
1070
     0
1002
}
1002
{
1000
NOSEL
1070
     0
1002
}
1002
{
1000
BEHIND
1070
     0
1002
}
1002
{
1000
REACTOR
1002
}
1001
GENIUS_GENOBJ-N-CHA_13
1002
{
1000
OWNER
1000
GEN
1002
}
  0
LINE
  5
1EB5
330
1F
100
AcDbEntity
  8
AM_0
100
AcDbLine
 10
-80.99999999999992
 20
-2.250000000000054
 30
0.0
 11
-80.74999999999992
 21
-2.500000000000054
 31
0.0
1001
GENIUS_GENFIL_13
1070
     0
1040
0.25
1040
0.25
1040
20.0
1040
0.0
1002
{
1002
}
1001
GENIUS_GENODEF_13
1002
{
1000
HIER
1070
     0
1002
}
1002
{
1000
MANEDIT
1070
     0
1002
}
1002
{
1000
NOSEL
1070
     0
1002
}
1002
{
1000
BEHIND
1070
     0
1002
}
1002
{
1000
REACTOR
1002
}
1001
GENIUS_GENOBJ-N-CHA_13
1002
{
1000
OWNER
1000
GEN
1002
}
  0
ARC
  5
1EBF
330
1F
100
AcDbEntity
  8
AM_11
 48
0.5
100
AcDbCircle
 10
-82.03270196212006
 20
11.04241905039229
 30
0.0
 40
12.20908006032291
100
AcDbArc
 50
274.8521466974949
 51
295.2516148471758
  0
ARC
  5
1EC0
330
1F
100
AcDbEntity
  8
AM_11
 48
0.5
100
AcDbCircle
 10
-82.03270196212008
 20
-11.04241155161771
 30
0.0
 40
12.20908006032291
100
AcDbArc
 50
64.74833051131179
 51
85.14785330250502
  0
LINE
  5
1ED3
330
1F
100
AcDbEntity
  8
AM_0
 48
0.5
100
AcDbLine
 10
-30.99999999999992
 20
-2.49999999999998
 30
0.0
 11
-30.99999999999989
 21
2.500000000000019
 31
0.0
  0
LINE
  5
1FDE
330
1F
100
AcDbEntity
  8
AM_0
100
AcDbLine
 10
-30.99999999999992
 20
-2.49999999999998
 30
0.0
 11
-30.65358901989078
 21
-2.299999527383729
 31
0.0
  0
LINE
  5
1FDF
330
1F
100
AcDbEntity
  8
AM_0
100
AcDbLine
 10
-30.99999999999989
 20
2.500000000000019
 30
0.0
 11
-30.65359047787156
 21
2.300000369149382
 31
0.0
  0
DIMENSION
  5
218E
330
1F
100
AcDbEntity
  8
AM_5
100
AcDbDimension
  2
*D7
 10
-89.25000099999989
 20
-2.500000000000051
 30
0.0
 11
-89.25000099999989
 21
-0.0000000000000592
 31
0.0
 70
   160
  1
%%c<>
 51
359.9999999999998
  3
AM_JIS$0
100
AcDbAlignedDimension
 13
-80.74999999999988
 23
2.499999999999945
 33
0.0
 14
-80.7499999999997
 24
-2.500000000000054
 34
0.0
 50
270.0000000000001
100
AcDbRotatedDimension
1001
ACAD
1000
DSTYLE
1002
{
1070
   271
1070
     0
1002
}
1001
GENIUS_GENDTOL_13
1000

1000
h7
1000

1040
0.0
  0
DIMENSION
  5
245D
330
1F
100
AcDbEntity
  8
AM_5
100
AcDbDimension
  2
*D8
 10
8.204574799195889
 20
2.300000420882328
 30
0.0
 11
8.204574799195889
 21
8.354762325644234
 31
0.0
 70
   160
  1
%%c<>
  3
AM_JIS$0
100
AcDbAlignedDimension
 13
-0.9999999999999186
 23
-2.299999579117664
 33
0.0
 14
-0.9999999999999104
 24
2.30000042088233
 34
0.0
 50
89.99999999999955
100
AcDbRotatedDimension
1001
ACAD
1000
DSTYLE
1002
{
1070
   271
1070
     1
1002
}
1001
GENIUS_GENDTOL_13
1000

1000
h7
1000

1040
0.0
  0
LINE
  5
2470
330
1F
100
AcDbEntity
  8
AM_0
 48
0.5
100
AcDbLine
 10
-0.8387091217633459
 20
1.817767319807037
 30
0.0
 11
-0.9999999999999104
 21
2.30000042088233
 31
0.0
  0
ELLIPSE
  5
249A
330
1F
100
AcDbEntity
  8
AM_0
 48
0.5
100
AcDbEllipse
 10
3.601361017861301
 20
2.716816435179741
 30
0.0
 11
4.468720943217904
 21
0.7542603640199949
 31
0.0
210
0.0
220
0.0
230
0.9999999999999998
 40
0.7605565264725771
 41
3.184410165628205
 42
3.569980850929193
  0
LINE
  5
24A9
330
1F
100
AcDbEntity
  8
AM_0
100
AcDbLine
 10
-30.65358901989078
 20
-2.299999527383733
 30
0.0
 11
-30.65359047787155
 21
2.300000369149382
 31
0.0
  0
ELLIPSE
  5
25FC
330
1F
100
AcDbEntity
  8
AM_0
 48
0.5
100
AcDbEllipse
 10
3.601361017861305
 20
-2.716816435179737
 30
0.0
 11
4.468720943217904
 21
-0.7542603640199887
 31
0.0
210
0.0
220
0.0
230
-1.0
 40
0.7605565264725771
 41
3.184410165628205
 42
3.569980850929193
  0
LINE
  5
25FD
330
1F
100
AcDbEntity
  8
AM_0
 48
0.5
100
AcDbLine
 10
-0.8387091217633432
 20
-1.817767319807038
 30
0.0
 11
-0.9999999999999186
 21
-2.299999579117664
 31
0.0
  0
DIMENSION
  5
260B
330
1F
100
AcDbEntity
  8
AM_5
100
AcDbDimension
  2
*D9
 10
-0.2203570834776434
 20
-0.6054210388784098
 30
0.0
 11
13.80318815886653
 21
-0.0000186018150216
 31
0.0
 70
    34
  1
<>
 51
359.9999999999998
  3
AM_JIS$2
100
AcDb2LineAngularDimension
 13
0.0000000000000727
 23
-0.0000000000000344
 33
0.0
 14
-0.2203534757973608
 24
0.6054162040824024
 34
0.0
 15
0.000000000000071
 25
-0.0000000000000234
 35
0.0
 16
14.09753919059091
 26
-6.081099852140065
 36
0.0
1001
ACAD
1000
DSTYLE
1002
{
1070
   179
1070
     3
1002
}
1001
GENIUS_GENDTOL_13
1000

1000
h7
1000

1040
0.0
  0
LINE
  5
2B79
330
1F
100
AcDbEntity
  8
AM_0
100
AcDbLine
 10
-27.59713951861247
 20
-2.300117964055715
 30
0.0
 11
-30.65361062604898
 21
-2.300012001704978
 31
0.0
  0
LINE
  5
2B7B
330
1F
100
AcDbEntity
  8
AM_0
 48
0.5
100
AcDbLine
 10
-2.794454037455582
 20
2.300000369148719
 30
0.0
 11
-0.9999999999999104
 21
2.30000042088233
 31
0.0
  0
LINE
  5
2B7C
330
1F
100
AcDbEntity
  8
AM_0
 48
0.5
100
AcDbLine
 10
0.0000000000000666
 20
-0.0000000000000431
 30
0.0
 11
-1.355808154907738
 21
0.8831305580078002
 31
0.0
  0
SPLINE
  5
2B85
330
1F
100
AcDbEntity
  8
AM_0
 48
0.5
100
AcDbSpline
210
0.0
220
0.0
230
1.0
 70
     8
 71
     3
 72
    10
 73
     6
 74
     0
 42
0.0000000001
 43
0.0000000001
 40
0.0
 40
0.0
 40
0.0
 40
0.0
 40
2.69986029516136
 40
4.147722969032201
 40
6.285750005020438
 40
6.285750005020438
 40
6.285750005020438
 40
6.285750005020438
 10
-3.326449292318193
 20
0.4163154269056663
 30
0.0
 10
-2.59706815246594
 20
0.2026022672376066
 30
0.0
 10
-2.126133522754272
 20
-0.125677640842762
 30
0.0
 10
-1.012436385273579
 20
0.0332484136377413
 30
0.0
 10
-1.222177950139643
 20
0.5685323941752131
 30
0.0
 10
-1.360761775265394
 20
0.8948044666156647
 30
0.0
  0
ELLIPSE
  5
2B86
330
1F
100
AcDbEntity
  8
AM_0
 48
0.5
100
AcDbEllipse
 10
-4.62755215769026
 20
4.374853560168961
 30
0.0
 11
6.711458089859294
 21
0.0003459367522188
 31
0.0
210
0.0
220
0.0
230
1.0
 40
0.899997677912701
 41
-0.9324213744532483
 42
-0.8100438558443785
  0
ELLIPSE
  5
2B87
330
1F
100
AcDbEntity
  8
AM_0
 48
0.5
100
AcDbEllipse
 10
2.650693251593065
 20
-10.08326797195003
 30
0.0
 11
-0.0000000000060701
 21
10.18363721721115
 31
0.0
210
0.0
220
0.0
230
1.0
 40
0.9111111111110174
 41
0.4036548536063352
 42
0.4643678680708692
  0
ELLIPSE
  5
2B88
330
1F
100
AcDbEntity
  8
AM_0
 48
0.5
100
AcDbEllipse
 10
1.539312518084848
 20
2.761291924788523
 30
0.0
 11
-9.339458643621137
 21
6.286295697165741
 31
0.0
210
0.0
220
0.0
230
1.0
 40
0.4268459005264109
 41
1.326121229693523
 42
1.531942750499413
  0
ELLIPSE
  5
2B89
330
1F
100
AcDbEntity
  8
AM_0
 48
0.5
100
AcDbEllipse
 10
-0.8070402296760041
 20
-0.5994126879435325
 30
0.0
 11
-0.079929589010477
 21
0.3764023353974606
 31
0.0
210
0.0
220
0.0
230
1.0
 40
0.5513374602259562
 41
1.777249918678849
 42
4.912591808390824
  0
ELLIPSE
  5
2B8A
330
1F
100
AcDbEntity
  8
AM_0
 48
0.5
100
AcDbEllipse
 10
-0.8070402296760041
 20
-0.5994126879435325
 30
0.0
 11
-0.3742025934937451
 21
0.182163646140994
 31
0.0
210
0.0
220
0.0
230
1.0
 40
0.4713099650453233
 41
4.428335038694017
 42
7.571775380023529
  0
LINE
  5
2B8B
330
1F
100
AcDbEntity
  8
AM_0
 48
0.5
100
AcDbLine
 10
-2.794454037455721
 20
-2.29999957911764
 30
0.0
 11
-0.9999999999999014
 21
-2.299999579117668
 31
0.0
  0
ELLIPSE
  5
2B99
330
1F
100
AcDbEntity
  8
AM_0
 48
0.5
100
AcDbEllipse
 10
2.551140057599211
 20
-0.5112578951576296
 30
0.0
 11
4.069693504586274
 21
0.335126669344353
 31
0.0
210
0.0
220
0.0
230
1.0
 40
0.848572166338859
 41
3.179792593065936
 42
3.586490804260597
  0
LINE
  5
2C2F
330
1F
100
AcDbEntity
  8
AM_0
 48
0.5
100
AcDbLine
 10
-22.27907950750091
 20
1.095273405831714
 30
0.0
 11
-28.49999999999992
 21
-0.1861299142306847
 31
0.0
  0
ELLIPSE
  5
2C30
330
1F
100
AcDbEntity
  8
AM_0
 48
0.5
100
AcDbEllipse
 10
-27.82358186934283
 20
-1.556810087468738
 30
0.0
 11
-0.6766403842907323
 21
0.0000000000000649
 31
0.0
210
0.0
220
0.0
230
1.0
 40
0.8497867011037573
 41
4.317028824483153
 42
6.257553905069437
  0
ELLIPSE
  5
2C31
330
1F
100
AcDbEntity
  8
AM_0
 48
0.5
100
AcDbEllipse
 10
-27.59786987917319
 20
-1.533451297389029
 30
0.0
 11
-0.9021871790542828
 21
0.000000000000115
 31
0.0
210
0.0
220
0.0
230
1.0
 40
0.8497867011037806
 41
0.0112467747892615
 42
1.570796012878469
  0
LINE
  5
2C32
330
1F
100
AcDbEntity
  8
AM_11
 48
0.5
100
AcDbLine
 10
-27.59713951861247
 20
-2.300117964055715
 30
0.0
 11
-21.19993841403846
 21
-2.299976270595255
 31
0.0
  0
LINE
  5
2C33
330
1F
100
AcDbEntity
  8
AM_0
 48
0.5
100
AcDbLine
 10
-21.1135379416955
 20
-2.300117964055932
 30
0.0
 11
-11.38729959149903
 21
-2.299999630850954
 31
0.0
  0
LINE
  5
2C34
330
1F
100
AcDbEntity
  8
AM_11
 48
0.5
100
AcDbLine
 10
-11.20763078832489
 20
-2.299999579117474
 30
0.0
 11
-2.79445978333347
 21
-2.299999579117634
 31
0.0
  0
LINE
  5
2C35
330
1F
100
AcDbEntity
  8
AM_11
 48
0.5
100
AcDbLine
 10
-11.38729959149903
 20
-2.299999630850954
 30
0.0
 11
-2.794454037455722
 21
-2.299999630851281
 31
0.0
  0
SPLINE
  5
2C36
330
1F
100
AcDbEntity
  8
AM_0
100
AcDbSpline
210
0.0
220
0.0
230
1.0
 70
     8
 71
     3
 72
    11
 73
     7
 74
     0
 42
0.0000000001
 43
0.0000000001
 40
11.27226913003534
 40
11.27226913003534
 40
11.27226913003534
 40
11.2722691300354
 40
12.28301561507924
 40
13.29510212255852
 40
14.30984805882082
 40
15.18258238371378
 40
15.18258238371378
 40
15.18258238371378
 40
15.18258238371378
 10
-11.387299591499
 20
-2.299999630850955
 30
0.0
 10
-11.53871006505953
 20
-2.288742762475313
 30
0.0
 10
-11.8412454232357
 20
-2.261490374056806
 30
0.0
 10
-12.29348622431107
 20
-2.206515565754386
 30
0.0
 10
-12.72267071877864
 20
-2.140854184989795
 30
0.0
 10
-13.00024205717585
 20
-2.090378327387999
 30
0.0
 10
-13.12815483374594
 20
-2.065444647926135
 30
0.0
  0
SPLINE
  5
2C37
330
1F
100
AcDbEntity
  8
AM_0
100
AcDbSpline
210
0.0
220
0.0
230
1.0
 70
     8
 71
     3
 72
    13
 73
     9
 74
     0
 42
0.0000000001
 43
0.0000000001
 40
16.03460056234195
 40
16.03460056234195
 40
16.03460056234195
 40
16.03460056234195
 40
16.35212717791071
 40
17.38177067057215
 40
18.41822498539278
 40
19.46214186516937
 40
20.5139635832251
 40
21.34083983469381
 40
21.34083983469381
 40
21.34083983469381
 40
21.34083983469381
 10
-27.59787016238469
 20
-2.30011796405566
 30
0.0
 10
-27.46872604700561
 20
-2.292562972616678
 30
0.0
 10
-27.27009291374881
 20
-2.258752145540825
 30
0.0
 10
-26.92019899064765
 20
-2.192502398937888
 30
0.0
 10
-26.46708514024106
 20
-2.093991173533155
 30
0.0
 10
-26.01439223570388
 20
-1.983379106888622
 30
0.0
 10
-25.59550237694839
 20
-1.870323647051532
 30
0.0
 10
-25.32825802367281
 20
-1.792476917214205
 30
0.0
 10
-25.2110195275986
 20
-1.757289485988195
 30
0.0
  0
SPLINE
  5
2C38
330
1F
100
AcDbEntity
  8
AM_0
100
AcDbSpline
210
0.0
220
0.0
230
1.0
 70
     8
 71
     3
 72
    17
 73
    13
 74
     0
 42
0.0000000001
 43
0.0000000001
 40
1.580019955310467
 40
1.580019955310467
 40
1.580019955310467
 40
1.580019955310467
 40
2.030549285115227
 40
3.082371838836284
 40
4.126290986361125
 40
5.162752068350215
 40
6.192395305374981
 40
7.216039564037012
 40
8.234688489606833
 40
9.249433870634691
 40
10.26152376260694
 40
11.27226744710342
 40
11.27226744710342
 40
11.27226744710342
 40
11.27226744710352
 10
-7.090541610146813
 20
-1.697467358008946
 30
0.0
 10
-7.155080379198757
 20
-1.714949865447895
 30
0.0
 10
-7.370661550418831
 20
-1.772251118701728
 30
0.0
 10
-7.738712071584632
 20
-1.862130184704773
 30
0.0
 10
-8.194597089412804
 20
-1.96278281535449
 30
0.0
 10
-8.650607611959559
 20
-2.051142461249565
 30
0.0
 10
-9.10663902874929
 20
-2.126912390839978
 30
0.0
 10
-9.562720129344548
 20
-2.189541449998743
 30
0.0
 10
-10.01883273927433
 20
-2.238672242300836
 30
0.0
 10
-10.47497375042635
 20
-2.273986383772775
 30
0.0
 10
-10.93113192466733
 20
-2.295256553184803
 30
0.0
 10
-11.23531118318451
 20
-2.29999964401168
 30
0.0
 10
-11.38729959149897
 20
-2.299999630850955
 30
0.0
  0
SPLINE
  5
2C39
330
1F
100
AcDbEntity
  8
AM_0
100
AcDbSpline
210
0.0
220
0.0
230
1.0
 70
     8
 71
     3
 72
    22
 73
    18
 74
     0
 42
0.0000000001
 43
0.0000000001
 40
17.17441611292
 40
17.17441611292
 40
17.17441611292
 40
17.17441611292
 40
17.38177636558528
 40
18.41823744757437
 40
19.46215659509824
 40
20.51397914882054
 40
21.57394542641293
 40
22.64209583141747
 40
23.71826625065247
 40
24.80210429862395
 40
25.8930771157021
 40
26.99048705697709
 40
28.09349309193389
 40
29.20112995599786
 40
30.31233024745139
 40
31.42594771747373
 40
32.5407895042663
 40
32.54078950426994
 40
32.54078950426994
 40
32.54078950426994
 10
-13.12835432744244
 20
-2.065416277443719
 30
0.0
 10
-13.15889932908612
 20
-2.060092003031791
 30
0.0
 10
-13.34199993234301
 20
-2.027661265631184
 30
0.0
 10
-13.67742991983172
 20
-1.96263341618852
 30
0.0
 10
-14.13337840464579
 20
-1.862135340390423
 30
0.0
 10
-14.58928042926634
 20
-1.750161022829675
 30
0.0
 10
-15.0451392123361
 20
-1.62740943496086
 30
0.0
 10
-15.50095415169735
 20
-1.494633225508136
 30
0.0
 10
-15.9567308579034
 20
-1.352658722178082
 30
0.0
 10
-16.41247144132855
 20
-1.20235845458777
 30
0.0
 10
-16.86818011865692
 20
-1.04465931625193
 30
0.0
 10
-17.32386195708005
 20
-0.8805342109657894
 30
0.0
 10
-17.77952091164135
 20
-0.7109923489650232
 30
0.0
 10
-18.23516156928497
 20
-0.5370767804337926
 30
0.0
 10
-18.69078796886869
 20
-0.3598568892574635
 30
0.0
 10
-19.14640686010143
 20
-0.1804262179533551
 30
0.0
 10
-19.45009316590185
 20
-0.0600858728158269
 30
0.0
 10
-19.60201974361666
 20
0.0001173531991263
 30
0.0
  0
SPLINE
  5
2C3A
330
1F
100
AcDbEntity
  8
AM_0
 48
0.5
100
AcDbSpline
210
0.0
220
0.0
230
1.0
 70
     8
 71
     3
 72
    26
 73
    22
 74
     0
 42
0.0000000001
 43
0.0000000001
 40
0.0
 40
0.0
 40
0.0
 40
0.0
 40
0.2526859211241313
 40
0.5057083941171959
 40
0.7593947393741639
 40
1.01405318625086
 40
1.26996425091637
 40
1.527375060172565
 40
1.786490330669834
 40
2.047470117551047
 40
2.310425755981314
 40
2.575417325379407
 40
2.842456731169063
 40
3.111495753801943
 40
3.382458822635121
 40
3.655202026904655
 40
3.929554512223505
 40
4.205306020962704
 40
4.482215236978595
 40
4.76001530984208
 40
5.029821427366006
 40
5.029821427366006
 40
5.029821427366006
 40
5.029821427366006
 10
-19.85248853671638
 20
-2.300117964055979
 30
0.0
 10
-20.00447694705432
 20
-2.298749519836514
 30
0.0
 10
-20.30865620078754
 20
-2.29601080876948
 30
0.0
 10
-20.7648143844289
 20
-2.273933721121483
 30
0.0
 10
-21.22095309772152
 20
-2.238836923787099
 30
0.0
 10
-21.67706357551307
 20
-2.189647409833863
 30
0.0
 10
-22.13314129030604
 20
-2.127031868821483
 30
0.0
 10
-22.58917715526318
 20
-2.051268450596043
 30
0.0
 10
-23.04517086700405
 20
-1.962869042207458
 30
0.0
 10
-23.50111931566159
 20
-1.862370537140773
 30
0.0
 10
-23.95702142332952
 20
-1.750396511828493
 30
0.0
 10
-24.41288094209927
 20
-1.627643901917837
 30
0.0
 10
-24.86869598303785
 20
-1.494870665207623
 30
0.0
 10
-25.32447171065796
 20
-1.352891265656109
 30
0.0
 10
-25.78021421899535
 20
-1.202595329821815
 30
0.0
 10
-26.23592449273821
 20
-1.044894591583279
 30
0.0
 10
-26.69160592896718
 20
-0.8807688095288687
 30
0.0
 10
-27.1472668957358
 20
-0.711230604298859
 30
0.0
 10
-27.6028998627407
 20
-0.5373010047301828
 30
0.0
 10
-28.05385248925691
 20
-0.3619622787409452
 30
0.0
 10
-28.35262557092636
 20
-0.2441684926925156
 30
0.0
 10
-28.49999999999992
 20
-0.1861299142306807
 30
0.0
  0
SPLINE
  5
2C3B
330
1F
100
AcDbEntity
  8
AM_0
 48
0.5
100
AcDbSpline
210
0.0
220
0.0
230
1.0
 70
     8
 71
     3
 72
    22
 73
    18
 74
     0
 42
0.0000000001
 43
0.0000000001
 40
0.0
 40
0.0
 40
0.0
 40
0.0
 40
1.010743684496582
 40
2.022833993863546
 40
3.037578683882831
 40
4.056212471389632
 40
5.079857945358201
 40
6.109499720892564
 40
7.145961650132166
 40
8.189873411961459
 40
9.241710626092514
 40
10.30166235592959
 40
11.36982472628033
 40
12.44598212828784
 40
13.52983440361964
 40
14.62080578343036
 40
14.90544694398022
 40
14.90544694398022
 40
14.90544694398022
 40
14.90544694398022
 10
-21.1135379416955
 20
-2.300117964055932
 30
0.0
 10
-21.28140993437196
 20
-2.298749928602333
 30
0.0
 10
-21.58558930895688
 20
-2.296012035046551
 30
0.0
 10
-22.04174701490513
 20
-2.273928798468644
 30
0.0
 10
-22.49788622073888
 20
-2.238837906383971
 30
0.0
 10
-22.95399694500413
 20
-2.18964835994694
 30
0.0
 10
-23.41007340276293
 20
-2.127026928806867
 30
0.0
 10
-23.86611083608912
 20
-2.051270061236825
 30
0.0
 10
-24.32210256241575
 20
-1.962867440504602
 30
0.0
 10
-24.77805171730099
 20
-1.862367480425604
 30
0.0
 10
-25.23395419425175
 20
-1.750397685949228
 30
0.0
 10
-25.68981237576948
 20
-1.62763951785733
 30
0.0
 10
-26.14562920046458
 20
-1.494874142499197
 30
0.0
 10
-26.60140432596509
 20
-1.352890844410945
 30
0.0
 10
-27.05714629068111
 20
-1.202594121484818
 30
0.0
 10
-27.39966822643137
 20
-1.084068893953593
 30
0.0
 10
-27.59053340180393
 20
-1.016323683787693
 30
0.0
 10
-27.56298019488502
 20
-1.026166787169492
 30
0.0
  0
LINE
  5
2C3D
330
1F
100
AcDbEntity
  8
AM_0
 48
0.5
100
AcDbLine
 10
-21.02901207912571
 20
2.300000369149403
 30
0.0
 11
-11.38729959149887
 21
2.300000369149037
 31
0.0
  0
LINE
  5
2C3E
330
1F
100
AcDbEntity
  8
AM_11
 48
0.5
100
AcDbLine
 10
-11.38729959149887
 20
2.300000369149037
 30
0.0
 11
-2.794454037455582
 21
2.300000369148719
 31
0.0
  0
LINE
  5
2C3F
330
1F
100
AcDbEntity
  8
AM_11
 48
0.5
100
AcDbLine
 10
-11.2076307883248
 20
2.300000420882524
 30
0.0
 11
-2.794454037455582
 21
2.300000369148719
 31
0.0
  0
SPLINE
  5
2C40
330
1F
100
AcDbEntity
  8
AM_0
 48
0.5
100
AcDbSpline
210
0.0
220
0.0
230
1.0
 70
     8
 71
     3
 72
    17
 73
    13
 74
     0
 42
0.0000000001
 43
0.0000000001
 40
0.0
 40
0.0
 40
0.0
 40
0.0
 40
1.010743614677189
 40
2.022833924044153
 40
3.037578959561199
 40
4.056212747067873
 40
5.079857613375832
 40
6.109500119648989
 40
7.14596120163808
 40
8.18989512056258
 40
9.241717674284874
 40
9.693948937866434
 40
9.693948937866434
 40
9.693948937866434
 40
9.693948937866434
 10
-2.794454037455582
 20
2.300000369148718
 30
0.0
 10
-2.946442475435317
 20
2.298632911037121
 30
0.0
 10
-3.250621857766683
 20
2.295896172839951
 30
0.0
 10
-3.706779657390778
 20
2.273813044905078
 30
0.0
 10
-4.162918677262982
 20
2.238719958873337
 30
0.0
 10
-4.619029329170057
 20
2.189530361244958
 30
0.0
 10
-5.075106180966225
 20
2.126911375871562
 30
0.0
 10
-5.531143662123626
 20
2.05115332677977
 30
0.0
 10
-5.987135651852818
 20
1.962743893585659
 30
0.0
 10
-6.44309984447337
 20
1.862278271362449
 30
0.0
 10
-6.811166030605456
 20
1.771773932277884
 30
0.0
 10
-7.027316075220138
 20
1.715195705256577
 30
0.0
 10
-7.092192722020193
 20
1.697877488716628
 30
0.0
  0
SPLINE
  5
2C41
330
1F
100
AcDbEntity
  8
AM_0
100
AcDbSpline
210
0.0
220
0.0
230
1.0
 70
     8
 71
     3
 72
    23
 73
    19
 74
     0
 42
0.0000000001
 43
0.0000000001
 40
16.0358125233297
 40
16.0358125233297
 40
16.0358125233297
 40
16.0358125233297
 40
16.35212704903564
 40
17.38177054169784
 40
18.41822485651776
 40
19.46214173629503
 40
20.51396345435107
 40
21.57393551351153
 40
22.64208202342361
 40
23.7182574881101
 40
24.80209208578934
 40
25.89306333925047
 40
26.99048218457928
 40
28.09348763352352
 40
29.20111863782268
 40
30.31232390128032
 40
31.42594612798585
 40
32.5407912310448
 40
32.5407912310486
 40
32.5407912310486
 40
32.5407912310486
 10
-26.51209250467418
 20
2.30023818616585
 30
0.0
 10
-26.46540713902361
 20
2.29250187543632
 30
0.0
 10
-26.26695370638362
 20
2.258717282759727
 30
0.0
 10
-25.91723754431528
 20
2.192502003027358
 30
0.0
 10
-25.46412375093099
 20
2.093990504473798
 30
0.0
 10
-25.01143083095108
 20
1.983378511802555
 30
0.0
 10
-24.55913203438979
 20
1.861306190809224
 30
0.0
 10
-24.10721130836133
 20
1.728454097416149
 30
0.0
 10
-23.65564253293082
 20
1.585581670214653
 30
0.0
 10
-23.2043942625651
 20
1.433520390893532
 30
0.0
 10
-22.75344085571672
 20
1.273131373611863
 30
0.0
 10
-22.30274615781587
 20
1.105347884689706
 30
0.0
 10
-21.85227364509723
 20
0.9311451542552706
 30
0.0
 10
-21.40199330386211
 20
0.7515247749780777
 30
0.0
 10
-20.9518674597012
 20
0.5675312147656184
 30
0.0
 10
-20.50185442142831
 20
0.3802388610213647
 30
0.0
 10
-20.05191754527893
 20
0.1907330222182642
 30
0.0
 10
-19.752040196438
 20
0.0636797193729546
 30
0.0
 10
-19.60201974361464
 20
0.0001173531983052
 30
0.0
  0
SPLINE
  5
2C42
330
1F
100
AcDbEntity
  8
AM_0
 48
0.5
100
AcDbSpline
210
0.0
220
0.0
230
1.0
 70
     8
 71
     3
 72
    25
 73
    21
 74
     0
 42
0.0000000001
 43
0.0000000001
 40
6.846175049578289
 40
6.846175049578289
 40
6.846175049578289
 40
6.846175049578289
 40
7.604337694224321
 40
8.711974558287883
 40
9.814980593243754
 40
10.91239053451967
 40
12.0033633515982
 40
13.08720139956839
 40
14.16337181880432
 40
15.23152222380919
 40
16.29148850140128
 40
17.34331105512262
 40
18.38723020264746
 40
19.42369128463655
 40
20.45333379090873
 40
21.47697865721768
 40
22.49561244472435
 40
23.5103574802404
 40
24.52244778960836
 40
25.53320666051913
 40
25.53320666051913
 40
25.53320666051913
 40
25.53320666051913
 10
-3.326449292318193
 20
0.4163154269056663
 30
0.0
 10
-3.430072816902306
 20
0.4566993363707314
 30
0.0
 10
-3.685303093787804
 20
0.5556779614703668
 30
0.0
 10
-4.09251942230816
 20
0.7111100334740014
 30
0.0
 10
-4.548178351967339
 20
0.8806519433825529
 30
0.0
 10
-5.003860197010022
 20
1.044777035911639
 30
0.0
 10
-5.459568872592477
 20
1.202476177694234
 30
0.0
 10
-5.915309456434004
 20
1.352776444157231
 30
0.0
 10
-6.371086162703456
 20
1.494750948570348
 30
0.0
 10
-6.826901101406962
 20
1.627527154841398
 30
0.0
 10
-7.282759887015227
 20
1.750278754234872
 30
0.0
 10
-7.738661902241029
 20
1.862253029331361
 30
0.0
 10
-8.194610421732923
 20
1.962751261826648
 30
0.0
 10
-8.650603836427553
 20
2.051151483828674
 30
0.0
 10
-9.106640364984219
 20
2.126911865223982
 30
0.0
 10
-9.562717469773943
 20
2.18953023106419
 30
0.0
 10
-10.01882805442017
 20
2.23871999382953
 30
0.0
 10
-10.47496709212129
 20
2.273813034499425
 30
0.0
 10
-10.93112717836628
 20
2.295896290556424
 30
0.0
 10
-11.23530885787139
 20
2.298632943372745
 30
0.0
 10
-11.38729959149887
 20
2.300000369149041
 30
0.0
  0
SPLINE
  5
2C43
330
1F
100
AcDbEntity
  8
AM_0
100
AcDbSpline
210
0.0
220
0.0
230
1.0
 70
     8
 71
     3
 72
    46
 73
    42
 74
     0
 42
0.0000000001
 43
0.0000000001
 40
0.0
 40
0.0
 40
0.0
 40
0.0
 40
0.5056245176053715
 40
0.759310862862336
 40
1.013969309739036
 40
1.269880374404297
 40
1.527291183660732
 40
1.786406454158005
 40
2.047386241038974
 40
2.310345544571907
 40
2.575337113970003
 40
2.842374715221223
 40
3.111417320030211
 40
3.382376832022752
 40
3.655120036292296
 40
3.929472521611371
 40
4.205224030350333
 40
4.482133246366229
 40
4.759933319229942
 40
5.038338087391601
 40
5.317048131389549
 40
5.595758175387723
 40
5.874162943549383
 40
6.151963016412869
 40
6.428872232428759
 40
6.704623741167955
 40
6.978976226486705
 40
7.251719430756336
 40
7.522680721168327
 40
7.791723325977311
 40
8.058760927228529
 40
8.32375249662655
 40
8.586708135057122
 40
8.84768792193809
 40
9.106803192435362
 40
9.364213819003406
 40
9.620125035580644
 40
9.87478726697307
 40
10.12847352585208
 40
10.38149610319407
 40
10.63418200686337
 40
10.63418200686337
 40
10.63418200686337
 40
10.63418200686337
 10
-1.517521079162187
 20
-2.299999630851325
 30
0.0
 10
-1.821715194572221
 20
-2.294760053059215
 30
0.0
 10
-2.278532236086654
 20
-2.286891628574567
 30
0.0
 10
-2.885981777174175
 20
-2.238447184529141
 30
0.0
 10
-3.342097159343422
 20
-2.189602298137985
 30
0.0
 10
-3.798173554505523
 20
-2.126893761091523
 30
0.0
 10
-4.254209761199088
 20
-2.051155431520458
 30
0.0
 10
-4.710203436676676
 20
-1.962749403163164
 30
0.0
 10
-5.166153817217419
 20
-1.862251585174595
 30
0.0
 10
-5.622058873681033
 20
-1.750279049034079
 30
0.0
 10
-6.077919517312435
 20
-1.627526289935019
 30
0.0
 10
-6.533734521985087
 20
-1.494750244492122
 30
0.0
 10
-6.989511210610905
 20
-1.352775696935117
 30
0.0
 10
-7.445251798355696
 20
-1.202475440513049
 30
0.0
 10
-7.900960476179196
 20
-1.044776302206502
 30
0.0
 10
-8.356642308203815
 20
-0.8806511854245931
 30
0.0
 10
-8.812301288048146
 20
-0.7111093697219331
 30
0.0
 10
-9.267941850423746
 20
-0.5371936265119416
 30
0.0
 10
-9.723568826419468
 20
-0.3599743052865242
 30
0.0
 10
-10.17918637821753
 20
-0.1805411802969462
 30
0.0
 10
-10.63480010001396
 20
0.0000003691124839
 30
0.0
 10
-11.09041382171034
 20
0.1805419187413098
 30
0.0
 10
-11.54603137380864
 20
0.3599750430730315
 30
0.0
 10
-12.00165834870697
 20
0.5371943667026426
 30
0.0
 10
-12.4572989151517
 20
0.7111101009963389
 30
0.0
 10
-12.9129578799081
 20
0.8806519497596784
 30
0.0
 10
-13.36863976780855
 20
1.04477694410628
 30
0.0
 10
-13.82434922963933
 20
1.20247687813334
 30
0.0
 10
-14.28009158817218
 20
1.352775769001391
 30
0.0
 10
-14.73586908983373
 20
1.494751044555249
 30
0.0
 10
-15.19168408389373
 20
1.627527129506086
 30
0.0
 10
-15.64754285490139
 20
1.750278760612193
 30
0.0
 10
-16.10344487376337
 20
1.862253028873004
 30
0.0
 10
-16.55939339314525
 20
1.962751257406156
 30
0.0
 10
-17.01538680471765
 20
2.051151501776934
 30
0.0
 10
-17.47142334574904
 20
2.126911798448136
 30
0.0
 10
-17.92750265162589
 20
2.189530786899604
 30
0.0
 10
-18.38361568354822
 20
2.238719532191562
 30
0.0
 10
-18.83975693496186
 20
2.273813111868904
 30
0.0
 10
-19.29591474396364
 20
2.295896156143952
 30
0.0
 10
-19.60009412504719
 20
2.298632905474696
 30
0.0
 10
-19.75208256240336
 20
2.300000369149358
 30
0.0
  0
SPLINE
  5
2C44
330
1F
100
AcDbEntity
  8
AM_0
100
AcDbSpline
210
0.0
220
0.0
230
1.0
 70
     8
 71
     3
 72
    55
 73
    51
 74
     0
 42
0.0000000001
 43
0.0000000001
 40
0.0
 40
0.0
 40
0.0
 40
0.0
 40
1.010743684496582
 40
2.022833576467832
 40
3.037578957496688
 40
4.056212745003489
 40
5.079857003664532
 40
6.109500240690281
 40
7.145961322679372
 40
8.189895241603872
 40
9.241717795325891
 40
10.30168407291828
 40
11.36983447792315
 40
12.44600489715814
 40
13.52984294512926
 40
14.62081576220742
 40
15.7182257034828
 40
16.82123173843959
 40
17.92886860250316
 40
19.0400688939571
 40
20.15368796660465
 40
21.26852814259644
 40
22.38336992938901
 40
23.49698739941135
 40
24.6081876908653
 40
25.71582455492886
 40
26.81883757994213
 40
27.91624752121713
 40
29.00722033829659
 40
30.09105838626677
 40
31.16722880550176
 40
32.23537921050758
 40
33.29534548809967
 40
34.347168041821
 40
35.39108718934584
 40
36.42754827133493
 40
37.45720575381954
 40
38.48085062012849
 40
39.49948440763516
 40
40.51422944315121
 40
41.52631975251916
 40
42.53706336719636
 40
43.54780698187354
 40
44.55989729124051
 40
45.57464232675757
 40
46.59327611426424
 40
47.6169209805722
 40
48.64656348684535
 40
49.68302456883444
 40
50.58557219878025
 40
50.58557219878025
 40
50.58557219878025
 40
50.58557219878025
 10
-2.794454037455721
 20
-2.299999630851273
 30
0.0
 10
-2.946442447775375
 20
-2.29863118657217
 30
0.0
 10
-3.250621701471842
 20
-2.295892475385812
 30
0.0
 10
-3.706779885388204
 20
-2.273815388634531
 30
0.0
 10
-4.162918597631627
 20
-2.238718587878494
 30
0.0
 10
-4.619029079366985
 20
-2.189529086787073
 30
0.0
 10
-5.075106779329686
 20
-2.126913497409068
 30
0.0
 10
-5.531142700126434
 20
-2.051150261291961
 30
0.0
 10
-5.987138367177132
 20
-1.962749746598553
 30
0.0
 10
-6.443089736721787
 20
-1.862253275784428
 30
0.0
 10
-6.898993702900593
 20
-1.750277891083859
 30
0.0
 10
-7.354852538142791
 20
-1.627526450411573
 30
0.0
 10
-7.810667463329227
 20
-1.494750200999781
 30
0.0
 10
-8.266444173502334
 20
-1.352775708728521
 30
0.0
 10
-8.722184755377604
 20
-1.202475437271748
 30
0.0
 10
-9.177893434918029
 20
-1.044776303268499
 30
0.0
 10
-9.633575265994528
 20
-0.8806511844394078
 30
0.0
 10
-10.08923424791414
 20
-0.7111093726119453
 30
0.0
 10
-10.54487480289922
 20
-0.5371936158822638
 30
0.0
 10
-11.00050180649726
 20
-0.3599743450707918
 30
0.0
 10
-11.4561192549909
 20
-0.1805410314237584
 30
0.0
 10
-11.91173358240419
 20
-0.0000001001344853
 30
0.0
 10
-12.36734586449038
 20
0.1805440810040571
 30
0.0
 10
-12.82296484011438
 20
0.3599746003997963
 30
0.0
 10
-13.27859128123482
 20
0.5371944076439071
 30
0.0
 10
-13.73423264862196
 20
0.7111108269151052
 30
0.0
 10
-14.1898935208336
 20
0.8806511918429649
 30
0.0
 10
-14.64557607109644
 20
1.044777143014778
 30
0.0
 10
-15.10128481642602
 20
1.202476149140275
 30
0.0
 10
-15.55702538171836
 20
1.352776452204641
 30
0.0
 10
-16.01280209305849
 20
1.494750944683586
 30
0.0
 10
-16.46861702985492
 20
1.627527162346581
 30
0.0
 10
-16.9244758180475
 20
1.750278728359379
 30
0.0
 10
-17.38037782491855
 20
1.862253124318732
 30
0.0
 10
-17.83632637493063
 20
1.962750911385896
 30
0.0
 10
-18.29232187283061
 20
2.051153203702439
 30
0.0
 10
-18.74836104987665
 20
2.12690778660627
 30
0.0
 10
-19.2044402565912
 20
2.189542756832865
 30
0.0
 10
-19.66055087353812
 20
2.238673950119761
 30
0.0
 10
-20.11668990272056
 20
2.273983880961612
 30
0.0
 10
-20.57284769986913
 20
2.295260724434692
 30
0.0
 10
-21.02901552080867
 20
2.30236861380849
 30
0.0
 10
-21.48518334107703
 20
2.295260724423577
 30
0.0
 10
-21.94134114024307
 20
2.273983881006383
 30
0.0
 10
-22.39748016199777
 20
2.23867394995136
 30
0.0
 10
-22.85359080679315
 20
2.189542757466128
 30
0.0
 10
-23.30966768534177
 20
2.126908089581204
 30
0.0
 10
-23.76570506576705
 20
2.051153978252297
 30
0.0
 10
-24.20096743796632
 20
1.966763815778953
 30
0.0
 10
-24.48337062195799
 20
1.90504849216515
 30
0.0
 10
-24.6143892396821
 20
1.874971604313347
 30
0.0
  0
LINE
  5
2C64
330
1F
100
AcDbEntity
  8
AM_11
100
AcDbLine
 10
-21.02897610810756
 20
2.300000369149403
 30
0.0
 11
-26.51065778064497
 21
2.300000369149393
 31
0.0
  0
LINE
  5
2C65
330
1F
100
AcDbEntity
  8
AM_0
100
AcDbLine
 10
-26.51065778064497
 20
2.300000369149393
 30
0.0
 11
-30.65359047787156
 21
2.300000369149382
 31
0.0
  0
VIEWPORT
  5
110
330
101
100
AcDbEntity
 67
     1
  8
0
100
AcDbViewport
 10
420.5
 20
297.0
 30
0.0
 40
948.9782706766916
 41
628.452
 68
     1
 69
     1
1001
ACAD
1000
MVIEW
1002
{
1070
    16
1010
0.0
1020
0.0
1030
0.0
1010
0.0
1020
0.0
1030
1.0
1040
0.0
1040
628.452
1040
420.5
1040
297.0
1040
50.0
1040
0.0
1040
0.0
1070
     0
1070
   100
1070
     1
1070
     1
1070
     0
1070
     0
1070
     0
1070
     0
1040
0.0
1040
0.0
1040
0.0
1040
10.0
1040
10.0
1040
10.0
1040
10.0
1070
     0
1002
{
1002
}
1002
}
  0
ENDSEC
  0
SECTION
  2
OBJECTS
  0
DICTIONARY
  5
C
330
0
100
AcDbDictionary
  3
ACAD_GROUP
350
D
  3
ACAD_LAYOUT
350
1A
  3
ACAD_MLINESTYLE
350
17
  3
ACAD_PLOTSETTINGS
350
19
  3
ACAD_PLOTSTYLENAME
350
E
  3
ACDBVARIABLEDICTIONARY
350
34
  3
ACMDICTIONARY
350
43
  3
AMG
350
2B
  3
AMGSNAPSETTINGS
350
6E
  3
DWGPROPS
350
2D23
  3
ACDBHEADERROUNDTRIPXREC
350
2D2F
  0
DICTIONARY
  5
74
330
1F
100
AcDbDictionary
280
     1
  3
ACAD_INDEX
360
2D25
  3
ACAD_LAYOUTSELFREF
360
2D52
  0
DICTIONARY
  5
2D57
330
101
100
AcDbDictionary
280
     1
  3
ACAD_LAYOUTSELFREF
360
2D58
  0
DICTIONARY
  5
D
102
{ACAD_REACTORS
330
C
102
}
330
C
100
AcDbDictionary
  0
DICTIONARY
  5
1A
102
{ACAD_REACTORS
330
C
102
}
330
C
100
AcDbDictionary
  0
DICTIONARY
  5
17
102
{ACAD_REACTORS
330
C
102
}
330
C
100
AcDbDictionary
  3
STANDARD
350
18
  0
DICTIONARY
  5
19
102
{ACAD_REACTORS
330
C
102
}
330
C
100
AcDbDictionary
  0
ACDBDICTIONARYWDFLT
  5
E
102
{ACAD_REACTORS
330
C
102
}
330
C
100
AcDbDictionary
281
     1
  3
Normal
350
F
100
AcDbDictionaryWithDefault
340
F
  0
DICTIONARY
  5
34
102
{ACAD_REACTORS
330
C
102
}
330
C
100
AcDbDictionary
  3
INDEXCTL
350
35
  3
SORTENTS
350
B5E
  0
DICTIONARY
  5
43
102
{ACAD_REACTORS
330
C
102
}
330
C
100
AcDbDictionary
  3
ACMSTDDICTIONARY
350
260
  0
DICTIONARY
  5
2B
102
{ACAD_REACTORS
330
C
102
}
330
C
100
AcDbDictionary
  3
ACMGSETTINGS
350
2C
  0
DICTIONARY
  5
6E
102
{ACAD_REACTORS
330
C
102
}
330
C
100
AcDbDictionary
  0
XRECORD
  5
2D23
102
{ACAD_REACTORS
330
C
102
}
330
C
100
AcDbXrecord
  1
DWGPROPS COOKIE
  2

  3

  4

  6

  7

  8

  9

300
AmdtFileType=82
301
=
302
=
303
=
304
=
305
=
306
=
307
=
308
=
309
=
 40
0.0534197685185185
 41
2452800.443498622
 42
2452946.604271551
  1

 90
        1
  0
DICTIONARY
  5
2D2F
102
{ACAD_REACTORS
330
C
102
}
330
C
100
AcDbDictionary
  3
TSTACKALIGN
350
2D30
  3
TSTACKSIZE
350
2D31
  3
HYPERLINKBASE
350
2D32
  3
STYLESHEET
350
2D33
  3
LAYOUTDICT
350
2D34
  3
PLOTSETDICT
350
2D35
  3
PLOTSTYLNAMDICT
350
2D36
  3
LWETCUNION
350
2D37
  3
INSUNITS
350
2D38
  3
CEPSNTYPE
350
2D39
  3
FINGERPRINTGUID
350
2D3A
  3
VERSIONGUID
350
2D3B
  3
PSVPSCALE
350
2D3C
  3
DIMSTYLEDATA
350
2D3D
  3
PUCSORTHOREF
350
2D3E
  3
PUCSORTHOVIEW
350
2D3F
  3
PUCSBASE
350
2D40
  3
PUCSORGTOP
350
2D41
  3
PUCSORGBOTTOM
350
2D42
  3
PUCSORGLEFT
350
2D43
  3
PUCSORGRIGHT
350
2D44
  3
PUCSORGFRONT
350
2D45
  3
PUCSORGBACK
350
2D46
  3
UCSORTHOREF
350
2D47
  3
UCSORTHOVIEW
350
2D48
  3
UCSBASE
350
2D49
  3
UCSORGTOP
350
2D4A
  3
UCSORGBOTTOM
350
2D4B
  3
UCSORGLEFT
350
2D4C
  3
UCSORGRIGHT
350
2D4D
  3
UCSORGFRONT
350
2D4E
  3
UCSORGBACK
350
2D4F
  0
DICTIONARY
  5
2D25
102
{ACAD_REACTORS
330
74
102
}
330
74
100
AcDbDictionary
  3
*A1
350
2D26
  0
XRECORD
  5
2D52
102
{ACAD_REACTORS
330
74
102
}
330
74
100
AcDbXrecord
340
1F
  0
XRECORD
  5
2D58
102
{ACAD_REACTORS
330
2D57
102
}
330
2D57
100
AcDbXrecord
340
101
  0
MLINESTYLE
  5
18
102
{ACAD_REACTORS
330
17
102
}
330
17
100
AcDbMlineStyle
  2
STANDARD
 70
     0
  3

 62
   256
 51
90.0
 52
90.0
 71
     2
 49
0.5
 62
   256
  6
BYLAYER
 49
-0.5
 62
   256
  6
BYLAYER
  0
ACDBPLACEHOLDER
  5
F
102
{ACAD_REACTORS
330
E
102
}
330
E
100
AcDbPlaceHolder
280
     0
  0
DICTIONARYVAR
  5
35
102
{ACAD_REACTORS
330
34
102
}
330
34
100
DictionaryVariables
280
     0
  1
1
  0
DICTIONARYVAR
  5
B5E
102
{ACAD_REACTORS
330
34
102
}
330
34
100
DictionaryVariables
280
     0
  1
96
  0
DICTIONARY
  5
260
102
{ACAD_REACTORS
330
43
102
}
330
43
100
AcDbDictionary
  0
DICTIONARY
  5
2C
102
{ACAD_REACTORS
330
2B
102
}
330
2B
100
AcDbDictionary
  3
DWGSETTINGS
350
2D
  0
XRECORD
  5
2D30
102
{ACAD_REACTORS
330
2D2F
102
}
330
2D2F
100
AcDbXrecord
 90
        1
  0
XRECORD
  5
2D31
102
{ACAD_REACTORS
330
2D2F
102
}
330
2D2F
100
AcDbXrecord
 90
       70
  0
XRECORD
  5
2D32
102
{ACAD_REACTORS
330
2D2F
102
}
330
2D2F
100
AcDbXrecord
  1

  0
XRECORD
  5
2D33
102
{ACAD_REACTORS
330
2D2F
102
}
330
2D2F
100
AcDbXrecord
  1
ASAMI.ctb
  0
XRECORD
  5
2D34
102
{ACAD_REACTORS
330
2D2F
102
}
330
2D2F
100
AcDbXrecord
340
1A
  0
XRECORD
  5
2D35
102
{ACAD_REACTORS
330
2D2F
102
}
330
2D2F
100
AcDbXrecord
340
19
  0
XRECORD
  5
2D36
102
{ACAD_REACTORS
330
2D2F
102
}
330
2D2F
100
AcDbXrecord
340
E
  0
XRECORD
  5
2D37
102
{ACAD_REACTORS
330
2D2F
102
}
330
2D2F
100
AcDbXrecord
 90
    10781
  0
XRECORD
  5
2D38
102
{ACAD_REACTORS
330
2D2F
102
}
330
2D2F
100
AcDbXrecord
 90
        4
  0
XRECORD
  5
2D39
102
{ACAD_REACTORS
330
2D2F
102
}
330
2D2F
100
AcDbXrecord
 90
        0
  0
XRECORD
  5
2D3A
102
{ACAD_REACTORS
330
2D2F
102
}
330
2D2F
100
AcDbXrecord
  1
{AFB28963-8C59-40AE-9337-C84526B81ACE}
  0
XRECORD
  5
2D3B
102
{ACAD_REACTORS
330
2D2F
102
}
330
2D2F
100
AcDbXrecord
  1
{D7F87E36-7940-46EC-BC34-CEFBF3337865}
  0
XRECORD
  5
2D3C
102
{ACAD_REACTORS
330
2D2F
102
}
330
2D2F
100
AcDbXrecord
 40
0.0
  0
XRECORD
  5
2D3D
102
{ACAD_REACTORS
330
2D2F
102
}
330
2D2F
100
AcDbXrecord
1000
DSTYLE
1002
{
1070
    79
 70
     2
1070
   341
340
59
1070
   342
340
59
1070
   371
 70
    -1
1070
   372
 70
    -1
1002
}
  0
XRECORD
  5
2D3E
102
{ACAD_REACTORS
330
2D2F
102
}
330
2D2F
100
AcDbXrecord
340
0
  0
XRECORD
  5
2D3F
102
{ACAD_REACTORS
330
2D2F
102
}
330
2D2F
100
AcDbXrecord
 70
     0
  0
XRECORD
  5
2D40
102
{ACAD_REACTORS
330
2D2F
102
}
330
2D2F
100
AcDbXrecord
340
0
  0
XRECORD
  5
2D41
102
{ACAD_REACTORS
330
2D2F
102
}
330
2D2F
100
AcDbXrecord
 10
0.0
 20
0.0
 30
0.0
  0
XRECORD
  5
2D42
102
{ACAD_REACTORS
330
2D2F
102
}
330
2D2F
100
AcDbXrecord
 10
0.0
 20
0.0
 30
0.0
  0
XRECORD
  5
2D43
102
{ACAD_REACTORS
330
2D2F
102
}
330
2D2F
100
AcDbXrecord
 10
0.0
 20
0.0
 30
0.0
  0
XRECORD
  5
2D44
102
{ACAD_REACTORS
330
2D2F
102
}
330
2D2F
100
AcDbXrecord
 10
0.0
 20
0.0
 30
0.0
  0
XRECORD
  5
2D45
102
{ACAD_REACTORS
330
2D2F
102
}
330
2D2F
100
AcDbXrecord
 10
0.0
 20
0.0
 30
0.0
  0
XRECORD
  5
2D46
102
{ACAD_REACTORS
330
2D2F
102
}
330
2D2F
100
AcDbXrecord
 10
0.0
 20
0.0
 30
0.0
  0
XRECORD
  5
2D47
102
{ACAD_REACTORS
330
2D2F
102
}
330
2D2F
100
AcDbXrecord
340
0
  0
XRECORD
  5
2D48
102
{ACAD_REACTORS
330
2D2F
102
}
330
2D2F
100
AcDbXrecord
 70
     0
  0
XRECORD
  5
2D49
102
{ACAD_REACTORS
330
2D2F
102
}
330
2D2F
100
AcDbXrecord
340
0
  0
XRECORD
  5
2D4A
102
{ACAD_REACTORS
330
2D2F
102
}
330
2D2F
100
AcDbXrecord
 10
0.0
 20
0.0
 30
0.0
  0
XRECORD
  5
2D4B
102
{ACAD_REACTORS
330
2D2F
102
}
330
2D2F
100
AcDbXrecord
 10
0.0
 20
0.0
 30
0.0
  0
XRECORD
  5
2D4C
102
{ACAD_REACTORS
330
2D2F
102
}
330
2D2F
100
AcDbXrecord
 10
0.0
 20
0.0
 30
0.0
  0
XRECORD
  5
2D4D
102
{ACAD_REACTORS
330
2D2F
102
}
330
2D2F
100
AcDbXrecord
 10
0.0
 20
0.0
 30
0.0
  0
XRECORD
  5
2D4E
102
{ACAD_REACTORS
330
2D2F
102
}
330
2D2F
100
AcDbXrecord
 10
0.0
 20
0.0
 30
0.0
  0
XRECORD
  5
2D4F
102
{ACAD_REACTORS
330
2D2F
102
}
330
2D2F
100
AcDbXrecord
 10
0.0
 20
0.0
 30
0.0
  0
LAYER_INDEX
  5
2D26
102
{ACAD_REACTORS
330
2D25
102
}
330
2D25
100
AcDbIndex
 40
2453151.578384676
100
AcDbLayerIndex
  8
0
360
2D27
 90
        0
  8
AM_0
360
2D28
 90
       44
  8
AM_7
360
2D29
 90
        1
  8
AM_11
360
2D2A
 90
       23
  8
AM_5
360
2D2B
 90
        5
  8
Defpoints
360
2D2C
 90
        0
  8
AM_6
360
2D2D
 90
        1
  0
XRECORD
  5
2D
102
{ACAD_REACTORS
330
2C
102
}
330
2C
100
AcDbXrecord
  1
VERSION
140
15.0
  1
PRODUCT
  2
AutoCAD Mechanical 2000
  0
IDBUFFER
  5
2D27
330
0
100
AcDbIdBuffer
  0
IDBUFFER
  5
2D28
330
0
100
AcDbIdBuffer
330
2B79
330
2B7B
330
2B7C
330
2B85
330
2B86
330
2B87
330
2B88
330
2B89
330
2B8A
330
2B8B
330
2B99
330
2C2F
330
2C30
330
2C31
330
2C33
330
2C36
330
2C37
330
2C38
330
2C39
330
2C3A
330
2C3B
330
2C3D
330
2C40
330
2C41
330
2C42
330
2C43
330
2C44
330
2C65
330
C1D
330
C20
330
C30
330
1CF0
330
1CF4
330
1CFE
330
1EB2
330
1EB5
330
1ED3
330
1FDE
330
1FDF
330
2470
330
249A
330
24A9
330
25FC
330
25FD
  0
IDBUFFER
  5
2D29
330
0
100
AcDbIdBuffer
330
C9F
  0
IDBUFFER
  5
2D2A
330
0
100
AcDbIdBuffer
330
1EC0
330
2C32
330
2C34
330
2C35
330
2C3E
330
2C3F
330
2C64
330
144A
330
144B
330
144E
330
144F
330
1450
330
1451
330
1452
330
1453
330
1454
330
1DAB
330
1DAC
330
1DAD
330
1DAE
330
1DAF
330
1DB0
330
1EBF
  0
IDBUFFER
  5
2D2B
330
0
100
AcDbIdBuffer
330
CC6
330
DF5
330
218E
330
245D
330
260B
  0
IDBUFFER
  5
2D2C
330
0
100
AcDbIdBuffer
  0
IDBUFFER
  5
2D2D
330
0
100
AcDbIdBuffer
330
19BD
  0
ENDSEC
  0
EOF
