  0
SECTION
  2
HEADER
  9
$ACADVER
  1
AC1014
  9
$ACADMAINTVER
 70
     9
  9
$DWGCODEPAGE
  3
ANSI_932
  9
$INSBASE
 10
0.0
 20
0.0
 30
0.0
  9
$EXTMIN
 10
-91.9000009999999
 20
-25.75000099999998
 30
-0.00000001
  9
$EXTMAX
 10
15.31866414182032
 20
14.89710932908359
 30
0.00000001
  9
$LIMMIN
 10
-115.2743125114289
 20
-61.81965462428931
  9
$LIMMAX
 10
34.68289694917223
 20
37.20838581210049
  9
$ORTHOMODE
 70
     0
  9
$REGENMODE
 70
     1
  9
$FILLMODE
 70
     1
  9
$QTEXTMODE
 70
     0
  9
$MIRRTEXT
 70
     0
  9
$DRAGMODE
 70
     2
  9
$LTSCALE
 40
1.0
  9
$OSMODE
 70
    55
  9
$ATTMODE
 70
     1
  9
$TEXTSIZE
 40
2.5
  9
$TRACEWID
 40
1.0
  9
$TEXTSTYLE
  7
STANDARD
  9
$CLAYER
  8
AM_0
  9
$CELTYPE
  6
BYLAYER
  9
$CECOLOR
 62
   256
  9
$CELTSCALE
 40
1.0
  9
$DELOBJ
 70
     1
  9
$DISPSILH
 70
     0
  9
$DIMSCALE
 40
0.5
  9
$DIMASZ
 40
2.5
  9
$DIMEXO
 40
1.0
  9
$DIMDLI
 40
12.0
  9
$DIMRND
 40
0.0
  9
$DIMDLE
 40
0.0
  9
$DIMEXE
 40
1.0
  9
$DIMTP
 40
0.1
  9
$DIMTM
 40
0.1
  9
$DIMTXT
 40
3.2
  9
$DIMCEN
 40
0.0
  9
$DIMTSZ
 40
0.0
  9
$DIMTOL
 70
     0
  9
$DIMLIM
 70
     0
  9
$DIMTIH
 70
     0
  9
$DIMTOH
 70
     0
  9
$DIMSE1
 70
     0
  9
$DIMSE2
 70
     0
  9
$DIMTAD
 70
     3
  9
$DIMZIN
 70
     8
  9
$DIMBLK
  1
OPEN30
  9
$DIMASO
 70
     1
  9
$DIMSHO
 70
     1
  9
$DIMPOST
  1

  9
$DIMAPOST
  1
"
  9
$DIMALT
 70
     0
  9
$DIMALTD
 70
     2
  9
$DIMALTF
 40
0.0393701
  9
$DIMLFAC
 40
1.0
  9
$DIMTOFL
 70
     1
  9
$DIMTVP
 40
0.0
  9
$DIMTIX
 70
     0
  9
$DIMSOXD
 70
     0
  9
$DIMSAH
 70
     0
  9
$DIMBLK1
  1

  9
$DIMBLK2
  1

  9
$DIMSTYLE
  2
AM_JIS
  9
$DIMCLRD
 70
   256
  9
$DIMCLRE
 70
   256
  9
$DIMCLRT
 70
     2
  9
$DIMTFAC
 40
0.71
  9
$DIMGAP
 40
1.5
  9
$DIMJUST
 70
     0
  9
$DIMSD1
 70
     0
  9
$DIMSD2
 70
     0
  9
$DIMTOLJ
 70
     0
  9
$DIMTZIN
 70
     0
  9
$DIMALTZ
 70
     0
  9
$DIMALTTZ
 70
     0
  9
$DIMFIT
 70
     3
  9
$DIMUPT
 70
     0
  9
$DIMUNIT
 70
     2
  9
$DIMDEC
 70
     3
  9
$DIMTDEC
 70
     3
  9
$DIMALTU
 70
     2
  9
$DIMALTTD
 70
     2
  9
$DIMTXSTY
  7
ASAMI
  9
$DIMAUNIT
 70
     0
  9
$LUNITS
 70
     2
  9
$LUPREC
 70
     2
  9
$SKETCHINC
 40
1.0
  9
$FILLETRAD
 40
2.5
  9
$AUNITS
 70
     0
  9
$AUPREC
 70
     0
  9
$MENU
  1
.
  9
$ELEVATION
 40
0.0
  9
$PELEVATION
 40
0.0
  9
$THICKNESS
 40
0.0
  9
$LIMCHECK
 70
     0
  9
$BLIPMODE
 70
     0
  9
$CHAMFERA
 40
0.25
  9
$CHAMFERB
 40
0.25
  9
$CHAMFERC
 40
20.0
  9
$CHAMFERD
 40
0.0
  9
$SKPOLY
 70
     0
  9
$TDCREATE
 40
2452800.443498622
  9
$TDUPDATE
 40
2453151.578747639
  9
$TDINDWG
 40
0.0548081019
  9
$TDUSRTIMER
 40
0.0548081019
  9
$USRTIMER
 70
     1
  9
$ANGBASE
 50
0.0
  9
$ANGDIR
 70
     0
  9
$PDMODE
 70
     3
  9
$PDSIZE
 40
0.0
  9
$PLINEWID
 40
0.0
  9
$COORDS
 70
     1
  9
$SPLFRAME
 70
     0
  9
$SPLINETYPE
 70
     6
  9
$SPLINESEGS
 70
     8
  9
$ATTDIA
 70
     1
  9
$ATTREQ
 70
     1
  9
$HANDLING
 70
 12289
  9
$HANDSEED
  5
2ED0
  9
$SURFTAB1
 70
     6
  9
$SURFTAB2
 70
     6
  9
$SURFTYPE
 70
     6
  9
$SURFU
 70
     6
  9
$SURFV
 70
     6
  9
$UCSNAME
  2

  9
$UCSORG
 10
0.0
 20
0.0
 30
0.0
  9
$UCSXDIR
 10
1.0
 20
0.000000000000002
 30
0.0
  9
$UCSYDIR
 10
-0.000000000000002
 20
1.0
 30
0.0
  9
$PUCSNAME
  2

  9
$PUCSORG
 10
0.0
 20
0.0
 30
0.0
  9
$PUCSXDIR
 10
1.0
 20
0.0
 30
0.0
  9
$PUCSYDIR
 10
0.0
 20
1.0
 30
0.0
  9
$USERI1
 70
     0
  9
$USERI2
 70
     0
  9
$USERI3
 70
     0
  9
$USERI4
 70
     0
  9
$USERI5
 70
     0
  9
$USERR1
 40
0.0
  9
$USERR2
 40
0.0
  9
$USERR3
 40
0.0
  9
$USERR4
 40
0.0
  9
$USERR5
 40
0.0
  9
$WORLDVIEW
 70
     1
  9
$SHADEDGE
 70
     3
  9
$SHADEDIF
 70
    70
  9
$TILEMODE
 70
     1
  9
$MAXACTVP
 70
    64
  9
$PINSBASE
 10
0.0
 20
0.0
 30
0.0
  9
$PLIMCHECK
 70
     0
  9
$PEXTMIN
 10
1.000000000000000E+20
 20
1.000000000000000E+20
 30
1.000000000000000E+20
  9
$PEXTMAX
 10
-1.000000000000000E+20
 20
-1.000000000000000E+20
 30
-1.000000000000000E+20
  9
$PLIMMIN
 10
0.0
 20
0.0
  9
$PLIMMAX
 10
841.0
 20
594.0
  9
$UNITMODE
 70
     0
  9
$VISRETAIN
 70
     1
  9
$PLINEGEN
 70
     0
  9
$PSLTSCALE
 70
     0
  9
$TREEDEPTH
 70
  3020
  9
$PICKSTYLE
 70
     0
  9
$CMLSTYLE
  2
STANDARD
  9
$CMLJUST
 70
     0
  9
$CMLSCALE
 40
20.0
  9
$PROXYGRAPHICS
 70
     1
  9
$MEASUREMENT
 70
     1
  0
ENDSEC
  0
SECTION
  2
CLASSES
  0
CLASS
  1
ACDBDICTIONARYWDFLT
  2
AcDbDictionaryWithDefault
  3
AutoCAD 2000
 90
        0
280
     0
281
     0
  0
CLASS
  1
ACDBPLACEHOLDER
  2
AcDbPlaceHolder
  3
AutoCAD 2000
 90
        0
280
     0
281
     0
  0
CLASS
  1
LAYOUT
  2
AcDbLayout
  3
AutoCAD 2000
 90
        0
280
     0
281
     0
  0
CLASS
  1
AMGSETTINGSOBJ
  2
AmgSettingsObj
  3
"AcadM|Product Description: AutoCAD Mechanical 2000|Company: Autodesk"
 90
        0
280
     0
281
     0
  0
CLASS
  1
ACME_DOCUMENT
  2
AcMeDbDoc
  3
AcMeServices
 90
        0
280
     0
281
     0
  0
CLASS
  1
ACMESCOPE
  2
AcMeScope
  3
AcMeServices
 90
        0
280
     0
281
     0
  0
CLASS
  1
ACMECOMMANDHISTORY
  2
AcMeCommandHistory
  3
AcMeServices
 90
        0
280
     0
281
     0
  0
CLASS
  1
DICTIONARYVAR
  2
AcDbDictionaryVar
  3
AutoCAD 2000
 90
        0
280
     0
281
     0
  0
CLASS
  1
ACIMSYSVARMAN
  2
AcImSysVarManager
  3
AcMeServices
 90
        0
280
     0
281
     0
  0
CLASS
  1
ACIMREALSYSVAR
  2
AcImRealSysVar
  3
AcMeServices
 90
        0
280
     0
281
     0
  0
CLASS
  1
ACIMINTSYSVAR
  2
AcImIntSysVar
  3
AcMeServices
 90
        0
280
     0
281
     0
  0
CLASS
  1
ACMEDRAWINGMAN
  2
AcMeDrawingMan
  3
AcMeServices
 90
        0
280
     0
281
     0
  0
CLASS
  1
ACMEVIEW
  2
AcMeView
  3
AcMeServices
 90
        0
280
     0
281
     0
  0
CLASS
  1
ACDBENTITYCACHE
  2
AcMeEntityCache
  3
AcMeServices
 90
        0
280
     0
281
     0
  0
CLASS
  1
GSMANAGER
  2
AcMeGSManager
  3
AcMeServices
 90
        0
280
     0
281
     0
  0
CLASS
  1
AmdtInternalReactor
  2
AmdtInternalReactor
  3
AcMeServices
 90
        0
280
     0
281
     0
  0
CLASS
  1
ACMESTATEMGR
  2
AcMeStateMgr
  3
AcMeServices
 90
        0
280
     0
281
     0
  0
CLASS
  1
ACME_DATABASE
  2
AcMeDbDatabase
  3
AcMeServices
 90
        0
280
     0
281
     0
  0
CLASS
  1
ACRFINSADJUSTERMGR
  2
AcRfInsAdjusterMgr
  3
AcMeServices
 90
        0
280
     0
281
     0
  0
CLASS
  1
ACMDATADICTIONARY
  2
AcmDataDictionary
  3
"AcmSymBB|Product Description: AutoCAD Mechanical 2000|Company: Autodesk"
 90
        0
280
     0
281
     0
  0
CLASS
  1
ACMDATAENTRYBLOCK
  2
AcmDataEntryBlock
  3
"AcmSymBB|Product Description: AutoCAD Mechanical 2000|Company: Autodesk"
 90
        0
280
     0
281
     0
  0
CLASS
  1
AMGOBJPROPCFG
  2
AmgObjPropCfg
  3
"AmgLay|Product Description: AutoCAD Mechanical 2000|Company: Autodesk"
 90
        1
280
     0
281
     0
  0
CLASS
  1
ACAMGFILTERDAT
  2
AcAmgFilterDat
  3
"AcadM|Product Description: AutoCAD Mechanical 2000|Company: Autodesk"
 90
        0
280
     0
281
     0
  0
CLASS
  1
LAYER_INDEX
  2
AcDbLayerIndex
  3
AutoCAD 2000
 90
        0
280
     0
281
     0
  0
CLASS
  1
IDBUFFER
  2
AcDbIdBuffer
  3
AutoCAD 2000
 90
        0
280
     0
281
     0
  0
CLASS
  1
ACIMSTRSYSVAR
  2
AcImStrSysVar
  3
AcMeServices
 90
        0
280
     0
281
     0
  0
CLASS
  1
ACMSTANDARDJIS
  2
AcmStandardJIS
  3
"AcmSymBB|Product Description: AutoCAD Mechanical 2000|Company: Autodesk"
 90
        0
280
     0
281
     0
  0
CLASS
  1
ACMSURFSTANDARDJIS
  2
AcmSurfTextStdJIS
  3
"AcmSymBB|Product Description: AutoCAD Mechanical 2000|Company: Autodesk"
 90
        0
280
     0
281
     0
  0
CLASS
  1
ACMFCFSTANDARDJIS
  2
AcmFCFStdJIS
  3
"AcmSymBB|Product Description: AutoCAD Mechanical 2000|Company: Autodesk"
 90
        0
280
     0
281
     0
  0
CLASS
  1
ACMWELDSTANDARDJIS
  2
AcmWeldingStdJIS
  3
"AcmSymBB|Product Description: AutoCAD Mechanical 2000|Company: Autodesk"
 90
        0
280
     0
281
     0
  0
CLASS
  1
ACMIDSTANDARDJIS
  2
AcmIdStdJIS
  3
"AcmSymBB|Product Description: AutoCAD Mechanical 2000|Company: Autodesk"
 90
        0
280
     0
281
     0
  0
CLASS
  1
ACMDATUMSTANDARDJIS
  2
AcmDatumStdJIS
  3
"AcmSymBB|Product Description: AutoCAD Mechanical 2000|Company: Autodesk"
 90
        0
280
     0
281
     0
  0
CLASS
  1
ACMBOMSTANDARDJIS
  2
AcmBOMStdJIS
  3
"AcmSymBB|Product Description: AutoCAD Mechanical 2000|Company: Autodesk"
 90
        0
280
     0
281
     0
  0
CLASS
  1
ACMSTANDARDANSI
  2
AcmStandardANSI
  3
"AcmSymBB|Product Description: AutoCAD Mechanical 2000|Company: Autodesk"
 90
        0
280
     0
281
     0
  0
CLASS
  1
ACMSURFSTANDARDANSI
  2
AcmSurfTextStdANSI
  3
"AcmSymBB|Product Description: AutoCAD Mechanical 2000|Company: Autodesk"
 90
        0
280
     0
281
     0
  0
CLASS
  1
ACMFCFSTANDARDANSI
  2
AcmFCFStdANSI
  3
"AcmSymBB|Product Description: AutoCAD Mechanical 2000|Company: Autodesk"
 90
        0
280
     0
281
     0
  0
CLASS
  1
ACMWELDSTANDARDANSI
  2
AcmWeldingStdANSI
  3
"AcmSymBB|Product Description: AutoCAD Mechanical 2000|Company: Autodesk"
 90
        0
280
     0
281
     0
  0
CLASS
  1
ACMIDSTANDARDANSI
  2
AcmIdStdANSI
  3
"AcmSymBB|Product Description: AutoCAD Mechanical 2000|Company: Autodesk"
 90
        0
280
     0
281
     0
  0
CLASS
  1
ACMDATUMSTANDARDANSI
  2
AcmDatumStdANSI
  3
"AcmSymBB|Product Description: AutoCAD Mechanical 2000|Company: Autodesk"
 90
        0
280
     0
281
     0
  0
CLASS
  1
ACMBOMSTANDARDANSI
  2
AcmBOMStdANSI
  3
"AcmSymBB|Product Description: AutoCAD Mechanical 2000|Company: Autodesk"
 90
        0
280
     0
281
     0
  0
CLASS
  1
ACMSTANDARDBSI
  2
AcmStandardBSI
  3
"AcmSymBB|Product Description: AutoCAD Mechanical 2000|Company: Autodesk"
 90
        0
280
     0
281
     0
  0
CLASS
  1
ACMSURFSTANDARDBSI
  2
AcmSurfTextStdBSI
  3
"AcmSymBB|Product Description: AutoCAD Mechanical 2000|Company: Autodesk"
 90
        0
280
     0
281
     0
  0
CLASS
  1
ACMFCFSTANDARDBSI
  2
AcmFCFStdBSI
  3
"AcmSymBB|Product Description: AutoCAD Mechanical 2000|Company: Autodesk"
 90
        0
280
     0
281
     0
  0
CLASS
  1
ACMWELDSTANDARDBSI
  2
AcmWeldingStdBSI
  3
"AcmSymBB|Product Description: AutoCAD Mechanical 2000|Company: Autodesk"
 90
        0
280
     0
281
     0
  0
CLASS
  1
ACMIDSTANDARDBSI
  2
AcmIdStdBSI
  3
"AcmSymBB|Product Description: AutoCAD Mechanical 2000|Company: Autodesk"
 90
        0
280
     0
281
     0
  0
CLASS
  1
ACMDATUMSTANDARDBSI
  2
AcmDatumStdBSI
  3
"AcmSymBB|Product Description: AutoCAD Mechanical 2000|Company: Autodesk"
 90
        0
280
     0
281
     0
  0
CLASS
  1
ACMBOMSTANDARDBSI
  2
AcmBOMStdBSI
  3
"AcmSymBB|Product Description: AutoCAD Mechanical 2000|Company: Autodesk"
 90
        0
280
     0
281
     0
  0
CLASS
  1
LONG_TRANSACTION
  2
AcDbLongTransaction
  3
AutoCAD 2000
 90
        0
280
     0
281
     0
  0
CLASS
  1
LWPOLYLINE
  2
AcDbPolyline
  3
AutoCAD 2000
 90
        0
280
     0
281
     1
  0
CLASS
  1
HATCH
  2
AcDbHatch
  3
AutoCAD 2000
 90
        0
280
     0
281
     1
  0
CLASS
  1
XRECORD
  2
AcDbXrecord
  3
AutoCAD 2000
 90
        0
280
     0
281
     0
  0
ENDSEC
  0
SECTION
  2
TABLES
  0
TABLE
  2
VPORT
  5
8
330
0
100
AcDbSymbolTable
 70
     3
  0
VPORT
  5
2EA5
330
8
100
AcDbSymbolTableRecord
100
AcDbViewportTableRecord
  2
*ACTIVE
 70
     0
 10
0.0
 20
0.0
 11
1.0
 21
1.0
 12
-36.28302752480518
 22
-5.426588237241062
 13
0.0
 23
0.0
 14
2.5
 24
2.5
 15
10.0
 25
10.0
 16
0.0
 26
0.0
 36
1.0
 17
0.0
 27
0.0
 37
0.0
 40
71.39129664011901
 41
1.56570841889117
 42
50.0
 43
0.0
 44
0.0
 50
0.0
 51
0.0
 71
     0
 72
   100
 73
     1
 74
     1
 75
     0
 76
     0
 77
     0
 78
     0
  0
ENDTAB
  0
TABLE
  2
LTYPE
  5
5
330
0
100
AcDbSymbolTable
 70
    10
  0
LTYPE
  5
14
330
5
100
AcDbSymbolTableRecord
100
AcDbLinetypeTableRecord
  2
BYBLOCK
 70
     0
  3

 72
    65
 73
     0
 40
0.0
  0
LTYPE
  5
15
330
5
100
AcDbSymbolTableRecord
100
AcDbLinetypeTableRecord
  2
BYLAYER
 70
     0
  3

 72
    65
 73
     0
 40
0.0
  0
LTYPE
  5
16
330
5
100
AcDbSymbolTableRecord
100
AcDbLinetypeTableRecord
  2
CONTINUOUS
 70
     0
  3
Solid line
 72
    65
 73
     0
 40
0.0
  0
LTYPE
  5
4B
330
5
100
AcDbSymbolTableRecord
100
AcDbLinetypeTableRecord
  2
AM_ISO02W050
 70
     0
  3
__ __ __ __ __ __ __ __ __ __ __ __ __ __ __
 72
    65
 73
     2
 40
7.5
 49
6.0
 74
     0
 49
-1.5
 74
     0
  0
LTYPE
  5
4C
330
5
100
AcDbSymbolTableRecord
100
AcDbLinetypeTableRecord
  2
AM_ISO08W050
 70
     0
  3
____ . ____ . ____ . ____ . ____ . ____ . ____
 72
    65
 73
     4
 40
18.0
 49
12.0
 74
     0
 49
-1.5
 74
     0
 49
3.0
 74
     0
 49
-1.5
 74
     0
  0
LTYPE
  5
4D
330
5
100
AcDbSymbolTableRecord
100
AcDbLinetypeTableRecord
  2
AM_ISO09W050
 70
     0
  3
_____ . . _____ . . _____ . . ____ .. ____
 72
    65
 73
     6
 40
22.5
 49
12.0
 74
     0
 49
-1.5
 74
     0
 49
3.0
 74
     0
 49
-1.5
 74
     0
 49
3.0
 74
     0
 49
-1.5
 74
     0
  0
LTYPE
  5
4E
330
5
100
AcDbSymbolTableRecord
100
AcDbLinetypeTableRecord
  2
AMCONSTR
 70
     0
  3
_______________________
 72
    65
 73
     2
 40
9999.0
 49
9999.0
 74
     0
 49
0.0
 74
     0
  0
LTYPE
  5
4F
330
5
100
AcDbSymbolTableRecord
100
AcDbLinetypeTableRecord
  2
AM_ISO02W050X2
 70
     0
  3
 _ _ _ _ _ _ _ _ _ _ _ _
 72
    65
 73
     2
 40
3.75
 49
3.0
 74
     0
 49
-0.75
 74
     0
  0
LTYPE
  5
50
330
5
100
AcDbSymbolTableRecord
100
AcDbLinetypeTableRecord
  2
AM_ISO08W050X2
 70
     0
  3
__ . __ . __ . __ . __ . __
 72
    65
 73
     4
 40
9.0
 49
6.0
 74
     0
 49
-0.75
 74
     0
 49
1.5
 74
     0
 49
-0.75
 74
     0
  0
LTYPE
  5
53
330
5
100
AcDbSymbolTableRecord
100
AcDbLinetypeTableRecord
  2
AMZIGZAG
 70
     0
  3
/\/-/\/-/\/-/\/-/\/-/\/
 72
    65
 73
     2
 40
11.00009999999999
 49
0.0001
 74
     4
 75
   135
340
52
 46
0.04
 50
0.0
 44
0.0
 45
0.0
 49
-11.0
 74
     0
  0
LTYPE
  5
166
330
5
100
AcDbSymbolTableRecord
100
AcDbLinetypeTableRecord
  2
ACJISTGL
 70
     0
  3
_ _ _ _ _
 72
    65
 73
     2
 40
3.0
 49
2.0
 74
     0
 49
-1.0
 74
     0
  0
LTYPE
  5
26A
330
5
100
AcDbSymbolTableRecord
100
AcDbLinetypeTableRecord
  2
ACJISTGB
 70
     0
  3
__ . . __ . .
 72
    65
 73
     6
 40
9.0
 49
4.0
 74
     0
 49
-1.0
 74
     0
 49
1.0
 74
     0
 49
-1.0
 74
     0
 49
1.0
 74
     0
 49
-1.0
 74
     0
  0
ENDTAB
  0
TABLE
  2
LAYER
  5
2
330
0
100
AcDbSymbolTable
 70
     7
  0
LAYER
  5
10
330
2
100
AcDbSymbolTableRecord
100
AcDbLayerTableRecord
  2
0
 70
     0
 62
     7
  6
CONTINUOUS
  0
LAYER
  5
3F9
330
2
100
AcDbSymbolTableRecord
100
AcDbLayerTableRecord
  2
AM_0
 70
     0
 62
     7
  6
CONTINUOUS
  0
LAYER
  5
C7C
330
2
100
AcDbSymbolTableRecord
100
AcDbLayerTableRecord
  2
AM_7
 70
     0
 62
     4
  6
AM_ISO08W050
  0
LAYER
  5
C97
330
2
100
AcDbSymbolTableRecord
100
AcDbLayerTableRecord
  2
AM_11
 70
     0
 62
     3
  6
AM_ISO09W050
  0
LAYER
  5
CC5
330
2
100
AcDbSymbolTableRecord
100
AcDbLayerTableRecord
  2
AM_5
 70
     0
 62
     3
  6
CONTINUOUS
  0
LAYER
  5
CC7
330
2
100
AcDbSymbolTableRecord
100
AcDbLayerTableRecord
  2
DEFPOINTS
 70
     0
 62
     7
  6
CONTINUOUS
  0
LAYER
  5
19BC
330
2
100
AcDbSymbolTableRecord
100
AcDbLayerTableRecord
  2
AM_6
 70
     0
 62
     2
  6
CONTINUOUS
  0
ENDTAB
  0
TABLE
  2
STYLE
  5
3
330
0
100
AcDbSymbolTable
 70
     5
  0
STYLE
  5
11
330
3
100
AcDbSymbolTableRecord
100
AcDbTextStyleTableRecord
  2
STANDARD
 70
     0
 40
0.0
 41
1.0
 50
0.0
 71
     0
 42
2.5
  3
simplex.shx
  4
EXTFONT.SHX
  0
STYLE
  5
52
330
3
100
AcDbSymbolTableRecord
100
AcDbTextStyleTableRecord
  2

 70
     1
 40
0.0
 41
1.0
 50
0.0
 71
     0
 42
2.5
  3
ltypeshp.shx
  4

  0
STYLE
  5
6B
330
3
100
AcDbSymbolTableRecord
100
AcDbTextStyleTableRecord
  2
ASAMI
 70
     0
 40
0.0
 41
1.0
 50
0.0
 71
     0
 42
2.5
  3
simplex.shx
  4
EXTFONT.SHX
  0
STYLE
  5
262
330
3
100
AcDbSymbolTableRecord
100
AcDbTextStyleTableRecord
  2
ACJISTS
 70
     0
 40
1.0
 41
1.0
 50
0.0
 71
     0
 42
2.5
  3
simplex.shx
  4
bigfont.shx
  0
STYLE
  5
269
330
3
100
AcDbSymbolTableRecord
100
AcDbTextStyleTableRecord
  2
ACJISGDT
 70
     0
 40
0.0
 41
1.0
 50
0.0
 71
     0
 42
2.5
  3
amgdtans.shx
  4

  0
ENDTAB
  0
TABLE
  2
VIEW
  5
6
330
0
100
AcDbSymbolTable
 70
     0
  0
ENDTAB
  0
TABLE
  2
UCS
  5
7
330
0
100
AcDbSymbolTable
 70
     0
  0
ENDTAB
  0
TABLE
  2
APPID
  5
9
330
0
100
AcDbSymbolTable
 70
    16
  0
APPID
  5
12
330
9
100
AcDbSymbolTableRecord
100
AcDbRegAppTableRecord
  2
ACAD
 70
     0
  0
APPID
  5
30
330
9
100
AcDbSymbolTableRecord
100
AcDbRegAppTableRecord
  2
MCAD_NO_VIS
 70
     0
  0
APPID
  5
31
330
9
100
AcDbSymbolTableRecord
100
AcDbRegAppTableRecord
  2
ACAD_TEMP_GRAPHIC
 70
     0
  0
APPID
  5
2C2
330
9
100
AcDbSymbolTableRecord
100
AcDbRegAppTableRecord
  2
GENIUS_GENDTOL_13
 70
     0
  0
APPID
  5
339
330
9
100
AcDbSymbolTableRecord
100
AcDbRegAppTableRecord
  2
GENIUS_GENODEF_13
 70
     0
  0
APPID
  5
33A
330
9
100
AcDbSymbolTableRecord
100
AcDbRegAppTableRecord
  2
GENIUS_GENOBJ-N-RSBK_13
 70
     0
  0
APPID
  5
33B
330
9
100
AcDbSymbolTableRecord
100
AcDbRegAppTableRecord
  2
GENIUS_GENOBJ-N-LIB_13
 70
     0
  0
APPID
  5
33C
330
9
100
AcDbSymbolTableRecord
100
AcDbRegAppTableRecord
  2
GENIUS_GENSCALE_13
 70
     0
  0
APPID
  5
378
330
9
100
AcDbSymbolTableRecord
100
AcDbRegAppTableRecord
  2
GENIUS_GENDIMSH_14
 70
     0
  0
APPID
  5
C82
330
9
100
AcDbSymbolTableRecord
100
AcDbRegAppTableRecord
  2
GENIUS_GENOBJ-N-CRS_13
 70
     0
  0
APPID
  5
C83
330
9
100
AcDbSymbolTableRecord
100
AcDbRegAppTableRecord
  2
GENIUS_GENOENT_13
 70
     0
  0
APPID
  5
C84
330
9
100
AcDbSymbolTableRecord
100
AcDbRegAppTableRecord
  2
GENIUS_GENOREF_13
 70
     0
  0
APPID
  5
C85
330
9
100
AcDbSymbolTableRecord
100
AcDbRegAppTableRecord
  2
GENIUS_GENOLIS_13
 70
     0
  0
APPID
  5
CA0
330
9
100
AcDbSymbolTableRecord
100
AcDbRegAppTableRecord
  2
GENIUS_GENOBJ-N-CEN_13
 70
     0
  0
APPID
  5
1CFA
330
9
100
AcDbSymbolTableRecord
100
AcDbRegAppTableRecord
  2
GENIUS_GENFIL_13
 70
     0
  0
APPID
  5
1CFB
330
9
100
AcDbSymbolTableRecord
100
AcDbRegAppTableRecord
  2
GENIUS_GENOBJ-N-CHA_13
 70
     0
  0
ENDTAB
  0
TABLE
  2
DIMSTYLE
  5
A
330
0
100
AcDbSymbolTable
 70
     9
  0
DIMSTYLE
105
58
330
A
100
AcDbSymbolTableRecord
100
AcDbDimStyleTableRecord
  2
AM_JIS
 70
     0
  3

  4
"
  5
OPEN30
  6

  7

 40
0.5
 41
2.5
 42
1.0
 43
12.0
 44
1.0
 45
0.0
 46
0.0
 47
0.1
 48
0.1
140
3.2
141
0.0
142
0.0
143
0.0393701
144
1.0
145
0.0
146
0.71
147
1.5
 71
     0
 72
     0
 73
     0
 74
     0
 75
     0
 76
     0
 77
     3
 78
     8
170
     0
171
     2
172
     1
173
     0
174
     0
175
     0
176
   256
177
   256
178
     2
270
     2
271
     3
272
     3
273
     2
274
     2
340
6B
275
     0
280
     0
281
     0
282
     0
283
     0
284
     0
285
     0
286
     0
287
     3
288
     0
  0
DIMSTYLE
105
5F
330
A
100
AcDbSymbolTableRecord
100
AcDbDimStyleTableRecord
  2
AM_JIS$3
 70
     0
  3

  4
"
  5
OPEN30
  6

  7

 40
0.5
 41
2.5
 42
1.0
 43
10.0
 44
1.0
 45
0.0
 46
0.0
 47
0.1
 48
0.1
140
3.2
141
0.0
142
0.0
143
0.0393701
144
1.0
145
0.0
146
0.71
147
1.5
 71
     0
 72
     0
 73
     0
 74
     1
 75
     0
 76
     0
 77
     3
 78
     8
170
     0
171
     2
172
     0
173
     0
174
     0
175
     0
176
   256
177
   256
178
     2
270
     2
271
     2
272
     3
273
     2
274
     2
340
6B
275
     0
280
     0
281
     0
282
     0
283
     0
284
     0
285
     0
286
     0
287
     0
288
     1
  0
DIMSTYLE
105
60
330
A
100
AcDbSymbolTableRecord
100
AcDbDimStyleTableRecord
  2
AM_JIS$4
 70
     0
  3

  4
"
  5
OPEN30
  6

  7

 40
0.5
 41
2.5
 42
1.0
 43
10.0
 44
1.0
 45
0.0
 46
0.0
 47
0.1
 48
0.1
140
3.2
141
0.0
142
0.0
143
0.0393701
144
1.0
145
0.0
146
0.71
147
1.5
 71
     0
 72
     0
 73
     0
 74
     1
 75
     0
 76
     0
 77
     3
 78
     8
170
     0
171
     2
172
     0
173
     0
174
     0
175
     0
176
   256
177
   256
178
     2
270
     2
271
     2
272
     3
273
     2
274
     2
340
6B
275
     0
280
     0
281
     0
282
     0
283
     0
284
     0
285
     0
286
     0
287
     0
288
     1
  0
DIMSTYLE
105
61
330
A
100
AcDbSymbolTableRecord
100
AcDbDimStyleTableRecord
  2
AM_JIS$6
 70
     0
  3

  4
"
  5
OPEN30
  6

  7

 40
0.5
 41
2.5
 42
1.0
 43
10.0
 44
1.0
 45
0.0
 46
0.0
 47
0.1
 48
0.1
140
3.2
141
0.0
142
0.0
143
0.0393701
144
1.0
145
0.0
146
0.71
147
1.5
 71
     0
 72
     0
 73
     0
 74
     0
 75
     0
 76
     0
 77
     0
 78
     8
170
     0
171
     2
172
     1
173
     0
174
     0
175
     0
176
   256
177
   256
178
     2
270
     2
271
     2
272
     2
273
     2
274
     2
340
6B
275
     0
280
     0
281
     0
282
     0
283
     0
284
     0
285
     0
286
     0
287
     3
288
     0
  0
DIMSTYLE
105
62
330
A
100
AcDbSymbolTableRecord
100
AcDbDimStyleTableRecord
  2
AM_JIS$7
 70
     0
  3

  4
"
  5
OPEN30
  6

  7

 40
0.5
 41
2.5
 42
1.0
 43
10.0
 44
1.0
 45
0.0
 46
0.0
 47
0.1
 48
0.1
140
3.2
141
0.0
142
0.0
143
0.0393701
144
1.0
145
0.0
146
0.71
147
1.5
 71
     0
 72
     0
 73
     0
 74
     0
 75
     0
 76
     0
 77
     3
 78
     8
170
     0
171
     2
172
     1
173
     0
174
     0
175
     0
176
   256
177
   256
178
     2
270
     2
271
     2
272
     3
273
     2
274
     2
340
6B
275
     0
280
     0
281
     0
282
     0
283
     0
284
     0
285
     0
286
     0
287
     3
288
     0
  0
DIMSTYLE
105
63
330
A
100
AcDbSymbolTableRecord
100
AcDbDimStyleTableRecord
  2
AM_JIS$SF
 70
     0
  3

  4
"
  5
OPEN30
  6

  7

 40
0.5
 41
2.5
 42
1.0
 43
10.0
 44
1.0
 45
0.0
 46
0.0
 47
0.1
 48
0.1
140
3.2
141
0.0
142
0.0
143
0.0393701
144
1.0
145
0.0
146
0.71
147
1.5
 71
     0
 72
     0
 73
     0
 74
     0
 75
     1
 76
     1
 77
     3
 78
     8
170
     0
171
     2
172
     1
173
     0
174
     0
175
     0
176
   256
177
   256
178
     2
270
     2
271
     2
272
     2
273
     2
274
     2
340
6B
275
     0
280
     0
281
     0
282
     0
283
     0
284
     0
285
     0
286
     0
287
     3
288
     0
  0
DIMSTYLE
105
68
330
A
100
AcDbSymbolTableRecord
100
AcDbDimStyleTableRecord
  2
AM_JIS$SH
 70
     0
  3

  4
"
  5

  6
GENAXEH
  7
OPEN30
 40
0.5
 41
2.5
 42
1.0
 43
10.0
 44
1.0
 45
0.0
 46
0.0
 47
0.1
 48
0.1
140
3.2
141
0.0
142
0.0
143
0.0393701
144
2.0
145
0.0
146
0.71
147
1.5
 71
     0
 72
     0
 73
     0
 74
     0
 75
     1
 76
     1
 77
     3
 78
     8
170
     0
171
     2
172
     1
173
     1
174
     0
175
     0
176
   256
177
   256
178
     2
270
     2
271
     2
272
     2
273
     2
274
     2
340
6B
275
     0
280
     0
281
     0
282
     0
283
     0
284
     0
285
     0
286
     0
287
     3
288
     0
  0
DIMSTYLE
105
B34
102
{ACAD_REACTORS
330
260B
102
}
330
A
100
AcDbSymbolTableRecord
100
AcDbDimStyleTableRecord
  2
AM_JIS$2
 70
     0
  3

  4
"
  5
OPEN30
  6

  7

 40
0.5
 41
2.5
 42
1.0
 43
12.0
 44
1.0
 45
0.0
 46
0.0
 47
0.1
 48
0.1
140
3.2
141
0.0
142
0.0
143
0.0393701
144
1.0
145
0.0
146
0.71
147
1.5
 71
     0
 72
     0
 73
     0
 74
     0
 75
     0
 76
     0
 77
     3
 78
     8
170
     0
171
     2
172
     1
173
     0
174
     0
175
     0
176
   256
177
   256
178
     2
270
     2
271
     3
272
     3
273
     2
274
     2
340
6B
275
     0
280
     0
281
     0
282
     0
283
     0
284
     0
285
     0
286
     0
287
     3
288
     0
  0
DIMSTYLE
105
BA5
102
{ACAD_REACTORS
330
CC6
330
DF5
330
218E
330
245D
102
}
330
A
100
AcDbSymbolTableRecord
100
AcDbDimStyleTableRecord
  2
AM_JIS$0
 70
     0
  3

  4
"
  5
OPEN30
  6

  7

 40
0.5
 41
2.5
 42
0.0
 43
10.0
 44
1.0
 45
0.0
 46
0.0
 47
0.1
 48
0.1000000001
140
3.799999999999999
141
0.0
142
0.0
143
0.0393701
144
1.0
145
0.0
146
0.71
147
1.5
 71
     0
 72
     0
 73
     0
 74
     0
 75
     0
 76
     0
 77
     3
 78
     1
170
     0
171
     2
172
     1
173
     0
174
     0
175
     0
176
     3
177
     3
178
     2
270
     2
271
     2
272
     2
273
     2
274
     2
340
11
275
     1
280
     0
281
     0
282
     0
283
     0
284
     8
285
     0
286
     0
287
     0
288
     0
  0
ENDTAB
  0
TABLE
  2
BLOCK_RECORD
  5
1
330
0
100
AcDbSymbolTable
 70
    10
  0
BLOCK_RECORD
  5
1F
102
{ACAD_XDICTIONARY
360
74
102
}
330
1
100
AcDbSymbolTableRecord
100
AcDbBlockTableRecord
  2
*MODEL_SPACE
  0
BLOCK_RECORD
  5
101
102
{ACAD_XDICTIONARY
360
2ECE
102
}
330
1
100
AcDbSymbolTableRecord
100
AcDbBlockTableRecord
  2
*PAPER_SPACE
  0
BLOCK_RECORD
  5
59
330
1
100
AcDbSymbolTableRecord
100
AcDbBlockTableRecord
  2
_OPEN30
  0
BLOCK_RECORD
  5
64
330
1
100
AcDbSymbolTableRecord
100
AcDbBlockTableRecord
  2
GENAXEH
  0
BLOCK_RECORD
  5
CC8
330
1
100
AcDbSymbolTableRecord
100
AcDbBlockTableRecord
  2
*D5
  0
BLOCK_RECORD
  5
DF6
330
1
100
AcDbSymbolTableRecord
100
AcDbBlockTableRecord
  2
*D6
  0
BLOCK_RECORD
  5
218F
330
1
100
AcDbSymbolTableRecord
100
AcDbBlockTableRecord
  2
*D7
  0
BLOCK_RECORD
  5
245E
330
1
100
AcDbSymbolTableRecord
100
AcDbBlockTableRecord
  2
*D8
  0
BLOCK_RECORD
  5
260C
330
1
100
AcDbSymbolTableRecord
100
AcDbBlockTableRecord
  2
*D9
  0
ENDTAB
  0
ENDSEC
  0
SECTION
  2
BLOCKS
  0
BLOCK
  5
20
330
1F
100
AcDbEntity
  8
0
100
AcDbBlockBegin
  2
*MODEL_SPACE
 70
     0
 10
0.0
 20
0.0
 30
0.0
  3
*MODEL_SPACE
  1

  0
ENDBLK
  5
21
330
1F
100
AcDbEntity
  8
0
100
AcDbBlockEnd
  0
BLOCK
  5
103
330
101
100
AcDbEntity
 67
     1
  8
0
100
AcDbBlockBegin
  2
*PAPER_SPACE
 70
     0
 10
0.0
 20
0.0
 30
0.0
  3
*PAPER_SPACE
  1

  0
ENDBLK
  5
104
330
101
100
AcDbEntity
 67
     1
  8
0
100
AcDbBlockEnd
  0
BLOCK
  5
5D
330
59
100
AcDbEntity
  8
0
100
AcDbBlockBegin
  2
_OPEN30
 70
     0
 10
0.0
 20
0.0
 30
0.0
  3
_OPEN30
  1

  0
LINE
  5
5A
330
59
100
AcDbEntity
  8
0
 62
     0
100
AcDbLine
 10
-1.0
 20
0.26794919
 30
0.0
 11
0.0
 21
0.0
 31
0.0
  0
LINE
  5
5B
330
59
100
AcDbEntity
  8
0
 62
     0
100
AcDbLine
 10
0.0
 20
0.0
 30
0.0
 11
-1.0
 21
-0.26794919
 31
0.0
  0
LINE
  5
5C
330
59
100
AcDbEntity
  8
0
 62
     0
100
AcDbLine
 10
0.0
 20
0.0
 30
0.0
 11
-1.0
 21
0.0
 31
0.0
  0
ENDBLK
  5
5E
330
59
100
AcDbEntity
  8
0
100
AcDbBlockEnd
  0
BLOCK
  5
66
330
64
100
AcDbEntity
  8
0
100
AcDbBlockBegin
  2
GENAXEH
 70
     0
 10
0.0
 20
0.0
 30
0.0
  3
GENAXEH
  1

  0
LINE
  5
65
330
64
100
AcDbEntity
  8
0
100
AcDbLine
 10
-1.0
 20
0.0
 30
0.0
 11
1.0
 21
0.0
 31
0.0
  0
ENDBLK
  5
67
330
64
100
AcDbEntity
  8
0
100
AcDbBlockEnd
  0
BLOCK
  5
CD2
330
CC8
100
AcDbEntity
  8
0
100
AcDbBlockBegin
  2
*D5
 70
     1
 10
0.0
 20
0.0
 30
0.0
  3
*D5
  1

  0
LINE
  5
2E4F
330
CC8
100
AcDbEntity
  8
AM_5
 62
     3
100
AcDbLine
 10
-80.99999999999992
 20
-2.352702618522132
 30
0.0
 11
-80.99999999999992
 21
-15.00000099999994
 31
0.0
  0
LINE
  5
2E50
330
CC8
100
AcDbEntity
  8
AM_5
 62
     3
100
AcDbLine
 10
-0.9999999999999879
 20
-2.449999551668753
 30
0.0
 11
-0.9999999999999888
 21
-15.00000099999994
 31
0.0
  0
LINE
  5
2E51
330
CC8
100
AcDbEntity
  8
AM_5
 62
     3
100
AcDbLine
 10
-79.74999999999991
 20
-14.50000099999995
 30
0.0
 11
-2.249999999999988
 21
-14.50000099999995
 31
0.0
  0
INSERT
  5
2E52
330
CC8
100
AcDbEntity
  8
AM_5
 62
     3
100
AcDbBlockReference
  2
_OPEN30
 10
-80.99999999999992
 20
-14.50000099999995
 30
0.0
 41
1.25
 42
1.25
 43
1.25
 50
180.0
  0
INSERT
  5
2E53
330
CC8
100
AcDbEntity
  8
AM_5
 62
     3
100
AcDbBlockReference
  2
_OPEN30
 10
-0.9999999999999888
 20
-14.50000099999995
 30
0.0
 41
1.25
 42
1.25
 43
1.25
  0
MTEXT
  5
2E54
330
CC8
100
AcDbEntity
  8
AM_5
 62
     2
100
AcDbMText
 10
-40.99999999999995
 20
-12.80000099999995
 30
0.0
 40
1.9
 41
0.0
 71
     5
 72
     1
  1
80
1001
ACAD
1000
MTEXTBEGIN
1070
    73
1070
     1
1070
    44
1040
1.0
1070
    74
1070
     0
1000
MTEXTEND
  0
POINT
  5
2E55
330
CC8
100
AcDbEntity
  8
DEFPOINTS
 62
     0
100
AcDbPoint
 10
-80.99999999999992
 20
-2.352702618522132
 30
0.0
  0
POINT
  5
2E56
330
CC8
100
AcDbEntity
  8
DEFPOINTS
 62
     0
100
AcDbPoint
 10
-0.9999999999999879
 20
-2.449999551668753
 30
0.0
  0
POINT
  5
2E57
330
CC8
100
AcDbEntity
  8
DEFPOINTS
 62
     0
100
AcDbPoint
 10
-0.9999999999999888
 20
-14.50000099999995
 30
0.0
  0
ENDBLK
  5
CD3
330
CC8
100
AcDbEntity
  8
0
100
AcDbBlockEnd
  0
BLOCK
  5
E00
330
DF6
100
AcDbEntity
  8
0
100
AcDbBlockBegin
  2
*D6
 70
     1
 10
0.0
 20
0.0
 30
0.0
  3
*D6
  1

  0
LINE
  5
2E79
330
DF6
100
AcDbEntity
  8
AM_5
 62
     3
100
AcDbLine
 10
-30.99999999999991
 20
-2.500000000000035
 30
0.0
 11
-30.99999999999991
 21
-10.00000099999991
 31
0.0
  0
LINE
  5
2E7A
330
DF6
100
AcDbEntity
  8
AM_5
 62
     3
100
AcDbLine
 10
-0.9999999999999706
 20
-2.449999551668712
 30
0.0
 11
-0.9999999999999712
 21
-10.00000099999991
 31
0.0
  0
LINE
  5
2E7B
330
DF6
100
AcDbEntity
  8
AM_5
 62
     3
100
AcDbLine
 10
-29.74999999999991
 20
-9.500000999999915
 30
0.0
 11
-2.249999999999971
 21
-9.500000999999915
 31
0.0
  0
INSERT
  5
2E7C
330
DF6
100
AcDbEntity
  8
AM_5
 62
     3
100
AcDbBlockReference
  2
_OPEN30
 10
-30.99999999999991
 20
-9.500000999999915
 30
0.0
 41
1.25
 42
1.25
 43
1.25
 50
180.0
  0
INSERT
  5
2E7D
330
DF6
100
AcDbEntity
  8
AM_5
 62
     3
100
AcDbBlockReference
  2
_OPEN30
 10
-0.9999999999999712
 20
-9.500000999999915
 30
0.0
 41
1.25
 42
1.25
 43
1.25
  0
MTEXT
  5
2E7E
330
DF6
100
AcDbEntity
  8
AM_5
 62
     2
100
AcDbMText
 10
-15.99999999999994
 20
-7.800000999999915
 30
0.0
 40
1.9
 41
0.0
 71
     5
 72
     1
  1
30
1001
ACAD
1000
MTEXTBEGIN
1070
    73
1070
     1
1070
    44
1040
1.0
1070
    74
1070
     0
1000
MTEXTEND
  0
POINT
  5
2E7F
330
DF6
100
AcDbEntity
  8
DEFPOINTS
 62
     0
100
AcDbPoint
 10
-30.99999999999991
 20
-2.500000000000035
 30
0.0
  0
POINT
  5
2E80
330
DF6
100
AcDbEntity
  8
DEFPOINTS
 62
     0
100
AcDbPoint
 10
-0.9999999999999706
 20
-2.449999551668712
 30
0.0
  0
POINT
  5
2E81
330
DF6
100
AcDbEntity
  8
DEFPOINTS
 62
     0
100
AcDbPoint
 10
-0.9999999999999712
 20
-9.500000999999915
 30
0.0
  0
ENDBLK
  5
E01
330
DF6
100
AcDbEntity
  8
0
100
AcDbBlockEnd
  0
BLOCK
  5
219B
330
218F
100
AcDbEntity
  8
0
100
AcDbBlockBegin
  2
*D7
 70
     1
 10
0.0
 20
0.0
 30
0.0
  3
*D7
  1

  0
LINE
  5
2E58
330
218F
100
AcDbEntity
  8
AM_5
 62
     3
100
AcDbLine
 10
-80.74999999999988
 20
2.499999999999766
 30
0.0
 11
-89.75000099999988
 21
2.499999999999749
 31
0.0
  0
LINE
  5
2E59
330
218F
100
AcDbEntity
  8
AM_5
 62
     3
100
AcDbLine
 10
-80.7499999999997
 20
-2.500000000000233
 30
0.0
 11
-89.75000099999988
 21
-2.50000000000025
 31
0.0
  0
LINE
  5
2E5A
330
218F
100
AcDbEntity
  8
AM_5
 62
     3
100
AcDbLine
 10
-89.25000099999989
 20
3.749999999999749
 30
0.0
 11
-89.25000099999989
 21
4.99999999999975
 31
0.0
  0
LINE
  5
2E5B
330
218F
100
AcDbEntity
  8
AM_5
 62
     3
100
AcDbLine
 10
-89.25000099999987
 20
-3.75000000000025
 30
0.0
 11
-89.25000099999987
 21
-5.000000000000249
 31
0.0
  0
LINE
  5
2E5C
330
218F
100
AcDbEntity
  8
AM_5
 62
     3
100
AcDbLine
 10
-89.25000099999989
 20
2.499999999999749
 30
0.0
 11
-89.25000099999989
 21
-2.50000000000025
 31
0.0
  0
INSERT
  5
2E5D
330
218F
100
AcDbEntity
  8
AM_5
 62
     3
100
AcDbBlockReference
  2
_OPEN30
 10
-89.25000099999989
 20
2.499999999999749
 30
0.0
 41
1.25
 42
1.25
 43
1.25
 50
270.0000000000001
  0
INSERT
  5
2E5E
330
218F
100
AcDbEntity
  8
AM_5
 62
     3
100
AcDbBlockReference
  2
_OPEN30
 10
-89.25000099999989
 20
-2.50000000000025
 30
0.0
 41
1.25
 42
1.25
 43
1.25
 50
90.0000000000001
  0
MTEXT
  5
2E5F
330
218F
100
AcDbEntity
  8
AM_5
 62
     2
100
AcDbMText
 10
-90.95000099999989
 20
-0.0000000000002428
 30
0.0
 40
1.9
 41
0.0
 71
     5
 72
     1
  1
%%c5
 11
-0.000000000000002
 21
1.0
 31
0.0
1001
ACAD
1000
MTEXTBEGIN
1070
    73
1070
     1
1070
    44
1040
1.0
1070
    74
1070
     0
1000
MTEXTEND
  0
POINT
  5
2E60
330
218F
100
AcDbEntity
  8
DEFPOINTS
 62
     0
100
AcDbPoint
 10
-80.74999999999988
 20
2.499999999999945
 30
0.0
  0
POINT
  5
2E61
330
218F
100
AcDbEntity
  8
DEFPOINTS
 62
     0
100
AcDbPoint
 10
-80.7499999999997
 20
-2.500000000000054
 30
0.0
  0
POINT
  5
2E62
330
218F
100
AcDbEntity
  8
DEFPOINTS
 62
     0
100
AcDbPoint
 10
-89.25000099999989
 20
-2.500000000000051
 30
0.0
  0
ENDBLK
  5
219C
330
218F
100
AcDbEntity
  8
0
100
AcDbBlockEnd
  0
BLOCK
  5
246A
330
245E
100
AcDbEntity
  8
0
100
AcDbBlockBegin
  2
*D8
 70
     1
 10
0.0
 20
0.0
 30
0.0
  3
*D8
  1

  0
LINE
  5
2E6E
330
245E
100
AcDbEntity
  8
AM_5
 62
     3
100
AcDbLine
 10
-0.9999999999999706
 20
-2.449999551668753
 30
0.0
 11
8.704574799195889
 21
-2.449999551668755
 31
0.0
  0
LINE
  5
2E6F
330
245E
100
AcDbEntity
  8
AM_5
 62
     3
100
AcDbLine
 10
-0.9999999999998967
 20
2.450000448331184
 30
0.0
 11
8.704574799195889
 21
2.450000448331182
 31
0.0
  0
LINE
  5
2E70
330
245E
100
AcDbEntity
  8
AM_5
 62
     3
100
AcDbLine
 10
8.204574799195889
 20
-3.699999551668755
 30
0.0
 11
8.204574799195887
 21
-4.949999551668755
 31
0.0
  0
LINE
  5
2E71
330
245E
100
AcDbEntity
  8
AM_5
 62
     3
100
AcDbLine
 10
8.204574799195889
 20
3.700000448331182
 30
0.0
 11
8.204574799195892
 21
12.05952425785499
 31
0.0
  0
LINE
  5
2E72
330
245E
100
AcDbEntity
  8
AM_5
 62
     3
100
AcDbLine
 10
8.204574799195889
 20
-2.449999551668755
 30
0.0
 11
8.204574799195889
 21
2.450000448331182
 31
0.0
  0
INSERT
  5
2E73
330
245E
100
AcDbEntity
  8
AM_5
 62
     3
100
AcDbBlockReference
  2
_OPEN30
 10
8.204574799195889
 20
-2.449999551668755
 30
0.0
 41
1.25
 42
1.25
 43
1.25
 50
90.0
  0
INSERT
  5
2E74
330
245E
100
AcDbEntity
  8
AM_5
 62
     3
100
AcDbBlockReference
  2
_OPEN30
 10
8.204574799195889
 20
2.450000448331182
 30
0.0
 41
1.25
 42
1.25
 43
1.25
 50
270.0
  0
MTEXT
  5
2E75
330
245E
100
AcDbEntity
  8
AM_5
 62
     2
100
AcDbMText
 10
6.504574799195889
 20
8.504762353093088
 30
0.0
 40
1.9
 41
0.0
 71
     5
 72
     1
  1
%%c4.9
 11
0.0000000000000001
 21
1.0
 31
0.0
1001
ACAD
1000
MTEXTBEGIN
1070
    73
1070
     1
1070
    44
1040
1.0
1070
    74
1070
     0
1000
MTEXTEND
  0
POINT
  5
2E76
330
245E
100
AcDbEntity
  8
DEFPOINTS
 62
     0
100
AcDbPoint
 10
-0.9999999999999706
 20
-2.449999551668753
 30
0.0
  0
POINT
  5
2E77
330
245E
100
AcDbEntity
  8
DEFPOINTS
 62
     0
100
AcDbPoint
 10
-0.9999999999998967
 20
2.450000448331184
 30
0.0
  0
POINT
  5
2E78
330
245E
100
AcDbEntity
  8
DEFPOINTS
 62
     0
100
AcDbPoint
 10
8.204574799195889
 20
2.450000448331182
 30
0.0
  0
ENDBLK
  5
246B
330
245E
100
AcDbEntity
  8
0
100
AcDbBlockEnd
  0
BLOCK
  5
261C
330
260C
100
AcDbEntity
  8
0
100
AcDbBlockBegin
  2
*D9
 70
     1
 10
0.0
 20
0.0
 30
0.0
  3
*D9
  1

  0
LINE
  5
2E63
330
260C
100
AcDbEntity
  8
AM_5
100
AcDbLine
 10
0.1710100704081408
 20
-0.4698463108496862
 30
0.0
 11
5.422109646484566
 21
-14.89712394330939
 31
0.0
  0
LINE
  5
2E64
330
260C
100
AcDbEntity
  8
AM_5
100
AcDbLine
 10
0.1710113367807697
 20
0.4698458499257564
 30
0.0
 11
5.422149798571753
 21
14.89710932908359
 31
0.0
  0
ARC
  5
2E65
330
260C
100
AcDbEntity
  8
AM_5
100
AcDbCircle
 10
0.0000000000000699
 20
-0.0000000000000265
 30
0.0
 40
15.353188158879
100
AcDbArc
 50
294.6661004141936
 51
65.33374515691979
  0
INSERT
  5
2E66
330
260C
100
AcDbEntity
  8
AM_5
100
AcDbBlockReference
  2
_OPEN30
 10
5.251099576076498
 20
-14.42727763245973
 30
0.0
 41
1.25
 42
1.25
 43
1.25
 50
202.33305013059
  0
INSERT
  5
2E67
330
260C
100
AcDbEntity
  8
AM_5
100
AcDbBlockReference
  2
_OPEN30
 10
5.251138461791055
 20
14.42726347915781
 30
0.0
 41
1.25
 42
1.25
 43
1.25
 50
157.6667954405233
  0
MTEXT
  5
2E68
330
260C
100
AcDbEntity
  8
AM_5
 62
     2
100
AcDbMText
 10
13.80318815886653
 20
-0.0000186018149914
 30
0.0
 40
1.6
 41
0.0
 71
     5
 72
     1
  1
140°
  7
ASAMI
 11
0.0000013476462646
 21
0.9999999999990919
 31
0.0
1001
ACAD
1000
MTEXTBEGIN
1070
    73
1070
     1
1070
    44
1040
1.0
1070
    74
1070
     0
1000
MTEXTEND
  0
POINT
  5
2E69
330
260C
100
AcDbEntity
  8
DEFPOINTS
 62
     0
100
AcDbPoint
 10
14.09753919059091
 20
-6.081099852140065
 30
0.0
  0
POINT
  5
2E6A
330
260C
100
AcDbEntity
  8
DEFPOINTS
 62
     0
100
AcDbPoint
 10
0.000000000000071
 20
-0.0000000000000234
 30
0.0
  0
POINT
  5
2E6B
330
260C
100
AcDbEntity
  8
DEFPOINTS
 62
     0
100
AcDbPoint
 10
0.0000000000000727
 20
-0.0000000000000344
 30
0.0
  0
POINT
  5
2E6C
330
260C
100
AcDbEntity
  8
DEFPOINTS
 62
     0
100
AcDbPoint
 10
-0.2203534757973607
 20
0.6054162040824024
 30
0.0
  0
POINT
  5
2E6D
330
260C
100
AcDbEntity
  8
DEFPOINTS
 62
     0
100
AcDbPoint
 10
-0.2203570834776433
 20
-0.6054210388784097
 30
0.0
  0
ENDBLK
  5
261D
330
260C
100
AcDbEntity
  8
0
100
AcDbBlockEnd
  0
ENDSEC
  0
SECTION
  2
ENTITIES
  0
LINE
  5
C1D
330
1F
100
AcDbEntity
  8
AM_0
 48
0.5
100
AcDbLine
 10
0.0000000000000744
 20
-0.0000000000000352
 30
0.0
 11
-0.2252502197039687
 21
0.6188698975064558
 31
0.0
  0
LINE
  5
C20
330
1F
100
AcDbEntity
  8
AM_0
 48
0.5
100
AcDbLine
 10
0.0000000000000726
 20
-0.0000000000000239
 30
0.0
 11
-0.2252539075549244
 21
-0.6188748397423744
 31
0.0
  0
LINE
  5
C30
330
1F
100
AcDbEntity
  8
AM_0
 48
0.5
100
AcDbLine
 10
-80.99999999999992
 20
-2.250000000000054
 30
0.0
 11
-80.99999999999988
 21
2.249999999999945
 31
0.0
  0
LINE
  5
C9F
330
1F
100
AcDbEntity
  8
AM_7
100
AcDbLine
 10
-82.2499999999999
 20
-0.0000000000000553
 30
0.0
 11
1.204573799195893
 21
0.0000000000000008
 31
0.0
1001
GENIUS_GENODEF_13
1002
{
1000
HIER
1070
     0
1002
}
1002
{
1000
MANEDIT
1070
     0
1002
}
1002
{
1000
NOSEL
1070
     0
1002
}
1002
{
1000
BEHIND
1070
     0
1002
}
1002
{
1000
REACTOR
1002
}
1001
GENIUS_GENOBJ-N-CEN_13
1002
{
1000
OWNER
1000
GEN
1002
}
  0
DIMENSION
  5
CC6
330
1F
100
AcDbEntity
  8
AM_5
100
AcDbDimension
  2
*D5
 10
-0.9999999999999888
 20
-14.50000099999995
 30
0.0
 11
-40.99999999999995
 21
-12.80000099999995
 31
0.0
 70
    32
  1
<>
  3
AM_JIS$0
100
AcDbAlignedDimension
 13
-80.99999999999992
 23
-2.352702618522132
 33
0.0
 14
-0.9999999999999879
 24
-2.449999551668753
 34
0.0
 50
0.0000000000001132
100
AcDbRotatedDimension
1001
GENIUS_GENDTOL_13
1000

1000
h7
1000

1040
0.0
1001
ACAD
1000
DSTYLE
1002
{
1070
   271
1070
     0
1002
}
  0
DIMENSION
  5
DF5
330
1F
100
AcDbEntity
  8
AM_5
100
AcDbDimension
  2
*D6
 10
-0.9999999999999712
 20
-9.500000999999915
 30
0.0
 11
-15.99999999999994
 21
-7.800000999999915
 31
0.0
 70
    32
  1
<>
  3
AM_JIS$0
100
AcDbAlignedDimension
 13
-30.99999999999991
 23
-2.500000000000035
 33
0.0
 14
-0.9999999999999706
 24
-2.449999551668712
 34
0.0
 50
0.0000000000001527
100
AcDbRotatedDimension
1001
GENIUS_GENDTOL_13
1000

1000
h7
1000

1040
0.0
1001
ACAD
1000
DSTYLE
1002
{
1070
   271
1070
     0
1002
}
  0
ARC
  5
144A
330
1F
100
AcDbEntity
  8
AM_11
 48
0.5
100
AcDbCircle
 10
-40.36613718668319
 20
-11.04241155161759
 30
0.0
 40
12.20908006032291
100
AcDbArc
 50
64.74833051131179
 51
115.2516644797366
  0
ARC
  5
144B
330
1F
100
AcDbEntity
  8
AM_11
 48
0.5
100
AcDbCircle
 10
-40.36613718668318
 20
11.0424190503924
 30
0.0
 40
12.20908006032291
100
AcDbArc
 50
244.7482808787518
 51
295.2516148471758
  0
ARC
  5
144E
330
1F
100
AcDbEntity
  8
AM_11
 48
0.5
100
AcDbCircle
 10
-29.94947052001652
 20
-11.04241155161759
 30
0.0
 40
12.20908006032291
100
AcDbArc
 50
64.74833051131179
 51
115.2516644797366
  0
ARC
  5
144F
330
1F
100
AcDbEntity
  8
AM_11
 48
0.5
100
AcDbCircle
 10
-29.94947052001652
 20
11.0424190503924
 30
0.0
 40
12.20908006032291
100
AcDbArc
 50
244.7482808787518
 51
295.2516148471758
  0
ARC
  5
1450
330
1F
100
AcDbEntity
  8
AM_11
 48
0.5
100
AcDbCircle
 10
-19.53280385335277
 20
11.0424190503924
 30
0.0
 40
12.20908006032291
100
AcDbArc
 50
244.7482808787518
 51
295.2516148471758
  0
ARC
  5
1451
330
1F
100
AcDbEntity
  8
AM_11
 48
0.5
100
AcDbCircle
 10
-19.53280385335277
 20
-11.04241155161759
 30
0.0
 40
12.20908006032291
100
AcDbArc
 50
64.74833051131179
 51
115.2516644797366
  0
ARC
  5
1452
330
1F
100
AcDbEntity
  8
AM_11
 48
0.5
100
AcDbCircle
 10
-9.116137186686112
 20
-11.04241155161759
 30
0.0
 40
12.20908006032291
100
AcDbArc
 50
64.74833051131179
 51
115.2516644797366
  0
ARC
  5
1453
330
1F
100
AcDbEntity
  8
AM_11
 48
0.5
100
AcDbCircle
 10
-9.116137186686112
 20
11.0424190503924
 30
0.0
 40
12.20908006032291
100
AcDbArc
 50
244.7482808787518
 51
295.2516148471758
  0
ARC
  5
1454
330
1F
100
AcDbEntity
  8
AM_11
 48
0.5
100
AcDbCircle
 10
1.329430135091246
 20
11.28780614040112
 30
0.0
 40
12.48039295055231
100
AcDbArc
 50
244.7482808787518
 51
254.0147302238188
  0
TEXT
  5
19BD
330
1F
100
AcDbEntity
  8
AM_6
100
AcDbText
 10
-52.24999999999988
 20
-25.75000099999998
 30
0.0
 40
2.5
  1
MDW049MHK
 50
0.0000000000001527
 72
     4
 11
-40.99999999999988
 21
-24.50000099999995
 31
0.0
100
AcDbText
  0
LINE
  5
1CF0
330
1F
100
AcDbEntity
  8
AM_0
100
AcDbLine
 10
-80.74999999999988
 20
2.499999999999945
 30
0.0
 11
-30.99999999999989
 21
2.499999999999963
 31
0.0
1001
GENIUS_GENODEF_13
1002
{
1000
HIER
1070
     0
1002
}
1002
{
1000
MANEDIT
1070
     0
1002
}
1002
{
1000
NOSEL
1070
     0
1002
}
1002
{
1000
BEHIND
1070
     0
1002
}
1002
{
1000
REACTOR
1002
}
1001
GENIUS_GENOBJ-N-CEN_13
1002
{
1000
OWNER
1000
GEN
1002
}
  0
LINE
  5
1CF4
330
1F
100
AcDbEntity
  8
AM_0
100
AcDbLine
 10
-80.74999999999992
 20
-2.500000000000054
 30
0.0
 11
-30.99999999999991
 21
-2.500000000000035
 31
0.0
1001
GENIUS_GENODEF_13
1002
{
1000
HIER
1070
     0
1002
}
1002
{
1000
MANEDIT
1070
     0
1002
}
1002
{
1000
NOSEL
1070
     0
1002
}
1002
{
1000
BEHIND
1070
     0
1002
}
1002
{
1000
REACTOR
1002
}
1001
GENIUS_GENOBJ-N-CEN_13
1002
{
1000
OWNER
1000
GEN
1002
}
  0
LINE
  5
1CFE
330
1F
100
AcDbEntity
  8
AM_0
100
AcDbLine
 10
-80.74999999999992
 20
-2.500000000000054
 30
0.0
 11
-80.7499999999999
 21
2.499999999999945
 31
0.0
  0
ARC
  5
1DAB
330
1F
100
AcDbEntity
  8
AM_11
 48
0.5
100
AcDbCircle
 10
-50.78278106749326
 20
-11.04241155161762
 30
0.0
 40
12.20908006032291
100
AcDbArc
 50
64.74833051131179
 51
115.2516644797366
  0
ARC
  5
1DAC
330
1F
100
AcDbEntity
  8
AM_11
 48
0.5
100
AcDbCircle
 10
-50.78278106749325
 20
11.04241905039237
 30
0.0
 40
12.20908006032291
100
AcDbArc
 50
244.7482808787518
 51
295.2516148471758
  0
ARC
  5
1DAD
330
1F
100
AcDbEntity
  8
AM_11
 48
0.5
100
AcDbCircle
 10
-61.19942494830334
 20
-11.04241155161765
 30
0.0
 40
12.20908006032291
100
AcDbArc
 50
64.74833051131179
 51
115.2516644797366
  0
ARC
  5
1DAE
330
1F
100
AcDbEntity
  8
AM_11
 48
0.5
100
AcDbCircle
 10
-61.19942494830333
 20
11.04241905039234
 30
0.0
 40
12.20908006032291
100
AcDbArc
 50
244.7482808787518
 51
295.2516148471758
  0
ARC
  5
1DAF
330
1F
100
AcDbEntity
  8
AM_11
 48
0.5
100
AcDbCircle
 10
-71.61606882911342
 20
-11.04241155161768
 30
0.0
 40
12.20908006032291
100
AcDbArc
 50
64.74833051131179
 51
115.2516644797366
  0
ARC
  5
1DB0
330
1F
100
AcDbEntity
  8
AM_11
 48
0.5
100
AcDbCircle
 10
-71.6160688291134
 20
11.04241905039231
 30
0.0
 40
12.20908006032291
100
AcDbArc
 50
244.7482808787518
 51
295.2516148471758
  0
LINE
  5
1EB2
330
1F
100
AcDbEntity
  8
AM_0
100
AcDbLine
 10
-80.99999999999988
 20
2.249999999999945
 30
0.0
 11
-80.74999999999988
 21
2.499999999999945
 31
0.0
1001
GENIUS_GENFIL_13
1070
     0
1040
0.25
1040
0.25
1040
20.0
1040
0.0
1002
{
1002
}
1001
GENIUS_GENODEF_13
1002
{
1000
HIER
1070
     0
1002
}
1002
{
1000
MANEDIT
1070
     0
1002
}
1002
{
1000
NOSEL
1070
     0
1002
}
1002
{
1000
BEHIND
1070
     0
1002
}
1002
{
1000
REACTOR
1002
}
1001
GENIUS_GENOBJ-N-CHA_13
1002
{
1000
OWNER
1000
GEN
1002
}
  0
LINE
  5
1EB5
330
1F
100
AcDbEntity
  8
AM_0
100
AcDbLine
 10
-80.99999999999992
 20
-2.250000000000054
 30
0.0
 11
-80.74999999999992
 21
-2.500000000000054
 31
0.0
1001
GENIUS_GENFIL_13
1070
     0
1040
0.25
1040
0.25
1040
20.0
1040
0.0
1002
{
1002
}
1001
GENIUS_GENODEF_13
1002
{
1000
HIER
1070
     0
1002
}
1002
{
1000
MANEDIT
1070
     0
1002
}
1002
{
1000
NOSEL
1070
     0
1002
}
1002
{
1000
BEHIND
1070
     0
1002
}
1002
{
1000
REACTOR
1002
}
1001
GENIUS_GENOBJ-N-CHA_13
1002
{
1000
OWNER
1000
GEN
1002
}
  0
ARC
  5
1EBF
330
1F
100
AcDbEntity
  8
AM_11
 48
0.5
100
AcDbCircle
 10
-82.03270196212006
 20
11.04241905039229
 30
0.0
 40
12.20908006032291
100
AcDbArc
 50
274.8521466974949
 51
295.2516148471758
  0
ARC
  5
1EC0
330
1F
100
AcDbEntity
  8
AM_11
 48
0.5
100
AcDbCircle
 10
-82.03270196212008
 20
-11.04241155161771
 30
0.0
 40
12.20908006032291
100
AcDbArc
 50
64.74833051131179
 51
85.14785330250502
  0
LINE
  5
1ED3
330
1F
100
AcDbEntity
  8
AM_0
 48
0.5
100
AcDbLine
 10
-30.99999999999992
 20
-2.49999999999998
 30
0.0
 11
-30.99999999999989
 21
2.500000000000019
 31
0.0
  0
LINE
  5
1FDE
330
1F
100
AcDbEntity
  8
AM_0
100
AcDbLine
 10
-30.99999999999992
 20
-2.49999999999998
 30
0.0
 11
-30.9134029857446
 21
-2.450003190508653
 31
0.0
  0
LINE
  5
1FDF
330
1F
100
AcDbEntity
  8
AM_0
100
AcDbLine
 10
-30.99999999999989
 20
2.500000000000019
 30
0.0
 11
-30.91339814070628
 21
2.450000393224533
 31
0.0
  0
DIMENSION
  5
218E
330
1F
100
AcDbEntity
  8
AM_5
100
AcDbDimension
  2
*D7
 10
-89.25000099999989
 20
-2.500000000000051
 30
0.0
 11
-89.25000099999989
 21
-0.0000000000000592
 31
0.0
 70
   160
  1
%%c<>
 51
359.9999999999998
  3
AM_JIS$0
100
AcDbAlignedDimension
 13
-80.74999999999988
 23
2.499999999999945
 33
0.0
 14
-80.7499999999997
 24
-2.500000000000054
 34
0.0
 50
270.0000000000001
100
AcDbRotatedDimension
1001
ACAD
1000
DSTYLE
1002
{
1070
   271
1070
     0
1002
}
1001
GENIUS_GENDTOL_13
1000

1000
h7
1000

1040
0.0
  0
DIMENSION
  5
245D
330
1F
100
AcDbEntity
  8
AM_5
100
AcDbDimension
  2
*D8
 10
8.204574799195889
 20
2.450000448331182
 30
0.0
 11
8.204574799195889
 21
8.504762353093088
 31
0.0
 70
   160
  1
%%c<>
  3
AM_JIS$0
100
AcDbAlignedDimension
 13
-0.9999999999999706
 23
-2.449999551668753
 33
0.0
 14
-0.9999999999998967
 24
2.450000448331184
 34
0.0
 50
89.99999999999955
100
AcDbRotatedDimension
1001
ACAD
1000
DSTYLE
1002
{
1070
   271
1070
     1
1002
}
1001
GENIUS_GENDTOL_13
1000

1000
h7
1000

1040
0.0
  0
LINE
  5
2470
330
1F
100
AcDbEntity
  8
AM_0
 48
0.5
100
AcDbLine
 10
-0.8387091217633459
 20
1.817767319807037
 30
0.0
 11
-0.9999999999998967
 21
2.450000448331184
 31
0.0
  0
ELLIPSE
  5
249A
330
1F
100
AcDbEntity
  8
AM_0
 48
0.5
100
AcDbEllipse
 10
3.601361017861301
 20
2.716816435179741
 30
0.0
 11
4.468720943217904
 21
0.7542603640199949
 31
0.0
210
0.0
220
0.0
230
0.9999999999999998
 40
0.7605565264725771
 41
3.184410165628205
 42
3.569980850929193
  0
LINE
  5
24A9
330
1F
100
AcDbEntity
  8
AM_0
100
AcDbLine
 10
-30.9134029857446
 20
-2.450003190508655
 30
0.0
 11
-30.91340453881342
 21
2.450004087173413
 31
0.0
  0
ELLIPSE
  5
25FC
330
1F
100
AcDbEntity
  8
AM_0
 48
0.5
100
AcDbEllipse
 10
3.601361017861305
 20
-2.716816435179737
 30
0.0
 11
4.468720943217904
 21
-0.7542603640199887
 31
0.0
210
0.0
220
0.0
230
-1.0
 40
0.7605565264725771
 41
3.184410165628205
 42
3.569980850929193
  0
LINE
  5
25FD
330
1F
100
AcDbEntity
  8
AM_0
 48
0.5
100
AcDbLine
 10
-0.8387091217633432
 20
-1.817767319807038
 30
0.0
 11
-0.9999999999999706
 21
-2.449999551668753
 31
0.0
  0
DIMENSION
  5
260B
330
1F
100
AcDbEntity
  8
AM_5
100
AcDbDimension
  2
*D9
 10
-0.2203570834776434
 20
-0.6054210388784098
 30
0.0
 11
13.80318815886653
 21
-0.0000186018150216
 31
0.0
 70
    34
  1
<>
 51
359.9999999999998
  3
AM_JIS$2
100
AcDb2LineAngularDimension
 13
0.0000000000000727
 23
-0.0000000000000344
 33
0.0
 14
-0.2203534757973608
 24
0.6054162040824024
 34
0.0
 15
0.000000000000071
 25
-0.0000000000000234
 35
0.0
 16
14.09753919059091
 26
-6.081099852140065
 36
0.0
1001
ACAD
1000
DSTYLE
1002
{
1070
   179
1070
     3
1002
}
1001
GENIUS_GENDTOL_13
1000

1000
h7
1000

1040
0.0
  0
LINE
  5
2DF4
330
1F
100
AcDbEntity
  8
AM_0
100
AcDbLine
 10
-27.59713951861249
 20
-2.450125657363525
 30
0.0
 11
-30.9134029857446
 21
-2.450003190508655
 31
0.0
  0
LINE
  5
2DF5
330
1F
100
AcDbEntity
  8
AM_0
100
AcDbLine
 10
-26.51065778064496
 20
2.450000393224518
 30
0.0
 11
-30.91339814070628
 21
2.450000393224534
 31
0.0
  0
LINE
  5
2DF6
330
1F
100
AcDbEntity
  8
AM_0
 48
0.5
100
AcDbLine
 10
-2.794454037455568
 20
2.450000393223653
 30
0.0
 11
-0.9999999999998967
 21
2.450000448331184
 31
0.0
  0
LINE
  5
2DF7
330
1F
100
AcDbEntity
  8
AM_0
 48
0.5
100
AcDbLine
 10
0.0000000000000666
 20
-0.0000000000000448
 30
0.0
 11
-1.355808154907733
 21
0.9407260291822314
 31
0.0
  0
LINE
  5
2DF8
330
1F
100
AcDbEntity
  8
AM_0
 48
0.5
100
AcDbLine
 10
-2.794454037455735
 20
-2.449999551668772
 30
0.0
 11
-0.999999999999915
 21
-2.449999551668813
 31
0.0
  0
LINE
  5
2DF9
330
1F
100
AcDbEntity
  8
AM_11
 48
0.5
100
AcDbLine
 10
-11.2076307883249
 20
-2.449999551668543
 30
0.0
 11
-2.794459783333484
 21
-2.449999551668767
 31
0.0
  0
LINE
  5
2DFA
330
1F
100
AcDbEntity
  8
AM_11
 48
0.5
100
AcDbLine
 10
-11.38729959149905
 20
-2.449999606775945
 30
0.0
 11
-2.794454037455735
 21
-2.449999606776346
 31
0.0
  0
LINE
  5
2DFB
330
1F
100
AcDbEntity
  8
AM_11
 48
0.5
100
AcDbLine
 10
-11.38729959149885
 20
2.450000393224045
 30
0.0
 11
-2.794454037455568
 21
2.450000393223653
 31
0.0
  0
LINE
  5
2DFC
330
1F
100
AcDbEntity
  8
AM_11
 48
0.5
100
AcDbLine
 10
-11.20763078832478
 20
2.450000448331455
 30
0.0
 11
-2.794454037455568
 21
2.450000393223653
 31
0.0
  0
LINE
  5
2DFD
330
1F
100
AcDbEntity
  8
AM_0
 48
0.5
100
AcDbLine
 10
-22.2790795075009
 20
1.166704280125226
 30
0.0
 11
-28.49999999999992
 21
-0.1982688216803345
 31
0.0
  0
LINE
  5
2DFE
330
1F
100
AcDbEntity
  8
AM_11
100
AcDbLine
 10
-21.02897610810755
 20
2.450000393224494
 30
0.0
 11
-26.51065778064496
 21
2.450000393224518
 31
0.0
  0
LINE
  5
2DFF
330
1F
100
AcDbEntity
  8
AM_11
 48
0.5
100
AcDbLine
 10
-27.59713951861249
 20
-2.450125657363525
 30
0.0
 11
-21.19993841403847
 21
-2.449974723025249
 31
0.0
  0
LINE
  5
2E00
330
1F
100
AcDbEntity
  8
AM_0
 48
0.5
100
AcDbLine
 10
-21.11353794169551
 20
-2.450125657363796
 30
0.0
 11
-11.38729959149905
 21
-2.449999606775945
 31
0.0
  0
LINE
  5
2E01
330
1F
100
AcDbEntity
  8
AM_0
 48
0.5
100
AcDbLine
 10
-21.0290120791257
 20
2.450000393224494
 30
0.0
 11
-11.38729959149885
 21
2.450000393224045
 31
0.0
  0
SPLINE
  5
2E02
330
1F
100
AcDbEntity
  8
AM_0
 48
0.5
100
AcDbSpline
210
0.0
220
0.0
230
1.0
 70
     8
 71
     3
 72
    10
 73
     6
 74
     0
 42
0.0000000001
 43
0.0000000001
 40
0.0
 40
0.0
 40
0.0
 40
0.0
 40
2.69986029516136
 40
4.147722969032201
 40
6.285750005020438
 40
6.285750005020438
 40
6.285750005020438
 40
6.285750005020438
 10
-3.32644929231819
 20
0.4434664330082314
 30
0.0
 10
-2.597068152465939
 20
0.2158154585792069
 30
0.0
 10
-2.126133522754273
 20
-0.1338740087237974
 30
0.0
 10
-1.012436385273579
 20
0.0354167884402101
 30
0.0
 10
-1.222177950139639
 20
0.6056105937953441
 30
0.0
 10
-1.360761775265389
 20
0.9531612796558261
 30
0.0
  0
ELLIPSE
  5
2E03
330
1F
100
AcDbEntity
  8
AM_0
 48
0.5
100
AcDbEllipse
 10
2.551140057599208
 20
-0.5446008013635768
 30
0.0
 11
4.05015235505051
 21
0.5422045077322775
 31
0.0
210
0.0
220
0.0
230
1.0
 40
0.9026684925027808
 41
3.12929700648538
 42
3.535995217680036
  0
SPLINE
  5
2E04
330
1F
100
AcDbEntity
  8
AM_0
100
AcDbSpline
210
0.0
220
0.0
230
1.0
 70
     8
 71
     3
 72
    22
 73
    18
 74
     0
 42
0.0000000001
 43
0.0000000001
 40
17.17441611292
 40
17.17441611292
 40
17.17441611292
 40
17.17441611292
 40
17.38177636558528
 40
18.41823744757437
 40
19.46215659509824
 40
20.51397914882054
 40
21.57394542641293
 40
22.64209583141747
 40
23.71826625065247
 40
24.80210429862395
 40
25.8930771157021
 40
26.99048705697709
 40
28.09349309193389
 40
29.20112995599786
 40
30.31233024745139
 40
31.42594771747373
 40
32.5407895042663
 40
32.54078950426994
 40
32.54078950426994
 40
32.54078950426994
 10
-13.12835432744245
 20
-2.200117339016053
 30
0.0
 10
-13.15889932908613
 20
-2.194445829316391
 30
0.0
 10
-13.34199993234302
 20
-2.159900043824439
 30
0.0
 10
-13.67742991983173
 20
-2.090631247678989
 30
0.0
 10
-14.1333784046458
 20
-1.983578949546232
 30
0.0
 10
-14.58928042926635
 20
-1.864301959101084
 30
0.0
 10
-15.04513921233611
 20
-1.733544832892995
 30
0.0
 10
-15.50095415169736
 20
-1.592109305432483
 30
0.0
 10
-15.95673085790341
 20
-1.440875595363509
 30
0.0
 10
-16.41247144132856
 20
-1.280773136408609
 30
0.0
 10
-16.86818011865693
 20
-1.112789271659559
 30
0.0
 10
-17.32386195708006
 20
-0.9379603551591022
 30
0.0
 10
-17.77952091164135
 20
-0.7573614152017615
 30
0.0
 10
-18.23516156928497
 20
-0.572103526983709
 30
0.0
 10
-18.69078796886869
 20
-0.3833258168176161
 30
0.0
 10
-19.14640686010143
 20
-0.1921931452110631
 30
0.0
 10
-19.45009316590185
 20
-0.0640045166949985
 30
0.0
 10
-19.60201974361666
 20
0.0001250066687568
 30
0.0
  0
SPLINE
  5
2E05
330
1F
100
AcDbEntity
  8
AM_0
100
AcDbSpline
210
0.0
220
0.0
230
1.0
 70
     8
 71
     3
 72
    46
 73
    42
 74
     0
 42
0.0000000001
 43
0.0000000001
 40
0.0
 40
0.0
 40
0.0
 40
0.0
 40
0.5056245176053715
 40
0.759310862862336
 40
1.013969309739036
 40
1.269880374404297
 40
1.527291183660732
 40
1.786406454158005
 40
2.047386241038974
 40
2.310345544571907
 40
2.575337113970003
 40
2.842374715221223
 40
3.111417320030211
 40
3.382376832022752
 40
3.655120036292296
 40
3.929472521611371
 40
4.205224030350333
 40
4.482133246366229
 40
4.759933319229942
 40
5.038338087391601
 40
5.317048131389549
 40
5.595758175387723
 40
5.874162943549383
 40
6.151963016412869
 40
6.428872232428759
 40
6.704623741167955
 40
6.978976226486705
 40
7.251719430756336
 40
7.522680721168327
 40
7.791723325977311
 40
8.058760927228529
 40
8.32375249662655
 40
8.586708135057122
 40
8.84768792193809
 40
9.106803192435362
 40
9.364213819003406
 40
9.620125035580644
 40
9.87478726697307
 40
10.12847352585208
 40
10.38149610319407
 40
10.63418200686337
 40
10.63418200686337
 40
10.63418200686337
 40
10.63418200686337
 10
-1.5175210791622
 20
-2.449999606776402
 30
0.0
 10
-1.821715194572235
 20
-2.444418317389152
 30
0.0
 10
-2.278532236086668
 20
-2.436036734785937
 30
0.0
 10
-2.885981777174189
 20
-2.384432870476674
 30
0.0
 10
-3.342097159343435
 20
-2.332402448016527
 30
0.0
 10
-3.798173554505535
 20
-2.26560422377138
 30
0.0
 10
-4.254209761199101
 20
-2.184926437923939
 30
0.0
 10
-4.710203436676687
 20
-2.0907547990216
 30
0.0
 10
-5.16615381721743
 20
-1.983702775512036
 30
0.0
 10
-5.622058873681043
 20
-1.8644276826667
 30
0.0
 10
-6.077919517312445
 20
-1.733669308843786
 30
0.0
 10
-6.533734521985095
 20
-1.592233956089392
 30
0.0
 10
-6.989511210610913
 20
-1.441000198909101
 30
0.0
 10
-7.445251798355704
 20
-1.280897751850809
 30
0.0
 10
-7.900960476179202
 20
-1.112913887132962
 30
0.0
 10
-8.35664230820382
 20
-0.9380849583870139
 30
0.0
 10
-8.812301288048152
 20
-0.7574860677472208
 30
0.0
 10
-9.267941850423751
 20
-0.572227993458314
 30
0.0
 10
-9.723568826419468
 20
-0.3834508904138448
 30
0.0
 10
-10.17918637821753
 20
-0.1923156050988568
 30
0.0
 10
-10.63480010001396
 20
0.0000003931851041
 30
0.0
 10
-11.09041382171034
 20
0.1923163917027693
 30
0.0
 10
-11.54603137380864
 20
0.3834516763169973
 30
0.0
 10
-12.00165834870696
 20
0.5722287819224552
 30
0.0
 10
-12.45729891515169
 20
0.7574868467135693
 30
0.0
 10
-12.91295787990809
 20
0.9380857725701734
 30
0.0
 10
-13.36863976780855
 20
1.112914570895904
 30
0.0
 10
-13.82434922963932
 20
1.280899283229079
 30
0.0
 10
-14.28009158817217
 20
1.441000275675484
 30
0.0
 10
-14.73586908983373
 20
1.592234808330684
 30
0.0
 10
-15.19168408389372
 20
1.733670203169622
 30
0.0
 10
-15.64754285490138
 20
1.864427375434825
 30
0.0
 10
-16.10344487376336
 20
1.983704313364822
 30
0.0
 10
-16.55939339314524
 20
2.090756774193616
 30
0.0
 10
-17.01538680471764
 20
2.184922251892927
 30
0.0
 10
-17.47142334574903
 20
2.265623437477471
 30
0.0
 10
-17.92750265162588
 20
2.332326273001863
 30
0.0
 10
-18.38361568354821
 20
2.384722979943298
 30
0.0
 10
-18.83975693496185
 20
2.422105271338732
 30
0.0
 10
-19.29591474396363
 20
2.445628514153461
 30
0.0
 10
-19.60009412504718
 20
2.448543747136211
 30
0.0
 10
-19.75208256240335
 20
2.450000393224439
 30
0.0
  0
SPLINE
  5
2E06
330
1F
100
AcDbEntity
  8
AM_0
100
AcDbSpline
210
0.0
220
0.0
230
1.0
 70
     8
 71
     3
 72
    55
 73
    51
 74
     0
 42
0.0000000001
 43
0.0000000001
 40
0.0
 40
0.0
 40
0.0
 40
0.0
 40
1.010743684496582
 40
2.022833576467832
 40
3.037578957496688
 40
4.056212745003489
 40
5.079857003664532
 40
6.109500240690281
 40
7.145961322679372
 40
8.189895241603872
 40
9.241717795325891
 40
10.30168407291828
 40
11.36983447792315
 40
12.44600489715814
 40
13.52984294512926
 40
14.62081576220742
 40
15.7182257034828
 40
16.82123173843959
 40
17.92886860250316
 40
19.0400688939571
 40
20.15368796660465
 40
21.26852814259644
 40
22.38336992938901
 40
23.49698739941135
 40
24.6081876908653
 40
25.71582455492886
 40
26.81883757994213
 40
27.91624752121713
 40
29.00722033829659
 40
30.09105838626677
 40
31.16722880550176
 40
32.23537921050758
 40
33.29534548809967
 40
34.347168041821
 40
35.39108718934584
 40
36.42754827133493
 40
37.45720575381954
 40
38.48085062012849
 40
39.49948440763516
 40
40.51422944315121
 40
41.52631975251916
 40
42.53706336719636
 40
43.54780698187354
 40
44.55989729124051
 40
45.57464232675757
 40
46.59327611426424
 40
47.6169209805722
 40
48.64656348684535
 40
49.68302456883444
 40
50.58557219878025
 40
50.58557219878025
 40
50.58557219878025
 40
50.58557219878025
 10
-2.794454037455735
 20
-2.449999606776338
 30
0.0
 10
-2.946442447775389
 20
-2.448541916131205
 30
0.0
 10
-3.250621701471855
 20
-2.445624593345736
 30
0.0
 10
-3.706779885388217
 20
-2.422107696588934
 30
0.0
 10
-4.16291859763164
 20
-2.384721974044456
 30
0.0
 10
-4.619029079366998
 20
-2.332324462012288
 30
0.0
 10
-5.075106779329699
 20
-2.265625247240063
 30
0.0
 10
-5.531142700126447
 20
-2.184920930506619
 30
0.0
 10
-5.987138367177143
 20
-2.090755164854942
 30
0.0
 10
-6.443089736721797
 20
-1.983704576379023
 30
0.0
 10
-6.898993702900604
 20
-1.86442644919798
 30
0.0
 10
-7.354852538142802
 20
-1.733669479786193
 30
0.0
 10
-7.810667463329235
 20
-1.592233909760586
 30
0.0
 10
-8.266444173502344
 20
-1.441000211471633
 30
0.0
 10
-8.722184755377609
 20
-1.280897748398111
 30
0.0
 10
-9.177893434918034
 20
-1.112913888264213
 30
0.0
 10
-9.633575265994533
 20
-0.9380849573375694
 30
0.0
 10
-10.08923424791414
 20
-0.7574860708257045
 30
0.0
 10
-10.54487480289922
 20
-0.5722279821353889
 30
0.0
 10
-11.00050180649726
 20
-0.3834509327927307
 30
0.0
 10
-11.4561192549909
 20
-0.1923154465165402
 30
0.0
 10
-11.91173358240419
 20
-0.0000001066649205
 30
0.0
 10
-12.36734586449038
 20
0.1923186949826601
 30
0.0
 10
-12.82296484011438
 20
0.3834512047737765
 30
0.0
 10
-13.27859128123481
 20
0.5722288255338102
 30
0.0
 10
-13.73423264862196
 20
0.7574876199748718
 30
0.0
 10
-14.1898935208336
 20
0.9380849652241165
 30
0.0
 10
-14.64557607109643
 20
1.112914782776704
 30
0.0
 10
-15.10128481642601
 20
1.280898506692997
 30
0.0
 10
-15.55702538171835
 20
1.441001003435476
 30
0.0
 10
-16.01280209305848
 20
1.592234701945659
 30
0.0
 10
-16.46861702985491
 20
1.733670238151896
 30
0.0
 10
-16.92447581804749
 20
1.864427341078575
 30
0.0
 10
-17.38037782491853
 20
1.98370441503528
 30
0.0
 10
-17.83632637493062
 20
2.090756405606826
 30
0.0
 10
-18.29232187283059
 20
2.184924064813581
 30
0.0
 10
-18.74836104987664
 20
2.265619163993752
 30
0.0
 10
-19.20444025659119
 20
2.332339023582953
 30
0.0
 10
-19.66055087353811
 20
2.384674425127693
 30
0.0
 10
-20.11668990272055
 20
2.42228717754619
 30
0.0
 10
-20.57284769986912
 20
2.444951641245778
 30
0.0
 10
-21.02901552080866
 20
2.452523088622217
 30
0.0
 10
-21.48518334107702
 20
2.444951641233944
 30
0.0
 10
-21.94134114024306
 20
2.422287177593892
 30
0.0
 10
-22.39748016199776
 20
2.384674424948326
 30
0.0
 10
-22.85359080679314
 20
2.332339024257538
 30
0.0
 10
-23.30966768534176
 20
2.265619486727949
 30
0.0
 10
-23.76570506576704
 20
2.184924889877593
 30
0.0
 10
-24.2009674379663
 20
2.095031021155992
 30
0.0
 10
-24.48337062195797
 20
2.029290785132595
 30
0.0
 10
-24.61438923968209
 20
1.997252361116544
 30
0.0
  0
SPLINE
  5
2E07
330
1F
100
AcDbEntity
  8
AM_0
 48
0.5
100
AcDbSpline
210
0.0
220
0.0
230
1.0
 70
     8
 71
     3
 72
    26
 73
    22
 74
     0
 42
0.0000000001
 43
0.0000000001
 40
0.0
 40
0.0
 40
0.0
 40
0.0
 40
0.2526859211241313
 40
0.5057083941171959
 40
0.7593947393741639
 40
1.01405318625086
 40
1.26996425091637
 40
1.527375060172565
 40
1.786490330669834
 40
2.047470117551047
 40
2.310425755981314
 40
2.575417325379407
 40
2.842456731169063
 40
3.111495753801943
 40
3.382458822635121
 40
3.655202026904655
 40
3.929554512223505
 40
4.205306020962704
 40
4.482215236978595
 40
4.76001530984208
 40
5.029821427366006
 40
5.029821427366006
 40
5.029821427366006
 40
5.029821427366006
 10
-19.85248853671639
 20
-2.450125657363854
 30
0.0
 10
-20.00447694705433
 20
-2.448667966782248
 30
0.0
 10
-20.30865620078755
 20
-2.445750644123885
 30
0.0
 10
-20.76481438442891
 20
-2.422233746411885
 30
0.0
 10
-21.22095309772153
 20
-2.384848027512213
 30
0.0
 10
-21.67706357551308
 20
-2.332450501779415
 30
0.0
 10
-22.13314129030605
 20
-2.265751338527094
 30
0.0
 10
-22.58917715526319
 20
-2.185046827808688
 30
0.0
 10
-23.04517086700406
 20
-2.090882240612149
 30
0.0
 10
-23.5011193156616
 20
-1.983829485215025
 30
0.0
 10
-23.95702142332953
 20
-1.864552806078028
 30
0.0
 10
-24.41288094209927
 20
-1.733794591173195
 30
0.0
 10
-24.86869598303786
 20
-1.592362230329704
 30
0.0
 10
-25.32447171065797
 20
-1.441123304720479
 30
0.0
 10
-25.78021421899536
 20
-1.281025460027424
 30
0.0
 10
-26.23592449273822
 20
-1.113039891034199
 30
0.0
 10
-26.69160592896719
 20
-0.9382102536284115
 30
0.0
 10
-27.1472668957358
 20
-0.7576152089268764
 30
0.0
 10
-27.6028998627407
 20
-0.5723423746037186
 30
0.0
 10
-28.05385248925691
 20
-0.3855685143108323
 30
0.0
 10
-28.35262557092636
 20
-0.2600925248244597
 30
0.0
 10
-28.49999999999992
 20
-0.1982688216803303
 30
0.0
  0
SPLINE
  5
2E08
330
1F
100
AcDbEntity
  8
AM_0
 48
0.5
100
AcDbSpline
210
0.0
220
0.0
230
1.0
 70
     8
 71
     3
 72
    22
 73
    18
 74
     0
 42
0.0000000001
 43
0.0000000001
 40
0.0
 40
0.0
 40
0.0
 40
0.0
 40
1.010743684496582
 40
2.022833993863546
 40
3.037578683882831
 40
4.056212471389632
 40
5.079857945358201
 40
6.109499720892564
 40
7.145961650132166
 40
8.189873411961459
 40
9.241710626092514
 40
10.30166235592959
 40
11.36982472628033
 40
12.44598212828784
 40
13.52983440361964
 40
14.62080578343036
 40
14.90544694398022
 40
14.90544694398022
 40
14.90544694398022
 40
14.90544694398022
 10
-21.11353794169551
 20
-2.450125657363796
 30
0.0
 10
-21.28140993437197
 20
-2.448668402206701
 30
0.0
 10
-21.58558930895689
 20
-2.445751950375539
 30
0.0
 10
-22.04174701490514
 20
-2.422228502716462
 30
0.0
 10
-22.49788622073889
 20
-2.384849074191481
 30
0.0
 10
-22.95399694500415
 20
-2.33245151385638
 30
0.0
 10
-23.41007340276294
 20
-2.265746076337604
 30
0.0
 10
-23.86611083608913
 20
-2.185048543491252
 30
0.0
 10
-24.32210256241575
 20
-2.090880534450403
 30
0.0
 10
-24.778051717301
 20
-1.983826229148858
 30
0.0
 10
-25.23395419425176
 20
-1.864554056771847
 30
0.0
 10
-25.68981237576949
 20
-1.733789921195691
 30
0.0
 10
-26.14562920046459
 20
-1.592365934401156
 30
0.0
 10
-26.6014043259651
 20
-1.441122856002798
 30
0.0
 10
-27.05714629068112
 20
-1.281024172885833
 30
0.0
 10
-27.39966822643138
 20
-1.154769039211266
 30
0.0
 10
-27.59053340180394
 20
-1.082605663164979
 30
0.0
 10
-27.56298019488503
 20
-1.093090708071678
 30
0.0
  0
ELLIPSE
  5
2E09
330
1F
100
AcDbEntity
  8
AM_0
 48
0.5
100
AcDbEllipse
 10
-27.82358186934284
 20
-1.65834118012957
 30
0.0
 11
-0.676640384290736
 21
0.0000000000000954
 31
0.0
210
0.0
220
0.0
230
1.0
 40
0.9052075729148667
 41
4.31702882448319
 42
6.257553905069473
  0
SPLINE
  5
2E0A
330
1F
100
AcDbEntity
  8
AM_0
100
AcDbSpline
210
0.0
220
0.0
230
1.0
 70
     8
 71
     3
 72
    11
 73
     7
 74
     0
 42
0.0000000001
 43
0.0000000001
 40
11.27226913003534
 40
11.27226913003534
 40
11.27226913003534
 40
11.2722691300354
 40
12.28301561507924
 40
13.29510212255852
 40
14.30984805882082
 40
15.18258238371378
 40
15.18258238371378
 40
15.18258238371378
 40
15.18258238371378
 10
-11.38729959149902
 20
-2.449999606775946
 30
0.0
 10
-11.53871006505955
 20
-2.438008594810587
 30
0.0
 10
-11.84124542323572
 20
-2.408978876712612
 30
0.0
 10
-12.29348622431108
 20
-2.350418754825248
 30
0.0
 10
-12.72267071877865
 20
-2.280475110097746
 30
0.0
 10
-13.00024205717587
 20
-2.226707348739309
 30
0.0
 10
-13.12815483374595
 20
-2.200147559747323
 30
0.0
  0
SPLINE
  5
2E0B
330
1F
100
AcDbEntity
  8
AM_0
100
AcDbSpline
210
0.0
220
0.0
230
1.0
 70
     8
 71
     3
 72
    17
 73
    13
 74
     0
 42
0.0000000001
 43
0.0000000001
 40
1.580019955310467
 40
1.580019955310467
 40
1.580019955310467
 40
1.580019955310467
 40
2.030549285115227
 40
3.082371838836284
 40
4.126290986361125
 40
5.162752068350215
 40
6.192395305374981
 40
7.216039564037012
 40
8.234688489606833
 40
9.249433870634691
 40
10.26152376260694
 40
11.27226744710342
 40
11.27226744710342
 40
11.27226744710342
 40
11.27226744710352
 10
-7.090541610146823
 20
-1.808171750922529
 30
0.0
 10
-7.155080379198768
 20
-1.826794421890103
 30
0.0
 10
-7.370661550418842
 20
-1.88783271339962
 30
0.0
 10
-7.738712071584642
 20
-1.983573457620253
 30
0.0
 10
-8.194597089412814
 20
-2.090790390268862
 30
0.0
 10
-8.65060761195957
 20
-2.184912621765787
 30
0.0
 10
-9.106639028749301
 20
-2.265624068503398
 30
0.0
 10
-9.56272012934456
 20
-2.33233763152034
 30
0.0
 10
-10.01883273927435
 20
-2.384672605929089
 30
0.0
 10
-10.47497375042636
 20
-2.422289843583978
 30
0.0
 10
-10.93113192466735
 20
-2.444947197957658
 30
0.0
 10
-11.23531118318452
 20
-2.44999962079498
 30
0.0
 10
-11.38729959149899
 20
-2.449999606775946
 30
0.0
  0
SPLINE
  5
2E0C
330
1F
100
AcDbEntity
  8
AM_0
100
AcDbSpline
210
0.0
220
0.0
230
1.0
 70
     8
 71
     3
 72
    13
 73
     9
 74
     0
 42
0.0000000001
 43
0.0000000001
 40
16.03460056234195
 40
16.03460056234195
 40
16.03460056234195
 40
16.03460056234195
 40
16.35212717791071
 40
17.38177067057215
 40
18.41822498539278
 40
19.46214186516937
 40
20.5139635832251
 40
21.34083983469381
 40
21.34083983469381
 40
21.34083983469381
 40
21.34083983469381
 10
-27.5978701623847
 20
-2.450125657363467
 30
0.0
 10
-27.46872604700562
 20
-2.442077949091508
 30
0.0
 10
-27.27009291374882
 20
-2.406062068075927
 30
0.0
 10
-26.92019899064766
 20
-2.335491685824975
 30
0.0
 10
-26.46708514024107
 20
-2.230555815285153
 30
0.0
 10
-26.01439223570389
 20
-2.112729918207284
 30
0.0
 10
-25.5955023769484
 20
-1.992301276206907
 30
0.0
 10
-25.32825802367282
 20
-1.909377585728017
 30
0.0
 10
-25.21101952759861
 20
-1.871895322030746
 30
0.0
  0
ELLIPSE
  5
2E0D
330
1F
100
AcDbEntity
  8
AM_0
 48
0.5
100
AcDbEllipse
 10
-27.5978698791732
 20
-1.633458990696837
 30
0.0
 11
-0.9021871790542826
 21
0.0000000000001848
 31
0.0
210
0.0
220
0.0
230
1.0
 40
0.9052075729148965
 41
0.011246774789331
 42
1.570796012878542
  0
ELLIPSE
  5
2E0E
330
1F
100
AcDbEntity
  8
AM_0
 48
0.5
100
AcDbEllipse
 10
-0.8070402296760079
 20
-0.6385048197659308
 30
0.0
 11
-0.3712635488648899
 21
0.1999563173153354
 31
0.0
210
0.0
220
0.0
230
1.0
 40
0.489037592278387
 41
4.46034077348528
 42
7.603781114814792
  0
ELLIPSE
  5
2E0F
330
1F
100
AcDbEntity
  8
AM_0
 48
0.5
100
AcDbEllipse
 10
-0.8070402296760079
 20
-0.6385048197659308
 30
0.0
 11
-0.0761140527499154
 21
0.4017430561223863
 31
0.0
210
0.0
220
0.0
230
1.0
 40
0.5201192273297315
 41
1.795572232931261
 42
4.930914122643235
  0
ELLIPSE
  5
2E10
330
1F
100
AcDbEntity
  8
AM_0
 48
0.5
100
AcDbEllipse
 10
2.650693251593004
 20
-10.74087240490331
 30
0.0
 11
0.0000000000025578
 21
10.84778747050798
 31
0.0
210
0.0
220
0.0
230
1.0
 40
0.8553287981859911
 41
0.4036548536071722
 42
0.4643678680716917
  0
ELLIPSE
  5
2E11
330
1F
100
AcDbEntity
  8
AM_0
 48
0.5
100
AcDbEllipse
 10
-4.627552157690233
 20
4.660170096701752
 30
0.0
 11
6.711458045802472
 21
0.0008653860935103
 31
0.0
210
0.0
220
0.0
230
1.0
 40
0.9586931778405025
 41
-0.9324986002162244
 42
-0.8101210816073482
  0
SPLINE
  5
2E12
330
1F
100
AcDbEntity
  8
AM_0
 48
0.5
100
AcDbSpline
210
0.0
220
0.0
230
1.0
 70
     8
 71
     3
 72
    17
 73
    13
 74
     0
 42
0.0000000001
 43
0.0000000001
 40
0.0
 40
0.0
 40
0.0
 40
0.0
 40
1.010743614677189
 40
2.022833924044153
 40
3.037578959561199
 40
4.056212747067873
 40
5.079857613375832
 40
6.109500119648989
 40
7.14596120163808
 40
8.18989512056258
 40
9.241717674284874
 40
9.693948937866434
 40
9.693948937866434
 40
9.693948937866434
 40
9.693948937866434
 10
-2.794454037455568
 20
2.450000393223653
 30
0.0
 10
-2.946442475435303
 20
2.4485437530613
 30
0.0
 10
-3.250621857766669
 20
2.445628531938229
 30
0.0
 10
-3.706779657390764
 20
2.422105200007606
 30
0.0
 10
-4.162918677262968
 20
2.384723434452058
 30
0.0
 10
-4.619029329170044
 20
2.33232581958705
 30
0.0
 10
-5.075106180966211
 20
2.265622987341478
 30
0.0
 10
-5.531143662123612
 20
2.184924195917615
 30
0.0
 10
-5.987135651852806
 20
2.090748930123891
 30
0.0
 10
-6.443099844473359
 20
1.98373120210352
 30
0.0
 10
-6.811166030605446
 20
1.887324406122138
 30
0.0
 10
-7.027316075220127
 20
1.827056294729877
 30
0.0
 10
-7.092192722020183
 20
1.808608629285149
 30
0.0
  0
SPLINE
  5
2E13
330
1F
100
AcDbEntity
  8
AM_0
 48
0.5
100
AcDbSpline
210
0.0
220
0.0
230
1.0
 70
     8
 71
     3
 72
    25
 73
    21
 74
     0
 42
0.0000000001
 43
0.0000000001
 40
6.846175049578289
 40
6.846175049578289
 40
6.846175049578289
 40
6.846175049578289
 40
7.604337694224321
 40
8.711974558287883
 40
9.814980593243754
 40
10.91239053451967
 40
12.0033633515982
 40
13.08720139956839
 40
14.16337181880432
 40
15.23152222380919
 40
16.29148850140128
 40
17.34331105512262
 40
18.38723020264746
 40
19.42369128463655
 40
20.45333379090873
 40
21.47697865721768
 40
22.49561244472435
 40
23.5103574802404
 40
24.52244778960836
 40
25.53320666051913
 40
25.53320666051913
 40
25.53320666051913
 40
25.53320666051913
 10
-3.32644929231819
 20
0.4434664330082314
 30
0.0
 10
-3.430072816902304
 20
0.4864840756992798
 30
0.0
 10
-3.685303093787801
 20
0.5919178285228057
 30
0.0
 10
-4.092519422308154
 20
0.7574867747875497
 30
0.0
 10
-4.548178351967334
 20
0.9380857657770965
 30
0.0
 10
-5.003860197010017
 20
1.112914668688518
 30
0.0
 10
-5.459568872592469
 20
1.28089853710911
 30
0.0
 10
-5.915309456433996
 20
1.441000994863175
 30
0.0
 10
-6.371086162703448
 20
1.592234706085846
 30
0.0
 10
-6.826901101406951
 20
1.733670230157184
 30
0.0
 10
-7.282759887015216
 20
1.864427368641541
 30
0.0
 10
-7.738661902241018
 20
1.983704313853021
 30
0.0
 10
-8.194610421732912
 20
2.09075677890235
 30
0.0
 10
-8.650603836427542
 20
2.184922232774076
 30
0.0
 10
-9.106640364984208
 20
2.265623508608211
 30
0.0
 10
-9.562717469773931
 20
2.332325680916262
 30
0.0
 10
-10.01882805442016
 20
2.38472347168804
 30
0.0
 10
-10.47496709212128
 20
2.422105188923365
 30
0.0
 10
-10.93112717836626
 20
2.445628657331911
 30
0.0
 10
-11.23530885787138
 20
2.448543787505821
 30
0.0
 10
-11.38729959149885
 20
2.450000393224049
 30
0.0
  0
ELLIPSE
  5
2E14
330
1F
100
AcDbEntity
  8
AM_0
 48
0.5
100
AcDbEllipse
 10
1.539312518084865
 20
2.941376180752983
 30
0.0
 11
-9.250159592211195
 21
6.826904369727675
 31
0.0
210
0.0
220
0.0
230
1.0
 40
0.4360071786209965
 41
1.35767383370196
 42
1.563495354507852
  0
SPLINE
  5
2E15
330
1F
100
AcDbEntity
  8
AM_0
100
AcDbSpline
210
0.0
220
0.0
230
1.0
 70
     8
 71
     3
 72
    23
 73
    19
 74
     0
 42
0.0000000001
 43
0.0000000001
 40
16.0358125233297
 40
16.0358125233297
 40
16.0358125233297
 40
16.0358125233297
 40
16.35212704903564
 40
17.38177054169784
 40
18.41822485651776
 40
19.46214173629503
 40
20.51396345435107
 40
21.57393551351153
 40
22.64208202342361
 40
23.7182574881101
 40
24.80209208578934
 40
25.89306333925047
 40
26.99048218457928
 40
28.09348763352352
 40
29.20111863782268
 40
30.31232390128032
 40
31.42594612798585
 40
32.5407912310448
 40
32.5407912310486
 40
32.5407912310486
 40
32.5407912310486
 10
-26.51209250467417
 20
2.450253720046397
 30
0.0
 10
-26.4654071390236
 20
2.442012867312766
 30
0.0
 10
-26.2669537063836
 20
2.406024931635525
 30
0.0
 10
-25.91723754431527
 20
2.335491264094521
 30
0.0
 10
-25.46412375093098
 20
2.230555102591813
 30
0.0
 10
-25.01143083095107
 20
2.112729284311573
 30
0.0
 10
-24.55913203438978
 20
1.982695724992588
 30
0.0
 10
-24.10721130836131
 20
1.841179364639092
 30
0.0
 10
-23.65564253293081
 20
1.688989170446191
 30
0.0
 10
-23.20439426256509
 20
1.527010851169342
 30
0.0
 10
-22.75344085571671
 20
1.356161680586692
 30
0.0
 10
-22.30274615781586
 20
1.177435790213087
 30
0.0
 10
-21.85227364509722
 20
0.9918720121416201
 30
0.0
 10
-21.40199330386211
 20
0.8005372603028684
 30
0.0
 10
-20.9518674597012
 20
0.6045441200765502
 30
0.0
 10
-20.50185442142831
 20
0.4050370476098425
 30
0.0
 10
-20.05191754527893
 20
0.2031721323630587
 30
0.0
 10
-19.752040196438
 20
0.0678327445495748
 30
0.0
 10
-19.60201974361464
 20
0.0001250066678822
 30
0.0
  0
VIEWPORT
  5
110
330
101
100
AcDbEntity
 67
     1
  8
0
100
AcDbViewport
 10
420.5
 20
297.0
 30
0.0
 40
948.9782706766916
 41
628.452
 68
     1
 69
     1
1001
ACAD
1000
MVIEW
1002
{
1070
    16
1010
0.0
1020
0.0
1030
0.0
1010
0.0
1020
0.0
1030
1.0
1040
0.0
1040
628.452
1040
420.5
1040
297.0
1040
50.0
1040
0.0
1040
0.0
1070
     0
1070
   100
1070
     1
1070
     1
1070
     0
1070
     0
1070
     0
1070
     0
1040
0.0
1040
0.0
1040
0.0
1040
10.0
1040
10.0
1040
10.0
1040
10.0
1070
     0
1002
{
1002
}
1002
}
  0
ENDSEC
  0
SECTION
  2
OBJECTS
  0
DICTIONARY
  5
C
330
0
100
AcDbDictionary
  3
ACAD_GROUP
350
D
  3
ACAD_LAYOUT
350
1A
  3
ACAD_MLINESTYLE
350
17
  3
ACAD_PLOTSETTINGS
350
19
  3
ACAD_PLOTSTYLENAME
350
E
  3
ACDBVARIABLEDICTIONARY
350
34
  3
ACMDICTIONARY
350
43
  3
AMG
350
2B
  3
AMGSNAPSETTINGS
350
6E
  3
DWGPROPS
350
2E9A
  3
ACDBHEADERROUNDTRIPXREC
350
2EA6
  0
DICTIONARY
  5
74
330
1F
100
AcDbDictionary
280
     1
  3
ACAD_INDEX
360
2E9C
  3
ACAD_LAYOUTSELFREF
360
2EC9
  0
DICTIONARY
  5
2ECE
330
101
100
AcDbDictionary
280
     1
  3
ACAD_LAYOUTSELFREF
360
2ECF
  0
DICTIONARY
  5
D
102
{ACAD_REACTORS
330
C
102
}
330
C
100
AcDbDictionary
  0
DICTIONARY
  5
1A
102
{ACAD_REACTORS
330
C
102
}
330
C
100
AcDbDictionary
  0
DICTIONARY
  5
17
102
{ACAD_REACTORS
330
C
102
}
330
C
100
AcDbDictionary
  3
STANDARD
350
18
  0
DICTIONARY
  5
19
102
{ACAD_REACTORS
330
C
102
}
330
C
100
AcDbDictionary
  0
ACDBDICTIONARYWDFLT
  5
E
102
{ACAD_REACTORS
330
C
102
}
330
C
100
AcDbDictionary
281
     1
  3
Normal
350
F
100
AcDbDictionaryWithDefault
340
F
  0
DICTIONARY
  5
34
102
{ACAD_REACTORS
330
C
102
}
330
C
100
AcDbDictionary
  3
INDEXCTL
350
35
  3
SORTENTS
350
B5E
  0
DICTIONARY
  5
43
102
{ACAD_REACTORS
330
C
102
}
330
C
100
AcDbDictionary
  3
ACMSTDDICTIONARY
350
260
  0
DICTIONARY
  5
2B
102
{ACAD_REACTORS
330
C
102
}
330
C
100
AcDbDictionary
  3
ACMGSETTINGS
350
2C
  0
DICTIONARY
  5
6E
102
{ACAD_REACTORS
330
C
102
}
330
C
100
AcDbDictionary
  0
XRECORD
  5
2E9A
102
{ACAD_REACTORS
330
C
102
}
330
C
100
AcDbXrecord
  1
DWGPROPS COOKIE
  2

  3

  4

  6

  7

  8

  9

300
AmdtFileType=82
301
=
302
=
303
=
304
=
305
=
306
=
307
=
308
=
309
=
 40
0.0547182291666667
 41
2452800.443498622
 42
2452946.604029757
  1

 90
        1
  0
DICTIONARY
  5
2EA6
102
{ACAD_REACTORS
330
C
102
}
330
C
100
AcDbDictionary
  3
TSTACKALIGN
350
2EA7
  3
TSTACKSIZE
350
2EA8
  3
HYPERLINKBASE
350
2EA9
  3
STYLESHEET
350
2EAA
  3
LAYOUTDICT
350
2EAB
  3
PLOTSETDICT
350
2EAC
  3
PLOTSTYLNAMDICT
350
2EAD
  3
LWETCUNION
350
2EAE
  3
INSUNITS
350
2EAF
  3
CEPSNTYPE
350
2EB0
  3
FINGERPRINTGUID
350
2EB1
  3
VERSIONGUID
350
2EB2
  3
PSVPSCALE
350
2EB3
  3
DIMSTYLEDATA
350
2EB4
  3
PUCSORTHOREF
350
2EB5
  3
PUCSORTHOVIEW
350
2EB6
  3
PUCSBASE
350
2EB7
  3
PUCSORGTOP
350
2EB8
  3
PUCSORGBOTTOM
350
2EB9
  3
PUCSORGLEFT
350
2EBA
  3
PUCSORGRIGHT
350
2EBB
  3
PUCSORGFRONT
350
2EBC
  3
PUCSORGBACK
350
2EBD
  3
UCSORTHOREF
350
2EBE
  3
UCSORTHOVIEW
350
2EBF
  3
UCSBASE
350
2EC0
  3
UCSORGTOP
350
2EC1
  3
UCSORGBOTTOM
350
2EC2
  3
UCSORGLEFT
350
2EC3
  3
UCSORGRIGHT
350
2EC4
  3
UCSORGFRONT
350
2EC5
  3
UCSORGBACK
350
2EC6
  0
DICTIONARY
  5
2E9C
102
{ACAD_REACTORS
330
74
102
}
330
74
100
AcDbDictionary
  3
*A1
350
2E9D
  0
XRECORD
  5
2EC9
102
{ACAD_REACTORS
330
74
102
}
330
74
100
AcDbXrecord
340
1F
  0
XRECORD
  5
2ECF
102
{ACAD_REACTORS
330
2ECE
102
}
330
2ECE
100
AcDbXrecord
340
101
  0
MLINESTYLE
  5
18
102
{ACAD_REACTORS
330
17
102
}
330
17
100
AcDbMlineStyle
  2
STANDARD
 70
     0
  3

 62
   256
 51
90.0
 52
90.0
 71
     2
 49
0.5
 62
   256
  6
BYLAYER
 49
-0.5
 62
   256
  6
BYLAYER
  0
ACDBPLACEHOLDER
  5
F
102
{ACAD_REACTORS
330
E
102
}
330
E
100
AcDbPlaceHolder
280
     0
  0
DICTIONARYVAR
  5
35
102
{ACAD_REACTORS
330
34
102
}
330
34
100
DictionaryVariables
280
     0
  1
1
  0
DICTIONARYVAR
  5
B5E
102
{ACAD_REACTORS
330
34
102
}
330
34
100
DictionaryVariables
280
     0
  1
96
  0
DICTIONARY
  5
260
102
{ACAD_REACTORS
330
43
102
}
330
43
100
AcDbDictionary
  0
DICTIONARY
  5
2C
102
{ACAD_REACTORS
330
2B
102
}
330
2B
100
AcDbDictionary
  3
DWGSETTINGS
350
2D
  0
XRECORD
  5
2EA7
102
{ACAD_REACTORS
330
2EA6
102
}
330
2EA6
100
AcDbXrecord
 90
        1
  0
XRECORD
  5
2EA8
102
{ACAD_REACTORS
330
2EA6
102
}
330
2EA6
100
AcDbXrecord
 90
       70
  0
XRECORD
  5
2EA9
102
{ACAD_REACTORS
330
2EA6
102
}
330
2EA6
100
AcDbXrecord
  1

  0
XRECORD
  5
2EAA
102
{ACAD_REACTORS
330
2EA6
102
}
330
2EA6
100
AcDbXrecord
  1
ASAMI.ctb
  0
XRECORD
  5
2EAB
102
{ACAD_REACTORS
330
2EA6
102
}
330
2EA6
100
AcDbXrecord
340
1A
  0
XRECORD
  5
2EAC
102
{ACAD_REACTORS
330
2EA6
102
}
330
2EA6
100
AcDbXrecord
340
19
  0
XRECORD
  5
2EAD
102
{ACAD_REACTORS
330
2EA6
102
}
330
2EA6
100
AcDbXrecord
340
E
  0
XRECORD
  5
2EAE
102
{ACAD_REACTORS
330
2EA6
102
}
330
2EA6
100
AcDbXrecord
 90
    10781
  0
XRECORD
  5
2EAF
102
{ACAD_REACTORS
330
2EA6
102
}
330
2EA6
100
AcDbXrecord
 90
        4
  0
XRECORD
  5
2EB0
102
{ACAD_REACTORS
330
2EA6
102
}
330
2EA6
100
AcDbXrecord
 90
        0
  0
XRECORD
  5
2EB1
102
{ACAD_REACTORS
330
2EA6
102
}
330
2EA6
100
AcDbXrecord
  1
{AFB28963-8C59-40AE-9337-C84526B81ACE}
  0
XRECORD
  5
2EB2
102
{ACAD_REACTORS
330
2EA6
102
}
330
2EA6
100
AcDbXrecord
  1
{1EB35061-CCBF-481C-8CB9-9201C1082725}
  0
XRECORD
  5
2EB3
102
{ACAD_REACTORS
330
2EA6
102
}
330
2EA6
100
AcDbXrecord
 40
0.0
  0
XRECORD
  5
2EB4
102
{ACAD_REACTORS
330
2EA6
102
}
330
2EA6
100
AcDbXrecord
1000
DSTYLE
1002
{
1070
    79
 70
     2
1070
   341
340
59
1070
   342
340
59
1070
   371
 70
    -1
1070
   372
 70
    -1
1002
}
  0
XRECORD
  5
2EB5
102
{ACAD_REACTORS
330
2EA6
102
}
330
2EA6
100
AcDbXrecord
340
0
  0
XRECORD
  5
2EB6
102
{ACAD_REACTORS
330
2EA6
102
}
330
2EA6
100
AcDbXrecord
 70
     0
  0
XRECORD
  5
2EB7
102
{ACAD_REACTORS
330
2EA6
102
}
330
2EA6
100
AcDbXrecord
340
0
  0
XRECORD
  5
2EB8
102
{ACAD_REACTORS
330
2EA6
102
}
330
2EA6
100
AcDbXrecord
 10
0.0
 20
0.0
 30
0.0
  0
XRECORD
  5
2EB9
102
{ACAD_REACTORS
330
2EA6
102
}
330
2EA6
100
AcDbXrecord
 10
0.0
 20
0.0
 30
0.0
  0
XRECORD
  5
2EBA
102
{ACAD_REACTORS
330
2EA6
102
}
330
2EA6
100
AcDbXrecord
 10
0.0
 20
0.0
 30
0.0
  0
XRECORD
  5
2EBB
102
{ACAD_REACTORS
330
2EA6
102
}
330
2EA6
100
AcDbXrecord
 10
0.0
 20
0.0
 30
0.0
  0
XRECORD
  5
2EBC
102
{ACAD_REACTORS
330
2EA6
102
}
330
2EA6
100
AcDbXrecord
 10
0.0
 20
0.0
 30
0.0
  0
XRECORD
  5
2EBD
102
{ACAD_REACTORS
330
2EA6
102
}
330
2EA6
100
AcDbXrecord
 10
0.0
 20
0.0
 30
0.0
  0
XRECORD
  5
2EBE
102
{ACAD_REACTORS
330
2EA6
102
}
330
2EA6
100
AcDbXrecord
340
0
  0
XRECORD
  5
2EBF
102
{ACAD_REACTORS
330
2EA6
102
}
330
2EA6
100
AcDbXrecord
 70
     0
  0
XRECORD
  5
2EC0
102
{ACAD_REACTORS
330
2EA6
102
}
330
2EA6
100
AcDbXrecord
340
0
  0
XRECORD
  5
2EC1
102
{ACAD_REACTORS
330
2EA6
102
}
330
2EA6
100
AcDbXrecord
 10
0.0
 20
0.0
 30
0.0
  0
XRECORD
  5
2EC2
102
{ACAD_REACTORS
330
2EA6
102
}
330
2EA6
100
AcDbXrecord
 10
0.0
 20
0.0
 30
0.0
  0
XRECORD
  5
2EC3
102
{ACAD_REACTORS
330
2EA6
102
}
330
2EA6
100
AcDbXrecord
 10
0.0
 20
0.0
 30
0.0
  0
XRECORD
  5
2EC4
102
{ACAD_REACTORS
330
2EA6
102
}
330
2EA6
100
AcDbXrecord
 10
0.0
 20
0.0
 30
0.0
  0
XRECORD
  5
2EC5
102
{ACAD_REACTORS
330
2EA6
102
}
330
2EA6
100
AcDbXrecord
 10
0.0
 20
0.0
 30
0.0
  0
XRECORD
  5
2EC6
102
{ACAD_REACTORS
330
2EA6
102
}
330
2EA6
100
AcDbXrecord
 10
0.0
 20
0.0
 30
0.0
  0
LAYER_INDEX
  5
2E9D
102
{ACAD_REACTORS
330
2E9C
102
}
330
2E9C
100
AcDbIndex
 40
2453151.578747639
100
AcDbLayerIndex
  8
0
360
2E9E
 90
        0
  8
AM_0
360
2E9F
 90
       44
  8
AM_7
360
2EA0
 90
        1
  8
AM_11
360
2EA1
 90
       23
  8
AM_5
360
2EA2
 90
        5
  8
Defpoints
360
2EA3
 90
        0
  8
AM_6
360
2EA4
 90
        1
  0
XRECORD
  5
2D
102
{ACAD_REACTORS
330
2C
102
}
330
2C
100
AcDbXrecord
  1
VERSION
140
15.0
  1
PRODUCT
  2
AutoCAD Mechanical 2000
  0
IDBUFFER
  5
2E9E
330
0
100
AcDbIdBuffer
  0
IDBUFFER
  5
2E9F
330
0
100
AcDbIdBuffer
330
2DF4
330
2DF5
330
2DF6
330
2DF7
330
2DF8
330
2DFD
330
2E00
330
2E01
330
2E02
330
2E03
330
2E04
330
2E05
330
2E06
330
2E07
330
2E08
330
2E09
330
2E0A
330
2E0B
330
2E0C
330
2E0D
330
2E0E
330
2E0F
330
2E10
330
2E11
330
2E12
330
2E13
330
2E14
330
2E15
330
C1D
330
C20
330
C30
330
1CF0
330
1CF4
330
1CFE
330
1EB2
330
1EB5
330
1ED3
330
1FDE
330
1FDF
330
2470
330
249A
330
24A9
330
25FC
330
25FD
  0
IDBUFFER
  5
2EA0
330
0
100
AcDbIdBuffer
330
C9F
  0
IDBUFFER
  5
2EA1
330
0
100
AcDbIdBuffer
330
1EC0
330
2DF9
330
2DFA
330
2DFB
330
2DFC
330
2DFE
330
2DFF
330
144A
330
144B
330
144E
330
144F
330
1450
330
1451
330
1452
330
1453
330
1454
330
1DAB
330
1DAC
330
1DAD
330
1DAE
330
1DAF
330
1DB0
330
1EBF
  0
IDBUFFER
  5
2EA2
330
0
100
AcDbIdBuffer
330
CC6
330
DF5
330
218E
330
245D
330
260B
  0
IDBUFFER
  5
2EA3
330
0
100
AcDbIdBuffer
  0
IDBUFFER
  5
2EA4
330
0
100
AcDbIdBuffer
330
19BD
  0
ENDSEC
  0
EOF
