  0
SECTION
  2
HEADER
  9
$ACADVER
  1
AC1014
  9
$ACADMAINTVER
 70
     9
  9
$DWGCODEPAGE
  3
ANSI_932
  9
$INSBASE
 10
0.0
 20
0.0
 30
0.0
  9
$EXTMIN
 10
-111.9552847133057
 20
-31.97630141600368
 30
-0.00000001
  9
$EXTMAX
 10
19.61579200989953
 20
18.97606355072295
 30
0.00000001
  9
$LIMMIN
 10
-124.4583587473285
 20
-51.5029814485413
  9
$LIMMAX
 10
33.51675294996636
 20
39.56452203763877
  9
$ORTHOMODE
 70
     0
  9
$REGENMODE
 70
     1
  9
$FILLMODE
 70
     1
  9
$QTEXTMODE
 70
     0
  9
$MIRRTEXT
 70
     0
  9
$DRAGMODE
 70
     2
  9
$LTSCALE
 40
1.0
  9
$OSMODE
 70
    55
  9
$ATTMODE
 70
     1
  9
$TEXTSIZE
 40
2.5
  9
$TRACEWID
 40
1.0
  9
$TEXTSTYLE
  7
STANDARD
  9
$CLAYER
  8
AM_0
  9
$CELTYPE
  6
BYLAYER
  9
$CECOLOR
 62
   256
  9
$CELTSCALE
 40
1.0
  9
$DELOBJ
 70
     1
  9
$DISPSILH
 70
     0
  9
$DIMSCALE
 40
1.0
  9
$DIMASZ
 40
2.5
  9
$DIMEXO
 40
1.0
  9
$DIMDLI
 40
12.0
  9
$DIMRND
 40
0.0
  9
$DIMDLE
 40
0.0
  9
$DIMEXE
 40
1.0
  9
$DIMTP
 40
0.1
  9
$DIMTM
 40
0.1
  9
$DIMTXT
 40
3.2
  9
$DIMCEN
 40
0.0
  9
$DIMTSZ
 40
0.0
  9
$DIMTOL
 70
     0
  9
$DIMLIM
 70
     0
  9
$DIMTIH
 70
     0
  9
$DIMTOH
 70
     0
  9
$DIMSE1
 70
     0
  9
$DIMSE2
 70
     0
  9
$DIMTAD
 70
     3
  9
$DIMZIN
 70
     8
  9
$DIMBLK
  1
OPEN30
  9
$DIMASO
 70
     1
  9
$DIMSHO
 70
     1
  9
$DIMPOST
  1

  9
$DIMAPOST
  1
"
  9
$DIMALT
 70
     0
  9
$DIMALTD
 70
     2
  9
$DIMALTF
 40
0.0393701
  9
$DIMLFAC
 40
1.0
  9
$DIMTOFL
 70
     1
  9
$DIMTVP
 40
0.0
  9
$DIMTIX
 70
     0
  9
$DIMSOXD
 70
     0
  9
$DIMSAH
 70
     0
  9
$DIMBLK1
  1

  9
$DIMBLK2
  1

  9
$DIMSTYLE
  2
AM_JIS
  9
$DIMCLRD
 70
   256
  9
$DIMCLRE
 70
   256
  9
$DIMCLRT
 70
     2
  9
$DIMTFAC
 40
0.71
  9
$DIMGAP
 40
1.5
  9
$DIMJUST
 70
     0
  9
$DIMSD1
 70
     0
  9
$DIMSD2
 70
     0
  9
$DIMTOLJ
 70
     0
  9
$DIMTZIN
 70
     0
  9
$DIMALTZ
 70
     0
  9
$DIMALTTZ
 70
     0
  9
$DIMFIT
 70
     3
  9
$DIMUPT
 70
     0
  9
$DIMUNIT
 70
     2
  9
$DIMDEC
 70
     3
  9
$DIMTDEC
 70
     3
  9
$DIMALTU
 70
     2
  9
$DIMALTTD
 70
     2
  9
$DIMTXSTY
  7
ASAMI
  9
$DIMAUNIT
 70
     0
  9
$LUNITS
 70
     2
  9
$LUPREC
 70
     2
  9
$SKETCHINC
 40
1.0
  9
$FILLETRAD
 40
2.5
  9
$AUNITS
 70
     0
  9
$AUPREC
 70
     0
  9
$MENU
  1
.
  9
$ELEVATION
 40
0.0
  9
$PELEVATION
 40
0.0
  9
$THICKNESS
 40
0.0
  9
$LIMCHECK
 70
     0
  9
$BLIPMODE
 70
     0
  9
$CHAMFERA
 40
0.25
  9
$CHAMFERB
 40
0.25
  9
$CHAMFERC
 40
20.0
  9
$CHAMFERD
 40
0.0
  9
$SKPOLY
 70
     0
  9
$TDCREATE
 40
2452800.443498622
  9
$TDUPDATE
 40
2453151.584108958
  9
$TDINDWG
 40
0.0692855903
  9
$TDUSRTIMER
 40
0.0692855903
  9
$USRTIMER
 70
     1
  9
$ANGBASE
 50
0.0
  9
$ANGDIR
 70
     0
  9
$PDMODE
 70
     3
  9
$PDSIZE
 40
0.0
  9
$PLINEWID
 40
0.0
  9
$COORDS
 70
     1
  9
$SPLFRAME
 70
     0
  9
$SPLINETYPE
 70
     6
  9
$SPLINESEGS
 70
     8
  9
$ATTDIA
 70
     1
  9
$ATTREQ
 70
     1
  9
$HANDLING
 70
 12289
  9
$HANDSEED
  5
27EB
  9
$SURFTAB1
 70
     6
  9
$SURFTAB2
 70
     6
  9
$SURFTYPE
 70
     6
  9
$SURFU
 70
     6
  9
$SURFV
 70
     6
  9
$UCSNAME
  2

  9
$UCSORG
 10
0.0
 20
0.0
 30
0.0
  9
$UCSXDIR
 10
1.0
 20
0.000000000000002
 30
0.0
  9
$UCSYDIR
 10
-0.000000000000002
 20
1.0
 30
0.0
  9
$PUCSNAME
  2

  9
$PUCSORG
 10
0.0
 20
0.0
 30
0.0
  9
$PUCSXDIR
 10
1.0
 20
0.0
 30
0.0
  9
$PUCSYDIR
 10
0.0
 20
1.0
 30
0.0
  9
$USERI1
 70
     0
  9
$USERI2
 70
     0
  9
$USERI3
 70
     0
  9
$USERI4
 70
     0
  9
$USERI5
 70
     0
  9
$USERR1
 40
0.0
  9
$USERR2
 40
0.0
  9
$USERR3
 40
0.0
  9
$USERR4
 40
0.0
  9
$USERR5
 40
0.0
  9
$WORLDVIEW
 70
     1
  9
$SHADEDGE
 70
     3
  9
$SHADEDIF
 70
    70
  9
$TILEMODE
 70
     1
  9
$MAXACTVP
 70
    64
  9
$PINSBASE
 10
0.0
 20
0.0
 30
0.0
  9
$PLIMCHECK
 70
     0
  9
$PEXTMIN
 10
1.000000000000000E+20
 20
1.000000000000000E+20
 30
1.000000000000000E+20
  9
$PEXTMAX
 10
-1.000000000000000E+20
 20
-1.000000000000000E+20
 30
-1.000000000000000E+20
  9
$PLIMMIN
 10
0.0
 20
0.0
  9
$PLIMMAX
 10
841.0
 20
594.0
  9
$UNITMODE
 70
     0
  9
$VISRETAIN
 70
     1
  9
$PLINEGEN
 70
     0
  9
$PSLTSCALE
 70
     0
  9
$TREEDEPTH
 70
  3020
  9
$PICKSTYLE
 70
     0
  9
$CMLSTYLE
  2
STANDARD
  9
$CMLJUST
 70
     0
  9
$CMLSCALE
 40
20.0
  9
$PROXYGRAPHICS
 70
     1
  9
$MEASUREMENT
 70
     1
  0
ENDSEC
  0
SECTION
  2
CLASSES
  0
CLASS
  1
ACDBDICTIONARYWDFLT
  2
AcDbDictionaryWithDefault
  3
AutoCAD 2000
 90
        0
280
     0
281
     0
  0
CLASS
  1
ACDBPLACEHOLDER
  2
AcDbPlaceHolder
  3
AutoCAD 2000
 90
        0
280
     0
281
     0
  0
CLASS
  1
LAYOUT
  2
AcDbLayout
  3
AutoCAD 2000
 90
        0
280
     0
281
     0
  0
CLASS
  1
AMGSETTINGSOBJ
  2
AmgSettingsObj
  3
"AcadM|Product Description: AutoCAD Mechanical 2000|Company: Autodesk"
 90
        0
280
     0
281
     0
  0
CLASS
  1
ACME_DOCUMENT
  2
AcMeDbDoc
  3
AcMeServices
 90
        0
280
     0
281
     0
  0
CLASS
  1
ACMESCOPE
  2
AcMeScope
  3
AcMeServices
 90
        0
280
     0
281
     0
  0
CLASS
  1
ACMECOMMANDHISTORY
  2
AcMeCommandHistory
  3
AcMeServices
 90
        0
280
     0
281
     0
  0
CLASS
  1
DICTIONARYVAR
  2
AcDbDictionaryVar
  3
AutoCAD 2000
 90
        0
280
     0
281
     0
  0
CLASS
  1
ACIMSYSVARMAN
  2
AcImSysVarManager
  3
AcMeServices
 90
        0
280
     0
281
     0
  0
CLASS
  1
ACIMREALSYSVAR
  2
AcImRealSysVar
  3
AcMeServices
 90
        0
280
     0
281
     0
  0
CLASS
  1
ACIMINTSYSVAR
  2
AcImIntSysVar
  3
AcMeServices
 90
        0
280
     0
281
     0
  0
CLASS
  1
ACMEDRAWINGMAN
  2
AcMeDrawingMan
  3
AcMeServices
 90
        0
280
     0
281
     0
  0
CLASS
  1
ACMEVIEW
  2
AcMeView
  3
AcMeServices
 90
        0
280
     0
281
     0
  0
CLASS
  1
ACDBENTITYCACHE
  2
AcMeEntityCache
  3
AcMeServices
 90
        0
280
     0
281
     0
  0
CLASS
  1
GSMANAGER
  2
AcMeGSManager
  3
AcMeServices
 90
        0
280
     0
281
     0
  0
CLASS
  1
AmdtInternalReactor
  2
AmdtInternalReactor
  3
AcMeServices
 90
        0
280
     0
281
     0
  0
CLASS
  1
ACMESTATEMGR
  2
AcMeStateMgr
  3
AcMeServices
 90
        0
280
     0
281
     0
  0
CLASS
  1
ACME_DATABASE
  2
AcMeDbDatabase
  3
AcMeServices
 90
        0
280
     0
281
     0
  0
CLASS
  1
ACRFINSADJUSTERMGR
  2
AcRfInsAdjusterMgr
  3
AcMeServices
 90
        0
280
     0
281
     0
  0
CLASS
  1
ACMDATADICTIONARY
  2
AcmDataDictionary
  3
"AcmSymBB|Product Description: AutoCAD Mechanical 2000|Company: Autodesk"
 90
        0
280
     0
281
     0
  0
CLASS
  1
ACMDATAENTRYBLOCK
  2
AcmDataEntryBlock
  3
"AcmSymBB|Product Description: AutoCAD Mechanical 2000|Company: Autodesk"
 90
        0
280
     0
281
     0
  0
CLASS
  1
AMGOBJPROPCFG
  2
AmgObjPropCfg
  3
"AmgLay|Product Description: AutoCAD Mechanical 2000|Company: Autodesk"
 90
        1
280
     0
281
     0
  0
CLASS
  1
ACAMGFILTERDAT
  2
AcAmgFilterDat
  3
"AcadM|Product Description: AutoCAD Mechanical 2000|Company: Autodesk"
 90
        0
280
     0
281
     0
  0
CLASS
  1
LAYER_INDEX
  2
AcDbLayerIndex
  3
AutoCAD 2000
 90
        0
280
     0
281
     0
  0
CLASS
  1
IDBUFFER
  2
AcDbIdBuffer
  3
AutoCAD 2000
 90
        0
280
     0
281
     0
  0
CLASS
  1
ACIMSTRSYSVAR
  2
AcImStrSysVar
  3
AcMeServices
 90
        0
280
     0
281
     0
  0
CLASS
  1
ACMSTANDARDJIS
  2
AcmStandardJIS
  3
"AcmSymBB|Product Description: AutoCAD Mechanical 2000|Company: Autodesk"
 90
        0
280
     0
281
     0
  0
CLASS
  1
ACMSURFSTANDARDJIS
  2
AcmSurfTextStdJIS
  3
"AcmSymBB|Product Description: AutoCAD Mechanical 2000|Company: Autodesk"
 90
        0
280
     0
281
     0
  0
CLASS
  1
ACMFCFSTANDARDJIS
  2
AcmFCFStdJIS
  3
"AcmSymBB|Product Description: AutoCAD Mechanical 2000|Company: Autodesk"
 90
        0
280
     0
281
     0
  0
CLASS
  1
ACMWELDSTANDARDJIS
  2
AcmWeldingStdJIS
  3
"AcmSymBB|Product Description: AutoCAD Mechanical 2000|Company: Autodesk"
 90
        0
280
     0
281
     0
  0
CLASS
  1
ACMIDSTANDARDJIS
  2
AcmIdStdJIS
  3
"AcmSymBB|Product Description: AutoCAD Mechanical 2000|Company: Autodesk"
 90
        0
280
     0
281
     0
  0
CLASS
  1
ACMDATUMSTANDARDJIS
  2
AcmDatumStdJIS
  3
"AcmSymBB|Product Description: AutoCAD Mechanical 2000|Company: Autodesk"
 90
        0
280
     0
281
     0
  0
CLASS
  1
ACMBOMSTANDARDJIS
  2
AcmBOMStdJIS
  3
"AcmSymBB|Product Description: AutoCAD Mechanical 2000|Company: Autodesk"
 90
        0
280
     0
281
     0
  0
CLASS
  1
ACMSTANDARDANSI
  2
AcmStandardANSI
  3
"AcmSymBB|Product Description: AutoCAD Mechanical 2000|Company: Autodesk"
 90
        0
280
     0
281
     0
  0
CLASS
  1
ACMSURFSTANDARDANSI
  2
AcmSurfTextStdANSI
  3
"AcmSymBB|Product Description: AutoCAD Mechanical 2000|Company: Autodesk"
 90
        0
280
     0
281
     0
  0
CLASS
  1
ACMFCFSTANDARDANSI
  2
AcmFCFStdANSI
  3
"AcmSymBB|Product Description: AutoCAD Mechanical 2000|Company: Autodesk"
 90
        0
280
     0
281
     0
  0
CLASS
  1
ACMWELDSTANDARDANSI
  2
AcmWeldingStdANSI
  3
"AcmSymBB|Product Description: AutoCAD Mechanical 2000|Company: Autodesk"
 90
        0
280
     0
281
     0
  0
CLASS
  1
ACMIDSTANDARDANSI
  2
AcmIdStdANSI
  3
"AcmSymBB|Product Description: AutoCAD Mechanical 2000|Company: Autodesk"
 90
        0
280
     0
281
     0
  0
CLASS
  1
ACMDATUMSTANDARDANSI
  2
AcmDatumStdANSI
  3
"AcmSymBB|Product Description: AutoCAD Mechanical 2000|Company: Autodesk"
 90
        0
280
     0
281
     0
  0
CLASS
  1
ACMBOMSTANDARDANSI
  2
AcmBOMStdANSI
  3
"AcmSymBB|Product Description: AutoCAD Mechanical 2000|Company: Autodesk"
 90
        0
280
     0
281
     0
  0
CLASS
  1
ACMSTANDARDBSI
  2
AcmStandardBSI
  3
"AcmSymBB|Product Description: AutoCAD Mechanical 2000|Company: Autodesk"
 90
        0
280
     0
281
     0
  0
CLASS
  1
ACMSURFSTANDARDBSI
  2
AcmSurfTextStdBSI
  3
"AcmSymBB|Product Description: AutoCAD Mechanical 2000|Company: Autodesk"
 90
        0
280
     0
281
     0
  0
CLASS
  1
ACMFCFSTANDARDBSI
  2
AcmFCFStdBSI
  3
"AcmSymBB|Product Description: AutoCAD Mechanical 2000|Company: Autodesk"
 90
        0
280
     0
281
     0
  0
CLASS
  1
ACMWELDSTANDARDBSI
  2
AcmWeldingStdBSI
  3
"AcmSymBB|Product Description: AutoCAD Mechanical 2000|Company: Autodesk"
 90
        0
280
     0
281
     0
  0
CLASS
  1
ACMIDSTANDARDBSI
  2
AcmIdStdBSI
  3
"AcmSymBB|Product Description: AutoCAD Mechanical 2000|Company: Autodesk"
 90
        0
280
     0
281
     0
  0
CLASS
  1
ACMDATUMSTANDARDBSI
  2
AcmDatumStdBSI
  3
"AcmSymBB|Product Description: AutoCAD Mechanical 2000|Company: Autodesk"
 90
        0
280
     0
281
     0
  0
CLASS
  1
ACMBOMSTANDARDBSI
  2
AcmBOMStdBSI
  3
"AcmSymBB|Product Description: AutoCAD Mechanical 2000|Company: Autodesk"
 90
        0
280
     0
281
     0
  0
CLASS
  1
LONG_TRANSACTION
  2
AcDbLongTransaction
  3
AutoCAD 2000
 90
        0
280
     0
281
     0
  0
CLASS
  1
LWPOLYLINE
  2
AcDbPolyline
  3
AutoCAD 2000
 90
        0
280
     0
281
     1
  0
CLASS
  1
HATCH
  2
AcDbHatch
  3
AutoCAD 2000
 90
        0
280
     0
281
     1
  0
CLASS
  1
XRECORD
  2
AcDbXrecord
  3
AutoCAD 2000
 90
        0
280
     0
281
     0
  0
ENDSEC
  0
SECTION
  2
TABLES
  0
TABLE
  2
VPORT
  5
8
330
0
100
AcDbSymbolTable
 70
     3
  0
VPORT
  5
27C0
330
8
100
AcDbSymbolTableRecord
100
AcDbViewportTableRecord
  2
*ACTIVE
 70
     0
 10
0.0
 20
0.0
 11
1.0
 21
1.0
 12
-33.07209913222874
 22
-4.149012245456987
 13
0.0
 23
0.0
 14
2.5
 24
2.5
 15
10.0
 25
10.0
 16
0.0
 26
0.0
 36
1.0
 17
0.0
 27
0.0
 37
0.0
 40
169.0133735223839
 41
1.56570841889117
 42
50.0
 43
0.0
 44
0.0
 50
0.0
 51
0.0
 71
     0
 72
   100
 73
     1
 74
     1
 75
     0
 76
     0
 77
     0
 78
     0
  0
ENDTAB
  0
TABLE
  2
LTYPE
  5
5
330
0
100
AcDbSymbolTable
 70
    10
  0
LTYPE
  5
14
330
5
100
AcDbSymbolTableRecord
100
AcDbLinetypeTableRecord
  2
BYBLOCK
 70
     0
  3

 72
    65
 73
     0
 40
0.0
  0
LTYPE
  5
15
330
5
100
AcDbSymbolTableRecord
100
AcDbLinetypeTableRecord
  2
BYLAYER
 70
     0
  3

 72
    65
 73
     0
 40
0.0
  0
LTYPE
  5
16
330
5
100
AcDbSymbolTableRecord
100
AcDbLinetypeTableRecord
  2
CONTINUOUS
 70
     0
  3
Solid line
 72
    65
 73
     0
 40
0.0
  0
LTYPE
  5
4B
330
5
100
AcDbSymbolTableRecord
100
AcDbLinetypeTableRecord
  2
AM_ISO02W050
 70
     0
  3
__ __ __ __ __ __ __ __ __ __ __ __ __ __ __
 72
    65
 73
     2
 40
7.5
 49
6.0
 74
     0
 49
-1.5
 74
     0
  0
LTYPE
  5
4C
330
5
100
AcDbSymbolTableRecord
100
AcDbLinetypeTableRecord
  2
AM_ISO08W050
 70
     0
  3
____ . ____ . ____ . ____ . ____ . ____ . ____
 72
    65
 73
     4
 40
18.0
 49
12.0
 74
     0
 49
-1.5
 74
     0
 49
3.0
 74
     0
 49
-1.5
 74
     0
  0
LTYPE
  5
4D
330
5
100
AcDbSymbolTableRecord
100
AcDbLinetypeTableRecord
  2
AM_ISO09W050
 70
     0
  3
_____ . . _____ . . _____ . . ____ .. ____
 72
    65
 73
     6
 40
22.5
 49
12.0
 74
     0
 49
-1.5
 74
     0
 49
3.0
 74
     0
 49
-1.5
 74
     0
 49
3.0
 74
     0
 49
-1.5
 74
     0
  0
LTYPE
  5
4E
330
5
100
AcDbSymbolTableRecord
100
AcDbLinetypeTableRecord
  2
AMCONSTR
 70
     0
  3
_______________________
 72
    65
 73
     2
 40
9999.0
 49
9999.0
 74
     0
 49
0.0
 74
     0
  0
LTYPE
  5
4F
330
5
100
AcDbSymbolTableRecord
100
AcDbLinetypeTableRecord
  2
AM_ISO02W050X2
 70
     0
  3
 _ _ _ _ _ _ _ _ _ _ _ _
 72
    65
 73
     2
 40
3.75
 49
3.0
 74
     0
 49
-0.75
 74
     0
  0
LTYPE
  5
50
330
5
100
AcDbSymbolTableRecord
100
AcDbLinetypeTableRecord
  2
AM_ISO08W050X2
 70
     0
  3
__ . __ . __ . __ . __ . __
 72
    65
 73
     4
 40
9.0
 49
6.0
 74
     0
 49
-0.75
 74
     0
 49
1.5
 74
     0
 49
-0.75
 74
     0
  0
LTYPE
  5
53
330
5
100
AcDbSymbolTableRecord
100
AcDbLinetypeTableRecord
  2
AMZIGZAG
 70
     0
  3
/\/-/\/-/\/-/\/-/\/-/\/
 72
    65
 73
     2
 40
11.00009999999999
 49
0.0001
 74
     4
 75
   135
340
52
 46
0.04
 50
0.0
 44
0.0
 45
0.0
 49
-11.0
 74
     0
  0
LTYPE
  5
166
330
5
100
AcDbSymbolTableRecord
100
AcDbLinetypeTableRecord
  2
ACJISTGL
 70
     0
  3
_ _ _ _ _
 72
    65
 73
     2
 40
3.0
 49
2.0
 74
     0
 49
-1.0
 74
     0
  0
LTYPE
  5
26A
330
5
100
AcDbSymbolTableRecord
100
AcDbLinetypeTableRecord
  2
ACJISTGB
 70
     0
  3
__ . . __ . .
 72
    65
 73
     6
 40
9.0
 49
4.0
 74
     0
 49
-1.0
 74
     0
 49
1.0
 74
     0
 49
-1.0
 74
     0
 49
1.0
 74
     0
 49
-1.0
 74
     0
  0
ENDTAB
  0
TABLE
  2
LAYER
  5
2
330
0
100
AcDbSymbolTable
 70
     8
  0
LAYER
  5
10
330
2
100
AcDbSymbolTableRecord
100
AcDbLayerTableRecord
  2
0
 70
     0
 62
     7
  6
CONTINUOUS
  0
LAYER
  5
3F9
330
2
100
AcDbSymbolTableRecord
100
AcDbLayerTableRecord
  2
AM_0
 70
     0
 62
     7
  6
CONTINUOUS
  0
LAYER
  5
C7C
330
2
100
AcDbSymbolTableRecord
100
AcDbLayerTableRecord
  2
AM_7
 70
     0
 62
     4
  6
AM_ISO08W050
  0
LAYER
  5
C97
330
2
100
AcDbSymbolTableRecord
100
AcDbLayerTableRecord
  2
AM_11
 70
     0
 62
     3
  6
AM_ISO09W050
  0
LAYER
  5
CC5
330
2
100
AcDbSymbolTableRecord
100
AcDbLayerTableRecord
  2
AM_5
 70
     0
 62
     3
  6
CONTINUOUS
  0
LAYER
  5
CC7
330
2
100
AcDbSymbolTableRecord
100
AcDbLayerTableRecord
  2
DEFPOINTS
 70
     0
 62
     7
  6
CONTINUOUS
  0
LAYER
  5
19BC
330
2
100
AcDbSymbolTableRecord
100
AcDbLayerTableRecord
  2
AM_6
 70
     0
 62
     2
  6
CONTINUOUS
  0
LAYER
  5
24FD
330
2
100
AcDbSymbolTableRecord
100
AcDbLayerTableRecord
  2
AM_CL
 70
     0
 62
     1
  6
AMCONSTR
  0
ENDTAB
  0
TABLE
  2
STYLE
  5
3
330
0
100
AcDbSymbolTable
 70
     5
  0
STYLE
  5
11
330
3
100
AcDbSymbolTableRecord
100
AcDbTextStyleTableRecord
  2
STANDARD
 70
     0
 40
0.0
 41
1.0
 50
0.0
 71
     0
 42
2.5
  3
simplex.shx
  4
EXTFONT.SHX
  0
STYLE
  5
52
330
3
100
AcDbSymbolTableRecord
100
AcDbTextStyleTableRecord
  2

 70
     1
 40
0.0
 41
1.0
 50
0.0
 71
     0
 42
2.5
  3
ltypeshp.shx
  4

  0
STYLE
  5
6B
330
3
100
AcDbSymbolTableRecord
100
AcDbTextStyleTableRecord
  2
ASAMI
 70
     0
 40
0.0
 41
1.0
 50
0.0
 71
     0
 42
2.5
  3
simplex.shx
  4
EXTFONT.SHX
  0
STYLE
  5
262
330
3
100
AcDbSymbolTableRecord
100
AcDbTextStyleTableRecord
  2
ACJISTS
 70
     0
 40
1.0
 41
1.0
 50
0.0
 71
     0
 42
2.5
  3
simplex.shx
  4
bigfont.shx
  0
STYLE
  5
269
330
3
100
AcDbSymbolTableRecord
100
AcDbTextStyleTableRecord
  2
ACJISGDT
 70
     0
 40
0.0
 41
1.0
 50
0.0
 71
     0
 42
2.5
  3
amgdtans.shx
  4

  0
ENDTAB
  0
TABLE
  2
VIEW
  5
6
330
0
100
AcDbSymbolTable
 70
     0
  0
ENDTAB
  0
TABLE
  2
UCS
  5
7
330
0
100
AcDbSymbolTable
 70
     0
  0
ENDTAB
  0
TABLE
  2
APPID
  5
9
330
0
100
AcDbSymbolTable
 70
    16
  0
APPID
  5
12
330
9
100
AcDbSymbolTableRecord
100
AcDbRegAppTableRecord
  2
ACAD
 70
     0
  0
APPID
  5
30
330
9
100
AcDbSymbolTableRecord
100
AcDbRegAppTableRecord
  2
MCAD_NO_VIS
 70
     0
  0
APPID
  5
31
330
9
100
AcDbSymbolTableRecord
100
AcDbRegAppTableRecord
  2
ACAD_TEMP_GRAPHIC
 70
     0
  0
APPID
  5
2C2
330
9
100
AcDbSymbolTableRecord
100
AcDbRegAppTableRecord
  2
GENIUS_GENDTOL_13
 70
     0
  0
APPID
  5
339
330
9
100
AcDbSymbolTableRecord
100
AcDbRegAppTableRecord
  2
GENIUS_GENODEF_13
 70
     0
  0
APPID
  5
33A
330
9
100
AcDbSymbolTableRecord
100
AcDbRegAppTableRecord
  2
GENIUS_GENOBJ-N-RSBK_13
 70
     0
  0
APPID
  5
33B
330
9
100
AcDbSymbolTableRecord
100
AcDbRegAppTableRecord
  2
GENIUS_GENOBJ-N-LIB_13
 70
     0
  0
APPID
  5
33C
330
9
100
AcDbSymbolTableRecord
100
AcDbRegAppTableRecord
  2
GENIUS_GENSCALE_13
 70
     0
  0
APPID
  5
378
330
9
100
AcDbSymbolTableRecord
100
AcDbRegAppTableRecord
  2
GENIUS_GENDIMSH_14
 70
     0
  0
APPID
  5
C82
330
9
100
AcDbSymbolTableRecord
100
AcDbRegAppTableRecord
  2
GENIUS_GENOBJ-N-CRS_13
 70
     0
  0
APPID
  5
C83
330
9
100
AcDbSymbolTableRecord
100
AcDbRegAppTableRecord
  2
GENIUS_GENOENT_13
 70
     0
  0
APPID
  5
C84
330
9
100
AcDbSymbolTableRecord
100
AcDbRegAppTableRecord
  2
GENIUS_GENOREF_13
 70
     0
  0
APPID
  5
C85
330
9
100
AcDbSymbolTableRecord
100
AcDbRegAppTableRecord
  2
GENIUS_GENOLIS_13
 70
     0
  0
APPID
  5
CA0
330
9
100
AcDbSymbolTableRecord
100
AcDbRegAppTableRecord
  2
GENIUS_GENOBJ-N-CEN_13
 70
     0
  0
APPID
  5
1CFA
330
9
100
AcDbSymbolTableRecord
100
AcDbRegAppTableRecord
  2
GENIUS_GENFIL_13
 70
     0
  0
APPID
  5
1CFB
330
9
100
AcDbSymbolTableRecord
100
AcDbRegAppTableRecord
  2
GENIUS_GENOBJ-N-CHA_13
 70
     0
  0
ENDTAB
  0
TABLE
  2
DIMSTYLE
  5
A
330
0
100
AcDbSymbolTable
 70
     9
  0
DIMSTYLE
105
58
330
A
100
AcDbSymbolTableRecord
100
AcDbDimStyleTableRecord
  2
AM_JIS
 70
     0
  3

  4
"
  5
OPEN30
  6

  7

 40
0.5
 41
2.5
 42
1.0
 43
12.0
 44
1.0
 45
0.0
 46
0.0
 47
0.1
 48
0.1
140
3.2
141
0.0
142
0.0
143
0.0393701
144
1.0
145
0.0
146
0.71
147
1.5
 71
     0
 72
     0
 73
     0
 74
     0
 75
     0
 76
     0
 77
     3
 78
     8
170
     0
171
     2
172
     1
173
     0
174
     0
175
     0
176
   256
177
   256
178
     2
270
     2
271
     3
272
     3
273
     2
274
     2
340
6B
275
     0
280
     0
281
     0
282
     0
283
     0
284
     0
285
     0
286
     0
287
     3
288
     0
  0
DIMSTYLE
105
5F
330
A
100
AcDbSymbolTableRecord
100
AcDbDimStyleTableRecord
  2
AM_JIS$3
 70
     0
  3

  4
"
  5
OPEN30
  6

  7

 40
0.5
 41
2.5
 42
1.0
 43
10.0
 44
1.0
 45
0.0
 46
0.0
 47
0.1
 48
0.1
140
3.2
141
0.0
142
0.0
143
0.0393701
144
1.0
145
0.0
146
0.71
147
1.5
 71
     0
 72
     0
 73
     0
 74
     1
 75
     0
 76
     0
 77
     3
 78
     8
170
     0
171
     2
172
     0
173
     0
174
     0
175
     0
176
   256
177
   256
178
     2
270
     2
271
     2
272
     3
273
     2
274
     2
340
6B
275
     0
280
     0
281
     0
282
     0
283
     0
284
     0
285
     0
286
     0
287
     0
288
     1
  0
DIMSTYLE
105
60
330
A
100
AcDbSymbolTableRecord
100
AcDbDimStyleTableRecord
  2
AM_JIS$4
 70
     0
  3

  4
"
  5
OPEN30
  6

  7

 40
0.5
 41
2.5
 42
1.0
 43
10.0
 44
1.0
 45
0.0
 46
0.0
 47
0.1
 48
0.1
140
3.2
141
0.0
142
0.0
143
0.0393701
144
1.0
145
0.0
146
0.71
147
1.5
 71
     0
 72
     0
 73
     0
 74
     1
 75
     0
 76
     0
 77
     3
 78
     8
170
     0
171
     2
172
     0
173
     0
174
     0
175
     0
176
   256
177
   256
178
     2
270
     2
271
     2
272
     3
273
     2
274
     2
340
6B
275
     0
280
     0
281
     0
282
     0
283
     0
284
     0
285
     0
286
     0
287
     0
288
     1
  0
DIMSTYLE
105
61
330
A
100
AcDbSymbolTableRecord
100
AcDbDimStyleTableRecord
  2
AM_JIS$6
 70
     0
  3

  4
"
  5
OPEN30
  6

  7

 40
0.5
 41
2.5
 42
1.0
 43
10.0
 44
1.0
 45
0.0
 46
0.0
 47
0.1
 48
0.1
140
3.2
141
0.0
142
0.0
143
0.0393701
144
1.0
145
0.0
146
0.71
147
1.5
 71
     0
 72
     0
 73
     0
 74
     0
 75
     0
 76
     0
 77
     0
 78
     8
170
     0
171
     2
172
     1
173
     0
174
     0
175
     0
176
   256
177
   256
178
     2
270
     2
271
     2
272
     2
273
     2
274
     2
340
6B
275
     0
280
     0
281
     0
282
     0
283
     0
284
     0
285
     0
286
     0
287
     3
288
     0
  0
DIMSTYLE
105
62
330
A
100
AcDbSymbolTableRecord
100
AcDbDimStyleTableRecord
  2
AM_JIS$7
 70
     0
  3

  4
"
  5
OPEN30
  6

  7

 40
0.5
 41
2.5
 42
1.0
 43
10.0
 44
1.0
 45
0.0
 46
0.0
 47
0.1
 48
0.1
140
3.2
141
0.0
142
0.0
143
0.0393701
144
1.0
145
0.0
146
0.71
147
1.5
 71
     0
 72
     0
 73
     0
 74
     0
 75
     0
 76
     0
 77
     3
 78
     8
170
     0
171
     2
172
     1
173
     0
174
     0
175
     0
176
   256
177
   256
178
     2
270
     2
271
     2
272
     3
273
     2
274
     2
340
6B
275
     0
280
     0
281
     0
282
     0
283
     0
284
     0
285
     0
286
     0
287
     3
288
     0
  0
DIMSTYLE
105
63
330
A
100
AcDbSymbolTableRecord
100
AcDbDimStyleTableRecord
  2
AM_JIS$SF
 70
     0
  3

  4
"
  5
OPEN30
  6

  7

 40
0.5
 41
2.5
 42
1.0
 43
10.0
 44
1.0
 45
0.0
 46
0.0
 47
0.1
 48
0.1
140
3.2
141
0.0
142
0.0
143
0.0393701
144
1.0
145
0.0
146
0.71
147
1.5
 71
     0
 72
     0
 73
     0
 74
     0
 75
     1
 76
     1
 77
     3
 78
     8
170
     0
171
     2
172
     1
173
     0
174
     0
175
     0
176
   256
177
   256
178
     2
270
     2
271
     2
272
     2
273
     2
274
     2
340
6B
275
     0
280
     0
281
     0
282
     0
283
     0
284
     0
285
     0
286
     0
287
     3
288
     0
  0
DIMSTYLE
105
68
330
A
100
AcDbSymbolTableRecord
100
AcDbDimStyleTableRecord
  2
AM_JIS$SH
 70
     0
  3

  4
"
  5

  6
GENAXEH
  7
OPEN30
 40
0.5
 41
2.5
 42
1.0
 43
10.0
 44
1.0
 45
0.0
 46
0.0
 47
0.1
 48
0.1
140
3.2
141
0.0
142
0.0
143
0.0393701
144
2.0
145
0.0
146
0.71
147
1.5
 71
     0
 72
     0
 73
     0
 74
     0
 75
     1
 76
     1
 77
     3
 78
     8
170
     0
171
     2
172
     1
173
     1
174
     0
175
     0
176
   256
177
   256
178
     2
270
     2
271
     2
272
     2
273
     2
274
     2
340
6B
275
     0
280
     0
281
     0
282
     0
283
     0
284
     0
285
     0
286
     0
287
     3
288
     0
  0
DIMSTYLE
105
B34
102
{ACAD_REACTORS
330
11B2
102
}
330
A
100
AcDbSymbolTableRecord
100
AcDbDimStyleTableRecord
  2
AM_JIS$2
 70
     0
  3

  4
"
  5
OPEN30
  6

  7

 40
0.5
 41
2.5
 42
1.0
 43
12.0
 44
1.0
 45
0.0
 46
0.0
 47
0.1
 48
0.1
140
3.2
141
0.0
142
0.0
143
0.0393701
144
1.0
145
0.0
146
0.71
147
1.5
 71
     0
 72
     0
 73
     0
 74
     0
 75
     0
 76
     0
 77
     3
 78
     8
170
     0
171
     2
172
     1
173
     0
174
     0
175
     0
176
   256
177
   256
178
     2
270
     2
271
     3
272
     3
273
     2
274
     2
340
6B
275
     0
280
     0
281
     0
282
     0
283
     0
284
     0
285
     0
286
     0
287
     3
288
     0
  0
DIMSTYLE
105
BA5
102
{ACAD_REACTORS
330
CC6
330
DF5
330
218E
330
23D1
102
}
330
A
100
AcDbSymbolTableRecord
100
AcDbDimStyleTableRecord
  2
AM_JIS$0
 70
     0
  3

  4
"
  5
OPEN30
  6

  7

 40
0.5
 41
2.5
 42
0.8
 43
10.0
 44
1.0
 45
0.0
 46
0.0
 47
0.1
 48
0.1000000001
140
3.799999999999999
141
0.0
142
0.0
143
0.0393701
144
1.0
145
0.0
146
0.71
147
1.5
 71
     0
 72
     0
 73
     0
 74
     0
 75
     0
 76
     0
 77
     3
 78
     9
170
     0
171
     2
172
     1
173
     0
174
     0
175
     0
176
     3
177
     3
178
     2
270
     2
271
     2
272
     2
273
     2
274
     2
340
11
275
     1
280
     0
281
     0
282
     0
283
     0
284
     8
285
     0
286
     0
287
     0
288
     0
  0
ENDTAB
  0
TABLE
  2
BLOCK_RECORD
  5
1
330
0
100
AcDbSymbolTable
 70
    17
  0
BLOCK_RECORD
  5
1F
102
{ACAD_XDICTIONARY
360
74
102
}
330
1
100
AcDbSymbolTableRecord
100
AcDbBlockTableRecord
  2
*MODEL_SPACE
  0
BLOCK_RECORD
  5
101
102
{ACAD_XDICTIONARY
360
27E9
102
}
330
1
100
AcDbSymbolTableRecord
100
AcDbBlockTableRecord
  2
*PAPER_SPACE
  0
BLOCK_RECORD
  5
59
330
1
100
AcDbSymbolTableRecord
100
AcDbBlockTableRecord
  2
_OPEN30
  0
BLOCK_RECORD
  5
64
330
1
100
AcDbSymbolTableRecord
100
AcDbBlockTableRecord
  2
GENAXEH
  0
BLOCK_RECORD
  5
CC8
330
1
100
AcDbSymbolTableRecord
100
AcDbBlockTableRecord
  2
*D5
  0
BLOCK_RECORD
  5
DF6
330
1
100
AcDbSymbolTableRecord
100
AcDbBlockTableRecord
  2
*D7
  0
BLOCK_RECORD
  5
11B3
330
1
100
AcDbSymbolTableRecord
100
AcDbBlockTableRecord
  2
*D9
  0
BLOCK_RECORD
  5
218F
330
1
100
AcDbSymbolTableRecord
100
AcDbBlockTableRecord
  2
*D12
  0
BLOCK_RECORD
  5
23D2
330
1
100
AcDbSymbolTableRecord
100
AcDbBlockTableRecord
  2
*D13
  0
ENDTAB
  0
ENDSEC
  0
SECTION
  2
BLOCKS
  0
BLOCK
  5
20
330
1F
100
AcDbEntity
  8
0
100
AcDbBlockBegin
  2
*MODEL_SPACE
 70
     0
 10
0.0
 20
0.0
 30
0.0
  3
*MODEL_SPACE
  1

  0
ENDBLK
  5
21
330
1F
100
AcDbEntity
  8
0
100
AcDbBlockEnd
  0
BLOCK
  5
103
330
101
100
AcDbEntity
 67
     1
  8
0
100
AcDbBlockBegin
  2
*PAPER_SPACE
 70
     0
 10
0.0
 20
0.0
 30
0.0
  3
*PAPER_SPACE
  1

  0
ENDBLK
  5
104
330
101
100
AcDbEntity
 67
     1
  8
0
100
AcDbBlockEnd
  0
BLOCK
  5
5D
330
59
100
AcDbEntity
  8
0
100
AcDbBlockBegin
  2
_OPEN30
 70
     0
 10
0.0
 20
0.0
 30
0.0
  3
_OPEN30
  1

  0
LINE
  5
5A
330
59
100
AcDbEntity
  8
0
 62
     0
100
AcDbLine
 10
-1.0
 20
0.26794919
 30
0.0
 11
0.0
 21
0.0
 31
0.0
  0
LINE
  5
5B
330
59
100
AcDbEntity
  8
0
 62
     0
100
AcDbLine
 10
0.0
 20
0.0
 30
0.0
 11
-1.0
 21
-0.26794919
 31
0.0
  0
LINE
  5
5C
330
59
100
AcDbEntity
  8
0
 62
     0
100
AcDbLine
 10
0.0
 20
0.0
 30
0.0
 11
-1.0
 21
0.0
 31
0.0
  0
ENDBLK
  5
5E
330
59
100
AcDbEntity
  8
0
100
AcDbBlockEnd
  0
BLOCK
  5
66
330
64
100
AcDbEntity
  8
0
100
AcDbBlockBegin
  2
GENAXEH
 70
     0
 10
0.0
 20
0.0
 30
0.0
  3
GENAXEH
  1

  0
LINE
  5
65
330
64
100
AcDbEntity
  8
0
100
AcDbLine
 10
-1.0
 20
0.0
 30
0.0
 11
1.0
 21
0.0
 31
0.0
  0
ENDBLK
  5
67
330
64
100
AcDbEntity
  8
0
100
AcDbBlockEnd
  0
BLOCK
  5
CD2
330
CC8
100
AcDbEntity
  8
0
100
AcDbBlockBegin
  2
*D5
 70
     1
 10
0.0
 20
0.0
 30
0.0
  3
*D5
  1

  0
LINE
  5
26FA
330
CC8
100
AcDbEntity
  8
AM_5
 62
     3
100
AcDbLine
 10
-98.90992622238599
 20
-2.650001596234791
 30
0.0
 11
-98.90992622238599
 21
-21.22630141600364
 31
0.0
  0
LINE
  5
26FB
330
CC8
100
AcDbEntity
  8
AM_5
 62
     3
100
AcDbLine
 10
-0.9099262223859787
 20
-2.900001285412377
 30
0.0
 11
-0.9099262223859799
 21
-21.22630141600364
 31
0.0
  0
LINE
  5
26FC
330
CC8
100
AcDbEntity
  8
AM_5
 62
     3
100
AcDbLine
 10
-97.65992622238599
 20
-20.72630141600364
 30
0.0
 11
-2.159926222385979
 21
-20.72630141600364
 31
0.0
  0
INSERT
  5
26FD
330
CC8
100
AcDbEntity
  8
AM_5
 62
     3
100
AcDbBlockReference
  2
_OPEN30
 10
-98.90992622238599
 20
-20.72630141600364
 30
0.0
 41
1.25
 42
1.25
 43
1.25
 50
180.0
  0
INSERT
  5
26FE
330
CC8
100
AcDbEntity
  8
AM_5
 62
     3
100
AcDbBlockReference
  2
_OPEN30
 10
-0.9099262223859799
 20
-20.72630141600364
 30
0.0
 41
1.25
 42
1.25
 43
1.25
  0
MTEXT
  5
26FF
330
CC8
100
AcDbEntity
  8
AM_5
 62
     2
100
AcDbMText
 10
-49.90992622238598
 20
-19.02630141600364
 30
0.0
 40
1.9
 41
0.0
 71
     5
 72
     1
  1
98
1001
ACAD
1000
MTEXTBEGIN
1070
    73
1070
     1
1070
    44
1040
1.0
1070
    74
1070
     0
1000
MTEXTEND
  0
POINT
  5
2700
330
CC8
100
AcDbEntity
  8
DEFPOINTS
 62
     0
100
AcDbPoint
 10
-98.90992622238599
 20
-2.250001596234791
 30
0.0
  0
POINT
  5
2701
330
CC8
100
AcDbEntity
  8
DEFPOINTS
 62
     0
100
AcDbPoint
 10
-0.9099262223859787
 20
-2.500001285412377
 30
0.0
  0
POINT
  5
2702
330
CC8
100
AcDbEntity
  8
DEFPOINTS
 62
     0
100
AcDbPoint
 10
-0.9099262223859799
 20
-20.72630141600364
 30
0.0
  0
ENDBLK
  5
CD3
330
CC8
100
AcDbEntity
  8
0
100
AcDbBlockEnd
  0
BLOCK
  5
E00
330
DF6
100
AcDbEntity
  8
0
100
AcDbBlockBegin
  2
*D7
 70
     1
 10
0.0
 20
0.0
 30
0.0
  3
*D7
  1

  0
LINE
  5
2765
330
DF6
100
AcDbEntity
  8
AM_5
 62
     3
100
AcDbLine
 10
-44.90971073107178
 20
-2.092057941295708
 30
0.0
 11
-44.90971073107178
 21
-12.92178636565143
 31
0.0
  0
LINE
  5
2766
330
DF6
100
AcDbEntity
  8
AM_5
 62
     3
100
AcDbLine
 10
-0.9099262223859801
 20
-2.900001285412381
 30
0.0
 11
-0.9099262223859808
 21
-12.92178636565143
 31
0.0
  0
LINE
  5
2767
330
DF6
100
AcDbEntity
  8
AM_5
 62
     3
100
AcDbLine
 10
-43.65971073107178
 20
-12.42178636565143
 30
0.0
 11
-2.15992622238598
 21
-12.42178636565143
 31
0.0
  0
INSERT
  5
2768
330
DF6
100
AcDbEntity
  8
AM_5
 62
     3
100
AcDbBlockReference
  2
_OPEN30
 10
-44.90971073107178
 20
-12.42178636565143
 30
0.0
 41
1.25
 42
1.25
 43
1.25
 50
180.0
  0
INSERT
  5
2769
330
DF6
100
AcDbEntity
  8
AM_5
 62
     3
100
AcDbBlockReference
  2
_OPEN30
 10
-0.9099262223859806
 20
-12.42178636565143
 30
0.0
 41
1.25
 42
1.25
 43
1.25
  0
MTEXT
  5
276A
330
DF6
100
AcDbEntity
  8
AM_5
 62
     2
100
AcDbMText
 10
-22.90981847672888
 20
-10.72178636565144
 30
0.0
 40
1.9
 41
0.0
 71
     5
 72
     1
  1
44
1001
ACAD
1000
MTEXTBEGIN
1070
    73
1070
     1
1070
    44
1040
1.0
1070
    74
1070
     0
1000
MTEXTEND
  0
POINT
  5
276B
330
DF6
100
AcDbEntity
  8
DEFPOINTS
 62
     0
100
AcDbPoint
 10
-44.90971073107178
 20
-1.692057941295708
 30
0.0
  0
POINT
  5
276C
330
DF6
100
AcDbEntity
  8
DEFPOINTS
 62
     0
100
AcDbPoint
 10
-0.9099262223859801
 20
-2.500001285412381
 30
0.0
  0
POINT
  5
276D
330
DF6
100
AcDbEntity
  8
DEFPOINTS
 62
     0
100
AcDbPoint
 10
-0.9099262223859806
 20
-12.42178636565143
 30
0.0
  0
ENDBLK
  5
E01
330
DF6
100
AcDbEntity
  8
0
100
AcDbBlockEnd
  0
BLOCK
  5
11C1
330
11B3
100
AcDbEntity
  8
0
100
AcDbBlockBegin
  2
*D9
 70
     1
 10
0.0
 20
0.0
 30
0.0
  3
*D9
  1

  0
LINE
  5
278F
330
11B3
100
AcDbEntity
  8
AM_5
100
AcDbLine
 10
0.1710067616052945
 20
-0.4698479070843663
 30
0.0
 11
6.906719878093294
 21
-18.97606775233513
 31
0.0
  0
LINE
  5
2790
330
11B3
100
AcDbEntity
  8
AM_5
100
AcDbLine
 10
0.1710064002969035
 20
0.469846482687805
 30
0.0
 11
6.906733016783832
 21
18.97606355072295
 31
0.0
  0
ARC
  5
2791
330
11B3
100
AcDbEntity
  8
AM_5
100
AcDbCircle
 10
-0.0000039954243561
 20
0.0000002902425983
 30
0.0
 40
19.69390980027291
100
AcDbArc
 50
293.637253830188
 51
66.36270649923277
  0
INSERT
  5
2792
330
11B3
100
AcDbEntity
  8
AM_5
100
AcDbBlockReference
  2
_OPEN30
 10
6.735709807685227
 20
-18.50622144148548
 30
0.0
 41
1.25
 42
1.25
 43
1.25
 50
201.8186268385872
  0
INSERT
  5
2793
330
11B3
100
AcDbEntity
  8
AM_5
100
AcDbBlockReference
  2
_OPEN30
 10
6.735722621062572
 20
18.50621735827774
 30
0.0
 41
1.25
 42
1.25
 43
1.25
 50
158.1813334908335
  0
MTEXT
  5
2794
330
11B3
100
AcDbEntity
  8
AM_5
 62
     2
100
AcDbMText
 10
18.14390580484738
 20
-0.0000065276139266
 30
0.0
 40
1.6
 41
0.0
 71
     5
 72
     1
  1
140°
  7
ASAMI
 11
0.0000000000000001
 21
1.0
 31
0.0
1001
ACAD
1000
MTEXTBEGIN
1070
    73
1070
     1
1070
    44
1040
1.0
1070
    74
1070
     0
1000
MTEXTEND
  0
POINT
  5
2795
330
11B3
100
AcDbEntity
  8
DEFPOINTS
 62
     0
100
AcDbPoint
 10
18.0832647842411
 20
7.800351145406882
 30
0.0
  0
POINT
  5
2796
330
11B3
100
AcDbEntity
  8
DEFPOINTS
 62
     0
100
AcDbPoint
 10
-0.0000041035311089
 20
-0.0000000067776266
 30
0.0
  0
POINT
  5
2797
330
11B3
100
AcDbEntity
  8
DEFPOINTS
 62
     0
100
AcDbPoint
 10
-0.0000033088027724
 20
-0.0000015962347141
 30
0.0
  0
POINT
  5
2798
330
11B3
100
AcDbEntity
  8
DEFPOINTS
 62
     0
100
AcDbPoint
 10
-0.3336399105686046
 20
0.9166574410373742
 30
0.0
  0
POINT
  5
2799
330
11B3
100
AcDbEntity
  8
DEFPOINTS
 62
     0
100
AcDbPoint
 10
-0.3336454736686059
 20
-0.9166701702501319
 30
0.0
  0
ENDBLK
  5
11C2
330
11B3
100
AcDbEntity
  8
0
100
AcDbBlockEnd
  0
BLOCK
  5
219B
330
218F
100
AcDbEntity
  8
0
100
AcDbBlockBegin
  2
*D12
 70
     1
 10
0.0
 20
0.0
 30
0.0
  3
*D12
  1

  0
LINE
  5
279A
330
218F
100
AcDbEntity
  8
AM_5
 62
     3
100
AcDbLine
 10
-98.91694124530943
 20
2.499998403764988
 30
0.0
 11
-109.8052847133057
 21
2.499998403764967
 31
0.0
  0
LINE
  5
279B
330
218F
100
AcDbEntity
  8
AM_5
 62
     3
100
AcDbLine
 10
-98.91694124530925
 20
-2.500001596235011
 30
0.0
 11
-109.8052847133057
 21
-2.500001596235032
 31
0.0
  0
LINE
  5
279C
330
218F
100
AcDbEntity
  8
AM_5
 62
     3
100
AcDbLine
 10
-109.3052847133058
 20
3.749998403764967
 30
0.0
 11
-109.3052847133058
 21
4.999998403764967
 31
0.0
  0
LINE
  5
279D
330
218F
100
AcDbEntity
  8
AM_5
 62
     3
100
AcDbLine
 10
-109.3052847133057
 20
-3.750001596235032
 30
0.0
 11
-109.3052847133057
 21
-5.000001596235032
 31
0.0
  0
LINE
  5
279E
330
218F
100
AcDbEntity
  8
AM_5
 62
     3
100
AcDbLine
 10
-109.3052847133057
 20
2.499998403764967
 30
0.0
 11
-109.3052847133057
 21
-2.500001596235032
 31
0.0
  0
INSERT
  5
279F
330
218F
100
AcDbEntity
  8
AM_5
 62
     3
100
AcDbBlockReference
  2
_OPEN30
 10
-109.3052847133057
 20
2.499998403764967
 30
0.0
 41
1.25
 42
1.25
 43
1.25
 50
270.0000000000001
  0
INSERT
  5
27A0
330
218F
100
AcDbEntity
  8
AM_5
 62
     3
100
AcDbBlockReference
  2
_OPEN30
 10
-109.3052847133057
 20
-2.500001596235032
 30
0.0
 41
1.25
 42
1.25
 43
1.25
 50
90.0000000000001
  0
MTEXT
  5
27A1
330
218F
100
AcDbEntity
  8
AM_5
 62
     2
100
AcDbMText
 10
-111.0052847133057
 20
-0.0000015962350233
 30
0.0
 40
1.9
 41
0.0
 71
     5
 72
     1
  1
%%c5
 11
-0.000000000000002
 21
1.0
 31
0.0
1001
ACAD
1000
MTEXTBEGIN
1070
    73
1070
     1
1070
    44
1040
1.0
1070
    74
1070
     0
1000
MTEXTEND
  0
POINT
  5
27A2
330
218F
100
AcDbEntity
  8
DEFPOINTS
 62
     0
100
AcDbPoint
 10
-98.51694124530943
 20
2.499998403765207
 30
0.0
  0
POINT
  5
27A3
330
218F
100
AcDbEntity
  8
DEFPOINTS
 62
     0
100
AcDbPoint
 10
-98.51694124530924
 20
-2.500001596234792
 30
0.0
  0
POINT
  5
27A4
330
218F
100
AcDbEntity
  8
DEFPOINTS
 62
     0
100
AcDbPoint
 10
-109.3052847133057
 20
-2.500001596234789
 30
0.0
  0
ENDBLK
  5
219C
330
218F
100
AcDbEntity
  8
0
100
AcDbBlockEnd
  0
BLOCK
  5
23DE
330
23D2
100
AcDbEntity
  8
0
100
AcDbBlockBegin
  2
*D13
 70
     1
 10
0.0
 20
0.0
 30
0.0
  3
*D13
  1

  0
LINE
  5
2779
330
23D2
100
AcDbEntity
  8
AM_5
 62
     3
100
AcDbLine
 10
-0.7363971989927089
 20
-2.500001285412376
 30
0.0
 11
10.49716636860245
 21
-2.500001285412379
 31
0.0
  0
LINE
  5
277A
330
23D2
100
AcDbEntity
  8
AM_5
 62
     3
100
AcDbLine
 10
-0.7363896301489133
 20
2.499998714587623
 30
0.0
 11
10.49716636860245
 21
2.49999871458762
 31
0.0
  0
LINE
  5
277B
330
23D2
100
AcDbEntity
  8
AM_5
 62
     3
100
AcDbLine
 10
9.997166368602453
 20
-3.750001285412379
 30
0.0
 11
9.997166368602451
 21
-5.000001285412379
 31
0.0
  0
LINE
  5
277C
330
23D2
100
AcDbEntity
  8
AM_5
 62
     3
100
AcDbLine
 10
9.997166368602453
 20
3.74999871458762
 30
0.0
 11
9.997166368602455
 21
4.99999871458762
 31
0.0
  0
LINE
  5
277D
330
23D2
100
AcDbEntity
  8
AM_5
 62
     3
100
AcDbLine
 10
9.997166368602453
 20
-2.500001285412379
 30
0.0
 11
9.997166368602453
 21
2.49999871458762
 31
0.0
  0
INSERT
  5
277E
330
23D2
100
AcDbEntity
  8
AM_5
 62
     3
100
AcDbBlockReference
  2
_OPEN30
 10
9.997166368602453
 20
-2.500001285412379
 30
0.0
 41
1.25
 42
1.25
 43
1.25
 50
90.0
  0
INSERT
  5
277F
330
23D2
100
AcDbEntity
  8
AM_5
 62
     3
100
AcDbBlockReference
  2
_OPEN30
 10
9.997166368602453
 20
2.49999871458762
 30
0.0
 41
1.25
 42
1.25
 43
1.25
 50
270.0
  0
MTEXT
  5
2780
330
23D2
100
AcDbEntity
  8
AM_5
 62
     2
100
AcDbMText
 10
8.297166368602454
 20
-0.0000012854123834
 30
0.0
 40
1.9
 41
0.0
 71
     5
 72
     1
  1
%%c5
 11
0.0000000000000001
 21
1.0
 31
0.0
1001
ACAD
1000
MTEXTBEGIN
1070
    73
1070
     1
1070
    44
1040
1.0
1070
    74
1070
     0
1000
MTEXTEND
  0
POINT
  5
2781
330
23D2
100
AcDbEntity
  8
DEFPOINTS
 62
     0
100
AcDbPoint
 10
-1.136397198992709
 20
-2.500001285412376
 30
0.0
  0
POINT
  5
2782
330
23D2
100
AcDbEntity
  8
DEFPOINTS
 62
     0
100
AcDbPoint
 10
-1.136389630148913
 20
2.499998714587624
 30
0.0
  0
POINT
  5
2783
330
23D2
100
AcDbEntity
  8
DEFPOINTS
 62
     0
100
AcDbPoint
 10
9.997166368602453
 20
2.49999871458762
 30
0.0
  0
ENDBLK
  5
23DF
330
23D2
100
AcDbEntity
  8
0
100
AcDbBlockEnd
  0
ENDSEC
  0
SECTION
  2
ENTITIES
  0
LINE
  5
C30
330
1F
100
AcDbEntity
  8
AM_0
 48
0.5
100
AcDbLine
 10
-98.90992622238599
 20
-2.250001596234792
 30
0.0
 11
-98.90992622238597
 21
2.249998403765207
 31
0.0
  0
LINE
  5
C9F
330
1F
100
AcDbEntity
  8
AM_7
100
AcDbLine
 10
-100.204573852001
 20
-0.0000015962347938
 30
0.0
 11
1.249999947194761
 21
-0.0000015962347022
 31
0.0
1001
GENIUS_GENODEF_13
1002
{
1000
HIER
1070
     0
1002
}
1002
{
1000
MANEDIT
1070
     0
1002
}
1002
{
1000
NOSEL
1070
     0
1002
}
1002
{
1000
BEHIND
1070
     0
1002
}
1002
{
1000
REACTOR
1002
}
1001
GENIUS_GENOBJ-N-CEN_13
1002
{
1000
OWNER
1000
GEN
1002
}
  0
DIMENSION
  5
CC6
330
1F
100
AcDbEntity
  8
AM_5
100
AcDbDimension
  2
*D5
 10
-0.9099262223859799
 20
-20.72630141600364
 30
0.0
 11
-49.90992622238598
 21
-19.02630141600364
 31
0.0
 70
    32
  1
<>
  3
AM_JIS$0
100
AcDbAlignedDimension
 13
-98.90992622238599
 23
-2.250001596234791
 33
0.0
 14
-0.9099262223859787
 24
-2.500001285412377
 34
0.0
 50
0.0000000000001132
100
AcDbRotatedDimension
1001
GENIUS_GENDTOL_13
1000

1000
h7
1000

1040
0.0
1001
ACAD
1000
DSTYLE
1002
{
1070
   271
1070
     1
1002
}
  0
DIMENSION
  5
DF5
330
1F
100
AcDbEntity
  8
AM_5
100
AcDbDimension
  2
*D7
 10
-0.9099262223859806
 20
-12.42178636565143
 30
0.0
 11
-22.90981847672888
 21
-10.72178636565144
 31
0.0
 70
    32
  1
<>
  3
AM_JIS$0
100
AcDbAlignedDimension
 13
-44.90971073107178
 23
-1.692057941295708
 33
0.0
 14
-0.9099262223859801
 24
-2.500001285412381
 34
0.0
 50
0.0000000000001527
100
AcDbRotatedDimension
1001
GENIUS_GENDTOL_13
1000

1000
h7
1000

1040
0.0
1001
ACAD
1000
DSTYLE
1002
{
1070
   271
1070
     1
1002
}
  0
DIMENSION
  5
11B2
330
1F
100
AcDbEntity
  8
AM_5
100
AcDbDimension
  2
*D9
 10
-0.3336454736686059
 20
-0.9166701702501319
 30
0.0
 11
18.14390580484738
 21
-0.0000065276139295
 31
0.0
 70
    34
  1
<>
  3
AM_JIS$2
100
AcDb2LineAngularDimension
 13
-0.0000033088027724
 23
-0.0000015962347141
 33
0.0
 14
-0.3336399105686046
 24
0.9166574410373742
 34
0.0
 15
-0.0000041035311089
 25
-0.0000000067776266
 35
0.0
 16
18.0832647842411
 26
7.800351145406882
 36
0.0
1001
ACAD
1000
DSTYLE
1002
{
1070
   179
1070
     3
1002
}
1001
GENIUS_GENDTOL_13
1000

1000
h7
1000

1040
0.0
  0
TEXT
  5
19BD
330
1F
100
AcDbEntity
  8
AM_6
100
AcDbText
 10
-62.93076432819149
 20
-31.97630141600368
 30
0.0
 40
2.5
  1
MDW0500LDLH
 50
0.0000000000001527
 72
     4
 11
-49.95457385200102
 21
-30.72630141600364
 31
0.0
100
AcDbText
  0
LINE
  5
1CF0
330
1F
100
AcDbEntity
  8
AM_0
100
AcDbLine
 10
-98.64172770730812
 20
2.499998403765207
 30
0.0
 11
-43.00183514553958
 21
2.499998403765259
 31
0.0
1001
GENIUS_GENODEF_13
1002
{
1000
HIER
1070
     0
1002
}
1002
{
1000
MANEDIT
1070
     0
1002
}
1002
{
1000
NOSEL
1070
     0
1002
}
1002
{
1000
BEHIND
1070
     0
1002
}
1002
{
1000
REACTOR
1002
}
1001
GENIUS_GENOBJ-N-CEN_13
1002
{
1000
OWNER
1000
GEN
1002
}
  0
LINE
  5
1CF4
330
1F
100
AcDbEntity
  8
AM_0
100
AcDbLine
 10
-98.659926222386
 20
-2.500001596234792
 30
0.0
 11
-43.99735735528639
 21
-2.500001596234741
 31
0.0
1001
GENIUS_GENODEF_13
1002
{
1000
HIER
1070
     0
1002
}
1002
{
1000
MANEDIT
1070
     0
1002
}
1002
{
1000
NOSEL
1070
     0
1002
}
1002
{
1000
BEHIND
1070
     0
1002
}
1002
{
1000
REACTOR
1002
}
1001
GENIUS_GENOBJ-N-CEN_13
1002
{
1000
OWNER
1000
GEN
1002
}
  0
LINE
  5
1CFE
330
1F
100
AcDbEntity
  8
AM_0
100
AcDbLine
 10
-98.659926222386
 20
-2.500001596234791
 30
0.0
 11
-98.65992622238598
 21
2.499998403765208
 31
0.0
  0
LINE
  5
1EB2
330
1F
100
AcDbEntity
  8
AM_0
100
AcDbLine
 10
-98.90992622238597
 20
2.249998403765207
 30
0.0
 11
-98.65992622238596
 21
2.499998403765208
 31
0.0
1001
GENIUS_GENFIL_13
1070
     0
1040
0.25
1040
0.25
1040
20.0
1040
0.0
1002
{
1002
}
1001
GENIUS_GENODEF_13
1002
{
1000
HIER
1070
     0
1002
}
1002
{
1000
MANEDIT
1070
     0
1002
}
1002
{
1000
NOSEL
1070
     0
1002
}
1002
{
1000
BEHIND
1070
     0
1002
}
1002
{
1000
REACTOR
1002
}
1001
GENIUS_GENOBJ-N-CHA_13
1002
{
1000
OWNER
1000
GEN
1002
}
  0
LINE
  5
1EB5
330
1F
100
AcDbEntity
  8
AM_0
100
AcDbLine
 10
-98.90992622238599
 20
-2.250001596234792
 30
0.0
 11
-98.659926222386
 21
-2.500001596234791
 31
0.0
1001
GENIUS_GENFIL_13
1070
     0
1040
0.25
1040
0.25
1040
20.0
1040
0.0
1002
{
1002
}
1001
GENIUS_GENODEF_13
1002
{
1000
HIER
1070
     0
1002
}
1002
{
1000
MANEDIT
1070
     0
1002
}
1002
{
1000
NOSEL
1070
     0
1002
}
1002
{
1000
BEHIND
1070
     0
1002
}
1002
{
1000
REACTOR
1002
}
1001
GENIUS_GENOBJ-N-CHA_13
1002
{
1000
OWNER
1000
GEN
1002
}
  0
DIMENSION
  5
218E
330
1F
100
AcDbEntity
  8
AM_5
100
AcDbDimension
  2
*D12
 10
-109.3052847133057
 20
-2.500001596234789
 30
0.0
 11
-109.3052847133057
 21
-0.0000015962347991
 31
0.0
 70
   160
  1
%%c<>
 51
359.9999999999998
  3
AM_JIS$0
100
AcDbAlignedDimension
 13
-98.51694124530943
 23
2.499998403765207
 33
0.0
 14
-98.51694124530924
 24
-2.500001596234792
 34
0.0
 50
270.0000000000001
100
AcDbRotatedDimension
1001
ACAD
1000
DSTYLE
1002
{
1070
   271
1070
     0
1002
}
1001
GENIUS_GENDTOL_13
1000

1000
h7
1000

1040
0.0
  0
DIMENSION
  5
23D1
330
1F
100
AcDbEntity
  8
AM_5
100
AcDbDimension
  2
*D13
 10
9.997166368602453
 20
2.49999871458762
 30
0.0
 11
9.997166368602453
 21
-0.0000012854123836
 31
0.0
 70
   160
  1
%%c<>
  3
AM_JIS$0
100
AcDbAlignedDimension
 13
-1.136397198992709
 23
-2.500001285412376
 33
0.0
 14
-1.136389630148913
 24
2.499998714587624
 34
0.0
 50
89.99999999999968
100
AcDbRotatedDimension
1001
ACAD
1000
DSTYLE
1002
{
1070
   271
1070
     1
1002
}
1001
GENIUS_GENDTOL_13
1000

1000
h7
1000

1040
0.0
  0
ELLIPSE
  5
23E0
330
1F
100
AcDbEntity
  8
AM_0
 48
0.5
100
AcDbEllipse
 10
-5.389233692495436
 20
4.755273865986126
 30
0.0
 11
7.816085383519102
 21
0.000000000000542
 31
0.0
210
0.0
220
0.0
230
1.0
 40
0.8399999999999936
 41
-0.9323698858255562
 42
-0.8099906707996083
  0
LINE
  5
23E1
330
1F
100
AcDbEntity
  8
AM_0
 48
0.5
100
AcDbLine
 10
0.0000000892368998
 20
0.0000003040447054
 30
0.0
 11
-1.515817661101317
 21
0.9599227766805496
 31
0.0
  0
LINE
  5
23E3
330
1F
100
AcDbEntity
  8
AM_0
 48
0.5
100
AcDbLine
 10
-2.742543693540289
 20
2.499998714587637
 30
0.0
 11
-0.9099261672893144
 21
2.499998714587623
 31
0.0
  0
LINE
  5
23E4
330
1F
100
AcDbEntity
  8
AM_11
 48
0.2
100
AcDbLine
 10
-12.19141258130516
 20
2.499998714587706
 30
0.0
 11
-2.742543693540289
 21
2.499998714587637
 31
0.0
  0
LINE
  5
23E6
330
1F
100
AcDbEntity
  8
AM_0
 48
0.5
100
AcDbLine
 10
-2.742543693540334
 20
-2.500001285412364
 30
0.0
 11
-0.9099262223859783
 21
-2.500001285412377
 31
0.0
  0
LINE
  5
23E7
330
1F
100
AcDbEntity
  8
AM_11
 48
0.2
100
AcDbLine
 10
-12.1914125813052
 20
-2.500001285412296
 30
0.0
 11
-2.742543693540334
 21
-2.500001285412364
 31
0.0
  0
ELLIPSE
  5
23F1
330
1F
100
AcDbEntity
  8
AM_0
 48
0.5
100
AcDbEllipse
 10
3.025127195209198
 20
-0.5557168463253374
 30
0.0
 11
4.705596641886692
 21
0.7095631745055714
 31
0.0
210
0.0
220
0.0
230
0.9999999999999998
 40
0.5877378387641931
 41
3.069090876427146
 42
3.639513831164403
  0
ELLIPSE
  5
23F2
330
1F
100
AcDbEntity
  8
AM_0
 48
0.5
100
AcDbEllipse
 10
-5.205082155376572
 20
4.195905035795147
 30
0.0
 11
-7.175910567479305
 21
0.0000000000029705
 31
0.0
210
0.0
220
0.0
230
0.9999999999999998
 40
0.8400000000000625
 41
2.081379652023706
 42
2.169874429703217
  0
ELLIPSE
  5
23F3
330
1F
100
AcDbEntity
  8
AM_0
 48
0.5
100
AcDbEllipse
 10
1.846756613476598
 20
3.00140252318134
 30
0.0
 11
4.591348584893103
 21
3.19519724627673
 31
0.0
210
0.0
220
0.0
230
0.9999999999999998
 40
0.6621137035070224
 41
2.947508093306014
 42
3.503451076239347
  0
ELLIPSE
  5
2400
330
1F
100
AcDbEntity
  8
AM_0
 48
0.5
100
AcDbEllipse
 10
-0.9398797390626304
 20
-0.6515372732665458
 30
0.0
 11
-0.0991259485215853
 21
0.4078009665651779
 31
0.0
210
0.0
220
0.0
230
1.0
 40
0.5867286773575079
 41
1.752133309269087
 42
4.88747519898106
  0
ELLIPSE
  5
2401
330
1F
100
AcDbEntity
  8
AM_0
 48
0.5
100
AcDbEllipse
 10
-0.9398797390626304
 20
-0.6515372732665458
 30
0.0
 11
-0.4386635371772709
 21
0.1920153369392526
 31
0.0
210
0.0
220
0.0
230
1.0
 40
0.450686344502326
 41
4.397579333833926
 42
7.541019675163436
  0
SPLINE
  5
2402
330
1F
100
AcDbEntity
  8
AM_0
 48
0.5
100
AcDbSpline
210
0.0
220
0.0
230
1.0
 70
     8
 71
     3
 72
    16
 73
    12
 74
     0
 42
0.0000000001
 43
0.0000000001
 40
0.0
 40
0.0
 40
0.0
 40
0.0
 40
1.010743614677189
 40
2.022833924044153
 40
3.037578959561199
 40
4.056212747067873
 40
5.079857613375832
 40
6.109500119648989
 40
7.14596120163808
 40
8.18989512056258
 40
9.047977149507229
 40
9.047977149507229
 40
9.047977149507229
 40
9.047977149507229
 10
-2.74254369354029
 20
2.499998714587636
 30
0.0
 10
-2.909673291517406
 20
2.498512347075022
 30
0.0
 10
-3.244155167624005
 20
2.495537631643307
 30
0.0
 10
-3.745755622755061
 20
2.471534231714082
 30
0.0
 10
-4.247335427286532
 20
2.433389572983918
 30
0.0
 10
-4.748884037822752
 20
2.379922619040006
 30
0.0
 10
-5.250395481065082
 20
2.311858504503698
 30
0.0
 10
-5.751863631546996
 20
2.229512798969126
 30
0.0
 10
-6.253281758723113
 20
2.133415588975511
 30
0.0
 10
-6.723656438987426
 20
2.030968403414819
 30
0.0
 10
-7.025996958146769
 20
1.958192608790603
 30
0.0
 10
-7.16199042783608
 20
1.924207548367218
 30
0.0
  0
SPLINE
  5
2403
330
1F
100
AcDbEntity
  8
AM_0
 48
0.5
100
AcDbSpline
210
0.0
220
0.0
230
1.0
 70
     8
 71
     3
 72
    16
 73
    12
 74
     0
 42
0.0000000001
 43
0.0000000001
 40
0.0
 40
0.0
 40
0.0
 40
0.0
 40
1.010743614677189
 40
2.022833924044153
 40
3.037578959561199
 40
4.056212747067873
 40
5.079857613375832
 40
6.109500119648989
 40
7.14596120163808
 40
8.18989512056258
 40
8.545190612624931
 40
8.545190612624931
 40
8.545190612624931
 40
8.545190612624931
 10
-2.74254369354029
 20
2.499998714587636
 30
0.0
 10
-2.909664000199863
 20
2.499983691714475
 30
0.0
 10
-3.244159486506345
 20
2.494853910472677
 30
0.0
 10
-3.745754457534886
 20
2.471718037183854
 30
0.0
 10
-4.247335756534216
 20
2.433340102845354
 30
0.0
 10
-4.748883891142003
 20
2.379935828966574
 30
0.0
 10
-5.250395738293804
 20
2.31185545014018
 30
0.0
 10
-5.751862742426937
 20
2.229511686144473
 30
0.0
 10
-6.253285089356562
 20
2.133423201246431
 30
0.0
 10
-6.643164204281106
 20
2.048476211825704
 30
0.0
 10
-6.866011134924904
 20
1.99623171005302
 30
0.0
 10
-6.922523871959803
 20
1.982749637179851
 30
0.0
  0
SPLINE
  5
2405
330
1F
100
AcDbEntity
  8
AM_0
 48
0.5
100
AcDbSpline
210
0.0
220
0.0
230
1.0
 70
     8
 71
     3
 72
    10
 73
     6
 74
     0
 42
0.0000000001
 43
0.0000000001
 40
0.0
 40
0.0
 40
0.0
 40
0.0
 40
2.69986029516136
 40
4.147722969032201
 40
6.285750005020438
 40
6.285750005020438
 40
6.285750005020438
 40
6.285750005020438
 10
-3.066416951040747
 20
0.452515081714744
 30
0.0
 10
-2.97045690036358
 20
0.2202181127998612
 30
0.0
 10
-2.422008185637253
 20
-0.1366078742440124
 30
0.0
 10
-1.125000649751355
 20
0.0361378371478517
 30
0.0
 10
-1.369264894548796
 20
0.6179682507755366
 30
0.0
 10
-1.530659100828789
 20
0.9726118077760261
 30
0.0
  0
LINE
  5
24F6
330
1F
100
AcDbEntity
  8
AM_0
100
AcDbLine
 10
-0.9130250481693391
 20
2.508512819831071
 30
0.0
 11
-0.0000006091721397
 21
-0.0000012097239415
 31
0.0
  0
LINE
  5
24F7
330
1F
100
AcDbEntity
  8
AM_0
100
AcDbLine
 10
-0.9099262223859787
 20
-2.500001285412377
 30
0.0
 11
-0.0000006091721397
 21
-0.0000012097239393
 31
0.0
  0
SPLINE
  5
2741
330
1F
100
AcDbEntity
  8
AM_0
100
AcDbSpline
210
0.0
220
0.0
230
1.0
 70
     8
 71
     3
 72
    55
 73
    51
 74
     0
 42
0.0000000001
 43
0.0000000001
 40
0.0
 40
0.0
 40
0.0
 40
0.0
 40
1.010743684496582
 40
2.022833576467832
 40
3.037578957496688
 40
4.056212745003489
 40
5.079857003664532
 40
6.109500240690281
 40
7.145961322679372
 40
8.189895241603872
 40
9.241717795325891
 40
10.30168407291828
 40
11.36983447792315
 40
12.44600489715814
 40
13.52984294512926
 40
14.62081576220742
 40
15.7182257034828
 40
16.82123173843959
 40
17.92886860250316
 40
19.0400688939571
 40
20.15368796660465
 40
21.26852814259644
 40
22.38336992938901
 40
23.49698739941135
 40
24.6081876908653
 40
25.71582455492886
 40
26.81883757994213
 40
27.91624752121713
 40
29.00722033829659
 40
30.09105838626677
 40
31.16722880550176
 40
32.23537921050758
 40
33.29534548809967
 40
34.347168041821
 40
35.39108718934584
 40
36.42754827133493
 40
37.45720575381954
 40
38.48085062012849
 40
39.49948440763516
 40
40.51422944315121
 40
41.52631975251916
 40
42.53706336719636
 40
43.54780698187354
 40
44.55989729124051
 40
45.57464232675757
 40
46.59327611426424
 40
47.6169209805722
 40
48.64656348684535
 40
49.68302456883444
 40
50.58557219878025
 40
50.58557219878025
 40
50.58557219878025
 40
50.58557219878025
 10
-2.527329904898117
 20
-2.500001285412359
 30
0.0
 10
-2.681344404873898
 20
-2.49851384597856
 30
0.0
 10
-2.989578536427328
 20
-2.495536985993387
 30
0.0
 10
-3.451817561481798
 20
-2.471540152568103
 30
0.0
 10
-3.914036855295141
 20
-2.43339145609416
 30
0.0
 10
-4.376227542272131
 20
-2.379924607081758
 30
0.0
 10
-4.83838501047728
 20
-2.311864183844808
 30
0.0
 10
-5.300500142577047
 20
-2.229512840239278
 30
0.0
 10
-5.762574484326067
 20
-2.133425324268197
 30
0.0
 10
-6.224603938058761
 20
-2.024190029905028
 30
0.0
 10
-6.686585356512495
 20
-1.902477655230511
 30
0.0
 10
-7.148521042409241
 20
-1.769052176238914
 30
0.0
 10
-7.610412232904891
 20
-1.624730166008713
 30
0.0
 10
-8.072264698959893
 20
-1.470410065713877
 30
0.0
 10
-8.534080555106875
 20
-1.307040205434782
 30
0.0
 10
-8.995864083643219
 20
-1.135628103257359
 30
0.0
 10
-9.457620405810748
 20
-0.957231234964874
 30
0.0
 10
-9.919353574229484
 20
-0.7729466568915643
 30
0.0
 10
-10.38106807007243
 20
-0.5839077908810513
 30
0.0
 10
-10.84276883388088
 20
-0.3912781486946902
 30
0.0
 10
-11.30445991521008
 20
-0.1962419382087971
 30
0.0
 10
-11.76614783385319
 20
-0.0000017955030785
 30
0.0
 10
-12.22783367990386
 20
0.1962418796475073
 30
0.0
 10
-12.68952630872092
 20
0.3912750529037207
 30
0.0
 10
-13.1512265025536
 20
0.583905278169042
 30
0.0
 10
-13.61294182162838
 20
0.7729448643333761
 30
0.0
 10
-14.07467690553779
 20
0.9572278696897367
 30
0.0
 10
-14.53643395647879
 20
1.135625642702562
 30
0.0
 10
-14.99821755168132
 20
1.307037605882441
 30
0.0
 10
-15.46003339102429
 20
1.470407500517604
 30
0.0
 10
-15.92188585826191
 20
1.624727601038179
 30
0.0
 10
-16.3837770605223
 20
1.769049576758812
 30
0.0
 10
-16.84571269874224
 20
1.902475191990098
 30
0.0
 10
-17.30769213176954
 20
2.024186491945906
 30
0.0
 10
-17.76971872838372
 20
2.133423217018895
 30
0.0
 10
-18.23179289872713
 20
2.22951266518904
 30
0.0
 10
-18.69391133048384
 20
2.311854603127972
 30
0.0
 10
-19.15607032552666
 20
2.379936092504689
 30
0.0
 10
-19.61826114951765
 20
2.433339563468692
 30
0.0
 10
-20.08048076449501
 20
2.47171992307939
 30
0.0
 10
-20.54271939762586
 20
2.49484692685446
 30
0.0
 10
-21.00496818817036
 20
2.5025728935651
 30
0.0
 10
-21.46721697803473
 20
2.494846926842355
 30
0.0
 10
-21.92945561320996
 20
2.471719923128
 30
0.0
 10
-22.39167522066054
 20
2.433339563285567
 30
0.0
 10
-22.8538660728712
 20
2.379936093192911
 30
0.0
 10
-23.31602270871238
 20
2.311854932448411
 30
0.0
 10
-23.77813931989834
 20
2.229513507090885
 30
0.0
 10
-24.2192039804968
 20
2.137785069619847
 30
0.0
 10
-24.50537175528021
 20
2.070703196126576
 30
0.0
 10
-24.63813692371547
 20
2.038010926722445
 30
0.0
  0
SPLINE
  5
2742
330
1F
100
AcDbEntity
  8
AM_0
100
AcDbSpline
210
0.0
220
0.0
230
1.0
 70
     8
 71
     3
 72
    46
 73
    42
 74
     0
 42
0.0000000001
 43
0.0000000001
 40
0.0
 40
0.0
 40
0.0
 40
0.0
 40
0.8427075293422852
 40
1.265518104770559
 40
1.68994884956506
 40
2.116467290673827
 40
2.54548530610122
 40
2.977344090263342
 40
3.412310401731623
 40
3.850575907619846
 40
4.292228523283339
 40
4.737291192035372
 40
5.185695533383686
 40
5.637294720037921
 40
6.091866727153826
 40
6.549120869352287
 40
7.008706717250554
 40
7.470222077277051
 40
7.933222198716569
 40
8.397230145652669
 40
8.861746885649248
 40
9.326263625646204
 40
9.790271572582303
 40
10.25327169402144
 40
10.71478705404793
 40
11.17437290194659
 40
11.6316270441445
 40
12.08619905126056
 40
12.53780120194721
 40
12.98620554329551
 40
13.43126821204755
 40
13.87292082771091
 40
14.3111802250952
 40
14.74614653656348
 40
15.17800532072561
 40
15.60702303167235
 40
16.03354172596774
 40
16.45797877828845
 40
16.88078920975347
 40
17.30249350532345
 40
17.72363667810562
 40
17.72363667810562
 40
17.72363667810562
 40
17.72363667810562
 10
-1.233374723311918
 20
-2.500001285412372
 30
0.0
 10
-1.541623914693795
 20
-2.494306092160084
 30
0.0
 10
-2.004530580282877
 20
-2.485753456850697
 30
0.0
 10
-2.62007776006024
 20
-2.433096452453516
 30
0.0
 10
-3.082273412796618
 20
-2.380004184637062
 30
0.0
 10
-3.544429558807455
 20
-2.311842731325703
 30
0.0
 10
-4.006544980615215
 20
-2.229518460052813
 30
0.0
 10
-4.468617304242353
 20
-2.13342495096882
 30
0.0
 10
-4.930645755787151
 20
-2.024188192285611
 30
0.0
 10
-5.39262827905981
 20
-1.90247891387201
 30
0.0
 10
-5.85456579745259
 20
-1.769052001807829
 30
0.0
 10
-6.316457068494028
 20
-1.624730213282951
 30
0.0
 10
-6.778309512714512
 20
-1.47041005289492
 30
0.0
 10
-7.240125374809252
 20
-1.307040208957906
 30
0.0
 10
-7.701908901605802
 20
-1.135628102102966
 30
0.0
 10
-8.163665224734071
 20
-0.9572312360356963
 30
0.0
 10
-8.625398391049861
 20
-0.7729466537502031
 30
0.0
 10
-9.087112894381865
 20
-0.5839078024350214
 30
0.0
 10
-9.548813630220015
 20
-0.3912781054508819
 30
0.0
 10
-10.01050481623073
 20
-0.1962421000274397
 30
0.0
 10
-10.47219212118382
 20
-0.0000012854519843
 30
0.0
 10
-10.93387942603546
 20
0.1962395293619432
 30
0.0
 10
-11.39557061235042
 20
0.391275534070319
 30
0.0
 10
-11.85727134707657
 20
0.5839052336677107
 30
0.0
 10
-12.31898585453195
 20
0.7729440752912849
 30
0.0
 10
-12.78071900555864
 20
0.957228693512286
 30
0.0
 10
-13.24247538530764
 20
1.135625426497713
 30
0.0
 10
-13.70425970656269
 20
1.307038398266242
 30
0.0
 10
-14.16607736305108
 20
1.470406757905409
 30
0.0
 10
-14.62793063114554
 20
1.624727709594373
 30
0.0
 10
-15.08982189143283
 20
1.769049541062666
 30
0.0
 10
-15.55175751223877
 20
1.902475227047548
 30
0.0
 10
-16.01373695741687
 20
2.024186388200589
 30
0.0
 10
-16.47576352299252
 20
2.13342359312791
 30
0.0
 10
-16.93783557919647
 20
2.229510815270054
 30
0.0
 10
-17.39995133979897
 20
2.31185896382569
 30
0.0
 10
-17.86211043532601
 20
2.379923081707707
 30
0.0
 10
-18.32430370648536
 20
2.433389109198949
 30
0.0
 10
-18.78652557331747
 20
2.471534304500394
 30
0.0
 10
-19.24876421845953
 20
2.495537613495008
 30
0.0
 10
-19.55699847909819
 20
2.498512341028401
 30
0.0
 10
-19.71101300647089
 20
2.499998714587815
 30
0.0
  0
SPLINE
  5
2743
330
1F
100
AcDbEntity
  8
AM_0
 48
0.5
100
AcDbSpline
210
0.0
220
0.0
230
1.0
 70
     8
 71
     3
 72
    25
 73
    21
 74
     0
 42
0.0000000001
 43
0.0000000001
 40
6.846175049578289
 40
6.846175049578289
 40
6.846175049578289
 40
6.846175049578289
 40
7.604337694224321
 40
8.711974558287883
 40
9.814980593243754
 40
10.91239053451967
 40
12.0033633515982
 40
13.08720139956839
 40
14.16337181880432
 40
15.23152222380919
 40
16.29148850140128
 40
17.34331105512262
 40
18.38723020264746
 40
19.42369128463655
 40
20.45333379090873
 40
21.47697865721768
 40
22.49561244472435
 40
23.5103574802404
 40
24.52244778960836
 40
25.53320666051913
 40
25.53320666051913
 40
25.53320666051913
 40
25.53320666051913
 10
-3.066416951040747
 20
0.452515081714744
 30
0.0
 10
-3.17142183457749
 20
0.4964106354811138
 30
0.0
 10
-3.430054472359071
 20
0.6039960975459234
 30
0.0
 10
-3.84269921998905
 20
0.7729440018976909
 30
0.0
 10
-4.304432335450668
 20
0.9572286865808919
 30
0.0
 10
-4.766188671770546
 20
1.135625526286395
 30
0.0
 10
-5.227972196296168
 20
1.307037636919643
 30
0.0
 10
-5.689788054435604
 20
1.470407491770713
 30
0.0
 10
-6.151640516534941
 20
1.624727605263216
 30
0.0
 10
-6.613531720727839
 20
1.769049568601292
 30
0.0
 10
-7.075467356329002
 20
1.902475220115934
 30
0.0
 10
-7.537446797822453
 20
2.024186388699057
 30
0.0
 10
-7.999473363509574
 20
2.133423597933048
 30
0.0
 10
-8.461545422877367
 20
2.22951079576133
 30
0.0
 10
-8.923661170838833
 20
2.311859036408389
 30
0.0
 10
-9.385818035937049
 20
2.379922477539032
 30
0.0
 10
-9.848008827196752
 20
2.433389610979607
 30
0.0
 10
-10.31022845080635
 20
2.471534220403396
 30
0.0
 10
-10.77246940354853
 20
2.495537759595774
 30
0.0
 10
-11.08070599324799
 20
2.498512382222191
 30
0.0
 10
-11.23472284750256
 20
2.499998714587728
 30
0.0
  0
SPLINE
  5
2744
330
1F
100
AcDbEntity
  8
AM_0
100
AcDbSpline
210
0.0
220
0.0
230
1.0
 70
     8
 71
     3
 72
    11
 73
     7
 74
     0
 42
0.0000000001
 43
0.0000000001
 40
11.27226913003534
 40
11.27226913003534
 40
11.27226913003534
 40
11.2722691300354
 40
12.28301561507924
 40
13.29510212255852
 40
14.30984805882082
 40
15.18258238371378
 40
15.18258238371378
 40
15.18258238371378
 40
15.18258238371378
 10
-11.2347228475026
 20
-2.500001285412273
 30
0.0
 10
-11.38815170650226
 20
-2.487765558917015
 30
0.0
 10
-11.69472002849801
 20
-2.458143397592558
 30
0.0
 10
-12.15298944982939
 20
-2.398388171176897
 30
0.0
 10
-12.58789521122108
 20
-2.327017105128438
 30
0.0
 10
-12.86916672923318
 20
-2.272152042517802
 30
0.0
 10
-12.9987846539323
 20
-2.245050217015783
 30
0.0
  0
SPLINE
  5
2745
330
1F
100
AcDbEntity
  8
AM_0
100
AcDbSpline
210
0.0
220
0.0
230
1.0
 70
     8
 71
     3
 72
    17
 73
    13
 74
     0
 42
0.0000000001
 43
0.0000000001
 40
1.580019955310467
 40
1.580019955310467
 40
1.580019955310467
 40
1.580019955310467
 40
2.030549285115227
 40
3.082371838836284
 40
4.126290986361125
 40
5.162752068350215
 40
6.192395305374981
 40
7.216039564037012
 40
8.234688489606833
 40
9.249433870634691
 40
10.26152376260694
 40
11.27226744710342
 40
11.27226744710342
 40
11.27226744710342
 40
11.27226744710352
 10
-6.880686703410509
 20
-1.845074901888214
 30
0.0
 10
-6.946085809985031
 20
-1.864077627365341
 30
0.0
 10
-7.164540797571382
 20
-1.926361598293424
 30
0.0
 10
-7.537497635951075
 20
-2.024056235253272
 30
0.0
 10
-7.999459853462171
 20
-2.13346126856819
 30
0.0
 10
-8.461549248739235
 20
-2.229504361932419
 30
0.0
 10
-8.923659816791079
 20
-2.311862981052448
 30
0.0
 10
-9.385820730961105
 20
-2.379938045355467
 30
0.0
 10
-9.848013574502516
 20
-2.433341080466449
 30
0.0
 10
-10.31023519787018
 20
-2.471726016849
 30
0.0
 10
-10.77247421312031
 20
-2.494845766209911
 30
0.0
 10
-11.0807083495587
 20
-2.500001299717405
 30
0.0
 10
-11.23472284750257
 20
-2.500001285412273
 30
0.0
  0
SPLINE
  5
2746
330
1F
100
AcDbEntity
  8
AM_0
100
AcDbSpline
210
0.0
220
0.0
230
1.0
 70
     8
 71
     3
 72
    11
 73
     7
 74
     0
 42
0.0000000001
 43
0.0000000001
 40
11.27226913003534
 40
11.27226913003534
 40
11.27226913003534
 40
11.2722691300354
 40
12.28301561507924
 40
13.29510212255852
 40
14.30984805882082
 40
15.18258238371378
 40
15.18258238371378
 40
15.18258238371378
 40
15.18258238371378
 10
-27.6903409844641
 20
-2.500001285412157
 30
0.0
 10
-27.84376984346377
 20
-2.487765558916899
 30
0.0
 10
-28.15033816545951
 20
-2.458143397592443
 30
0.0
 10
-28.6086075867909
 20
-2.398388171176782
 30
0.0
 10
-29.04351334818258
 20
-2.327017105128323
 30
0.0
 10
-29.32478486619468
 20
-2.272152042517687
 30
0.0
 10
-29.45440279089381
 20
-2.245050217015669
 30
0.0
  0
SPLINE
  5
2747
330
1F
100
AcDbEntity
  8
AM_0
100
AcDbSpline
210
0.0
220
0.0
230
1.0
 70
     8
 71
     3
 72
    17
 73
    13
 74
     0
 42
0.0000000001
 43
0.0000000001
 40
1.580019955310467
 40
1.580019955310467
 40
1.580019955310467
 40
1.580019955310467
 40
2.030549285115227
 40
3.082371838836284
 40
4.126290986361125
 40
5.162752068350215
 40
6.192395305374981
 40
7.216039564037012
 40
8.234688489606833
 40
9.249433870634691
 40
10.26152376260694
 40
11.27226744710342
 40
11.27226744710342
 40
11.27226744710342
 40
11.27226744710352
 10
-23.33630484037202
 20
-1.8450749018881
 30
0.0
 10
-23.40170394694654
 20
-1.864077627365226
 30
0.0
 10
-23.62015893453289
 20
-1.92636159829331
 30
0.0
 10
-23.99311577291258
 20
-2.024056235253157
 30
0.0
 10
-24.45507799042367
 20
-2.133461268568077
 30
0.0
 10
-24.91716738570074
 20
-2.229504361932304
 30
0.0
 10
-25.37927795375258
 20
-2.311862981052334
 30
0.0
 10
-25.84143886792261
 20
-2.379938045355352
 30
0.0
 10
-26.30363171146401
 20
-2.433341080466334
 30
0.0
 10
-26.76585333483168
 20
-2.471726016848887
 30
0.0
 10
-27.22809235008181
 20
-2.494845766209798
 30
0.0
 10
-27.53632648652021
 20
-2.50000129971729
 30
0.0
 10
-27.69034098446407
 20
-2.500001285412157
 30
0.0
  0
LINE
  5
2748
330
1F
100
AcDbEntity
  8
AM_11
 48
0.2
100
AcDbLine
 10
-26.56168154910998
 20
2.500353884958179
 30
0.0
 11
-21.00495720098153
 21
2.499998714587829
 31
0.0
  0
SPLINE
  5
2749
330
1F
100
AcDbEntity
  8
AM_0
100
AcDbSpline
210
0.0
220
0.0
230
1.0
 70
     8
 71
     3
 72
    23
 73
    19
 74
     0
 42
0.0000000001
 43
0.0000000001
 40
16.03460024169435
 40
16.03460024169435
 40
16.03460024169435
 40
16.03460024169435
 40
16.35212704903564
 40
17.38177054169784
 40
18.41822485651776
 40
19.46214173629503
 40
20.51396345435107
 40
21.57393551351153
 40
22.64208202342361
 40
23.7182574881101
 40
24.80209208578934
 40
25.89306333925047
 40
26.99048218457928
 40
28.09348763352352
 40
29.20111863782268
 40
30.31232390128032
 40
31.42594612798585
 40
32.5407912310448
 40
32.5407912310486
 40
32.5407912310486
 40
32.5407912310486
 10
-26.56168154910998
 20
2.50035388495818
 30
0.0
 10
-26.51419216997981
 20
2.491914325207216
 30
0.0
 10
-26.31291131364166
 20
2.45516241785788
 30
0.0
 10
-25.95835291755573
 20
2.383152664455015
 30
0.0
 10
-25.49919886644465
 20
2.276074948635951
 30
0.0
 10
-25.04047129921337
 20
2.1558445218194
 30
0.0
 10
-24.58214310928413
 20
2.023157216391866
 30
0.0
 10
-24.12419802977723
 20
1.878752767051582
 30
0.0
 10
-23.66660959256461
 20
1.723456650528235
 30
0.0
 10
-23.20934593292672
 20
1.558172651266168
 30
0.0
 10
-22.75238106750011
 20
1.383836762916534
 30
0.0
 10
-22.29567835975452
 20
1.201463405392466
 30
0.0
 10
-21.83920079904264
 20
1.012112611442001
 30
0.0
 10
-21.38291797156653
 20
0.8168730687494159
 30
0.0
 10
-20.92679170069618
 20
0.6168800685185003
 30
0.0
 10
-20.47077973947881
 20
0.4133014231443186
 30
0.0
 10
-20.01484495566819
 20
0.2073168157496617
 30
0.0
 10
-19.7109700757437
 20
0.0692153996134663
 30
0.0
 10
-19.5589497672272
 20
0.0001258711627565
 30
0.0
  0
LINE
  5
274A
330
1F
100
AcDbEntity
  8
AM_11
 48
0.2
100
AcDbLine
 10
-27.69034098446301
 20
-2.500001285412156
 30
0.0
 11
-18.98294804185963
 21
-2.500356455782531
 31
0.0
  0
ELLIPSE
  5
274B
330
1F
100
AcDbEntity
  8
AM_0
 48
0.5
100
AcDbEllipse
 10
-44.2255707542409
 20
-1.692057941295718
 30
0.0
 11
-0.6841399768308777
 21
0.0000000000000178
 31
0.0
210
0.0
220
0.0
230
1.0
 40
0.9135557359111947
 41
4.3170288244831
 42
6.283185307179598
  0
ELLIPSE
  5
274C
330
1F
100
AcDbEntity
  8
AM_0
 48
0.5
100
AcDbEllipse
 10
-43.99735706893594
 20
-1.666667952078635
 30
0.0
 11
-0.9121866357745103
 21
0.000000000000044
 31
0.0
210
0.0
220
0.0
230
1.0
 40
0.9135557359111889
 41
0.0000000000000366
 42
1.570796012878425
  0
SPLINE
  5
274D
330
1F
100
AcDbEntity
  8
AM_0
100
AcDbSpline
210
0.0
220
0.0
230
1.0
 70
     8
 71
     3
 72
    13
 73
     9
 74
     0
 42
0.0000000001
 43
0.0000000001
 40
16.03460056234195
 40
16.03460056234195
 40
16.03460056234195
 40
16.03460056234195
 40
16.35212717791071
 40
17.38177067057215
 40
18.41822498539278
 40
19.46214186516937
 40
20.5139635832251
 40
21.34083983469381
 40
21.34083983469381
 40
21.34083983469381
 40
21.34083983469381
 10
-43.91439414882275
 20
-2.50022864939387
 30
0.0
 10
-43.86701005448428
 20
-2.491789338195637
 30
0.0
 10
-43.66617535655746
 20
-2.455038439200144
 30
0.0
 10
-43.31240335890375
 20
-2.383027845066508
 30
0.0
 10
-42.85426738842978
 20
-2.275950426148307
 30
0.0
 10
-42.39655702940917
 20
-2.155719918925979
 30
0.0
 10
-41.97302437466805
 20
-2.032833549537823
 30
0.0
 10
-41.70281799931285
 20
-1.948217538845067
 30
0.0
 10
-41.58428008190496
 20
-1.909970330990709
 30
0.0
  0
SPLINE
  5
274E
330
1F
100
AcDbEntity
  8
AM_0
 48
0.5
100
AcDbSpline
210
0.0
220
0.0
230
1.0
 70
     8
 71
     3
 72
    22
 73
    18
 74
     0
 42
0.0000000001
 43
0.0000000001
 40
0.0
 40
0.0
 40
0.0
 40
0.0
 40
1.010743684496582
 40
2.022833993863546
 40
3.037578683882831
 40
4.056212471389632
 40
5.079857945358201
 40
6.109499720892564
 40
7.145961650132166
 40
8.189873411961459
 40
9.241710626092514
 40
10.30166235592959
 40
11.36982472628033
 40
12.44598212828784
 40
13.52983440361964
 40
14.62080578343036
 40
14.90544694398022
 40
14.90544694398022
 40
14.90544694398022
 40
14.90544694398022
 10
-37.45744336290651
 20
-2.500001285412052
 30
0.0
 10
-37.61111637710698
 20
-2.4985142903538
 30
0.0
 10
-37.91866714574621
 20
-2.495538319097524
 30
0.0
 10
-38.37988070855446
 20
-2.471534801078074
 30
0.0
 10
-38.84107556620085
 20
-2.433392527073007
 30
0.0
 10
-39.30224162660122
 20
-2.379925628771898
 30
0.0
 10
-39.76337304069984
 20
-2.311858855793568
 30
0.0
 10
-40.22446499783574
 20
-2.229514434521793
 30
0.0
 10
-40.68551074137523
 20
-2.133424629378088
 30
0.0
 10
-41.14651344162971
 20
-2.024185542335703
 30
0.0
 10
-41.60746894659141
 20
-1.902479243991831
 30
0.0
 10
-42.06837966516849
 20
-1.769046452587606
 30
0.0
 10
-42.52924856854162
 20
-1.62473626198095
 30
0.0
 10
-42.99007531054413
 20
-1.470406590145907
 30
0.0
 10
-43.45086852422219
 20
-1.307040586965345
 30
0.0
 10
-43.79718682657105
 20
-1.178208817909673
 30
0.0
 10
-43.99016746989178
 20
-1.104572719903264
 30
0.0
 10
-44.03006944983559
 20
-1.089271794175643
 30
0.0
  0
SPLINE
  5
274F
330
1F
100
AcDbEntity
  8
AM_0
 48
0.5
100
AcDbSpline
210
0.0
220
0.0
230
1.0
 70
     8
 71
     3
 72
    26
 73
    22
 74
     0
 42
0.0000000001
 43
0.0000000001
 40
0.0
 40
0.0
 40
0.0
 40
0.0
 40
0.4211432018735474
 40
0.8428473235286537
 40
1.265657898956934
 40
1.690088643751428
 40
2.116607084860617
 40
2.545625100287603
 40
2.977483884449724
 40
3.412450195918404
 40
3.850709593302191
 40
4.292362208965671
 40
4.737427885281768
 40
5.185826256336565
 40
5.637431371058531
 40
6.092003378174421
 40
6.549257520372505
 40
7.008843368271169
 40
7.470358728297647
 40
7.933358849736796
 40
8.383035712276667
 40
8.383035712276667
 40
8.383035712276667
 40
8.383035712276667
 10
-36.16635742599889
 20
-2.50000128541207
 30
0.0
 10
-36.32003041085355
 20
-2.498513846043089
 30
0.0
 10
-36.62758105730159
 20
-2.495536986187627
 30
0.0
 10
-37.08879510309753
 20
-2.471540151787639
 30
0.0
 10
-37.54998946274364
 20
-2.433391459032892
 30
0.0
 10
-38.01115527393854
 20
-2.37992459604025
 30
0.0
 10
-38.47228795900376
 20
-2.311864225374646
 30
0.0
 10
-38.93337833038747
 20
-2.22951268382526
 30
0.0
 10
-39.39442608134667
 20
-2.133426370359419
 30
0.0
 10
-39.85542806754591
 20
-2.024188864852159
 30
0.0
 10
-40.31638319913185
 20
-1.902477967773622
 30
0.0
 10
-40.77729526978245
 20
-1.769051217870727
 30
0.0
 10
-41.23816236962866
 20
-1.624732482316164
 30
0.0
 10
-41.69898972042441
 20
-1.470407048021048
 30
0.0
 10
-42.15978348374912
 20
-1.307041900375089
 30
0.0
 10
-42.62054465520481
 20
-1.135628054463653
 30
0.0
 10
-43.08127666952404
 20
-0.9572304652740832
 30
0.0
 10
-43.54198798750807
 20
-0.7729498074153921
 30
0.0
 10
-44.00267099539099
 20
-0.5838958948407463
 30
0.0
 10
-44.45862178789362
 20
-0.3933103231133325
 30
0.0
 10
-44.76070634257961
 20
-0.265273599147664
 30
0.0
 10
-44.90954370471045
 20
-0.2021897772331971
 30
0.0
  0
LINE
  5
2750
330
1F
100
AcDbEntity
  8
AM_11
 48
0.2
100
AcDbLine
 10
-43.91460246622922
 20
-2.500001285411959
 30
0.0
 11
-37.45743988319043
 21
-2.500001285412051
 31
0.0
  0
LINE
  5
2751
330
1F
100
AcDbEntity
  8
AM_11
 48
0.2
100
AcDbLine
 10
-43.0018351455396
 20
2.500353884958322
 30
0.0
 11
-37.45743988319033
 21
2.49999871458795
 31
0.0
  0
SPLINE
  5
2752
330
1F
100
AcDbEntity
  8
AM_0
100
AcDbSpline
210
0.0
220
0.0
230
1.0
 70
     8
 71
     3
 72
    23
 73
    19
 74
     0
 42
0.0000000001
 43
0.0000000001
 40
16.03460024169435
 40
16.03460024169435
 40
16.03460024169435
 40
16.03460024169435
 40
16.35212704903564
 40
17.38177054169784
 40
18.41822485651776
 40
19.46214173629503
 40
20.51396345435107
 40
21.57393551351153
 40
22.64208202342361
 40
23.7182574881101
 40
24.80209208578934
 40
25.89306333925047
 40
26.99048218457928
 40
28.09348763352352
 40
29.20111863782268
 40
30.31232390128032
 40
31.42594612798585
 40
32.5407912310448
 40
32.5407912310486
 40
32.5407912310486
 40
32.5407912310486
 10
-43.00183514553959
 20
2.500353884958321
 30
0.0
 10
-42.95445107040318
 20
2.491914325207358
 30
0.0
 10
-42.75361653866281
 20
2.45516241785802
 30
0.0
 10
-42.39984434816242
 20
2.383152664455156
 30
0.0
 10
-41.94170843534278
 20
2.276074948636089
 30
0.0
 10
-41.48399806070822
 20
2.155844521819536
 30
0.0
 10
-41.02668617778769
 20
2.023157216392001
 30
0.0
 10
-40.56975655577202
 20
1.878752767051715
 30
0.0
 10
-40.1131827852242
 20
1.723456650528366
 30
0.0
 10
-39.65693307208212
 20
1.558172651266296
 30
0.0
 10
-39.20098149059847
 20
1.383836762916661
 30
0.0
 10
-38.74529148548165
 20
1.201463405392591
 30
0.0
 10
-38.28982612815252
 20
1.012112611442124
 30
0.0
 10
-37.83455507225341
 20
0.8168730687495367
 30
0.0
 10
-37.379440225808
 20
0.616880068518619
 30
0.0
 10
-36.92443943554285
 20
0.4133014231444353
 30
0.0
 10
-36.46951565154955
 20
0.2073168157497766
 30
0.0
 10
-36.16631459046717
 20
0.0692153996135799
 30
0.0
 10
-36.01463137512626
 20
0.0001258711628693
 30
0.0
  0
LINE
  5
2753
330
1F
100
AcDbEntity
  8
AM_0
 48
0.5
100
AcDbLine
 10
-38.90883980972485
 20
1.266702320239635
 30
0.0
 11
-44.90954022499438
 21
-0.2021881877761097
 31
0.0
  0
SPLINE
  5
2754
330
1F
100
AcDbEntity
  8
AM_0
100
AcDbSpline
210
0.0
220
0.0
230
1.0
 70
     8
 71
     3
 72
    22
 73
    18
 74
     0
 42
0.0000000001
 43
0.0000000001
 40
17.17441611292
 40
17.17441611292
 40
17.17441611292
 40
17.17441611292
 40
17.38177636558528
 40
18.41823744757437
 40
19.46215659509824
 40
20.51397914882054
 40
21.57394542641293
 40
22.64209583141747
 40
23.71826625065247
 40
24.80210429862395
 40
25.8930771157021
 40
26.99048705697709
 40
28.09349309193389
 40
29.20112995599786
 40
30.31233024745139
 40
31.42594771747373
 40
32.5407895042663
 40
32.54078950426994
 40
32.54078950426994
 40
32.54078950426994
 10
-29.45460494395173
 20
-2.245019379534785
 30
0.0
 10
-29.48555712737819
 20
-2.23923212473921
 30
0.0
 10
-29.67109856304796
 20
-2.203981323216818
 30
0.0
 10
-30.01100001797668
 20
-2.133298878170453
 30
0.0
 10
-30.47302654852372
 20
-2.024061839259488
 30
0.0
 10
-30.93500599953715
 20
-1.902350624519556
 30
0.0
 10
-31.39694163256598
 20
-1.768924985531736
 30
0.0
 10
-31.85883283742537
 20
-1.624603018735305
 30
0.0
 10
-32.32068529946046
 20
-1.470282906420041
 30
0.0
 10
-32.78250115717798
 20
-1.306913050343628
 30
0.0
 10
-33.24428468347277
 20
-1.135500943456859
 30
0.0
 10
-33.70604101308486
 20
-0.9571040898849837
 30
0.0
 10
-34.16777415378061
 20
-0.7728194572754699
 30
0.0
 10
-34.62948875365059
 20
-0.5837807958284939
 30
0.0
 10
-35.09118890539287
 20
-0.3911504793324935
 30
0.0
 10
-35.55288144869364
 20
-0.1961171409584761
 30
0.0
 10
-35.86061606108266
 20
-0.0653124179829115
 30
0.0
 10
-36.01456790419075
 20
0.0001258711637691
 30
0.0
  0
LINE
  5
2755
330
1F
100
AcDbEntity
  8
AM_0
 48
0.5
100
AcDbLine
 10
-37.4606497959722
 20
-2.500001285412023
 30
0.0
 11
-27.69034098446412
 21
-2.500001285412154
 31
0.0
  0
SPLINE
  5
2756
330
1F
100
AcDbEntity
  8
AM_0
100
AcDbSpline
210
0.0
220
0.0
230
1.0
 70
     8
 71
     3
 72
    46
 73
    42
 74
     0
 42
0.0000000001
 43
0.0000000001
 40
0.0
 40
0.0
 40
0.0
 40
0.0
 40
0.8427075293422831
 40
1.265518104770557
 40
1.689948849565058
 40
2.116467290673825
 40
2.545485306101222
 40
2.97734409026334
 40
3.412310401731621
 40
3.850575907619841
 40
4.292228523283341
 40
4.737291192035375
 40
5.185695533383689
 40
5.637294720037917
 40
6.09186672715383
 40
6.549120869352283
 40
7.008706717250553
 40
7.470222077277046
 40
7.933222198716568
 40
8.397230145652669
 40
8.861746885649248
 40
9.326263625646204
 40
9.790271572582303
 40
10.25327169402144
 40
10.71478705404793
 40
11.17437290194658
 40
11.6316270441445
 40
12.08619905126055
 40
12.5378012019472
 40
12.98620554329551
 40
13.43126821204755
 40
13.87292082771092
 40
14.31118022509521
 40
14.74614653656349
 40
15.17800532072561
 40
15.60702303167235
 40
16.03354172596773
 40
16.45797877828844
 40
16.88078920975346
 40
17.30249350532346
 40
17.72363667810562
 40
17.72363667810562
 40
17.72363667810562
 40
17.72363667810562
 10
-17.68899286027342
 20
-2.500001285412257
 30
0.0
 10
-17.9972420516553
 20
-2.494306092159968
 30
0.0
 10
-18.46014871724438
 20
-2.485753456850582
 30
0.0
 10
-19.07569589702174
 20
-2.433096452453404
 30
0.0
 10
-19.53789154975812
 20
-2.380004184636946
 30
0.0
 10
-20.00004769576896
 20
-2.311842731325588
 30
0.0
 10
-20.46216311757671
 20
-2.229518460052697
 30
0.0
 10
-20.92423544120385
 20
-2.133424950968706
 30
0.0
 10
-21.38626389274866
 20
-2.024188192285497
 30
0.0
 10
-21.8482464160213
 20
-1.902478913871894
 30
0.0
 10
-22.31018393441411
 20
-1.769052001807717
 30
0.0
 10
-22.77207520545553
 20
-1.624730213282836
 30
0.0
 10
-23.23392764967603
 20
-1.470410052894808
 30
0.0
 10
-23.69574351177076
 20
-1.307040208957787
 30
0.0
 10
-24.15752703856731
 20
-1.135628102102856
 30
0.0
 10
-24.61928336169558
 20
-0.9572312360355779
 30
0.0
 10
-25.08101652801136
 20
-0.7729466537500917
 30
0.0
 10
-25.54273103134336
 20
-0.5839078024349042
 30
0.0
 10
-26.00443176718153
 20
-0.3912781054507687
 30
0.0
 10
-26.46612295319224
 20
-0.1962421000273253
 30
0.0
 10
-26.92781025814532
 20
-0.0000012854518699
 30
0.0
 10
-27.38949756299698
 20
0.1962395293620576
 30
0.0
 10
-27.85118874931193
 20
0.3912755340704334
 30
0.0
 10
-28.31288948403809
 20
0.5839052336678252
 30
0.0
 10
-28.77460399149346
 20
0.7729440752913984
 30
0.0
 10
-29.23633714252017
 20
0.957228693512402
 30
0.0
 10
-29.69809352226913
 20
1.135625426497828
 30
0.0
 10
-30.15987784352418
 20
1.307038398266356
 30
0.0
 10
-30.62169550001259
 20
1.470406757905525
 30
0.0
 10
-31.08354876810704
 20
1.624727709594486
 30
0.0
 10
-31.54544002839434
 20
1.769049541062782
 30
0.0
 10
-32.00737564920029
 20
1.902475227047661
 30
0.0
 10
-32.46935509437837
 20
2.024186388200703
 30
0.0
 10
-32.93138165995403
 20
2.133423593128024
 30
0.0
 10
-33.39345371615797
 20
2.229510815270167
 30
0.0
 10
-33.85556947676048
 20
2.311858963825805
 30
0.0
 10
-34.31772857228748
 20
2.379923081707822
 30
0.0
 10
-34.77992184344686
 20
2.433389109199065
 30
0.0
 10
-35.24214371027895
 20
2.47153430450051
 30
0.0
 10
-35.70438235542102
 20
2.495537613495121
 30
0.0
 10
-36.01261661605968
 20
2.498512341028517
 30
0.0
 10
-36.16663114343237
 20
2.499998714587931
 30
0.0
  0
LINE
  5
2757
330
1F
100
AcDbEntity
  8
AM_0
100
AcDbLine
 10
-37.46064630850691
 20
2.499998714587944
 30
0.0
 11
-26.56168154910998
 21
2.500353884958179
 31
0.0
  0
SPLINE
  5
2758
330
1F
100
AcDbEntity
  8
AM_0
100
AcDbSpline
210
0.0
220
0.0
230
1.0
 70
     8
 71
     3
 72
    55
 73
    51
 74
     0
 42
0.0000000001
 43
0.0000000001
 40
0.0
 40
0.0
 40
0.0
 40
0.0
 40
1.010743684496582
 40
2.022833576467832
 40
3.037578957496688
 40
4.056212745003489
 40
5.079857003664532
 40
6.109500240690281
 40
7.145961322679372
 40
8.189895241603872
 40
9.241717795325891
 40
10.30168407291828
 40
11.36983447792315
 40
12.44600489715814
 40
13.52984294512926
 40
14.62081576220742
 40
15.7182257034828
 40
16.82123173843959
 40
17.92886860250316
 40
19.0400688939571
 40
20.15368796660465
 40
21.26852814259644
 40
22.38336992938901
 40
23.49698739941135
 40
24.6081876908653
 40
25.71582455492886
 40
26.81883757994213
 40
27.91624752121713
 40
29.00722033829659
 40
30.09105838626677
 40
31.16722880550176
 40
32.23537921050758
 40
33.29534548809967
 40
34.347168041821
 40
35.39108718934584
 40
36.42754827133493
 40
37.45720575381954
 40
38.48085062012849
 40
39.49948440763516
 40
40.51422944315121
 40
41.52631975251916
 40
42.53706336719636
 40
43.54780698187354
 40
44.55989729124051
 40
45.57464232675757
 40
46.59327611426424
 40
47.6169209805722
 40
48.64656348684535
 40
49.68302456883444
 40
50.58557219878025
 40
50.58557219878025
 40
50.58557219878025
 40
50.58557219878025
 10
-18.98294804185962
 20
-2.500001285412245
 30
0.0
 10
-19.1369625418354
 20
-2.498513845978446
 30
0.0
 10
-19.44519667338884
 20
-2.495536985993271
 30
0.0
 10
-19.9074356984433
 20
-2.471540152567988
 30
0.0
 10
-20.36965499225665
 20
-2.433391456094047
 30
0.0
 10
-20.83184567923363
 20
-2.379924607081645
 30
0.0
 10
-21.29400314743878
 20
-2.311864183844694
 30
0.0
 10
-21.75611827953856
 20
-2.229512840239163
 30
0.0
 10
-22.21819262128757
 20
-2.133425324268082
 30
0.0
 10
-22.68022207502026
 20
-2.024190029904913
 30
0.0
 10
-23.142203493474
 20
-1.902477655230398
 30
0.0
 10
-23.60413917937075
 20
-1.7690521762388
 30
0.0
 10
-24.06603036986641
 20
-1.624730166008597
 30
0.0
 10
-24.52788283592141
 20
-1.470410065713763
 30
0.0
 10
-24.98969869206838
 20
-1.307040205434668
 30
0.0
 10
-25.45148222060473
 20
-1.135628103257245
 30
0.0
 10
-25.91323854277225
 20
-0.9572312349647592
 30
0.0
 10
-26.37497171119099
 20
-0.7729466568914502
 30
0.0
 10
-26.83668620703393
 20
-0.5839077908809366
 30
0.0
 10
-27.29838697084239
 20
-0.3912781486945757
 30
0.0
 10
-27.76007805217159
 20
-0.1962419382086828
 30
0.0
 10
-28.2217659708147
 20
-0.0000017955029641
 30
0.0
 10
-28.68345181686537
 20
0.1962418796476217
 30
0.0
 10
-29.14514444568243
 20
0.3912750529038352
 30
0.0
 10
-29.60684463951512
 20
0.5839052781691566
 30
0.0
 10
-30.06855995858989
 20
0.7729448643334905
 30
0.0
 10
-30.53029504249931
 20
0.9572278696898514
 30
0.0
 10
-30.9920520934403
 20
1.135625642702676
 30
0.0
 10
-31.45383568864282
 20
1.307037605882557
 30
0.0
 10
-31.9156515279858
 20
1.470407500517719
 30
0.0
 10
-32.37750399522342
 20
1.624727601038292
 30
0.0
 10
-32.83939519748381
 20
1.769049576758926
 30
0.0
 10
-33.30133083570373
 20
1.902475191990213
 30
0.0
 10
-33.76331026873105
 20
2.024186491946021
 30
0.0
 10
-34.22533686534523
 20
2.133423217019009
 30
0.0
 10
-34.68741103568864
 20
2.229512665189154
 30
0.0
 10
-35.14952946744532
 20
2.311854603128086
 30
0.0
 10
-35.61168846248814
 20
2.379936092504802
 30
0.0
 10
-36.07387928647913
 20
2.433339563468806
 30
0.0
 10
-36.53609890145649
 20
2.471719923079506
 30
0.0
 10
-36.99833753458735
 20
2.494846926854574
 30
0.0
 10
-37.46058632513186
 20
2.502572893565216
 30
0.0
 10
-37.92283511499621
 20
2.494846926842469
 30
0.0
 10
-38.38507375017144
 20
2.471719923128114
 30
0.0
 10
-38.84729335762202
 20
2.43333956328568
 30
0.0
 10
-39.30948420983269
 20
2.379936093193024
 30
0.0
 10
-39.77164084567387
 20
2.311854932448526
 30
0.0
 10
-40.23375745685983
 20
2.229513507090999
 30
0.0
 10
-40.67482211745828
 20
2.137785069619962
 30
0.0
 10
-40.96098989224169
 20
2.07070319612669
 30
0.0
 10
-41.09375506067697
 20
2.038010926722559
 30
0.0
  0
SPLINE
  5
2759
330
1F
100
AcDbEntity
  8
AM_0
100
AcDbSpline
210
0.0
220
0.0
230
1.0
 70
     8
 71
     3
 72
    22
 73
    18
 74
     0
 42
0.0000000001
 43
0.0000000001
 40
17.17441611292
 40
17.17441611292
 40
17.17441611292
 40
17.17441611292
 40
17.38177636558528
 40
18.41823744757437
 40
19.46215659509824
 40
20.51397914882054
 40
21.57394542641293
 40
22.64209583141747
 40
23.71826625065247
 40
24.80210429862395
 40
25.8930771157021
 40
26.99048705697709
 40
28.09349309193389
 40
29.20112995599786
 40
30.31233024745139
 40
31.42594771747373
 40
32.5407895042663
 40
32.54078950426994
 40
32.54078950426994
 40
32.54078950426994
 10
-12.99898680699022
 20
-2.2450193795349
 30
0.0
 10
-13.02993899041668
 20
-2.239232124739324
 30
0.0
 10
-13.21548042608645
 20
-2.203981323216932
 30
0.0
 10
-13.55538188101517
 20
-2.133298878170568
 30
0.0
 10
-14.01740841156221
 20
-2.024061839259603
 30
0.0
 10
-14.47938786257563
 20
-1.902350624519671
 30
0.0
 10
-14.94132349560446
 20
-1.76892498553185
 30
0.0
 10
-15.40321470046387
 20
-1.624603018735419
 30
0.0
 10
-15.86506716249895
 20
-1.470282906420156
 30
0.0
 10
-16.32688302021647
 20
-1.306913050343744
 30
0.0
 10
-16.78866654651126
 20
-1.135500943456973
 30
0.0
 10
-17.25042287612336
 20
-0.9571040898850981
 30
0.0
 10
-17.7121560168191
 20
-0.7728194572755847
 30
0.0
 10
-18.17387061668909
 20
-0.5837807958286083
 30
0.0
 10
-18.63557076843136
 20
-0.3911504793326075
 30
0.0
 10
-19.09726331173214
 20
-0.1961171409585905
 30
0.0
 10
-19.40499792412116
 20
-0.065312417983026
 30
0.0
 10
-19.55894976722925
 20
0.0001258711636547
 30
0.0
  0
LINE
  5
275A
330
1F
100
AcDbEntity
  8
AM_0
 48
0.5
100
AcDbLine
 10
-18.98294804185962
 20
-2.500001285412244
 30
0.0
 11
-11.23472284750261
 21
-2.500001285412272
 31
0.0
  0
LINE
  5
275B
330
1F
100
AcDbEntity
  8
AM_0
 48
0.5
100
AcDbLine
 10
-21.00496470060785
 20
2.499998714587829
 30
0.0
 11
-11.23472284750256
 21
2.49999871458773
 31
0.0
  0
VIEWPORT
  5
110
330
101
100
AcDbEntity
 67
     1
  8
0
100
AcDbViewport
 10
420.5
 20
297.0
 30
0.0
 40
948.9782706766916
 41
628.452
 68
     1
 69
     1
1001
ACAD
1000
MVIEW
1002
{
1070
    16
1010
0.0
1020
0.0
1030
0.0
1010
0.0
1020
0.0
1030
1.0
1040
0.0
1040
628.452
1040
420.5
1040
297.0
1040
50.0
1040
0.0
1040
0.0
1070
     0
1070
   100
1070
     1
1070
     1
1070
     0
1070
     0
1070
     0
1070
     0
1040
0.0
1040
0.0
1040
0.0
1040
10.0
1040
10.0
1040
10.0
1040
10.0
1070
     0
1002
{
1002
}
1002
}
  0
ENDSEC
  0
SECTION
  2
OBJECTS
  0
DICTIONARY
  5
C
330
0
100
AcDbDictionary
  3
ACAD_GROUP
350
D
  3
ACAD_LAYOUT
350
1A
  3
ACAD_MLINESTYLE
350
17
  3
ACAD_PLOTSETTINGS
350
19
  3
ACAD_PLOTSTYLENAME
350
E
  3
ACDBVARIABLEDICTIONARY
350
34
  3
ACMDICTIONARY
350
43
  3
AMG
350
2B
  3
AMGSNAPSETTINGS
350
6E
  3
DWGPROPS
350
27B4
  3
ACDBHEADERROUNDTRIPXREC
350
27C1
  0
DICTIONARY
  5
74
330
1F
100
AcDbDictionary
280
     1
  3
ACAD_INDEX
360
27B6
  3
ACAD_LAYOUTSELFREF
360
27E4
  0
DICTIONARY
  5
27E9
330
101
100
AcDbDictionary
280
     1
  3
ACAD_LAYOUTSELFREF
360
27EA
  0
DICTIONARY
  5
D
102
{ACAD_REACTORS
330
C
102
}
330
C
100
AcDbDictionary
  0
DICTIONARY
  5
1A
102
{ACAD_REACTORS
330
C
102
}
330
C
100
AcDbDictionary
  0
DICTIONARY
  5
17
102
{ACAD_REACTORS
330
C
102
}
330
C
100
AcDbDictionary
  3
STANDARD
350
18
  0
DICTIONARY
  5
19
102
{ACAD_REACTORS
330
C
102
}
330
C
100
AcDbDictionary
  0
ACDBDICTIONARYWDFLT
  5
E
102
{ACAD_REACTORS
330
C
102
}
330
C
100
AcDbDictionary
281
     1
  3
Normal
350
F
100
AcDbDictionaryWithDefault
340
F
  0
DICTIONARY
  5
34
102
{ACAD_REACTORS
330
C
102
}
330
C
100
AcDbDictionary
  3
INDEXCTL
350
35
  3
SORTENTS
350
B5E
  0
DICTIONARY
  5
43
102
{ACAD_REACTORS
330
C
102
}
330
C
100
AcDbDictionary
  3
ACMSTDDICTIONARY
350
260
  0
DICTIONARY
  5
2B
102
{ACAD_REACTORS
330
C
102
}
330
C
100
AcDbDictionary
  3
ACMGSETTINGS
350
2C
  0
DICTIONARY
  5
6E
102
{ACAD_REACTORS
330
C
102
}
330
C
100
AcDbDictionary
  0
XRECORD
  5
27B4
102
{ACAD_REACTORS
330
C
102
}
330
C
100
AcDbXrecord
  1
DWGPROPS COOKIE
  2

  3

  4

  6

  7

  8

  9

300
AmdtFileType=82
301
=
302
=
303
=
304
=
305
=
306
=
307
=
308
=
309
=
 40
0.0691915509259259
 41
2452800.443498622
 42
2452982.557106562
  1

 90
        1
  0
DICTIONARY
  5
27C1
102
{ACAD_REACTORS
330
C
102
}
330
C
100
AcDbDictionary
  3
TSTACKALIGN
350
27C2
  3
TSTACKSIZE
350
27C3
  3
HYPERLINKBASE
350
27C4
  3
STYLESHEET
350
27C5
  3
LAYOUTDICT
350
27C6
  3
PLOTSETDICT
350
27C7
  3
PLOTSTYLNAMDICT
350
27C8
  3
LWETCUNION
350
27C9
  3
INSUNITS
350
27CA
  3
CEPSNTYPE
350
27CB
  3
FINGERPRINTGUID
350
27CC
  3
VERSIONGUID
350
27CD
  3
PSVPSCALE
350
27CE
  3
DIMSTYLEDATA
350
27CF
  3
PUCSORTHOREF
350
27D0
  3
PUCSORTHOVIEW
350
27D1
  3
PUCSBASE
350
27D2
  3
PUCSORGTOP
350
27D3
  3
PUCSORGBOTTOM
350
27D4
  3
PUCSORGLEFT
350
27D5
  3
PUCSORGRIGHT
350
27D6
  3
PUCSORGFRONT
350
27D7
  3
PUCSORGBACK
350
27D8
  3
UCSORTHOREF
350
27D9
  3
UCSORTHOVIEW
350
27DA
  3
UCSBASE
350
27DB
  3
UCSORGTOP
350
27DC
  3
UCSORGBOTTOM
350
27DD
  3
UCSORGLEFT
350
27DE
  3
UCSORGRIGHT
350
27DF
  3
UCSORGFRONT
350
27E0
  3
UCSORGBACK
350
27E1
  0
DICTIONARY
  5
27B6
102
{ACAD_REACTORS
330
74
102
}
330
74
100
AcDbDictionary
  3
*A1
350
27B7
  0
XRECORD
  5
27E4
102
{ACAD_REACTORS
330
74
102
}
330
74
100
AcDbXrecord
340
1F
  0
XRECORD
  5
27EA
102
{ACAD_REACTORS
330
27E9
102
}
330
27E9
100
AcDbXrecord
340
101
  0
MLINESTYLE
  5
18
102
{ACAD_REACTORS
330
17
102
}
330
17
100
AcDbMlineStyle
  2
STANDARD
 70
     0
  3

 62
   256
 51
90.0
 52
90.0
 71
     2
 49
0.5
 62
   256
  6
BYLAYER
 49
-0.5
 62
   256
  6
BYLAYER
  0
ACDBPLACEHOLDER
  5
F
102
{ACAD_REACTORS
330
E
102
}
330
E
100
AcDbPlaceHolder
280
     0
  0
DICTIONARYVAR
  5
35
102
{ACAD_REACTORS
330
34
102
}
330
34
100
DictionaryVariables
280
     0
  1
1
  0
DICTIONARYVAR
  5
B5E
102
{ACAD_REACTORS
330
34
102
}
330
34
100
DictionaryVariables
280
     0
  1
96
  0
DICTIONARY
  5
260
102
{ACAD_REACTORS
330
43
102
}
330
43
100
AcDbDictionary
  0
DICTIONARY
  5
2C
102
{ACAD_REACTORS
330
2B
102
}
330
2B
100
AcDbDictionary
  3
DWGSETTINGS
350
2D
  0
XRECORD
  5
27C2
102
{ACAD_REACTORS
330
27C1
102
}
330
27C1
100
AcDbXrecord
 90
        1
  0
XRECORD
  5
27C3
102
{ACAD_REACTORS
330
27C1
102
}
330
27C1
100
AcDbXrecord
 90
       70
  0
XRECORD
  5
27C4
102
{ACAD_REACTORS
330
27C1
102
}
330
27C1
100
AcDbXrecord
  1

  0
XRECORD
  5
27C5
102
{ACAD_REACTORS
330
27C1
102
}
330
27C1
100
AcDbXrecord
  1
ASAMI.ctb
  0
XRECORD
  5
27C6
102
{ACAD_REACTORS
330
27C1
102
}
330
27C1
100
AcDbXrecord
340
1A
  0
XRECORD
  5
27C7
102
{ACAD_REACTORS
330
27C1
102
}
330
27C1
100
AcDbXrecord
340
19
  0
XRECORD
  5
27C8
102
{ACAD_REACTORS
330
27C1
102
}
330
27C1
100
AcDbXrecord
340
E
  0
XRECORD
  5
27C9
102
{ACAD_REACTORS
330
27C1
102
}
330
27C1
100
AcDbXrecord
 90
    10781
  0
XRECORD
  5
27CA
102
{ACAD_REACTORS
330
27C1
102
}
330
27C1
100
AcDbXrecord
 90
        4
  0
XRECORD
  5
27CB
102
{ACAD_REACTORS
330
27C1
102
}
330
27C1
100
AcDbXrecord
 90
        0
  0
XRECORD
  5
27CC
102
{ACAD_REACTORS
330
27C1
102
}
330
27C1
100
AcDbXrecord
  1
{AFB28963-8C59-40AE-9337-C84526B81ACE}
  0
XRECORD
  5
27CD
102
{ACAD_REACTORS
330
27C1
102
}
330
27C1
100
AcDbXrecord
  1
{4EBE8641-B20D-4D84-AAFE-89325D35B86C}
  0
XRECORD
  5
27CE
102
{ACAD_REACTORS
330
27C1
102
}
330
27C1
100
AcDbXrecord
 40
0.0
  0
XRECORD
  5
27CF
102
{ACAD_REACTORS
330
27C1
102
}
330
27C1
100
AcDbXrecord
1000
DSTYLE
1002
{
1070
    79
 70
     2
1070
   341
340
59
1070
   342
340
59
1070
   371
 70
    -1
1070
   372
 70
    -1
1002
}
  0
XRECORD
  5
27D0
102
{ACAD_REACTORS
330
27C1
102
}
330
27C1
100
AcDbXrecord
340
0
  0
XRECORD
  5
27D1
102
{ACAD_REACTORS
330
27C1
102
}
330
27C1
100
AcDbXrecord
 70
     0
  0
XRECORD
  5
27D2
102
{ACAD_REACTORS
330
27C1
102
}
330
27C1
100
AcDbXrecord
340
0
  0
XRECORD
  5
27D3
102
{ACAD_REACTORS
330
27C1
102
}
330
27C1
100
AcDbXrecord
 10
0.0
 20
0.0
 30
0.0
  0
XRECORD
  5
27D4
102
{ACAD_REACTORS
330
27C1
102
}
330
27C1
100
AcDbXrecord
 10
0.0
 20
0.0
 30
0.0
  0
XRECORD
  5
27D5
102
{ACAD_REACTORS
330
27C1
102
}
330
27C1
100
AcDbXrecord
 10
0.0
 20
0.0
 30
0.0
  0
XRECORD
  5
27D6
102
{ACAD_REACTORS
330
27C1
102
}
330
27C1
100
AcDbXrecord
 10
0.0
 20
0.0
 30
0.0
  0
XRECORD
  5
27D7
102
{ACAD_REACTORS
330
27C1
102
}
330
27C1
100
AcDbXrecord
 10
0.0
 20
0.0
 30
0.0
  0
XRECORD
  5
27D8
102
{ACAD_REACTORS
330
27C1
102
}
330
27C1
100
AcDbXrecord
 10
0.0
 20
0.0
 30
0.0
  0
XRECORD
  5
27D9
102
{ACAD_REACTORS
330
27C1
102
}
330
27C1
100
AcDbXrecord
340
0
  0
XRECORD
  5
27DA
102
{ACAD_REACTORS
330
27C1
102
}
330
27C1
100
AcDbXrecord
 70
     0
  0
XRECORD
  5
27DB
102
{ACAD_REACTORS
330
27C1
102
}
330
27C1
100
AcDbXrecord
340
0
  0
XRECORD
  5
27DC
102
{ACAD_REACTORS
330
27C1
102
}
330
27C1
100
AcDbXrecord
 10
0.0
 20
0.0
 30
0.0
  0
XRECORD
  5
27DD
102
{ACAD_REACTORS
330
27C1
102
}
330
27C1
100
AcDbXrecord
 10
0.0
 20
0.0
 30
0.0
  0
XRECORD
  5
27DE
102
{ACAD_REACTORS
330
27C1
102
}
330
27C1
100
AcDbXrecord
 10
0.0
 20
0.0
 30
0.0
  0
XRECORD
  5
27DF
102
{ACAD_REACTORS
330
27C1
102
}
330
27C1
100
AcDbXrecord
 10
0.0
 20
0.0
 30
0.0
  0
XRECORD
  5
27E0
102
{ACAD_REACTORS
330
27C1
102
}
330
27C1
100
AcDbXrecord
 10
0.0
 20
0.0
 30
0.0
  0
XRECORD
  5
27E1
102
{ACAD_REACTORS
330
27C1
102
}
330
27C1
100
AcDbXrecord
 10
0.0
 20
0.0
 30
0.0
  0
LAYER_INDEX
  5
27B7
102
{ACAD_REACTORS
330
27B6
102
}
330
27B6
100
AcDbIndex
 40
2453151.584108958
100
AcDbLayerIndex
  8
0
360
27B8
 90
        0
  8
AM_0
360
27B9
 90
       43
  8
AM_7
360
27BA
 90
        1
  8
AM_11
360
27BB
 90
        6
  8
AM_5
360
27BC
 90
        5
  8
Defpoints
360
27BD
 90
        0
  8
AM_6
360
27BE
 90
        1
  8
AM_CL
360
27BF
 90
        0
  0
XRECORD
  5
2D
102
{ACAD_REACTORS
330
2C
102
}
330
2C
100
AcDbXrecord
  1
VERSION
140
15.0
  1
PRODUCT
  2
AutoCAD Mechanical 2000
  0
IDBUFFER
  5
27B8
330
0
100
AcDbIdBuffer
  0
IDBUFFER
  5
27B9
330
0
100
AcDbIdBuffer
330
2403
330
2405
330
24F6
330
24F7
330
2741
330
2742
330
2743
330
2744
330
2745
330
2746
330
2747
330
2749
330
274B
330
274C
330
274D
330
274E
330
274F
330
2752
330
2753
330
2754
330
2755
330
2756
330
2757
330
2758
330
2759
330
275A
330
275B
330
C30
330
1CF0
330
1CF4
330
1CFE
330
1EB2
330
1EB5
330
23E0
330
23E1
330
23E3
330
23E6
330
23F1
330
23F2
330
23F3
330
2400
330
2401
330
2402
  0
IDBUFFER
  5
27BA
330
0
100
AcDbIdBuffer
330
C9F
  0
IDBUFFER
  5
27BB
330
0
100
AcDbIdBuffer
330
23E4
330
23E7
330
2748
330
274A
330
2750
330
2751
  0
IDBUFFER
  5
27BC
330
0
100
AcDbIdBuffer
330
CC6
330
DF5
330
11B2
330
218E
330
23D1
  0
IDBUFFER
  5
27BD
330
0
100
AcDbIdBuffer
  0
IDBUFFER
  5
27BE
330
0
100
AcDbIdBuffer
330
19BD
  0
IDBUFFER
  5
27BF
330
0
100
AcDbIdBuffer
  0
ENDSEC
  0
EOF
