  0
SECTION
  2
HEADER
  9
$ACADVER
  1
AC1014
  9
$ACADMAINTVER
 70
     9
  9
$DWGCODEPAGE
  3
ANSI_932
  9
$INSBASE
 10
0.0
 20
0.0
 30
0.0
  9
$EXTMIN
 10
-109.900000383671
 20
-20.75035772156058
 30
-0.00000001
  9
$EXTMAX
 10
12.92399786069286
 20
12.61442945862931
 30
0.00000001
  9
$LIMMIN
 10
-118.5274109580501
 20
-42.52035421964873
  9
$LIMMAX
 10
22.72178737660431
 20
31.26737551083769
  9
$ORTHOMODE
 70
     0
  9
$REGENMODE
 70
     1
  9
$FILLMODE
 70
     1
  9
$QTEXTMODE
 70
     0
  9
$MIRRTEXT
 70
     0
  9
$DRAGMODE
 70
     2
  9
$LTSCALE
 40
1.0
  9
$OSMODE
 70
    55
  9
$ATTMODE
 70
     1
  9
$TEXTSIZE
 40
2.5
  9
$TRACEWID
 40
1.0
  9
$TEXTSTYLE
  7
STANDARD
  9
$CLAYER
  8
AM_0
  9
$CELTYPE
  6
BYLAYER
  9
$CECOLOR
 62
   256
  9
$CELTSCALE
 40
1.0
  9
$DELOBJ
 70
     1
  9
$DISPSILH
 70
     0
  9
$DIMSCALE
 40
0.5
  9
$DIMASZ
 40
2.5
  9
$DIMEXO
 40
1.0
  9
$DIMDLI
 40
12.0
  9
$DIMRND
 40
0.0
  9
$DIMDLE
 40
0.0
  9
$DIMEXE
 40
1.0
  9
$DIMTP
 40
0.1
  9
$DIMTM
 40
0.1
  9
$DIMTXT
 40
3.2
  9
$DIMCEN
 40
0.0
  9
$DIMTSZ
 40
0.0
  9
$DIMTOL
 70
     0
  9
$DIMLIM
 70
     0
  9
$DIMTIH
 70
     0
  9
$DIMTOH
 70
     0
  9
$DIMSE1
 70
     0
  9
$DIMSE2
 70
     0
  9
$DIMTAD
 70
     3
  9
$DIMZIN
 70
     8
  9
$DIMBLK
  1
OPEN30
  9
$DIMASO
 70
     1
  9
$DIMSHO
 70
     1
  9
$DIMPOST
  1

  9
$DIMAPOST
  1
"
  9
$DIMALT
 70
     0
  9
$DIMALTD
 70
     2
  9
$DIMALTF
 40
0.0393701
  9
$DIMLFAC
 40
1.0
  9
$DIMTOFL
 70
     1
  9
$DIMTVP
 40
0.0
  9
$DIMTIX
 70
     0
  9
$DIMSOXD
 70
     0
  9
$DIMSAH
 70
     0
  9
$DIMBLK1
  1

  9
$DIMBLK2
  1

  9
$DIMSTYLE
  2
AM_JIS
  9
$DIMCLRD
 70
   256
  9
$DIMCLRE
 70
   256
  9
$DIMCLRT
 70
     2
  9
$DIMTFAC
 40
0.71
  9
$DIMGAP
 40
1.5
  9
$DIMJUST
 70
     0
  9
$DIMSD1
 70
     0
  9
$DIMSD2
 70
     0
  9
$DIMTOLJ
 70
     0
  9
$DIMTZIN
 70
     0
  9
$DIMALTZ
 70
     0
  9
$DIMALTTZ
 70
     0
  9
$DIMFIT
 70
     3
  9
$DIMUPT
 70
     0
  9
$DIMUNIT
 70
     2
  9
$DIMDEC
 70
     3
  9
$DIMTDEC
 70
     3
  9
$DIMALTU
 70
     2
  9
$DIMALTTD
 70
     2
  9
$DIMTXSTY
  7
ASAMI
  9
$DIMAUNIT
 70
     0
  9
$LUNITS
 70
     2
  9
$LUPREC
 70
     2
  9
$SKETCHINC
 40
1.0
  9
$FILLETRAD
 40
2.5
  9
$AUNITS
 70
     0
  9
$AUPREC
 70
     0
  9
$MENU
  1
.
  9
$ELEVATION
 40
0.0
  9
$PELEVATION
 40
0.0
  9
$THICKNESS
 40
0.0
  9
$LIMCHECK
 70
     0
  9
$BLIPMODE
 70
     0
  9
$CHAMFERA
 40
0.25
  9
$CHAMFERB
 40
0.25
  9
$CHAMFERC
 40
20.0
  9
$CHAMFERD
 40
0.0
  9
$SKPOLY
 70
     0
  9
$TDCREATE
 40
2452800.443498622
  9
$TDUPDATE
 40
2453151.692380810
  9
$TDINDWG
 40
0.0545853009
  9
$TDUSRTIMER
 40
0.0545853009
  9
$USRTIMER
 70
     1
  9
$ANGBASE
 50
0.0
  9
$ANGDIR
 70
     0
  9
$PDMODE
 70
     3
  9
$PDSIZE
 40
0.0
  9
$PLINEWID
 40
0.0
  9
$COORDS
 70
     1
  9
$SPLFRAME
 70
     0
  9
$SPLINETYPE
 70
     6
  9
$SPLINESEGS
 70
     8
  9
$ATTDIA
 70
     1
  9
$ATTREQ
 70
     1
  9
$HANDLING
 70
 12289
  9
$HANDSEED
  5
3431
  9
$SURFTAB1
 70
     6
  9
$SURFTAB2
 70
     6
  9
$SURFTYPE
 70
     6
  9
$SURFU
 70
     6
  9
$SURFV
 70
     6
  9
$UCSNAME
  2

  9
$UCSORG
 10
0.0
 20
0.0
 30
0.0
  9
$UCSXDIR
 10
1.0
 20
0.000000000000002
 30
0.0
  9
$UCSYDIR
 10
-0.000000000000002
 20
1.0
 30
0.0
  9
$PUCSNAME
  2

  9
$PUCSORG
 10
0.0
 20
0.0
 30
0.0
  9
$PUCSXDIR
 10
1.0
 20
0.0
 30
0.0
  9
$PUCSYDIR
 10
0.0
 20
1.0
 30
0.0
  9
$USERI1
 70
     0
  9
$USERI2
 70
     0
  9
$USERI3
 70
     0
  9
$USERI4
 70
     0
  9
$USERI5
 70
     0
  9
$USERR1
 40
0.0
  9
$USERR2
 40
0.0
  9
$USERR3
 40
0.0
  9
$USERR4
 40
0.0
  9
$USERR5
 40
0.0
  9
$WORLDVIEW
 70
     1
  9
$SHADEDGE
 70
     3
  9
$SHADEDIF
 70
    70
  9
$TILEMODE
 70
     1
  9
$MAXACTVP
 70
    64
  9
$PINSBASE
 10
0.0
 20
0.0
 30
0.0
  9
$PLIMCHECK
 70
     0
  9
$PEXTMIN
 10
1.000000000000000E+20
 20
1.000000000000000E+20
 30
1.000000000000000E+20
  9
$PEXTMAX
 10
-1.000000000000000E+20
 20
-1.000000000000000E+20
 30
-1.000000000000000E+20
  9
$PLIMMIN
 10
0.0
 20
0.0
  9
$PLIMMAX
 10
841.0
 20
594.0
  9
$UNITMODE
 70
     0
  9
$VISRETAIN
 70
     1
  9
$PLINEGEN
 70
     0
  9
$PSLTSCALE
 70
     0
  9
$TREEDEPTH
 70
  3020
  9
$PICKSTYLE
 70
     0
  9
$CMLSTYLE
  2
STANDARD
  9
$CMLJUST
 70
     0
  9
$CMLSCALE
 40
20.0
  9
$PROXYGRAPHICS
 70
     1
  9
$MEASUREMENT
 70
     1
  0
ENDSEC
  0
SECTION
  2
CLASSES
  0
CLASS
  1
ACDBDICTIONARYWDFLT
  2
AcDbDictionaryWithDefault
  3
AutoCAD 2000
 90
        0
280
     0
281
     0
  0
CLASS
  1
ACDBPLACEHOLDER
  2
AcDbPlaceHolder
  3
AutoCAD 2000
 90
        0
280
     0
281
     0
  0
CLASS
  1
LAYOUT
  2
AcDbLayout
  3
AutoCAD 2000
 90
        0
280
     0
281
     0
  0
CLASS
  1
AMGSETTINGSOBJ
  2
AmgSettingsObj
  3
"AcadM|Product Description: AutoCAD Mechanical 2000|Company: Autodesk"
 90
        0
280
     0
281
     0
  0
CLASS
  1
ACME_DOCUMENT
  2
AcMeDbDoc
  3
AcMeServices
 90
        0
280
     0
281
     0
  0
CLASS
  1
ACMESCOPE
  2
AcMeScope
  3
AcMeServices
 90
        0
280
     0
281
     0
  0
CLASS
  1
ACMECOMMANDHISTORY
  2
AcMeCommandHistory
  3
AcMeServices
 90
        0
280
     0
281
     0
  0
CLASS
  1
DICTIONARYVAR
  2
AcDbDictionaryVar
  3
AutoCAD 2000
 90
        0
280
     0
281
     0
  0
CLASS
  1
ACIMSYSVARMAN
  2
AcImSysVarManager
  3
AcMeServices
 90
        0
280
     0
281
     0
  0
CLASS
  1
ACIMREALSYSVAR
  2
AcImRealSysVar
  3
AcMeServices
 90
        0
280
     0
281
     0
  0
CLASS
  1
ACIMINTSYSVAR
  2
AcImIntSysVar
  3
AcMeServices
 90
        0
280
     0
281
     0
  0
CLASS
  1
ACMEDRAWINGMAN
  2
AcMeDrawingMan
  3
AcMeServices
 90
        0
280
     0
281
     0
  0
CLASS
  1
ACMEVIEW
  2
AcMeView
  3
AcMeServices
 90
        0
280
     0
281
     0
  0
CLASS
  1
ACDBENTITYCACHE
  2
AcMeEntityCache
  3
AcMeServices
 90
        0
280
     0
281
     0
  0
CLASS
  1
GSMANAGER
  2
AcMeGSManager
  3
AcMeServices
 90
        0
280
     0
281
     0
  0
CLASS
  1
AmdtInternalReactor
  2
AmdtInternalReactor
  3
AcMeServices
 90
        0
280
     0
281
     0
  0
CLASS
  1
ACMESTATEMGR
  2
AcMeStateMgr
  3
AcMeServices
 90
        0
280
     0
281
     0
  0
CLASS
  1
ACME_DATABASE
  2
AcMeDbDatabase
  3
AcMeServices
 90
        0
280
     0
281
     0
  0
CLASS
  1
ACRFINSADJUSTERMGR
  2
AcRfInsAdjusterMgr
  3
AcMeServices
 90
        0
280
     0
281
     0
  0
CLASS
  1
ACMDATADICTIONARY
  2
AcmDataDictionary
  3
"AcmSymBB|Product Description: AutoCAD Mechanical 2000|Company: Autodesk"
 90
        0
280
     0
281
     0
  0
CLASS
  1
ACMDATAENTRYBLOCK
  2
AcmDataEntryBlock
  3
"AcmSymBB|Product Description: AutoCAD Mechanical 2000|Company: Autodesk"
 90
        0
280
     0
281
     0
  0
CLASS
  1
AMGOBJPROPCFG
  2
AmgObjPropCfg
  3
"AmgLay|Product Description: AutoCAD Mechanical 2000|Company: Autodesk"
 90
        1
280
     0
281
     0
  0
CLASS
  1
ACAMGFILTERDAT
  2
AcAmgFilterDat
  3
"AcadM|Product Description: AutoCAD Mechanical 2000|Company: Autodesk"
 90
        0
280
     0
281
     0
  0
CLASS
  1
LAYER_INDEX
  2
AcDbLayerIndex
  3
AutoCAD 2000
 90
        0
280
     0
281
     0
  0
CLASS
  1
IDBUFFER
  2
AcDbIdBuffer
  3
AutoCAD 2000
 90
        0
280
     0
281
     0
  0
CLASS
  1
ACIMSTRSYSVAR
  2
AcImStrSysVar
  3
AcMeServices
 90
        0
280
     0
281
     0
  0
CLASS
  1
ACMSTANDARDJIS
  2
AcmStandardJIS
  3
"AcmSymBB|Product Description: AutoCAD Mechanical 2000|Company: Autodesk"
 90
        0
280
     0
281
     0
  0
CLASS
  1
ACMSURFSTANDARDJIS
  2
AcmSurfTextStdJIS
  3
"AcmSymBB|Product Description: AutoCAD Mechanical 2000|Company: Autodesk"
 90
        0
280
     0
281
     0
  0
CLASS
  1
ACMFCFSTANDARDJIS
  2
AcmFCFStdJIS
  3
"AcmSymBB|Product Description: AutoCAD Mechanical 2000|Company: Autodesk"
 90
        0
280
     0
281
     0
  0
CLASS
  1
ACMWELDSTANDARDJIS
  2
AcmWeldingStdJIS
  3
"AcmSymBB|Product Description: AutoCAD Mechanical 2000|Company: Autodesk"
 90
        0
280
     0
281
     0
  0
CLASS
  1
ACMIDSTANDARDJIS
  2
AcmIdStdJIS
  3
"AcmSymBB|Product Description: AutoCAD Mechanical 2000|Company: Autodesk"
 90
        0
280
     0
281
     0
  0
CLASS
  1
ACMDATUMSTANDARDJIS
  2
AcmDatumStdJIS
  3
"AcmSymBB|Product Description: AutoCAD Mechanical 2000|Company: Autodesk"
 90
        0
280
     0
281
     0
  0
CLASS
  1
ACMBOMSTANDARDJIS
  2
AcmBOMStdJIS
  3
"AcmSymBB|Product Description: AutoCAD Mechanical 2000|Company: Autodesk"
 90
        0
280
     0
281
     0
  0
CLASS
  1
ACMSTANDARDANSI
  2
AcmStandardANSI
  3
"AcmSymBB|Product Description: AutoCAD Mechanical 2000|Company: Autodesk"
 90
        0
280
     0
281
     0
  0
CLASS
  1
ACMSURFSTANDARDANSI
  2
AcmSurfTextStdANSI
  3
"AcmSymBB|Product Description: AutoCAD Mechanical 2000|Company: Autodesk"
 90
        0
280
     0
281
     0
  0
CLASS
  1
ACMFCFSTANDARDANSI
  2
AcmFCFStdANSI
  3
"AcmSymBB|Product Description: AutoCAD Mechanical 2000|Company: Autodesk"
 90
        0
280
     0
281
     0
  0
CLASS
  1
ACMWELDSTANDARDANSI
  2
AcmWeldingStdANSI
  3
"AcmSymBB|Product Description: AutoCAD Mechanical 2000|Company: Autodesk"
 90
        0
280
     0
281
     0
  0
CLASS
  1
ACMIDSTANDARDANSI
  2
AcmIdStdANSI
  3
"AcmSymBB|Product Description: AutoCAD Mechanical 2000|Company: Autodesk"
 90
        0
280
     0
281
     0
  0
CLASS
  1
ACMDATUMSTANDARDANSI
  2
AcmDatumStdANSI
  3
"AcmSymBB|Product Description: AutoCAD Mechanical 2000|Company: Autodesk"
 90
        0
280
     0
281
     0
  0
CLASS
  1
ACMBOMSTANDARDANSI
  2
AcmBOMStdANSI
  3
"AcmSymBB|Product Description: AutoCAD Mechanical 2000|Company: Autodesk"
 90
        0
280
     0
281
     0
  0
CLASS
  1
ACMSTANDARDBSI
  2
AcmStandardBSI
  3
"AcmSymBB|Product Description: AutoCAD Mechanical 2000|Company: Autodesk"
 90
        0
280
     0
281
     0
  0
CLASS
  1
ACMSURFSTANDARDBSI
  2
AcmSurfTextStdBSI
  3
"AcmSymBB|Product Description: AutoCAD Mechanical 2000|Company: Autodesk"
 90
        0
280
     0
281
     0
  0
CLASS
  1
ACMFCFSTANDARDBSI
  2
AcmFCFStdBSI
  3
"AcmSymBB|Product Description: AutoCAD Mechanical 2000|Company: Autodesk"
 90
        0
280
     0
281
     0
  0
CLASS
  1
ACMWELDSTANDARDBSI
  2
AcmWeldingStdBSI
  3
"AcmSymBB|Product Description: AutoCAD Mechanical 2000|Company: Autodesk"
 90
        0
280
     0
281
     0
  0
CLASS
  1
ACMIDSTANDARDBSI
  2
AcmIdStdBSI
  3
"AcmSymBB|Product Description: AutoCAD Mechanical 2000|Company: Autodesk"
 90
        0
280
     0
281
     0
  0
CLASS
  1
ACMDATUMSTANDARDBSI
  2
AcmDatumStdBSI
  3
"AcmSymBB|Product Description: AutoCAD Mechanical 2000|Company: Autodesk"
 90
        0
280
     0
281
     0
  0
CLASS
  1
ACMBOMSTANDARDBSI
  2
AcmBOMStdBSI
  3
"AcmSymBB|Product Description: AutoCAD Mechanical 2000|Company: Autodesk"
 90
        0
280
     0
281
     0
  0
CLASS
  1
LONG_TRANSACTION
  2
AcDbLongTransaction
  3
AutoCAD 2000
 90
        0
280
     0
281
     0
  0
CLASS
  1
LWPOLYLINE
  2
AcDbPolyline
  3
AutoCAD 2000
 90
        0
280
     0
281
     1
  0
CLASS
  1
HATCH
  2
AcDbHatch
  3
AutoCAD 2000
 90
        0
280
     0
281
     1
  0
CLASS
  1
XRECORD
  2
AcDbXrecord
  3
AutoCAD 2000
 90
        0
280
     0
281
     0
  0
ENDSEC
  0
SECTION
  2
TABLES
  0
TABLE
  2
VPORT
  5
8
330
0
100
AcDbSymbolTable
 70
     3
  0
VPORT
  5
33FB
330
8
100
AcDbSymbolTableRecord
100
AcDbViewportTableRecord
  2
*ACTIVE
 70
     0
 10
0.0
 20
0.0
 11
1.0
 21
1.0
 12
-46.21393864702845
 22
-4.06710188713852
 13
0.0
 23
0.0
 14
2.5
 24
2.5
 15
10.0
 25
10.0
 16
0.0
 26
0.0
 36
1.0
 17
0.0
 27
0.0
 37
0.0
 40
81.75476350017509
 41
1.56570841889117
 42
50.0
 43
0.0
 44
0.0
 50
0.0
 51
0.0
 71
     0
 72
   100
 73
     1
 74
     1
 75
     0
 76
     0
 77
     0
 78
     0
  0
ENDTAB
  0
TABLE
  2
LTYPE
  5
5
330
0
100
AcDbSymbolTable
 70
    10
  0
LTYPE
  5
14
330
5
100
AcDbSymbolTableRecord
100
AcDbLinetypeTableRecord
  2
BYBLOCK
 70
     0
  3

 72
    65
 73
     0
 40
0.0
  0
LTYPE
  5
15
330
5
100
AcDbSymbolTableRecord
100
AcDbLinetypeTableRecord
  2
BYLAYER
 70
     0
  3

 72
    65
 73
     0
 40
0.0
  0
LTYPE
  5
16
330
5
100
AcDbSymbolTableRecord
100
AcDbLinetypeTableRecord
  2
CONTINUOUS
 70
     0
  3
Solid line
 72
    65
 73
     0
 40
0.0
  0
LTYPE
  5
4B
330
5
100
AcDbSymbolTableRecord
100
AcDbLinetypeTableRecord
  2
AM_ISO02W050
 70
     0
  3
__ __ __ __ __ __ __ __ __ __ __ __ __ __ __
 72
    65
 73
     2
 40
7.5
 49
6.0
 74
     0
 49
-1.5
 74
     0
  0
LTYPE
  5
4C
330
5
100
AcDbSymbolTableRecord
100
AcDbLinetypeTableRecord
  2
AM_ISO08W050
 70
     0
  3
____ . ____ . ____ . ____ . ____ . ____ . ____
 72
    65
 73
     4
 40
18.0
 49
12.0
 74
     0
 49
-1.5
 74
     0
 49
3.0
 74
     0
 49
-1.5
 74
     0
  0
LTYPE
  5
4D
330
5
100
AcDbSymbolTableRecord
100
AcDbLinetypeTableRecord
  2
AM_ISO09W050
 70
     0
  3
_____ . . _____ . . _____ . . ____ .. ____
 72
    65
 73
     6
 40
22.5
 49
12.0
 74
     0
 49
-1.5
 74
     0
 49
3.0
 74
     0
 49
-1.5
 74
     0
 49
3.0
 74
     0
 49
-1.5
 74
     0
  0
LTYPE
  5
4E
330
5
100
AcDbSymbolTableRecord
100
AcDbLinetypeTableRecord
  2
AMCONSTR
 70
     0
  3
_______________________
 72
    65
 73
     2
 40
9999.0
 49
9999.0
 74
     0
 49
0.0
 74
     0
  0
LTYPE
  5
4F
330
5
100
AcDbSymbolTableRecord
100
AcDbLinetypeTableRecord
  2
AM_ISO02W050X2
 70
     0
  3
 _ _ _ _ _ _ _ _ _ _ _ _
 72
    65
 73
     2
 40
3.75
 49
3.0
 74
     0
 49
-0.75
 74
     0
  0
LTYPE
  5
50
330
5
100
AcDbSymbolTableRecord
100
AcDbLinetypeTableRecord
  2
AM_ISO08W050X2
 70
     0
  3
__ . __ . __ . __ . __ . __
 72
    65
 73
     4
 40
9.0
 49
6.0
 74
     0
 49
-0.75
 74
     0
 49
1.5
 74
     0
 49
-0.75
 74
     0
  0
LTYPE
  5
53
330
5
100
AcDbSymbolTableRecord
100
AcDbLinetypeTableRecord
  2
AMZIGZAG
 70
     0
  3
/\/-/\/-/\/-/\/-/\/-/\/
 72
    65
 73
     2
 40
11.00009999999999
 49
0.0001
 74
     4
 75
   135
340
52
 46
0.04
 50
0.0
 44
0.0
 45
0.0
 49
-11.0
 74
     0
  0
LTYPE
  5
166
330
5
100
AcDbSymbolTableRecord
100
AcDbLinetypeTableRecord
  2
ACJISTGL
 70
     0
  3
_ _ _ _ _
 72
    65
 73
     2
 40
3.0
 49
2.0
 74
     0
 49
-1.0
 74
     0
  0
LTYPE
  5
26A
330
5
100
AcDbSymbolTableRecord
100
AcDbLinetypeTableRecord
  2
ACJISTGB
 70
     0
  3
__ . . __ . .
 72
    65
 73
     6
 40
9.0
 49
4.0
 74
     0
 49
-1.0
 74
     0
 49
1.0
 74
     0
 49
-1.0
 74
     0
 49
1.0
 74
     0
 49
-1.0
 74
     0
  0
ENDTAB
  0
TABLE
  2
LAYER
  5
2
330
0
100
AcDbSymbolTable
 70
     7
  0
LAYER
  5
10
330
2
100
AcDbSymbolTableRecord
100
AcDbLayerTableRecord
  2
0
 70
     0
 62
     7
  6
CONTINUOUS
  0
LAYER
  5
3F9
330
2
100
AcDbSymbolTableRecord
100
AcDbLayerTableRecord
  2
AM_0
 70
     0
 62
     7
  6
CONTINUOUS
  0
LAYER
  5
C7C
330
2
100
AcDbSymbolTableRecord
100
AcDbLayerTableRecord
  2
AM_7
 70
     0
 62
     4
  6
AM_ISO08W050
  0
LAYER
  5
C97
330
2
100
AcDbSymbolTableRecord
100
AcDbLayerTableRecord
  2
AM_11
 70
     0
 62
     3
  6
AM_ISO09W050
  0
LAYER
  5
CC5
330
2
100
AcDbSymbolTableRecord
100
AcDbLayerTableRecord
  2
AM_5
 70
     0
 62
     3
  6
CONTINUOUS
  0
LAYER
  5
CC7
330
2
100
AcDbSymbolTableRecord
100
AcDbLayerTableRecord
  2
DEFPOINTS
 70
     0
 62
     7
  6
CONTINUOUS
  0
LAYER
  5
19BC
330
2
100
AcDbSymbolTableRecord
100
AcDbLayerTableRecord
  2
AM_6
 70
     0
 62
     2
  6
CONTINUOUS
  0
ENDTAB
  0
TABLE
  2
STYLE
  5
3
330
0
100
AcDbSymbolTable
 70
     5
  0
STYLE
  5
11
330
3
100
AcDbSymbolTableRecord
100
AcDbTextStyleTableRecord
  2
STANDARD
 70
     0
 40
0.0
 41
1.0
 50
0.0
 71
     0
 42
2.5
  3
simplex.shx
  4
EXTFONT.SHX
  0
STYLE
  5
52
330
3
100
AcDbSymbolTableRecord
100
AcDbTextStyleTableRecord
  2

 70
     1
 40
0.0
 41
1.0
 50
0.0
 71
     0
 42
2.5
  3
ltypeshp.shx
  4

  0
STYLE
  5
6B
330
3
100
AcDbSymbolTableRecord
100
AcDbTextStyleTableRecord
  2
ASAMI
 70
     0
 40
0.0
 41
1.0
 50
0.0
 71
     0
 42
2.5
  3
simplex.shx
  4
EXTFONT.SHX
  0
STYLE
  5
262
330
3
100
AcDbSymbolTableRecord
100
AcDbTextStyleTableRecord
  2
ACJISTS
 70
     0
 40
1.0
 41
1.0
 50
0.0
 71
     0
 42
2.5
  3
simplex.shx
  4
bigfont.shx
  0
STYLE
  5
269
330
3
100
AcDbSymbolTableRecord
100
AcDbTextStyleTableRecord
  2
ACJISGDT
 70
     0
 40
0.0
 41
1.0
 50
0.0
 71
     0
 42
2.5
  3
amgdtans.shx
  4

  0
ENDTAB
  0
TABLE
  2
VIEW
  5
6
330
0
100
AcDbSymbolTable
 70
     0
  0
ENDTAB
  0
TABLE
  2
UCS
  5
7
330
0
100
AcDbSymbolTable
 70
     0
  0
ENDTAB
  0
TABLE
  2
APPID
  5
9
330
0
100
AcDbSymbolTable
 70
    16
  0
APPID
  5
12
330
9
100
AcDbSymbolTableRecord
100
AcDbRegAppTableRecord
  2
ACAD
 70
     0
  0
APPID
  5
30
330
9
100
AcDbSymbolTableRecord
100
AcDbRegAppTableRecord
  2
MCAD_NO_VIS
 70
     0
  0
APPID
  5
31
330
9
100
AcDbSymbolTableRecord
100
AcDbRegAppTableRecord
  2
ACAD_TEMP_GRAPHIC
 70
     0
  0
APPID
  5
2C2
330
9
100
AcDbSymbolTableRecord
100
AcDbRegAppTableRecord
  2
GENIUS_GENDTOL_13
 70
     0
  0
APPID
  5
339
330
9
100
AcDbSymbolTableRecord
100
AcDbRegAppTableRecord
  2
GENIUS_GENODEF_13
 70
     0
  0
APPID
  5
33A
330
9
100
AcDbSymbolTableRecord
100
AcDbRegAppTableRecord
  2
GENIUS_GENOBJ-N-RSBK_13
 70
     0
  0
APPID
  5
33B
330
9
100
AcDbSymbolTableRecord
100
AcDbRegAppTableRecord
  2
GENIUS_GENOBJ-N-LIB_13
 70
     0
  0
APPID
  5
33C
330
9
100
AcDbSymbolTableRecord
100
AcDbRegAppTableRecord
  2
GENIUS_GENSCALE_13
 70
     0
  0
APPID
  5
378
330
9
100
AcDbSymbolTableRecord
100
AcDbRegAppTableRecord
  2
GENIUS_GENDIMSH_14
 70
     0
  0
APPID
  5
C82
330
9
100
AcDbSymbolTableRecord
100
AcDbRegAppTableRecord
  2
GENIUS_GENOBJ-N-CRS_13
 70
     0
  0
APPID
  5
C83
330
9
100
AcDbSymbolTableRecord
100
AcDbRegAppTableRecord
  2
GENIUS_GENOENT_13
 70
     0
  0
APPID
  5
C84
330
9
100
AcDbSymbolTableRecord
100
AcDbRegAppTableRecord
  2
GENIUS_GENOREF_13
 70
     0
  0
APPID
  5
C85
330
9
100
AcDbSymbolTableRecord
100
AcDbRegAppTableRecord
  2
GENIUS_GENOLIS_13
 70
     0
  0
APPID
  5
CA0
330
9
100
AcDbSymbolTableRecord
100
AcDbRegAppTableRecord
  2
GENIUS_GENOBJ-N-CEN_13
 70
     0
  0
APPID
  5
1CFA
330
9
100
AcDbSymbolTableRecord
100
AcDbRegAppTableRecord
  2
GENIUS_GENFIL_13
 70
     0
  0
APPID
  5
1CFB
330
9
100
AcDbSymbolTableRecord
100
AcDbRegAppTableRecord
  2
GENIUS_GENOBJ-N-CHA_13
 70
     0
  0
ENDTAB
  0
TABLE
  2
DIMSTYLE
  5
A
330
0
100
AcDbSymbolTable
 70
     9
  0
DIMSTYLE
105
58
330
A
100
AcDbSymbolTableRecord
100
AcDbDimStyleTableRecord
  2
AM_JIS
 70
     0
  3

  4
"
  5
OPEN30
  6

  7

 40
0.5
 41
2.5
 42
1.0
 43
12.0
 44
1.0
 45
0.0
 46
0.0
 47
0.1
 48
0.1
140
3.2
141
0.0
142
0.0
143
0.0393701
144
1.0
145
0.0
146
0.71
147
1.5
 71
     0
 72
     0
 73
     0
 74
     0
 75
     0
 76
     0
 77
     3
 78
     8
170
     0
171
     2
172
     1
173
     0
174
     0
175
     0
176
   256
177
   256
178
     2
270
     2
271
     3
272
     3
273
     2
274
     2
340
6B
275
     0
280
     0
281
     0
282
     0
283
     0
284
     0
285
     0
286
     0
287
     3
288
     0
  0
DIMSTYLE
105
5F
330
A
100
AcDbSymbolTableRecord
100
AcDbDimStyleTableRecord
  2
AM_JIS$3
 70
     0
  3

  4
"
  5
OPEN30
  6

  7

 40
0.5
 41
2.5
 42
1.0
 43
10.0
 44
1.0
 45
0.0
 46
0.0
 47
0.1
 48
0.1
140
3.2
141
0.0
142
0.0
143
0.0393701
144
1.0
145
0.0
146
0.71
147
1.5
 71
     0
 72
     0
 73
     0
 74
     1
 75
     0
 76
     0
 77
     3
 78
     8
170
     0
171
     2
172
     0
173
     0
174
     0
175
     0
176
   256
177
   256
178
     2
270
     2
271
     2
272
     3
273
     2
274
     2
340
6B
275
     0
280
     0
281
     0
282
     0
283
     0
284
     0
285
     0
286
     0
287
     0
288
     1
  0
DIMSTYLE
105
60
330
A
100
AcDbSymbolTableRecord
100
AcDbDimStyleTableRecord
  2
AM_JIS$4
 70
     0
  3

  4
"
  5
OPEN30
  6

  7

 40
0.5
 41
2.5
 42
1.0
 43
10.0
 44
1.0
 45
0.0
 46
0.0
 47
0.1
 48
0.1
140
3.2
141
0.0
142
0.0
143
0.0393701
144
1.0
145
0.0
146
0.71
147
1.5
 71
     0
 72
     0
 73
     0
 74
     1
 75
     0
 76
     0
 77
     3
 78
     8
170
     0
171
     2
172
     0
173
     0
174
     0
175
     0
176
   256
177
   256
178
     2
270
     2
271
     2
272
     3
273
     2
274
     2
340
6B
275
     0
280
     0
281
     0
282
     0
283
     0
284
     0
285
     0
286
     0
287
     0
288
     1
  0
DIMSTYLE
105
61
330
A
100
AcDbSymbolTableRecord
100
AcDbDimStyleTableRecord
  2
AM_JIS$6
 70
     0
  3

  4
"
  5
OPEN30
  6

  7

 40
0.5
 41
2.5
 42
1.0
 43
10.0
 44
1.0
 45
0.0
 46
0.0
 47
0.1
 48
0.1
140
3.2
141
0.0
142
0.0
143
0.0393701
144
1.0
145
0.0
146
0.71
147
1.5
 71
     0
 72
     0
 73
     0
 74
     0
 75
     0
 76
     0
 77
     0
 78
     8
170
     0
171
     2
172
     1
173
     0
174
     0
175
     0
176
   256
177
   256
178
     2
270
     2
271
     2
272
     2
273
     2
274
     2
340
6B
275
     0
280
     0
281
     0
282
     0
283
     0
284
     0
285
     0
286
     0
287
     3
288
     0
  0
DIMSTYLE
105
62
330
A
100
AcDbSymbolTableRecord
100
AcDbDimStyleTableRecord
  2
AM_JIS$7
 70
     0
  3

  4
"
  5
OPEN30
  6

  7

 40
0.5
 41
2.5
 42
1.0
 43
10.0
 44
1.0
 45
0.0
 46
0.0
 47
0.1
 48
0.1
140
3.2
141
0.0
142
0.0
143
0.0393701
144
1.0
145
0.0
146
0.71
147
1.5
 71
     0
 72
     0
 73
     0
 74
     0
 75
     0
 76
     0
 77
     3
 78
     8
170
     0
171
     2
172
     1
173
     0
174
     0
175
     0
176
   256
177
   256
178
     2
270
     2
271
     2
272
     3
273
     2
274
     2
340
6B
275
     0
280
     0
281
     0
282
     0
283
     0
284
     0
285
     0
286
     0
287
     3
288
     0
  0
DIMSTYLE
105
63
330
A
100
AcDbSymbolTableRecord
100
AcDbDimStyleTableRecord
  2
AM_JIS$SF
 70
     0
  3

  4
"
  5
OPEN30
  6

  7

 40
0.5
 41
2.5
 42
1.0
 43
10.0
 44
1.0
 45
0.0
 46
0.0
 47
0.1
 48
0.1
140
3.2
141
0.0
142
0.0
143
0.0393701
144
1.0
145
0.0
146
0.71
147
1.5
 71
     0
 72
     0
 73
     0
 74
     0
 75
     1
 76
     1
 77
     3
 78
     8
170
     0
171
     2
172
     1
173
     0
174
     0
175
     0
176
   256
177
   256
178
     2
270
     2
271
     2
272
     2
273
     2
274
     2
340
6B
275
     0
280
     0
281
     0
282
     0
283
     0
284
     0
285
     0
286
     0
287
     3
288
     0
  0
DIMSTYLE
105
68
330
A
100
AcDbSymbolTableRecord
100
AcDbDimStyleTableRecord
  2
AM_JIS$SH
 70
     0
  3

  4
"
  5

  6
GENAXEH
  7
OPEN30
 40
0.5
 41
2.5
 42
1.0
 43
10.0
 44
1.0
 45
0.0
 46
0.0
 47
0.1
 48
0.1
140
3.2
141
0.0
142
0.0
143
0.0393701
144
2.0
145
0.0
146
0.71
147
1.5
 71
     0
 72
     0
 73
     0
 74
     0
 75
     1
 76
     1
 77
     3
 78
     8
170
     0
171
     2
172
     1
173
     1
174
     0
175
     0
176
   256
177
   256
178
     2
270
     2
271
     2
272
     2
273
     2
274
     2
340
6B
275
     0
280
     0
281
     0
282
     0
283
     0
284
     0
285
     0
286
     0
287
     3
288
     0
  0
DIMSTYLE
105
B34
102
{ACAD_REACTORS
330
2F49
102
}
330
A
100
AcDbSymbolTableRecord
100
AcDbDimStyleTableRecord
  2
AM_JIS$2
 70
     0
  3

  4
"
  5
OPEN30
  6

  7

 40
0.5
 41
2.5
 42
1.0
 43
12.0
 44
1.0
 45
0.0
 46
0.0
 47
0.1
 48
0.1
140
3.2
141
0.0
142
0.0
143
0.0393701
144
1.0
145
0.0
146
0.71
147
1.5
 71
     0
 72
     0
 73
     0
 74
     0
 75
     0
 76
     0
 77
     3
 78
     8
170
     0
171
     2
172
     1
173
     0
174
     0
175
     0
176
   256
177
   256
178
     2
270
     2
271
     3
272
     3
273
     2
274
     2
340
6B
275
     0
280
     0
281
     0
282
     0
283
     0
284
     0
285
     0
286
     0
287
     3
288
     0
  0
DIMSTYLE
105
BA5
102
{ACAD_REACTORS
330
CC6
330
22D9
330
3305
102
}
330
A
100
AcDbSymbolTableRecord
100
AcDbDimStyleTableRecord
  2
AM_JIS$0
 70
     0
  3

  4
"
  5
OPEN30
  6

  7

 40
0.5
 41
2.5
 42
0.0
 43
10.0
 44
1.0
 45
0.0
 46
0.0
 47
0.1
 48
0.1000000001
140
3.799999999999999
141
0.0
142
0.0
143
0.0393701
144
1.0
145
0.0
146
0.71
147
1.5
 71
     0
 72
     0
 73
     0
 74
     0
 75
     0
 76
     0
 77
     3
 78
     1
170
     0
171
     2
172
     1
173
     0
174
     0
175
     0
176
     3
177
     3
178
     2
270
     2
271
     2
272
     2
273
     2
274
     2
340
11
275
     1
280
     0
281
     0
282
     0
283
     0
284
     8
285
     0
286
     0
287
     0
288
     0
  0
ENDTAB
  0
TABLE
  2
BLOCK_RECORD
  5
1
330
0
100
AcDbSymbolTable
 70
     9
  0
BLOCK_RECORD
  5
1F
102
{ACAD_XDICTIONARY
360
74
102
}
330
1
100
AcDbSymbolTableRecord
100
AcDbBlockTableRecord
  2
*MODEL_SPACE
  0
BLOCK_RECORD
  5
101
102
{ACAD_XDICTIONARY
360
3424
102
}
330
1
100
AcDbSymbolTableRecord
100
AcDbBlockTableRecord
  2
*PAPER_SPACE
  0
BLOCK_RECORD
  5
59
330
1
100
AcDbSymbolTableRecord
100
AcDbBlockTableRecord
  2
_OPEN30
  0
BLOCK_RECORD
  5
64
330
1
100
AcDbSymbolTableRecord
100
AcDbBlockTableRecord
  2
GENAXEH
  0
BLOCK_RECORD
  5
CC8
330
1
100
AcDbSymbolTableRecord
100
AcDbBlockTableRecord
  2
*D5
  0
BLOCK_RECORD
  5
22DA
330
1
100
AcDbSymbolTableRecord
100
AcDbBlockTableRecord
  2
*D6
  0
BLOCK_RECORD
  5
2F4A
330
1
100
AcDbSymbolTableRecord
100
AcDbBlockTableRecord
  2
*D7
  0
BLOCK_RECORD
  5
3306
330
1
100
AcDbSymbolTableRecord
100
AcDbBlockTableRecord
  2
*D8
  0
ENDTAB
  0
ENDSEC
  0
SECTION
  2
BLOCKS
  0
BLOCK
  5
20
330
1F
100
AcDbEntity
  8
0
100
AcDbBlockBegin
  2
*MODEL_SPACE
 70
     0
 10
0.0
 20
0.0
 30
0.0
  3
*MODEL_SPACE
  1

  0
ENDBLK
  5
21
330
1F
100
AcDbEntity
  8
0
100
AcDbBlockEnd
  0
BLOCK
  5
103
330
101
100
AcDbEntity
 67
     1
  8
0
100
AcDbBlockBegin
  2
*PAPER_SPACE
 70
     0
 10
0.0
 20
0.0
 30
0.0
  3
*PAPER_SPACE
  1

  0
ENDBLK
  5
104
330
101
100
AcDbEntity
 67
     1
  8
0
100
AcDbBlockEnd
  0
BLOCK
  5
5D
330
59
100
AcDbEntity
  8
0
100
AcDbBlockBegin
  2
_OPEN30
 70
     0
 10
0.0
 20
0.0
 30
0.0
  3
_OPEN30
  1

  0
LINE
  5
5A
330
59
100
AcDbEntity
  8
0
 62
     0
100
AcDbLine
 10
-1.0
 20
0.26794919
 30
0.0
 11
0.0
 21
0.0
 31
0.0
  0
LINE
  5
5B
330
59
100
AcDbEntity
  8
0
 62
     0
100
AcDbLine
 10
0.0
 20
0.0
 30
0.0
 11
-1.0
 21
-0.26794919
 31
0.0
  0
LINE
  5
5C
330
59
100
AcDbEntity
  8
0
 62
     0
100
AcDbLine
 10
0.0
 20
0.0
 30
0.0
 11
-1.0
 21
0.0
 31
0.0
  0
ENDBLK
  5
5E
330
59
100
AcDbEntity
  8
0
100
AcDbBlockEnd
  0
BLOCK
  5
66
330
64
100
AcDbEntity
  8
0
100
AcDbBlockBegin
  2
GENAXEH
 70
     0
 10
0.0
 20
0.0
 30
0.0
  3
GENAXEH
  1

  0
LINE
  5
65
330
64
100
AcDbEntity
  8
0
100
AcDbLine
 10
-1.0
 20
0.0
 30
0.0
 11
1.0
 21
0.0
 31
0.0
  0
ENDBLK
  5
67
330
64
100
AcDbEntity
  8
0
100
AcDbBlockEnd
  0
BLOCK
  5
CD2
330
CC8
100
AcDbEntity
  8
0
100
AcDbBlockBegin
  2
*D5
 70
     1
 10
0.0
 20
0.0
 30
0.0
  3
*D5
  1

  0
LINE
  5
339C
330
CC8
100
AcDbEntity
  8
AM_5
 62
     3
100
AcDbLine
 10
-98.99999938367106
 20
-2.352704311872087
 30
0.0
 11
-98.99999938367106
 21
-10.00035772156055
 31
0.0
  0
LINE
  5
339D
330
CC8
100
AcDbEntity
  8
AM_5
 62
     3
100
AcDbLine
 10
-0.9999993836710377
 20
-2.499996953569627
 30
0.0
 11
-0.999999383671038
 21
-10.00035772156055
 31
0.0
  0
LINE
  5
339E
330
CC8
100
AcDbEntity
  8
AM_5
 62
     3
100
AcDbLine
 10
-97.74999938367106
 20
-9.500357721560558
 30
0.0
 11
-2.249999383671037
 21
-9.500357721560558
 31
0.0
  0
INSERT
  5
339F
330
CC8
100
AcDbEntity
  8
AM_5
 62
     3
100
AcDbBlockReference
  2
_OPEN30
 10
-98.99999938367106
 20
-9.500357721560558
 30
0.0
 41
1.25
 42
1.25
 43
1.25
 50
180.0
  0
INSERT
  5
33A0
330
CC8
100
AcDbEntity
  8
AM_5
 62
     3
100
AcDbBlockReference
  2
_OPEN30
 10
-0.999999383671038
 20
-9.500357721560558
 30
0.0
 41
1.25
 42
1.25
 43
1.25
  0
MTEXT
  5
33A1
330
CC8
100
AcDbEntity
  8
AM_5
 62
     2
100
AcDbMText
 10
-49.99999938367104
 20
-7.800357721560557
 30
0.0
 40
1.9
 41
0.0
 71
     5
 72
     1
  1
98
1001
ACAD
1000
MTEXTBEGIN
1070
    73
1070
     1
1070
    44
1040
1.0
1070
    74
1070
     0
1000
MTEXTEND
  0
POINT
  5
33A2
330
CC8
100
AcDbEntity
  8
DEFPOINTS
 62
     0
100
AcDbPoint
 10
-98.99999938367106
 20
-2.352704311872087
 30
0.0
  0
POINT
  5
33A3
330
CC8
100
AcDbEntity
  8
DEFPOINTS
 62
     0
100
AcDbPoint
 10
-0.9999993836710377
 20
-2.499996953569627
 30
0.0
  0
POINT
  5
33A4
330
CC8
100
AcDbEntity
  8
DEFPOINTS
 62
     0
100
AcDbPoint
 10
-0.999999383671038
 20
-9.500357721560558
 30
0.0
  0
ENDBLK
  5
CD3
330
CC8
100
AcDbEntity
  8
0
100
AcDbBlockEnd
  0
BLOCK
  5
22E6
330
22DA
100
AcDbEntity
  8
0
100
AcDbBlockBegin
  2
*D6
 70
     1
 10
0.0
 20
0.0
 30
0.0
  3
*D6
  1

  0
LINE
  5
3043
330
22DA
100
AcDbEntity
  8
AM_5
 62
     3
100
AcDbLine
 10
-98.74999938367107
 20
-2.500001693350228
 30
0.0
 11
-107.750000383671
 21
-2.500001693350246
 31
0.0
  0
LINE
  5
3044
330
22DA
100
AcDbEntity
  8
AM_5
 62
     3
100
AcDbLine
 10
-98.74999938367107
 20
2.499998306649771
 30
0.0
 11
-107.750000383671
 21
2.499998306649753
 31
0.0
  0
LINE
  5
3045
330
22DA
100
AcDbEntity
  8
AM_5
 62
     3
100
AcDbLine
 10
-107.250000383671
 20
-3.750001693350245
 30
0.0
 11
-107.250000383671
 21
-5.000001693350244
 31
0.0
  0
LINE
  5
3046
330
22DA
100
AcDbEntity
  8
AM_5
 62
     3
100
AcDbLine
 10
-107.250000383671
 20
3.749998306649754
 30
0.0
 11
-107.250000383671
 21
4.999998306649755
 31
0.0
  0
LINE
  5
3047
330
22DA
100
AcDbEntity
  8
AM_5
 62
     3
100
AcDbLine
 10
-107.250000383671
 20
-2.500001693350245
 30
0.0
 11
-107.250000383671
 21
2.499998306649754
 31
0.0
  0
INSERT
  5
3048
330
22DA
100
AcDbEntity
  8
AM_5
 62
     3
100
AcDbBlockReference
  2
_OPEN30
 10
-107.250000383671
 20
-2.500001693350245
 30
0.0
 41
1.25
 42
1.25
 43
1.25
 50
90.0000000000001
  0
INSERT
  5
3049
330
22DA
100
AcDbEntity
  8
AM_5
 62
     3
100
AcDbBlockReference
  2
_OPEN30
 10
-107.250000383671
 20
2.499998306649754
 30
0.0
 41
1.25
 42
1.25
 43
1.25
 50
270.0000000000001
  0
MTEXT
  5
304A
330
22DA
100
AcDbEntity
  8
AM_5
 62
     2
100
AcDbMText
 10
-108.950000383671
 20
-0.0000016933502352
 30
0.0
 40
1.9
 41
0.0
 71
     5
 72
     1
  1
%%c5
 11
-0.000000000000002
 21
1.0
 31
0.0
1001
ACAD
1000
MTEXTBEGIN
1070
    73
1070
     1
1070
    44
1040
1.0
1070
    74
1070
     0
1000
MTEXTEND
  0
POINT
  5
304B
330
22DA
100
AcDbEntity
  8
DEFPOINTS
 62
     0
100
AcDbPoint
 10
-98.74999938367107
 20
-2.500001693350009
 30
0.0
  0
POINT
  5
304C
330
22DA
100
AcDbEntity
  8
DEFPOINTS
 62
     0
100
AcDbPoint
 10
-98.74999938367107
 20
2.49999830664999
 30
0.0
  0
POINT
  5
304D
330
22DA
100
AcDbEntity
  8
DEFPOINTS
 62
     0
100
AcDbPoint
 10
-107.250000383671
 20
2.499998306649993
 30
0.0
  0
ENDBLK
  5
22E7
330
22DA
100
AcDbEntity
  8
0
100
AcDbBlockEnd
  0
BLOCK
  5
2F5A
330
2F4A
100
AcDbEntity
  8
0
100
AcDbBlockBegin
  2
*D7
 70
     1
 10
0.0
 20
0.0
 30
0.0
  3
*D7
  1

  0
LINE
  5
3426
330
2F4A
100
AcDbEntity
  8
AM_5
100
AcDbLine
 10
0.1710106879918181
 20
-0.4698480037429061
 30
0.0
 11
4.59127807784981
 21
-12.614432845329
 31
0.0
  0
LINE
  5
3427
330
2F4A
100
AcDbEntity
  8
AM_5
100
AcDbLine
 10
0.1710106879917959
 20
0.4698446170430072
 30
0.0
 11
4.591278077849215
 21
12.61442945862931
 31
0.0
  0
ARC
  5
3428
330
2F4A
100
AcDbEntity
  8
AM_5
100
AcDbCircle
 10
0.0000006163289792
 20
-0.0000016933499535
 30
0.0
 40
12.92399724436386
100
AcDbArc
 50
295.5437700971373
 51
64.45622990286532
  0
INSERT
  5
3429
330
2F4A
100
AcDbEntity
  8
AM_5
100
AcDbBlockReference
  2
_OPEN30
 10
4.420268006186971
 20
-12.14458653493605
 30
0.0
 41
1.25
 42
1.25
 43
1.25
 50
202.7718850485689
  0
INSERT
  5
342A
330
2F4A
100
AcDbEntity
  8
AM_5
100
AcDbBlockReference
  2
_OPEN30
 10
4.420268006186399
 20
12.14458314823635
 30
0.0
 41
1.25
 42
1.25
 43
1.25
 50
157.2281149514337
  0
MTEXT
  5
342B
330
2F4A
100
AcDbEntity
  8
AM_5
 62
     2
100
AcDbMText
 10
11.37399786069284
 20
-0.000001693349658
 30
0.0
 40
1.6
 41
0.0
 71
     5
 72
     1
  1
140°
  7
ASAMI
 11
-0.000000000000002
 21
1.0
 31
0.0
  0
POINT
  5
342C
330
2F4A
100
AcDbEntity
  8
DEFPOINTS
 62
     0
100
AcDbPoint
 10
11.86702305138024
 20
-5.118935498188103
 30
0.0
  0
POINT
  5
342D
330
2F4A
100
AcDbEntity
  8
DEFPOINTS
 62
     0
100
AcDbPoint
 10
-0.2608540490778448
 20
-0.7166939963146736
 30
0.0
  0
POINT
  5
342E
330
2F4A
100
AcDbEntity
  8
DEFPOINTS
 62
     0
100
AcDbPoint
 10
-0.2608540490778767
 20
0.7166906096147577
 30
0.0
  0
POINT
  5
342F
330
2F4A
100
AcDbEntity
  8
DEFPOINTS
 62
     0
100
AcDbPoint
 10
0.0000006163289721
 20
-0.0000016933499339
 30
0.0
  0
POINT
  5
3430
330
2F4A
100
AcDbEntity
  8
DEFPOINTS
 62
     0
100
AcDbPoint
 10
0.0000006163289721
 20
-0.000001693349973
 30
0.0
  0
ENDBLK
  5
2F5B
330
2F4A
100
AcDbEntity
  8
0
100
AcDbBlockEnd
  0
BLOCK
  5
3310
330
3306
100
AcDbEntity
  8
0
100
AcDbBlockBegin
  2
*D8
 70
     1
 10
0.0
 20
0.0
 30
0.0
  3
*D8
  1

  0
LINE
  5
33A5
330
3306
100
AcDbEntity
  8
AM_5
 62
     3
100
AcDbLine
 10
-0.9999941384622578
 20
2.500001531663491
 30
0.0
 11
8.800031039333239
 21
2.50000153166351
 31
0.0
  0
LINE
  5
33A6
330
3306
100
AcDbEntity
  8
AM_5
 62
     3
100
AcDbLine
 10
-0.9999976312362155
 20
-2.499999819259227
 30
0.0
 11
8.80003103933325
 21
-2.499999819259208
 31
0.0
  0
LINE
  5
33A7
330
3306
100
AcDbEntity
  8
AM_5
 62
     3
100
AcDbLine
 10
8.300031039333243
 20
1.250001531663509
 30
0.0
 11
8.300031039333246
 21
-1.249999819259209
 31
0.0
  0
INSERT
  5
33A8
330
3306
100
AcDbEntity
  8
AM_5
 62
     3
100
AcDbBlockReference
  2
_OPEN30
 10
8.300031039333239
 20
2.500001531663508
 30
0.0
 41
1.25
 42
1.25
 43
1.25
 50
90.0000000000001
  0
INSERT
  5
33A9
330
3306
100
AcDbEntity
  8
AM_5
 62
     3
100
AcDbBlockReference
  2
_OPEN30
 10
8.30003103933325
 20
-2.49999981925921
 30
0.0
 41
1.25
 42
1.25
 43
1.25
 50
270.0000000000001
  0
MTEXT
  5
33AA
330
3306
100
AcDbEntity
  8
AM_5
 62
     2
100
AcDbMText
 10
6.600031039333244
 20
0.000000856202146
 30
0.0
 40
1.9
 41
0.0
 71
     5
 72
     1
  1
%%c5
 11
-0.000000000000002
 21
1.0
 31
0.0
1001
ACAD
1000
MTEXTBEGIN
1070
    73
1070
     1
1070
    44
1040
1.0
1070
    74
1070
     0
1000
MTEXTEND
  0
POINT
  5
33AB
330
3306
100
AcDbEntity
  8
DEFPOINTS
 62
     0
100
AcDbPoint
 10
-0.9999941384622523
 20
2.500001531663492
 30
0.0
  0
POINT
  5
33AC
330
3306
100
AcDbEntity
  8
DEFPOINTS
 62
     0
100
AcDbPoint
 10
-0.9999976312362212
 20
-2.499999819259226
 30
0.0
  0
POINT
  5
33AD
330
3306
100
AcDbEntity
  8
DEFPOINTS
 62
     0
100
AcDbPoint
 10
8.300031039333244
 20
-2.499999819259228
 30
0.0
  0
ENDBLK
  5
3311
330
3306
100
AcDbEntity
  8
0
100
AcDbBlockEnd
  0
ENDSEC
  0
SECTION
  2
ENTITIES
  0
LINE
  5
C30
330
1F
100
AcDbEntity
  8
AM_0
 48
0.5
100
AcDbLine
 10
-98.99999938367107
 20
-2.250001693350009
 30
0.0
 11
-98.99999938367104
 21
2.24999830664999
 31
0.0
  0
LINE
  5
C9F
330
1F
100
AcDbEntity
  8
AM_7
100
AcDbLine
 10
-100.249999383671
 20
-0.0000016933500106
 30
0.0
 11
1.300030039333238
 21
-0.0000016933499306
 31
0.0
1001
GENIUS_GENODEF_13
1002
{
1000
HIER
1070
     0
1002
}
1002
{
1000
MANEDIT
1070
     0
1002
}
1002
{
1000
NOSEL
1070
     0
1002
}
1002
{
1000
BEHIND
1070
     0
1002
}
1002
{
1000
REACTOR
1002
}
1001
GENIUS_GENOBJ-N-CEN_13
1002
{
1000
OWNER
1000
GEN
1002
}
  0
DIMENSION
  5
CC6
330
1F
100
AcDbEntity
  8
AM_5
100
AcDbDimension
  2
*D5
 10
-0.999999383671038
 20
-9.500357721560558
 30
0.0
 11
-49.99999938367104
 21
-7.800357721560557
 31
0.0
 70
    32
  1
<>
  3
AM_JIS$0
100
AcDbAlignedDimension
 13
-98.99999938367106
 23
-2.352704311872087
 33
0.0
 14
-0.9999993836710377
 24
-2.499996953569627
 34
0.0
 50
0.0000000000001132
100
AcDbRotatedDimension
1001
GENIUS_GENDTOL_13
1000

1000
h7
1000

1040
0.0
1001
ACAD
1000
DSTYLE
1002
{
1070
   271
1070
     0
1002
}
  0
ARC
  5
144A
330
1F
100
AcDbEntity
  8
AM_11
 48
0.5
100
AcDbCircle
 10
-40.27068094654584
 20
-11.04241324496752
 30
0.0
 40
12.20908006032291
100
AcDbArc
 50
64.74833051131179
 51
115.2516644797366
  0
ARC
  5
144B
330
1F
100
AcDbEntity
  8
AM_11
 48
0.5
100
AcDbCircle
 10
-40.27068094654583
 20
11.04241735704247
 30
0.0
 40
12.20908006032291
100
AcDbArc
 50
244.7482808787518
 51
295.2516148471758
  0
ARC
  5
144E
330
1F
100
AcDbEntity
  8
AM_11
 48
0.5
100
AcDbCircle
 10
-29.85401427987918
 20
-11.04241324496752
 30
0.0
 40
12.20908006032291
100
AcDbArc
 50
64.74833051131179
 51
115.2516644797366
  0
ARC
  5
144F
330
1F
100
AcDbEntity
  8
AM_11
 48
0.5
100
AcDbCircle
 10
-29.85401427987918
 20
11.04241735704247
 30
0.0
 40
12.20908006032291
100
AcDbArc
 50
244.7482808787518
 51
295.2516148471758
  0
ARC
  5
1450
330
1F
100
AcDbEntity
  8
AM_11
 48
0.5
100
AcDbCircle
 10
-19.43734761321543
 20
11.04241735704247
 30
0.0
 40
12.20908006032291
100
AcDbArc
 50
244.7482808787518
 51
295.2516148471758
  0
ARC
  5
1451
330
1F
100
AcDbEntity
  8
AM_11
 48
0.5
100
AcDbCircle
 10
-19.43734761321543
 20
-11.04241324496752
 30
0.0
 40
12.20908006032291
100
AcDbArc
 50
64.74833051131179
 51
115.2516644797366
  0
ARC
  5
1452
330
1F
100
AcDbEntity
  8
AM_11
 48
0.5
100
AcDbCircle
 10
-9.020680946548765
 20
-11.04241324496752
 30
0.0
 40
12.20908006032291
100
AcDbArc
 50
64.74833051131179
 51
115.2516644797366
  0
ARC
  5
1453
330
1F
100
AcDbEntity
  8
AM_11
 48
0.5
100
AcDbCircle
 10
-9.020680946548765
 20
11.04241735704247
 30
0.0
 40
12.20908006032291
100
AcDbArc
 50
244.7482808787518
 51
295.2516148471758
  0
TEXT
  5
19BD
330
1F
100
AcDbEntity
  8
AM_6
100
AcDbText
 10
-60.83333271700436
 20
-20.75035772156058
 30
0.0
 40
2.5
  1
MDW050LHK
 50
0.0000000000001527
 72
     4
 11
-49.99999938367102
 21
-19.50035772156055
 31
0.0
100
AcDbText
  0
LINE
  5
1CF0
330
1F
100
AcDbEntity
  8
AM_0
100
AcDbLine
 10
-98.74999938367103
 20
2.49999830664999
 30
0.0
 11
-43.08274838543756
 21
2.500353619180429
 31
0.0
1001
GENIUS_GENODEF_13
1002
{
1000
HIER
1070
     0
1002
}
1002
{
1000
MANEDIT
1070
     0
1002
}
1002
{
1000
NOSEL
1070
     0
1002
}
1002
{
1000
BEHIND
1070
     0
1002
}
1002
{
1000
REACTOR
1002
}
1001
GENIUS_GENOBJ-N-CEN_13
1002
{
1000
OWNER
1000
GEN
1002
}
  0
LINE
  5
1CF4
330
1F
100
AcDbEntity
  8
AM_0
100
AcDbLine
 10
-98.74999938367107
 20
-2.500001693350009
 30
0.0
 11
-44.08315991287325
 21
-2.500001551189817
 31
0.0
1001
GENIUS_GENODEF_13
1002
{
1000
HIER
1070
     0
1002
}
1002
{
1000
MANEDIT
1070
     0
1002
}
1002
{
1000
NOSEL
1070
     0
1002
}
1002
{
1000
BEHIND
1070
     0
1002
}
1002
{
1000
REACTOR
1002
}
1001
GENIUS_GENOBJ-N-CEN_13
1002
{
1000
OWNER
1000
GEN
1002
}
  0
LINE
  5
1CFE
330
1F
100
AcDbEntity
  8
AM_0
100
AcDbLine
 10
-98.74999938367107
 20
-2.500001693350009
 30
0.0
 11
-98.74999938367107
 21
2.49999830664999
 31
0.0
  0
ARC
  5
1DAD
330
1F
100
AcDbEntity
  8
AM_11
 48
0.5
100
AcDbCircle
 10
-61.10399149402265
 20
-11.04241324496757
 30
0.0
 40
12.20908006032291
100
AcDbArc
 50
64.74833051131179
 51
115.2516644797366
  0
ARC
  5
1DAE
330
1F
100
AcDbEntity
  8
AM_11
 48
0.5
100
AcDbCircle
 10
-61.10399149402265
 20
11.04241735704242
 30
0.0
 40
12.20908006032291
100
AcDbArc
 50
244.7482808787518
 51
295.2516148471758
  0
LINE
  5
1F13
330
1F
100
AcDbEntity
  8
AM_0
100
AcDbLine
 10
-98.99999938367104
 20
2.24999830664999
 30
0.0
 11
-98.74999938367103
 21
2.49999830664999
 31
0.0
1001
GENIUS_GENFIL_13
1070
     0
1040
0.25
1040
0.25
1040
20.0
1040
0.0
1002
{
1002
}
1001
GENIUS_GENODEF_13
1002
{
1000
HIER
1070
     0
1002
}
1002
{
1000
MANEDIT
1070
     0
1002
}
1002
{
1000
NOSEL
1070
     0
1002
}
1002
{
1000
BEHIND
1070
     0
1002
}
1002
{
1000
REACTOR
1002
}
1001
GENIUS_GENOBJ-N-CHA_13
1002
{
1000
OWNER
1000
GEN
1002
}
  0
LINE
  5
1F16
330
1F
100
AcDbEntity
  8
AM_0
100
AcDbLine
 10
-98.99999938367107
 20
-2.250001693350009
 30
0.0
 11
-98.74999938367107
 21
-2.500001693350009
 31
0.0
1001
GENIUS_GENFIL_13
1070
     0
1040
0.25
1040
0.25
1040
20.0
1040
0.0
1002
{
1002
}
1001
GENIUS_GENODEF_13
1002
{
1000
HIER
1070
     0
1002
}
1002
{
1000
MANEDIT
1070
     0
1002
}
1002
{
1000
NOSEL
1070
     0
1002
}
1002
{
1000
BEHIND
1070
     0
1002
}
1002
{
1000
REACTOR
1002
}
1001
GENIUS_GENOBJ-N-CHA_13
1002
{
1000
OWNER
1000
GEN
1002
}
  0
ARC
  5
210D
330
1F
100
AcDbEntity
  8
AM_11
 48
0.5
100
AcDbCircle
 10
-81.93727925564289
 20
-11.04241324496763
 30
0.0
 40
12.20908006032291
100
AcDbArc
 50
64.74833051131179
 51
115.2516644797366
  0
ARC
  5
210E
330
1F
100
AcDbEntity
  8
AM_11
 48
0.5
100
AcDbCircle
 10
-81.93727925564289
 20
11.04241735704237
 30
0.0
 40
12.20908006032291
100
AcDbArc
 50
244.7482808787518
 51
295.2516148471758
  0
ARC
  5
210F
330
1F
100
AcDbEntity
  8
AM_11
 48
0.5
100
AcDbCircle
 10
-71.52063537483281
 20
11.0424173570424
 30
0.0
 40
12.20908006032291
100
AcDbArc
 50
244.7482808787518
 51
295.2516148471758
  0
ARC
  5
2110
330
1F
100
AcDbEntity
  8
AM_11
 48
0.5
100
AcDbCircle
 10
-71.52063537483281
 20
-11.0424132449676
 30
0.0
 40
12.20908006032291
100
AcDbArc
 50
64.74833051131179
 51
115.2516644797366
  0
ARC
  5
2111
330
1F
100
AcDbEntity
  8
AM_11
 48
0.5
100
AcDbCircle
 10
-102.7705882959305
 20
-11.04240320854119
 30
0.0
 40
12.20908006032291
100
AcDbArc
 50
64.74833051131179
 51
72.01097527903051
  0
ARC
  5
2112
330
1F
100
AcDbEntity
  8
AM_11
 48
0.5
100
AcDbCircle
 10
-102.7705882959305
 20
11.0424273934688
 30
0.0
 40
12.20908006032291
100
AcDbArc
 50
287.9890247209694
 51
295.2516148471758
  0
ARC
  5
2113
330
1F
100
AcDbEntity
  8
AM_11
 48
0.5
100
AcDbCircle
 10
-92.35394441512045
 20
11.04242739346883
 30
0.0
 40
12.20908006032291
100
AcDbArc
 50
244.7482808787518
 51
295.2516148471758
  0
ARC
  5
2114
330
1F
100
AcDbEntity
  8
AM_11
 48
0.5
100
AcDbCircle
 10
-92.35394441512045
 20
-11.04240320854116
 30
0.0
 40
12.20908006032291
100
AcDbArc
 50
64.74833051131179
 51
115.2516644797366
  0
DIMENSION
  5
22D9
330
1F
100
AcDbEntity
  8
AM_5
100
AcDbDimension
  2
*D6
 10
-107.250000383671
 20
2.499998306649993
 30
0.0
 11
-107.250000383671
 21
-0.0000016933500152
 31
0.0
 70
   160
  1
%%c<>
 51
359.9999999999998
  3
AM_JIS$0
100
AcDbAlignedDimension
 13
-98.74999938367107
 23
-2.500001693350009
 33
0.0
 14
-98.74999938367107
 24
2.49999830664999
 34
0.0
 50
270.0000000000001
100
AcDbRotatedDimension
1001
ACAD
1000
DSTYLE
1002
{
1070
   271
1070
     0
1002
}
1001
GENIUS_GENDTOL_13
1000

1000
h7
1000

1040
0.0
  0
ARC
  5
2BE0
330
1F
100
AcDbEntity
  8
AM_11
 48
0.5
100
AcDbCircle
 10
-50.68734761321248
 20
11.04241735704247
 30
0.0
 40
12.20908006032291
100
AcDbArc
 50
244.7482808787518
 51
295.2516148471758
  0
ARC
  5
2BE1
330
1F
100
AcDbEntity
  8
AM_11
 48
0.5
100
AcDbCircle
 10
-50.68734761321249
 20
-11.04241324496752
 30
0.0
 40
12.20908006032291
100
AcDbArc
 50
64.74833051131179
 51
115.2516644797366
  0
ELLIPSE
  5
2D4B
330
1F
100
AcDbEntity
  8
AM_0
 48
0.5
100
AcDbEllipse
 10
3.925404175301275
 20
-2.98187427108431
 30
0.0
 11
-4.899765164227447
 21
0.2595458867613753
 31
0.0
210
0.0
220
0.0
230
1.0
 40
0.8635952884861655
 41
-0.502442497671064
 42
-0.1462805424437554
  0
ELLIPSE
  5
2D4C
330
1F
100
AcDbEntity
  8
AM_0
 48
0.5
100
AcDbEllipse
 10
3.925404082490569
 20
2.98186981396569
 30
0.0
 11
4.899764309690437
 21
0.2595510812141086
 31
0.0
210
0.0
220
0.0
230
1.0
 40
0.8635946846350568
 41
3.287871717708718
 42
3.644034078924045
  0
LINE
  5
2D4D
330
1F
100
AcDbEntity
  8
AM_0
 48
0.5
100
AcDbLine
 10
-0.8893609250595302
 20
2.108328946431816
 30
0.0
 11
-0.9999941384622523
 21
2.500001531663492
 31
0.0
  0
LINE
  5
2D4F
330
1F
100
AcDbEntity
  8
AM_0
 48
0.5
100
AcDbLine
 10
-0.8893609250595616
 20
-2.108331871032816
 30
0.0
 11
-0.9999993836710377
 21
-2.499996953569627
 31
0.0
  0
LINE
  5
2EA1
330
1F
100
AcDbEntity
  8
AM_0
100
AcDbLine
 10
-0.2608540490778767
 20
0.7166906096147577
 30
0.0
 11
0.0000006163289721
 21
-0.0000016933499339
 31
0.0
  0
LINE
  5
2EA2
330
1F
100
AcDbEntity
  8
AM_0
100
AcDbLine
 10
-0.2608540490778448
 20
-0.7166939963146736
 30
0.0
 11
0.0000006163289721
 21
-0.000001693349973
 31
0.0
  0
DIMENSION
  5
2F49
330
1F
100
AcDbEntity
  8
AM_5
100
AcDbDimension
  2
*D7
 10
0.0000006163289721
 20
-0.000001693349973
 30
0.0
 11
11.37399786069284
 21
-0.0000016933496828
 31
0.0
 70
    34
  1
<>
 51
359.9999999999998
  3
AM_JIS$2
100
AcDb2LineAngularDimension
 13
-0.2608540490778767
 23
0.7166906096147577
 33
0.0
 14
0.0000006163289721
 24
-0.0000016933499339
 34
0.0
 15
-0.2608540490778448
 25
-0.7166939963146736
 35
0.0
 16
11.86702305138024
 26
-5.118935498188103
 36
0.0
1001
GENIUS_GENDTOL_13
1000

1000
h7
1000

1040
0.0
1001
ACAD
1000
DSTYLE
1002
{
1070
   271
1070
     0
1002
}
  0
ELLIPSE
  5
3212
330
1F
100
AcDbEntity
  8
AM_11
 48
0.5
100
AcDbEllipse
 10
1.395985720117979
 20
11.76257501076262
 30
0.0
 11
0.0000000000011444
 21
13.00532441208308
 31
0.0
210
0.0
220
0.0
230
1.0
 40
0.9387755102040676
 41
2.700867013135281
 42
2.862597064175976
  0
LINE
  5
3298
330
1F
100
AcDbEntity
  8
AM_0
 48
0.5
100
AcDbLine
 10
-2.484080493035818
 20
2.499998448809443
 30
0.0
 11
-0.9999941384622523
 21
2.500001531663492
 31
0.0
  0
LINE
  5
3299
330
1F
100
AcDbEntity
  8
AM_0
 48
0.5
100
AcDbLine
 10
-2.484080493035904
 20
-2.500001551190556
 30
0.0
 11
-0.9999941384622651
 21
-2.499999961733499
 31
0.0
  0
LINE
  5
329A
330
1F
100
AcDbEntity
  8
AM_0
 48
0.5
100
AcDbLine
 10
0.0
 20
0.0000000382664869
 30
0.0
 11
-1.350585639062221
 21
0.9599225109023452
 31
0.0
  0
LINE
  5
329B
330
1F
100
AcDbEntity
  8
AM_0
 48
0.5
100
AcDbLine
 10
-18.98384900512654
 20
-2.500001551190306
 30
0.0
 11
-11.21483534533065
 21
-2.500001551190396
 31
0.0
  0
LINE
  5
329C
330
1F
100
AcDbEntity
  8
AM_0
 48
0.5
100
AcDbLine
 10
-21.01129072863125
 20
2.499998448809782
 30
0.0
 11
-11.21483534533055
 21
2.499998448809603
 31
0.0
  0
LINE
  5
329D
330
1F
100
AcDbEntity
  8
AM_11
 48
0.5
100
AcDbLine
 10
-43.08274838543758
 20
2.500353619180429
 30
0.0
 11
-37.51112288195175
 21
2.499998448810033
 31
0.0
  0
LINE
  5
329E
330
1F
100
AcDbEntity
  8
AM_11
 48
0.5
100
AcDbLine
 10
-44.0831599128729
 20
-2.500001551189817
 30
0.0
 11
-37.51112288195188
 21
-2.500001551189967
 31
0.0
  0
LINE
  5
329F
330
1F
100
AcDbEntity
  8
AM_0
 48
0.5
100
AcDbLine
 10
-38.96965108273713
 20
1.266702054461725
 30
0.0
 11
-44.99999938367106
 21
-0.2021884535539961
 31
0.0
  0
LINE
  5
32A0
330
1F
100
AcDbEntity
  8
AM_0
 48
0.5
100
AcDbLine
 10
-37.51112637877397
 20
-2.500001551189934
 30
0.0
 11
-27.714603858939
 21
-2.500001551190087
 31
0.0
  0
LINE
  5
32A1
330
1F
100
AcDbEntity
  8
AM_0
100
AcDbLine
 10
-37.51112288195175
 20
2.499998448810033
 30
0.0
 11
-26.58291623211709
 21
2.500353619180178
 31
0.0
  0
LINE
  5
32A2
330
1F
100
AcDbEntity
  8
AM_11
 48
0.5
100
AcDbLine
 10
-27.71460385742017
 20
-2.500001551190149
 30
0.0
 11
-18.98384900512655
 21
-2.500356721560593
 31
0.0
  0
LINE
  5
32A3
330
1F
100
AcDbEntity
  8
AM_11
 48
0.5
100
AcDbLine
 10
-26.58291623211709
 20
2.500353619180178
 30
0.0
 11
-21.01128320888344
 21
2.499998448809782
 31
0.0
  0
LINE
  5
32A4
330
1F
100
AcDbEntity
  8
AM_11
 48
0.5
100
AcDbLine
 10
-11.21483534533065
 20
-2.500001551190396
 30
0.0
 11
-2.484080493035904
 21
-2.500001551190556
 31
0.0
  0
LINE
  5
32A5
330
1F
100
AcDbEntity
  8
AM_11
 48
0.5
100
AcDbLine
 10
-11.21483534533055
 20
2.499998448809603
 30
0.0
 11
-2.484080493035818
 21
2.499998448809443
 31
0.0
  0
ELLIPSE
  5
32A6
330
1F
100
AcDbEntity
  8
AM_0
 48
0.5
100
AcDbEllipse
 10
-4.929622052070352
 20
4.755273600207957
 30
0.0
 11
-4.830474010601105
 21
4.85893777140908
 31
0.0
210
0.0
220
0.0
230
0.9999999999999998
 40
0.6445639313336491
 41
2.990455294249373
 42
3.174069388159625
  0
ELLIPSE
  5
32A7
330
1F
100
AcDbEntity
  8
AM_0
 48
0.5
100
AcDbEllipse
 10
2.844018650220732
 20
-0.5624252588840495
 30
0.0
 11
-4.398666098649487
 21
0.0393347028311437
 31
0.0
210
0.0
220
0.0
230
1.0
 40
0.9088381862797451
 41
0.1353983069797513
 42
0.5158041353364467
  0
SPLINE
  5
32A8
330
1F
100
AcDbEntity
  8
AM_0
 48
0.5
100
AcDbSpline
210
0.0
220
0.0
230
1.0
 70
     8
 71
     3
 72
    10
 73
     6
 74
     0
 42
0.0000000001
 43
0.0000000001
 40
0.0
 40
0.0
 40
0.0
 40
0.0
 40
2.69986029516136
 40
4.147722969032201
 40
6.285750005020438
 40
6.285750005020438
 40
6.285750005020438
 40
6.285750005020438
 10
-3.024539808017975
 20
0.4524851228002925
 30
0.0
 10
-2.694672296140559
 20
0.2202178470216709
 30
0.0
 10
-2.187905683733437
 20
-0.1366081400222079
 30
0.0
 10
-0.9894707205748655
 20
0.0361375713696438
 30
0.0
 10
-1.215170882767696
 20
0.6179679849973306
 30
0.0
 10
-1.364299129370406
 20
0.9726115419978219
 30
0.0
  0
ELLIPSE
  5
32A9
330
1F
100
AcDbEntity
  8
AM_0
 48
0.5
100
AcDbEllipse
 10
-0.8184189990984902
 20
-0.6515375390447557
 30
0.0
 11
-0.4022226765001892
 21
0.1989294368110046
 31
0.0
210
0.0
220
0.0
230
0.9999999999999998
 40
0.4742174049593235
 41
4.433174834170277
 42
7.576615175499787
  0
ELLIPSE
  5
32AA
330
1F
100
AcDbEntity
  8
AM_0
 48
0.5
100
AcDbEllipse
 10
-0.8184189990984902
 20
-0.6515375390447557
 30
0.0
 11
-0.0853005372549696
 21
0.4092832429408709
 31
0.0
210
0.0
220
0.0
230
1.0
 40
0.546289275557175
 41
1.780430261722568
 42
4.915772151434543
  0
ELLIPSE
  5
32AB
330
1F
100
AcDbEntity
  8
AM_0
 48
0.5
100
AcDbEllipse
 10
1.756432990647792
 20
3.001402257403103
 30
0.0
 11
-5.542473077773953
 21
0.000000000000148
 31
0.0
210
0.0
220
0.0
230
1.0
 40
0.9090909090909095
 41
0.5303675532341039
 42
0.9384884834289959
  0
ELLIPSE
  5
32AC
330
1F
100
AcDbEntity
  8
AM_0
 48
0.5
100
AcDbEllipse
 10
-4.759466031772528
 20
4.195904770016978
 30
0.0
 11
-6.630541364350205
 21
0.000000000009663
 31
0.0
210
0.0
220
0.0
230
1.0
 40
0.9090909090910308
 41
2.081379652024728
 42
2.169874429704252
  0
ELLIPSE
  5
32AD
330
1F
100
AcDbEntity
  8
AM_0
 48
0.5
100
AcDbEllipse
 10
-44.31249413846223
 20
-1.692058207073607
 30
0.0
 11
0.6877325132414124
 21
0.0002796316656656
 31
0.0
210
0.0
220
0.0
230
1.0
 40
0.9087004008022976
 41
1.175207813453624
 42
3.115511452899626
  0
ELLIPSE
  5
32AE
330
1F
100
AcDbEntity
  8
AM_0
 48
0.5
100
AcDbEllipse
 10
-44.08315962511609
 20
-1.666668217856526
 30
0.0
 11
-0.9168997189139849
 21
0.0012072602565484
 31
0.0
210
0.0
220
0.0
230
1.0
 40
0.9088589168376051
 41
0.0126954871871588
 42
1.571992685509079
  0
SPLINE
  5
32AF
330
1F
100
AcDbEntity
  8
AM_0
 48
0.5
100
AcDbSpline
210
0.0
220
0.0
230
1.0
 70
     8
 71
     3
 72
    26
 73
    22
 74
     0
 42
0.0000000001
 43
0.0000000001
 40
0.0
 40
0.0
 40
0.0
 40
0.0
 40
0.4211432018735474
 40
0.8428473235286537
 40
1.265657898956934
 40
1.690088643751428
 40
2.116607084860617
 40
2.545625100287603
 40
2.977483884449724
 40
3.412450195918404
 40
3.850709593302191
 40
4.292362208965671
 40
4.737427885281768
 40
5.185826256336565
 40
5.637431371058531
 40
6.092003378174421
 40
6.549257520372505
 40
7.008843368271169
 40
7.470358728297647
 40
7.933358849736796
 40
8.383035712276667
 40
8.383035712276667
 40
8.383035712276667
 40
8.383035712276667
 10
-36.21369951922006
 20
-2.500001551189992
 30
0.0
 10
-36.36812723966549
 20
-2.498514111821008
 30
0.0
 10
-36.67718836252588
 20
-2.495537251965547
 30
0.0
 10
-37.14066757324753
 20
-2.471540417565556
 30
0.0
 10
-37.6041270011346
 20
-2.433391724810808
 30
0.0
 10
-38.06755774036015
 20
-2.379924861818165
 30
0.0
 10
-38.53095519076337
 20
-2.311864491152558
 30
0.0
 10
-38.99431011966946
 20
-2.22951294960317
 30
0.0
 10
-39.45762221882899
 20
-2.133426636137326
 30
0.0
 10
-39.92088832846365
 20
-2.024189130630065
 30
0.0
 10
-40.38410735336749
 20
-1.902478233551526
 30
0.0
 10
-40.84728310585038
 20
-1.769051483648631
 30
0.0
 10
-41.31041366666337
 20
-1.624732748094063
 30
0.0
 10
-41.77350428320599
 20
-1.470407313798947
 30
0.0
 10
-42.23656114731912
 20
-1.307042166152987
 30
0.0
 10
-42.69958525949449
 20
-1.135628320241548
 30
0.0
 10
-43.16258007133367
 20
-0.957230731051978
 30
0.0
 10
-43.62555408519154
 20
-0.7729500731932843
 30
0.0
 10
-44.08849964990864
 20
-0.5838961606186368
 30
0.0
 10
-44.54668975787106
 20
-0.3933105888912211
 30
0.0
 10
-44.850257943301
 20
-0.2652738649255512
 30
0.0
 10
-44.99999938367106
 20
-0.2021900430110838
 30
0.0
  0
SPLINE
  5
32B0
330
1F
100
AcDbEntity
  8
AM_0
100
AcDbSpline
210
0.0
220
0.0
230
1.0
 70
     8
 71
     3
 72
    17
 73
    13
 74
     0
 42
0.0000000001
 43
0.0000000001
 40
1.580019955310467
 40
1.580019955310467
 40
1.580019955310467
 40
1.580019955310467
 40
2.030549285115227
 40
3.082371838836284
 40
4.126290986361125
 40
5.162752068350215
 40
6.192395305374981
 40
7.216039564037012
 40
8.234688489606833
 40
9.249433870634691
 40
10.26152376260694
 40
11.27226744710342
 40
11.27226744710342
 40
11.27226744710342
 40
11.27226744710352
 10
-6.849117335052316
 20
-1.845075167666376
 30
0.0
 10
-6.914691907237693
 20
-1.864077893143501
 30
0.0
 10
-7.133733008914107
 20
-1.926361864071583
 30
0.0
 10
-7.507690489395748
 20
-2.024056501031427
 30
0.0
 10
-7.970892150179582
 20
-2.133461534346344
 30
0.0
 10
-8.434221329946954
 20
-2.229504627710566
 30
0.0
 10
-8.897571739295607
 20
-2.311863246830592
 30
0.0
 10
-9.360972629840929
 20
-2.379938311133607
 30
0.0
 10
-9.824405535424043
 20
-2.433341346244585
 30
0.0
 10
-10.2878672980496
 20
-2.471726282627133
 30
0.0
 10
-10.75134649921998
 20
-2.494846031988041
 30
0.0
 10
-11.06040762694112
 20
-2.500001565495532
 30
0.0
 10
-11.21483534533061
 20
-2.500001551190396
 30
0.0
  0
SPLINE
  5
32B1
330
1F
100
AcDbEntity
  8
AM_0
100
AcDbSpline
210
0.0
220
0.0
230
1.0
 70
     8
 71
     3
 72
    22
 73
    18
 74
     0
 42
0.0000000001
 43
0.0000000001
 40
17.17441611292
 40
17.17441611292
 40
17.17441611292
 40
17.17441611292
 40
17.38177636558528
 40
18.41823744757437
 40
19.46215659509824
 40
20.51397914882054
 40
21.57394542641293
 40
22.64209583141747
 40
23.71826625065247
 40
24.80210429862395
 40
25.8930771157021
 40
26.99048705697709
 40
28.09349309193389
 40
29.20112995599786
 40
30.31233024745139
 40
31.42594771747373
 40
32.5407895042663
 40
32.54078950426994
 40
32.54078950426994
 40
32.54078950426994
 10
-12.98383281983967
 20
-2.24501964531301
 30
0.0
 10
-13.01486804788336
 20
-2.239232390517434
 30
0.0
 10
-13.20090729068006
 20
-2.20398158899504
 30
0.0
 10
-13.54172070021403
 20
-2.133299143948676
 30
0.0
 10
-14.00498684658549
 20
-2.024062105037705
 30
0.0
 10
-14.46820578710909
 20
-1.902350890297769
 30
0.0
 10
-14.93138079208457
 20
-1.768925251309945
 30
0.0
 10
-15.39451124968998
 20
-1.624603284513511
 30
0.0
 10
-15.85760286052419
 20
-1.470283172198244
 30
0.0
 10
-16.32065776883155
 20
-1.306913316121828
 30
0.0
 10
-16.78368025897107
 20
-1.135501209235054
 30
0.0
 10
-17.24667547945928
 20
-0.9571043556631749
 30
0.0
 10
-17.70964744881531
 20
-0.7728197230536577
 30
0.0
 10
-18.17260082760063
 20
-0.5837810616066777
 30
0.0
 10
-18.63553971949395
 20
-0.3911507451106731
 30
0.0
 10
-19.09847098253236
 20
-0.1961174067366521
 30
0.0
 10
-19.40703124598256
 20
-0.065312683761085
 30
0.0
 10
-19.56139614143353
 20
0.000125605385597
 30
0.0
  0
SPLINE
  5
32B2
330
1F
100
AcDbEntity
  8
AM_0
100
AcDbSpline
210
0.0
220
0.0
230
1.0
 70
     8
 71
     3
 72
    11
 73
     7
 74
     0
 42
0.0000000001
 43
0.0000000001
 40
11.27226913003534
 40
11.27226913003534
 40
11.27226913003534
 40
11.2722691300354
 40
12.28301561507924
 40
13.29510212255852
 40
14.30984805882082
 40
15.18258238371378
 40
15.18258238371378
 40
15.18258238371378
 40
15.18258238371378
 10
-11.21483534533063
 20
-2.500001551190396
 30
0.0
 10
-11.36867585350836
 20
-2.487765824695137
 30
0.0
 10
-11.67606669741158
 20
-2.458143663370678
 30
0.0
 10
-12.1355656542544
 20
-2.398388436955014
 30
0.0
 10
-12.57163826652652
 20
-2.327017370906553
 30
0.0
 10
-12.85366443519531
 20
-2.272152308295914
 30
0.0
 10
-12.9836301244057
 20
-2.245050482793894
 30
0.0
  0
SPLINE
  5
32B3
330
1F
100
AcDbEntity
  8
AM_0
 48
0.5
100
AcDbSpline
210
0.0
220
0.0
230
1.0
 70
     8
 71
     3
 72
    22
 73
    18
 74
     0
 42
0.0000000001
 43
0.0000000001
 40
0.0
 40
0.0
 40
0.0
 40
0.0
 40
1.010743684496582
 40
2.022833993863546
 40
3.037578683882831
 40
4.056212471389632
 40
5.079857945358201
 40
6.109499720892564
 40
7.145961650132166
 40
8.189873411961459
 40
9.241710626092514
 40
10.30166235592959
 40
11.36982472628033
 40
12.44598212828784
 40
13.52983440361964
 40
14.62080578343036
 40
14.90544694398022
 40
14.90544694398022
 40
14.90544694398022
 40
14.90544694398022
 10
-37.51112637875793
 20
-2.500001551189967
 30
0.0
 10
-37.66555412869328
 20
-2.498514556131713
 30
0.0
 10
-37.97461537434497
 20
-2.49553858487544
 30
0.0
 10
-38.43809409970684
 20
-2.471535066855986
 30
0.0
 10
-38.90155402804
 20
-2.433392792850916
 30
0.0
 10
-39.36498501769498
 20
-2.379925894549806
 30
0.0
 10
-39.82838119088947
 20
-2.311859121571474
 30
0.0
 10
-40.29173771333589
 20
-2.229514700299698
 30
0.0
 10
-40.75504779521663
 20
-2.133424895155993
 30
0.0
 10
-41.21831462241348
 20
-2.024185808113605
 30
0.0
 10
-41.68153402252683
 20
-1.90247950976973
 30
0.0
 10
-42.14470841629577
 20
-1.769046718365504
 30
0.0
 10
-42.60784078949335
 20
-1.624736527758847
 30
0.0
 10
-43.07093079425278
 20
-1.470406855923803
 30
0.0
 10
-43.53398710601977
 20
-1.307040852743237
 30
0.0
 10
-43.88200628473779
 20
-1.178209083687563
 30
0.0
 10
-44.07593471572582
 20
-1.104572985681155
 30
0.0
 10
-44.11603266664289
 20
-1.089272059953533
 30
0.0
  0
SPLINE
  5
32B4
330
1F
100
AcDbEntity
  8
AM_0
100
AcDbSpline
210
0.0
220
0.0
230
1.0
 70
     8
 71
     3
 72
    22
 73
    18
 74
     0
 42
0.0000000001
 43
0.0000000001
 40
17.17441611292
 40
17.17441611292
 40
17.17441611292
 40
17.17441611292
 40
17.38177636558528
 40
18.41823744757437
 40
19.46215659509824
 40
20.51397914882054
 40
21.57394542641293
 40
22.64209583141747
 40
23.71826625065247
 40
24.80210429862395
 40
25.8930771157021
 40
26.99048705697709
 40
28.09349309193389
 40
29.20112995599786
 40
30.31233024745139
 40
31.42594771747373
 40
32.5407895042663
 40
32.54078950426994
 40
32.54078950426994
 40
32.54078950426994
 10
-29.48360133193033
 20
-2.245019645312761
 30
0.0
 10
-29.51463655997402
 20
-2.239232390517186
 30
0.0
 10
-29.70067580277071
 20
-2.203981588994792
 30
0.0
 10
-30.04148921230467
 20
-2.133299143948423
 30
0.0
 10
-30.50475535867614
 20
-2.024062105037456
 30
0.0
 10
-30.96797429919974
 20
-1.902350890297519
 30
0.0
 10
-31.43114930417523
 20
-1.768925251309695
 30
0.0
 10
-31.89427976178062
 20
-1.62460328451326
 30
0.0
 10
-32.35737137261481
 20
-1.470283172197993
 30
0.0
 10
-32.82042628092217
 20
-1.306913316121578
 30
0.0
 10
-33.28344877106169
 20
-1.135501209234805
 30
0.0
 10
-33.7464439915499
 20
-0.9571043556629252
 30
0.0
 10
-34.20941596090596
 20
-0.7728197230534076
 30
0.0
 10
-34.67236933969128
 20
-0.5837810616064278
 30
0.0
 10
-35.1353082315846
 20
-0.3911507451104233
 30
0.0
 10
-35.59823949462301
 20
-0.196117406736402
 30
0.0
 10
-35.90679975807321
 20
-0.065312683760835
 30
0.0
 10
-36.06116465352418
 20
0.0001256053858469
 30
0.0
  0
SPLINE
  5
32B5
330
1F
100
AcDbEntity
  8
AM_0
100
AcDbSpline
210
0.0
220
0.0
230
1.0
 70
     8
 71
     3
 72
    17
 73
    13
 74
     0
 42
0.0000000001
 43
0.0000000001
 40
1.580019955310467
 40
1.580019955310467
 40
1.580019955310467
 40
1.580019955310467
 40
2.030549285115227
 40
3.082371838836284
 40
4.126290986361125
 40
5.162752068350215
 40
6.192395305374981
 40
7.216039564037012
 40
8.234688489606833
 40
9.249433870634691
 40
10.26152376260694
 40
11.27226744710342
 40
11.27226744710342
 40
11.27226744710342
 40
11.27226744710352
 10
-23.34888584714297
 20
-1.845075167666126
 30
0.0
 10
-23.41446041932834
 20
-1.864077893143251
 30
0.0
 10
-23.63350152100475
 20
-1.926361864071334
 30
0.0
 10
-24.00745900148639
 20
-2.024056501031177
 30
0.0
 10
-24.47066066227022
 20
-2.133461534346094
 30
0.0
 10
-24.9339898420376
 20
-2.229504627710317
 30
0.0
 10
-25.39734025138625
 20
-2.311863246830343
 30
0.0
 10
-25.86074114193157
 20
-2.379938311133358
 30
0.0
 10
-26.32417404751467
 20
-2.433341346244336
 30
0.0
 10
-26.78763581014023
 20
-2.471726282626884
 30
0.0
 10
-27.25111501131062
 20
-2.494846031987792
 30
0.0
 10
-27.56017613903175
 20
-2.50000156549528
 30
0.0
 10
-27.71460385742124
 20
-2.500001551190149
 30
0.0
  0
SPLINE
  5
32B6
330
1F
100
AcDbEntity
  8
AM_0
100
AcDbSpline
210
0.0
220
0.0
230
1.0
 70
     8
 71
     3
 72
    11
 73
     7
 74
     0
 42
0.0000000001
 43
0.0000000001
 40
11.27226913003534
 40
11.27226913003534
 40
11.27226913003534
 40
11.2722691300354
 40
12.28301561507924
 40
13.29510212255852
 40
14.30984805882082
 40
15.18258238371378
 40
15.18258238371378
 40
15.18258238371378
 40
15.18258238371378
 10
-27.71460385742127
 20
-2.500001551190149
 30
0.0
 10
-27.86844436559899
 20
-2.487765824694888
 30
0.0
 10
-28.17583520950222
 20
-2.45814366337043
 30
0.0
 10
-28.63533416634504
 20
-2.398388436954765
 30
0.0
 10
-29.07140677861716
 20
-2.327017370906304
 30
0.0
 10
-29.35343294728596
 20
-2.272152308295662
 30
0.0
 10
-29.48339863649635
 20
-2.245050482793645
 30
0.0
  0
SPLINE
  5
32B7
330
1F
100
AcDbEntity
  8
AM_0
100
AcDbSpline
210
0.0
220
0.0
230
1.0
 70
     8
 71
     3
 72
    13
 73
     9
 74
     0
 42
0.0000000001
 43
0.0000000001
 40
16.03460056234195
 40
16.03460056234195
 40
16.03460056234195
 40
16.03460056234195
 40
16.35212717791071
 40
17.38177067057215
 40
18.41822498539278
 40
19.46214186516937
 40
20.5139635832251
 40
21.34083983469381
 40
21.34083983469381
 40
21.34083983469381
 40
21.34083983469381
 10
-44.0831599128729
 20
-2.500001551189817
 30
0.0
 10
-43.95217243613377
 20
-2.491789603973527
 30
0.0
 10
-43.75035137684661
 20
-2.455038704978032
 30
0.0
 10
-43.39484189541917
 20
-2.383028110844402
 30
0.0
 10
-42.93445587740007
 20
-2.275950691926201
 30
0.0
 10
-42.47449756114389
 20
-2.155720184703875
 30
0.0
 10
-42.04888480645102
 20
-2.032833815315722
 30
0.0
 10
-41.77735136395697
 20
-1.948217804622965
 30
0.0
 10
-41.6582312701489
 20
-1.909970596768608
 30
0.0
  0
SPLINE
  5
32B8
330
1F
100
AcDbEntity
  8
AM_0
100
AcDbSpline
210
0.0
220
0.0
230
1.0
 70
     8
 71
     3
 72
    55
 73
    51
 74
     0
 42
0.0000000001
 43
0.0000000001
 40
0.0
 40
0.0
 40
0.0
 40
0.0
 40
1.010743684496582
 40
2.022833576467832
 40
3.037578957496688
 40
4.056212745003489
 40
5.079857003664532
 40
6.109500240690281
 40
7.145961322679372
 40
8.189895241603872
 40
9.241717795325891
 40
10.30168407291828
 40
11.36983447792315
 40
12.44600489715814
 40
13.52984294512926
 40
14.62081576220742
 40
15.7182257034828
 40
16.82123173843959
 40
17.92886860250316
 40
19.0400688939571
 40
20.15368796660465
 40
21.26852814259644
 40
22.38336992938901
 40
23.49698739941135
 40
24.6081876908653
 40
25.71582455492886
 40
26.81883757994213
 40
27.91624752121713
 40
29.00722033829659
 40
30.09105838626677
 40
31.16722880550176
 40
32.23537921050758
 40
33.29534548809967
 40
34.347168041821
 40
35.39108718934584
 40
36.42754827133493
 40
37.45720575381954
 40
38.48085062012849
 40
39.49948440763516
 40
40.51422944315121
 40
41.52631975251916
 40
42.53706336719636
 40
43.54780698187354
 40
44.55989729124051
 40
45.57464232675757
 40
46.59327611426424
 40
47.6169209805722
 40
48.64656348684535
 40
49.68302456883444
 40
50.58557219878025
 40
50.58557219878025
 40
50.58557219878025
 40
50.58557219878025
 10
-2.484080493035904
 20
-2.500001551190557
 30
0.0
 10
-2.638508213462759
 20
-2.498514111756755
 30
0.0
 10
-2.947569336285823
 20
-2.495537251771581
 30
0.0
 10
-3.411048547286859
 20
-2.471540418346293
 30
0.0
 10
-3.874507974107902
 20
-2.433391721872347
 30
0.0
 10
-4.337938717340537
 20
-2.379924872859943
 30
0.0
 10
-4.801336152675462
 20
-2.311864449622988
 30
0.0
 10
-5.264691138317362
 20
-2.229513106017452
 30
0.0
 10
-5.728005224168118
 20
-2.133425590046368
 30
0.0
 10
-6.191274301568132
 20
-2.024190295683196
 30
0.0
 10
-6.654495214810677
 20
-1.902477921008675
 30
0.0
 10
-7.11767027279592
 20
-1.769052442017073
 30
0.0
 10
-7.580800715999031
 20
-1.624730431786867
 30
0.0
 10
-8.043892330863938
 20
-1.470410331492028
 30
0.0
 10
-8.506947237596534
 20
-1.30704047121293
 30
0.0
 10
-8.969969729983628
 20
-1.135628369035504
 30
0.0
 10
-9.432964943007295
 20
-0.9572315007430153
 30
0.0
 10
-9.895936940160725
 20
-0.7729469226697013
 30
0.0
 10
-10.3588902146399
 20
-0.5839080566591847
 30
0.0
 10
-10.82182972024157
 20
-0.3912784144728197
 30
0.0
 10
-11.28475951738592
 20
-0.1962422039869229
 30
0.0
 10
-11.74768614335872
 20
-0.0000020612812004
 30
0.0
 10
-12.21061069117831
 20
0.1962416138693892
 30
0.0
 10
-12.67354203996243
 20
0.3912747871256062
 30
0.0
 10
-13.13648097405908
 20
0.5839050123909311
 30
0.0
 10
-13.59943507397882
 20
0.7729445985552688
 30
0.0
 10
-14.06240899176218
 20
0.9572276039116333
 30
0.0
 10
-14.52540493551462
 20
1.135625376924461
 30
0.0
 10
-14.98842749474675
 20
1.307037340104347
 30
0.0
 10
-15.45148238463026
 20
1.470407234739512
 30
0.0
 10
-15.91457400068096
 20
1.624727335260091
 30
0.0
 10
-16.37770445568038
 20
1.769049310980729
 30
0.0
 10
-16.8408794658609
 20
1.902474926212019
 30
0.0
 10
-17.30409838835012
 20
2.02418622616783
 30
0.0
 10
-17.76736460096598
 20
2.133422951240822
 30
0.0
 10
-18.23067851495125
 20
2.22951239941097
 30
0.0
 10
-18.69403680910305
 20
2.311854337349907
 30
0.0
 10
-19.15743577537215
 20
2.379935826726627
 30
0.0
 10
-19.62086665598639
 20
2.433339297690634
 30
0.0
 10
-20.08432640483313
 20
2.471719657301336
 30
0.0
 10
-20.54780522285903
 20
2.49484666107641
 30
0.0
 10
-21.01129422555088
 20
2.502572627787054
 30
0.0
 10
-21.47478322756076
 20
2.494846661064315
 30
0.0
 10
-21.9382620476365
 20
2.471719657349961
 30
0.0
 10
-22.40172178893628
 20
2.433339297507533
 30
0.0
 10
-22.86515269784591
 20
2.379935827414881
 30
0.0
 10
-23.32854929858363
 20
2.311854666670385
 30
0.0
 10
-23.79190576728011
 20
2.229513241312862
 30
0.0
 10
-24.23415380306748
 20
2.137784803841829
 30
0.0
 10
-24.52108936515013
 20
2.070702930348558
 30
0.0
 10
-24.65421074214235
 20
2.038010660944429
 30
0.0
  0
SPLINE
  5
32B9
330
1F
100
AcDbEntity
  8
AM_0
100
AcDbSpline
210
0.0
220
0.0
230
1.0
 70
     8
 71
     3
 72
    46
 73
    42
 74
     0
 42
0.0000000001
 43
0.0000000001
 40
0.0
 40
0.0
 40
0.0
 40
0.0
 40
0.8427075293422856
 40
1.265518104770559
 40
1.68994884956506
 40
2.116467290673827
 40
2.54548530610122
 40
2.977344090263341
 40
3.412310401731622
 40
3.850575907619845
 40
4.292228523283339
 40
4.737291192035371
 40
5.185695533383685
 40
5.63729472003792
 40
6.091866727153825
 40
6.549120869352286
 40
7.008706717250554
 40
7.470222077277051
 40
7.933222198716569
 40
8.397230145652669
 40
8.861746885649248
 40
9.326263625646204
 40
9.790271572582303
 40
10.25327169402144
 40
10.71478705404793
 40
11.17437290194659
 40
11.6316270441445
 40
12.08619905126056
 40
12.53780120194721
 40
12.98620554329551
 40
13.43126821204755
 40
13.87292082771091
 40
14.3111802250952
 40
14.74614653656348
 40
15.17800532072561
 40
15.60702303167234
 40
16.03354172596774
 40
16.45797877828845
 40
16.88078920975347
 40
17.30249350532345
 40
17.72363667810562
 40
17.72363667810562
 40
17.72363667810562
 40
17.72363667810562
 10
-1.186653633498027
 20
-2.500001551190581
 30
0.0
 10
-1.495729856555014
 20
-2.494306357938288
 30
0.0
 10
-1.959878499368254
 20
-2.485753722628898
 30
0.0
 10
-2.577077190421014
 20
-2.433096718231714
 30
0.0
 10
-3.040512912736155
 20
-2.380004450415253
 30
0.0
 10
-3.503909022329323
 20
-2.311842997103889
 30
0.0
 10
-3.967264298456501
 20
-2.229518725830996
 30
0.0
 10
-4.430576360770762
 20
-2.133425216747002
 30
0.0
 10
-4.893844433294013
 20
-2.024188458063788
 30
0.0
 10
-5.357066454319707
 20
-1.902479179650184
 30
0.0
 10
-5.820243349717566
 20
-1.769052267585999
 30
0.0
 10
-6.283373873682572
 20
-1.624730479061117
 30
0.0
 10
-6.746465466654374
 20
-1.470410318673082
 30
0.0
 10
-7.209520379350701
 20
-1.307040474736065
 30
0.0
 10
-7.672542869993324
 20
-1.135628367881121
 30
0.0
 10
-8.135538083980302
 20
-0.9572315018138477
 30
0.0
 10
-8.598510079025146
 20
-0.7729469195283513
 30
0.0
 10
-9.061463361013476
 20
-0.5839080682131655
 30
0.0
 10
-9.524402838569796
 20
-0.3912783712290221
 30
0.0
 10
-9.98733274067654
 20
-0.196242365805576
 30
0.0
 10
-10.45025875131277
 20
-0.0000015512301168
 30
0.0
 10
-10.9131847618473
 20
0.1962392635838145
 30
0.0
 10
-11.37611466425909
 20
0.391275268292194
 30
0.0
 10
-11.83905414070043
 20
0.5839049678895894
 30
0.0
 10
-12.30200742682319
 20
0.7729438095131672
 30
0.0
 10
-12.76497940653792
 20
0.957228427734172
 30
0.0
 10
-13.22797467729754
 20
1.135625160719603
 30
0.0
 10
-13.6909979645302
 20
1.307038132488136
 30
0.0
 10
-14.15405467643451
 20
1.470406492127307
 30
0.0
 10
-14.61714709549075
 20
1.624727443816275
 30
0.0
 10
-15.08027760867276
 20
1.769049275284571
 30
0.0
 10
-15.54345260139256
 20
1.902474961269457
 30
0.0
 10
-16.00667153606518
 20
2.024186122422501
 30
0.0
 10
-16.46993771755923
 20
2.133423327349825
 30
0.0
 10
-16.93324951173281
 20
2.229510549491972
 30
0.0
 10
-17.39660512756371
 20
2.311858698047617
 30
0.0
 10
-17.86000419458662
 20
2.379922815929636
 30
0.0
 10
-18.32343752893497
 20
2.433388843420883
 30
0.0
 10
-18.78689953567819
 20
2.471534038722332
 30
0.0
 10
-19.25037836574751
 20
2.495537347716949
 30
0.0
 10
-19.55943961800214
 20
2.498512075250344
 30
0.0
 10
-19.71386736589942
 20
2.499998448809759
 30
0.0
  0
SPLINE
  5
32BA
330
1F
100
AcDbEntity
  8
AM_0
 48
0.5
100
AcDbSpline
210
0.0
220
0.0
230
1.0
 70
     8
 71
     3
 72
    25
 73
    21
 74
     0
 42
0.0000000001
 43
0.0000000001
 40
6.846175049578289
 40
6.846175049578289
 40
6.846175049578289
 40
6.846175049578289
 40
7.604337694224321
 40
8.711974558287883
 40
9.814980593243754
 40
10.91239053451967
 40
12.0033633515982
 40
13.08720139956839
 40
14.16337181880432
 40
15.23152222380919
 40
16.29148850140128
 40
17.34331105512262
 40
18.38723020264746
 40
19.42369128463655
 40
20.45333379090873
 40
21.47697865721768
 40
22.49561244472435
 40
23.5103574802404
 40
24.52244778960836
 40
25.53320666051913
 40
25.53320666051913
 40
25.53320666051913
 40
25.53320666051913
 10
-3.024613908139944
 20
0.4525148159365505
 30
0.0
 10
-3.129900519470802
 20
0.4964103697029209
 30
0.0
 10
-3.38922706785991
 20
0.6039958317677324
 30
0.0
 10
-3.802978940135787
 20
0.7729437361195034
 30
0.0
 10
-4.265950884190019
 20
0.9572284208027079
 30
0.0
 10
-4.728946111404004
 20
1.135625260508215
 30
0.0
 10
-5.191968599769606
 20
1.307037371141467
 30
0.0
 10
-5.655023508500016
 20
1.470407225992541
 30
0.0
 10
-6.118115119398642
 20
1.624727339485048
 30
0.0
 10
-6.581245576335749
 20
1.769049302823129
 30
0.0
 10
-7.044420583890467
 20
1.902474954337774
 30
0.0
 10
-7.507639514868549
 20
2.024186122920901
 30
0.0
 10
-7.970905696474376
 20
2.133423332154895
 30
0.0
 10
-8.434217493820282
 20
2.229510529983182
 30
0.0
 10
-8.897573096976234
 20
2.311858770630244
 30
0.0
 10
-9.360969927586088
 20
2.379922211760892
 30
0.0
 10
-9.824400775381221
 20
2.43338934520147
 30
0.0
 10
-10.28786053288336
 20
2.471533954625262
 30
0.0
 10
-10.75134167674409
 20
2.495537493817645
 30
0.0
 10
-11.06040526430837
 20
2.498512116444064
 30
0.0
 10
-11.21483534533055
 20
2.499998448809602
 30
0.0
  0
SPLINE
  5
32BB
330
1F
100
AcDbEntity
  8
AM_0
 48
0.5
100
AcDbSpline
210
0.0
220
0.0
230
1.0
 70
     8
 71
     3
 72
    17
 73
    13
 74
     0
 42
0.0000000001
 43
0.0000000001
 40
0.0
 40
0.0
 40
0.0
 40
0.0
 40
1.010743614677189
 40
2.022833924044153
 40
3.037578959561199
 40
4.056212747067873
 40
5.079857613375832
 40
6.109500119648989
 40
7.14596120163808
 40
8.18989512056258
 40
9.241717674284874
 40
9.693948937866434
 40
9.693948937866434
 40
9.693948937866434
 40
9.693948937866434
 10
-2.484080493035818
 20
2.499998448809443
 30
0.0
 10
-2.638508241566673
 20
2.498512081296832
 30
0.0
 10
-2.947569495089171
 20
2.49553736586512
 30
0.0
 10
-3.411048315630265
 20
2.471533965935897
 30
0.0
 10
-3.874508055017348
 20
2.433389307205738
 30
0.0
 10
-4.337938971152817
 20
2.379922353261831
 30
0.0
 10
-4.801335544708728
 20
2.311858238725527
 30
0.0
 10
-5.264692115754014
 20
2.229512533190963
 30
0.0
 10
-5.728002465264749
 20
2.133415323197351
 30
0.0
 10
-6.19128457154227
 20
2.024213559911251
 30
0.0
 10
-6.56525796840222
 20
1.925839278297571
 30
0.0
 10
-6.784877073502427
 20
1.864341205448324
 30
0.0
 10
-6.850794946142858
 20
1.845517057035338
 30
0.0
  0
SPLINE
  5
32BC
330
1F
100
AcDbEntity
  8
AM_0
100
AcDbSpline
210
0.0
220
0.0
230
1.0
 70
     8
 71
     3
 72
    23
 73
    19
 74
     0
 42
0.0000000001
 43
0.0000000001
 40
16.03460024169435
 40
16.03460024169435
 40
16.03460024169435
 40
16.03460024169435
 40
16.35212704903564
 40
17.38177054169784
 40
18.41822485651776
 40
19.46214173629503
 40
20.51396345435107
 40
21.57393551351153
 40
22.64208202342361
 40
23.7182574881101
 40
24.80209208578934
 40
25.89306333925047
 40
26.99048218457928
 40
28.09348763352352
 40
29.20111863782268
 40
30.31232390128032
 40
31.42594612798585
 40
32.5407912310448
 40
32.5407912310486
 40
32.5407912310486
 40
32.5407912310486
 10
-43.08274838543759
 20
2.500353619180429
 30
0.0
 10
-43.0351315924427
 20
2.491914059429465
 30
0.0
 10
-42.83331070015819
 20
2.455162152080126
 30
0.0
 10
-42.47780102493694
 20
2.383152398677259
 30
0.0
 10
-42.01741506485533
 20
2.276074682858191
 30
0.0
 10
-41.55745673290851
 20
2.155844256041635
 30
0.0
 10
-41.09789884979185
 20
2.023156950614098
 30
0.0
 10
-40.6387251049817
 20
1.878752501273812
 30
0.0
 10
-40.1799089593361
 20
1.72345638475046
 30
0.0
 10
-39.72141846264244
 20
1.558172385488389
 30
0.0
 10
-39.26322756182405
 20
1.383836497138752
 30
0.0
 10
-38.80529952205499
 20
1.201463139614678
 30
0.0
 10
-38.34759723338843
 20
1.01211234566421
 30
0.0
 10
-37.89009020042636
 20
0.8168728029716218
 30
0.0
 10
-37.43274014411095
 20
0.616879802740702
 30
0.0
 10
-36.97550470414102
 20
0.4133011573665167
 30
0.0
 10
-36.51834664864457
 20
0.2073165499718561
 30
0.0
 10
-36.21365647330977
 20
0.0692151338356582
 30
0.0
 10
-36.06122829475202
 20
0.0001256053849471
 30
0.0
  0
SPLINE
  5
32BD
330
1F
100
AcDbEntity
  8
AM_0
100
AcDbSpline
210
0.0
220
0.0
230
1.0
 70
     8
 71
     3
 72
    55
 73
    51
 74
     0
 42
0.0000000001
 43
0.0000000001
 40
0.0
 40
0.0
 40
0.0
 40
0.0
 40
1.010743684496582
 40
2.022833576467832
 40
3.037578957496688
 40
4.056212745003489
 40
5.079857003664532
 40
6.109500240690281
 40
7.145961322679372
 40
8.189895241603872
 40
9.241717795325891
 40
10.30168407291828
 40
11.36983447792315
 40
12.44600489715814
 40
13.52984294512926
 40
14.62081576220742
 40
15.7182257034828
 40
16.82123173843959
 40
17.92886860250316
 40
19.0400688939571
 40
20.15368796660465
 40
21.26852814259644
 40
22.38336992938901
 40
23.49698739941135
 40
24.6081876908653
 40
25.71582455492886
 40
26.81883757994213
 40
27.91624752121713
 40
29.00722033829659
 40
30.09105838626677
 40
31.16722880550176
 40
32.23537921050758
 40
33.29534548809967
 40
34.347168041821
 40
35.39108718934584
 40
36.42754827133493
 40
37.45720575381954
 40
38.48085062012849
 40
39.49948440763516
 40
40.51422944315121
 40
41.52631975251916
 40
42.53706336719636
 40
43.54780698187354
 40
44.55989729124051
 40
45.57464232675757
 40
46.59327611426424
 40
47.6169209805722
 40
48.64656348684535
 40
49.68302456883444
 40
50.58557219878025
 40
50.58557219878025
 40
50.58557219878025
 40
50.58557219878025
 10
-18.98384900512654
 20
-2.500001551190306
 30
0.0
 10
-19.13827672555339
 20
-2.498514111756507
 30
0.0
 10
-19.44733784837646
 20
-2.495537251771328
 30
0.0
 10
-19.91081705937749
 20
-2.47154041834604
 30
0.0
 10
-20.37427648619854
 20
-2.433391721872095
 30
0.0
 10
-20.83770722943117
 20
-2.37992487285969
 30
0.0
 10
-21.3011046647661
 20
-2.311864449622736
 30
0.0
 10
-21.764459650408
 20
-2.229513106017201
 30
0.0
 10
-22.22777373625876
 20
-2.133425590046117
 30
0.0
 10
-22.69104281365878
 20
-2.024190295682945
 30
0.0
 10
-23.15426372690132
 20
-1.902477921008425
 30
0.0
 10
-23.61743878488657
 20
-1.769052442016824
 30
0.0
 10
-24.08056922808968
 20
-1.624730431786618
 30
0.0
 10
-24.54366084295459
 20
-1.470410331491779
 30
0.0
 10
-25.0067157496872
 20
-1.307040471212681
 30
0.0
 10
-25.46973824207429
 20
-1.135628369035253
 30
0.0
 10
-25.93273345509795
 20
-0.9572315007427651
 30
0.0
 10
-26.39570545225136
 20
-0.7729469226694514
 30
0.0
 10
-26.85865872673053
 20
-0.5839080566589346
 30
0.0
 10
-27.32159823233222
 20
-0.3912784144725698
 30
0.0
 10
-27.78452802947657
 20
-0.1962422039866729
 30
0.0
 10
-28.24745465544937
 20
-0.0000020612809505
 30
0.0
 10
-28.71037920326896
 20
0.196241613869639
 30
0.0
 10
-29.17331055205308
 20
0.3912747871258561
 30
0.0
 10
-29.63624948614975
 20
0.5839050123911811
 30
0.0
 10
-30.09920358606949
 20
0.7729445985555192
 30
0.0
 10
-30.56217750385282
 20
0.9572276039118834
 30
0.0
 10
-31.02517344760526
 20
1.135625376924712
 30
0.0
 10
-31.48819600683739
 20
1.307037340104596
 30
0.0
 10
-31.95125089672093
 20
1.470407234739762
 30
0.0
 10
-32.41434251277164
 20
1.62472733526034
 30
0.0
 10
-32.87747296777105
 20
1.769049310980979
 30
0.0
 10
-33.34064797795154
 20
1.902474926212269
 30
0.0
 10
-33.80386690044074
 20
2.02418622616808
 30
0.0
 10
-34.2671331130566
 20
2.133422951241073
 30
0.0
 10
-34.73044702704187
 20
2.229512399411221
 30
0.0
 10
-35.19380532119368
 20
2.311854337350158
 30
0.0
 10
-35.65720428746277
 20
2.379935826726879
 30
0.0
 10
-36.12063516807701
 20
2.433339297690886
 30
0.0
 10
-36.58409491692375
 20
2.471719657301589
 30
0.0
 10
-37.04757373494965
 20
2.494846661076661
 30
0.0
 10
-37.5110627376415
 20
2.502572627787305
 30
0.0
 10
-37.97455173965137
 20
2.494846661064562
 30
0.0
 10
-38.43803055972712
 20
2.47171965735021
 30
0.0
 10
-38.90149030102689
 20
2.433339297507782
 30
0.0
 10
-39.36492120993652
 20
2.379935827415129
 30
0.0
 10
-39.82831781067425
 20
2.311854666670634
 30
0.0
 10
-40.29167427937072
 20
2.229513241313112
 30
0.0
 10
-40.7339223151581
 20
2.137784803842076
 30
0.0
 10
-41.02085787724074
 20
2.070702930348809
 30
0.0
 10
-41.15397925423297
 20
2.038010660944678
 30
0.0
  0
SPLINE
  5
32BE
330
1F
100
AcDbEntity
  8
AM_0
100
AcDbSpline
210
0.0
220
0.0
230
1.0
 70
     8
 71
     3
 72
    46
 73
    42
 74
     0
 42
0.0000000001
 43
0.0000000001
 40
0.0
 40
0.0
 40
0.0
 40
0.0
 40
0.8427075293422831
 40
1.265518104770557
 40
1.689948849565058
 40
2.116467290673825
 40
2.545485306101222
 40
2.97734409026334
 40
3.412310401731621
 40
3.850575907619841
 40
4.292228523283341
 40
4.737291192035375
 40
5.185695533383689
 40
5.637294720037917
 40
6.09186672715383
 40
6.549120869352283
 40
7.008706717250553
 40
7.470222077277046
 40
7.933222198716568
 40
8.397230145652669
 40
8.861746885649248
 40
9.326263625646204
 40
9.790271572582303
 40
10.25327169402144
 40
10.71478705404793
 40
11.17437290194658
 40
11.6316270441445
 40
12.08619905126055
 40
12.5378012019472
 40
12.98620554329551
 40
13.43126821204755
 40
13.87292082771092
 40
14.31118022509521
 40
14.74614653656349
 40
15.17800532072561
 40
15.60702303167235
 40
16.03354172596773
 40
16.45797877828844
 40
16.88078920975347
 40
17.30249350532346
 40
17.72363667810562
 40
17.72363667810562
 40
17.72363667810562
 40
17.72363667810562
 10
-17.68642214558866
 20
-2.500001551190329
 30
0.0
 10
-17.99549836864565
 20
-2.494306357938038
 30
0.0
 10
-18.45964701145889
 20
-2.485753722628648
 30
0.0
 10
-19.07684570251165
 20
-2.433096718231463
 30
0.0
 10
-19.54028142482679
 20
-2.380004450415003
 30
0.0
 10
-20.00367753441997
 20
-2.311842997103641
 30
0.0
 10
-20.46703281054714
 20
-2.229518725830747
 30
0.0
 10
-20.93034487286141
 20
-2.133425216746752
 30
0.0
 10
-21.39361294538465
 20
-2.02418845806354
 30
0.0
 10
-21.85683496641035
 20
-1.902479179649931
 30
0.0
 10
-22.32001186180821
 20
-1.769052267585752
 30
0.0
 10
-22.78314238577322
 20
-1.624730479060865
 30
0.0
 10
-23.24623397874503
 20
-1.470410318672835
 30
0.0
 10
-23.70928889144135
 20
-1.30704047473581
 30
0.0
 10
-24.17231138208399
 20
-1.135628367880875
 30
0.0
 10
-24.63530659607097
 20
-0.9572315018135942
 30
0.0
 10
-25.09827859111577
 20
-0.7729469195281038
 30
0.0
 10
-25.5612318731041
 20
-0.5839080682129127
 30
0.0
 10
-26.02417135066045
 20
-0.3912783712287735
 30
0.0
 10
-26.48710125276718
 20
-0.1962423658053261
 30
0.0
 10
-26.95002726340342
 20
-0.000001551229867
 30
0.0
 10
-27.41295327393795
 20
0.1962392635840643
 30
0.0
 10
-27.87588317634974
 20
0.3912752682924437
 30
0.0
 10
-28.33882265279111
 20
0.5839049678898393
 30
0.0
 10
-28.80177593891385
 20
0.7729438095134156
 30
0.0
 10
-29.26474791862856
 20
0.9572284277344236
 30
0.0
 10
-29.72774318938817
 20
1.135625160719852
 30
0.0
 10
-30.19076647662083
 20
1.307038132488385
 30
0.0
 10
-30.65382318852516
 20
1.470406492127559
 30
0.0
 10
-31.11691560758139
 20
1.624727443816524
 30
0.0
 10
-31.58004612076342
 20
1.769049275284822
 30
0.0
 10
-32.0432211134832
 20
1.902474961269706
 30
0.0
 10
-32.50644004815579
 20
2.024186122422751
 30
0.0
 10
-32.96970622964986
 20
2.133423327350077
 30
0.0
 10
-33.43301802382343
 20
2.229510549492224
 30
0.0
 10
-33.89637363965433
 20
2.311858698047866
 30
0.0
 10
-34.35977270667723
 20
2.379922815929886
 30
0.0
 10
-34.82320604102559
 20
2.433388843421132
 30
0.0
 10
-35.28666804776881
 20
2.471534038722581
 30
0.0
 10
-35.75014687783812
 20
2.495537347717196
 30
0.0
 10
-36.05920813009276
 20
2.498512075250594
 30
0.0
 10
-36.21363587799003
 20
2.499998448810008
 30
0.0
  0
SPLINE
  5
32BF
330
1F
100
AcDbEntity
  8
AM_0
100
AcDbSpline
210
0.0
220
0.0
230
1.0
 70
     8
 71
     3
 72
    23
 73
    19
 74
     0
 42
0.0000000001
 43
0.0000000001
 40
16.03460024169435
 40
16.03460024169435
 40
16.03460024169435
 40
16.03460024169435
 40
16.35212704903564
 40
17.38177054169784
 40
18.41822485651776
 40
19.46214173629503
 40
20.51396345435107
 40
21.57393551351153
 40
22.64208202342361
 40
23.7182574881101
 40
24.80209208578934
 40
25.89306333925047
 40
26.99048218457928
 40
28.09348763352352
 40
29.20111863782268
 40
30.31232390128032
 40
31.42594612798585
 40
32.5407912310448
 40
32.5407912310486
 40
32.5407912310486
 40
32.5407912310486
 10
-26.58291623211709
 20
2.500353619180179
 30
0.0
 10
-26.5352994391222
 20
2.491914059429216
 30
0.0
 10
-26.33347854683767
 20
2.455162152079877
 30
0.0
 10
-25.97796887161644
 20
2.383152398677012
 30
0.0
 10
-25.51758291153482
 20
2.276074682857945
 30
0.0
 10
-25.057624579588
 20
2.155844256041387
 30
0.0
 10
-24.59806669647135
 20
2.02315695061385
 30
0.0
 10
-24.13889295166118
 20
1.878752501273563
 30
0.0
 10
-23.68007680601551
 20
1.723456384750212
 30
0.0
 10
-23.22158630932186
 20
1.558172385488141
 30
0.0
 10
-22.76339540850349
 20
1.383836497138503
 30
0.0
 10
-22.3054673687344
 20
1.201463139614431
 30
0.0
 10
-21.84776508006785
 20
1.012112345663962
 30
0.0
 10
-21.39025804710581
 20
0.8168728029713733
 30
0.0
 10
-20.93290799079042
 20
0.6168798027404533
 30
0.0
 10
-20.47567255082047
 20
0.4133011573662684
 30
0.0
 10
-20.01851449532404
 20
0.2073165499716078
 30
0.0
 10
-19.71382431998923
 20
0.0692151338354098
 30
0.0
 10
-19.56139614143148
 20
0.0001256053846988
 30
0.0
  0
DIMENSION
  5
3305
330
1F
100
AcDbEntity
  8
AM_5
100
AcDbDimension
  2
*D8
 10
8.300031039333244
 20
-2.499999819259228
 30
0.0
 11
6.600031039333244
 21
0.0000008562021327
 31
0.0
 70
    32
  1
%%c<>
 51
359.9999999999998
  3
AM_JIS$0
100
AcDbAlignedDimension
 13
-0.9999941384622523
 23
2.500001531663492
 33
0.0
 14
-0.9999976312362212
 24
-2.499999819259226
 34
0.0
 50
90.00000000000012
100
AcDbRotatedDimension
1001
ACAD
1000
DSTYLE
1002
{
1070
   271
1070
     0
1002
}
1001
GENIUS_GENDTOL_13
1000

1000
h7
1000

1040
0.0
  0
VIEWPORT
  5
110
330
101
100
AcDbEntity
 67
     1
  8
0
100
AcDbViewport
 10
420.5
 20
297.0
 30
0.0
 40
948.9782706766916
 41
628.452
 68
     1
 69
     1
1001
ACAD
1000
MVIEW
1002
{
1070
    16
1010
0.0
1020
0.0
1030
0.0
1010
0.0
1020
0.0
1030
1.0
1040
0.0
1040
628.452
1040
420.5
1040
297.0
1040
50.0
1040
0.0
1040
0.0
1070
     0
1070
   100
1070
     1
1070
     1
1070
     0
1070
     0
1070
     0
1070
     0
1040
0.0
1040
0.0
1040
0.0
1040
10.0
1040
10.0
1040
10.0
1040
10.0
1070
     0
1002
{
1002
}
1002
}
  0
ENDSEC
  0
SECTION
  2
OBJECTS
  0
DICTIONARY
  5
C
330
0
100
AcDbDictionary
  3
ACAD_GROUP
350
D
  3
ACAD_LAYOUT
350
1A
  3
ACAD_MLINESTYLE
350
17
  3
ACAD_PLOTSETTINGS
350
19
  3
ACAD_PLOTSTYLENAME
350
E
  3
ACDBVARIABLEDICTIONARY
350
34
  3
ACMDICTIONARY
350
43
  3
AMG
350
2B
  3
AMGSNAPSETTINGS
350
6E
  3
DWGPROPS
350
33F0
  3
ACDBHEADERROUNDTRIPXREC
350
33FC
  0
DICTIONARY
  5
74
330
1F
100
AcDbDictionary
280
     1
  3
ACAD_INDEX
360
33F2
  3
ACAD_LAYOUTSELFREF
360
341F
  0
DICTIONARY
  5
3424
330
101
100
AcDbDictionary
280
     1
  3
ACAD_LAYOUTSELFREF
360
3425
  0
DICTIONARY
  5
D
102
{ACAD_REACTORS
330
C
102
}
330
C
100
AcDbDictionary
  0
DICTIONARY
  5
1A
102
{ACAD_REACTORS
330
C
102
}
330
C
100
AcDbDictionary
  0
DICTIONARY
  5
17
102
{ACAD_REACTORS
330
C
102
}
330
C
100
AcDbDictionary
  3
STANDARD
350
18
  0
DICTIONARY
  5
19
102
{ACAD_REACTORS
330
C
102
}
330
C
100
AcDbDictionary
  0
ACDBDICTIONARYWDFLT
  5
E
102
{ACAD_REACTORS
330
C
102
}
330
C
100
AcDbDictionary
281
     1
  3
Normal
350
F
100
AcDbDictionaryWithDefault
340
F
  0
DICTIONARY
  5
34
102
{ACAD_REACTORS
330
C
102
}
330
C
100
AcDbDictionary
  3
INDEXCTL
350
35
  3
SORTENTS
350
B5E
  0
DICTIONARY
  5
43
102
{ACAD_REACTORS
330
C
102
}
330
C
100
AcDbDictionary
  3
ACMSTDDICTIONARY
350
260
  0
DICTIONARY
  5
2B
102
{ACAD_REACTORS
330
C
102
}
330
C
100
AcDbDictionary
  3
ACMGSETTINGS
350
2C
  0
DICTIONARY
  5
6E
102
{ACAD_REACTORS
330
C
102
}
330
C
100
AcDbDictionary
  0
XRECORD
  5
33F0
102
{ACAD_REACTORS
330
C
102
}
330
C
100
AcDbXrecord
  1
DWGPROPS COOKIE
  2

  3

  4

  6

  7

  8

  9

300
AmdtFileType=82
301
=
302
=
303
=
304
=
305
=
306
=
307
=
308
=
309
=
 40
0.0544232638888889
 41
2452800.443498622
 42
2452948.688262801
  1

 90
        1
  0
DICTIONARY
  5
33FC
102
{ACAD_REACTORS
330
C
102
}
330
C
100
AcDbDictionary
  3
TSTACKALIGN
350
33FD
  3
TSTACKSIZE
350
33FE
  3
HYPERLINKBASE
350
33FF
  3
STYLESHEET
350
3400
  3
LAYOUTDICT
350
3401
  3
PLOTSETDICT
350
3402
  3
PLOTSTYLNAMDICT
350
3403
  3
LWETCUNION
350
3404
  3
INSUNITS
350
3405
  3
CEPSNTYPE
350
3406
  3
FINGERPRINTGUID
350
3407
  3
VERSIONGUID
350
3408
  3
PSVPSCALE
350
3409
  3
DIMSTYLEDATA
350
340A
  3
PUCSORTHOREF
350
340B
  3
PUCSORTHOVIEW
350
340C
  3
PUCSBASE
350
340D
  3
PUCSORGTOP
350
340E
  3
PUCSORGBOTTOM
350
340F
  3
PUCSORGLEFT
350
3410
  3
PUCSORGRIGHT
350
3411
  3
PUCSORGFRONT
350
3412
  3
PUCSORGBACK
350
3413
  3
UCSORTHOREF
350
3414
  3
UCSORTHOVIEW
350
3415
  3
UCSBASE
350
3416
  3
UCSORGTOP
350
3417
  3
UCSORGBOTTOM
350
3418
  3
UCSORGLEFT
350
3419
  3
UCSORGRIGHT
350
341A
  3
UCSORGFRONT
350
341B
  3
UCSORGBACK
350
341C
  0
DICTIONARY
  5
33F2
102
{ACAD_REACTORS
330
74
102
}
330
74
100
AcDbDictionary
  3
*A1
350
33F3
  0
XRECORD
  5
341F
102
{ACAD_REACTORS
330
74
102
}
330
74
100
AcDbXrecord
340
1F
  0
XRECORD
  5
3425
102
{ACAD_REACTORS
330
3424
102
}
330
3424
100
AcDbXrecord
340
101
  0
MLINESTYLE
  5
18
102
{ACAD_REACTORS
330
17
102
}
330
17
100
AcDbMlineStyle
  2
STANDARD
 70
     0
  3

 62
   256
 51
90.0
 52
90.0
 71
     2
 49
0.5
 62
   256
  6
BYLAYER
 49
-0.5
 62
   256
  6
BYLAYER
  0
ACDBPLACEHOLDER
  5
F
102
{ACAD_REACTORS
330
E
102
}
330
E
100
AcDbPlaceHolder
280
     0
  0
DICTIONARYVAR
  5
35
102
{ACAD_REACTORS
330
34
102
}
330
34
100
DictionaryVariables
280
     0
  1
1
  0
DICTIONARYVAR
  5
B5E
102
{ACAD_REACTORS
330
34
102
}
330
34
100
DictionaryVariables
280
     0
  1
96
  0
DICTIONARY
  5
260
102
{ACAD_REACTORS
330
43
102
}
330
43
100
AcDbDictionary
  0
DICTIONARY
  5
2C
102
{ACAD_REACTORS
330
2B
102
}
330
2B
100
AcDbDictionary
  3
DWGSETTINGS
350
2D
  0
XRECORD
  5
33FD
102
{ACAD_REACTORS
330
33FC
102
}
330
33FC
100
AcDbXrecord
 90
        1
  0
XRECORD
  5
33FE
102
{ACAD_REACTORS
330
33FC
102
}
330
33FC
100
AcDbXrecord
 90
       70
  0
XRECORD
  5
33FF
102
{ACAD_REACTORS
330
33FC
102
}
330
33FC
100
AcDbXrecord
  1

  0
XRECORD
  5
3400
102
{ACAD_REACTORS
330
33FC
102
}
330
33FC
100
AcDbXrecord
  1
ASAMI.ctb
  0
XRECORD
  5
3401
102
{ACAD_REACTORS
330
33FC
102
}
330
33FC
100
AcDbXrecord
340
1A
  0
XRECORD
  5
3402
102
{ACAD_REACTORS
330
33FC
102
}
330
33FC
100
AcDbXrecord
340
19
  0
XRECORD
  5
3403
102
{ACAD_REACTORS
330
33FC
102
}
330
33FC
100
AcDbXrecord
340
E
  0
XRECORD
  5
3404
102
{ACAD_REACTORS
330
33FC
102
}
330
33FC
100
AcDbXrecord
 90
    10781
  0
XRECORD
  5
3405
102
{ACAD_REACTORS
330
33FC
102
}
330
33FC
100
AcDbXrecord
 90
        4
  0
XRECORD
  5
3406
102
{ACAD_REACTORS
330
33FC
102
}
330
33FC
100
AcDbXrecord
 90
        0
  0
XRECORD
  5
3407
102
{ACAD_REACTORS
330
33FC
102
}
330
33FC
100
AcDbXrecord
  1
{AFB28963-8C59-40AE-9337-C84526B81ACE}
  0
XRECORD
  5
3408
102
{ACAD_REACTORS
330
33FC
102
}
330
33FC
100
AcDbXrecord
  1
{0DEF3D6D-C052-41E5-BBEA-1199CB37CC46}
  0
XRECORD
  5
3409
102
{ACAD_REACTORS
330
33FC
102
}
330
33FC
100
AcDbXrecord
 40
0.0
  0
XRECORD
  5
340A
102
{ACAD_REACTORS
330
33FC
102
}
330
33FC
100
AcDbXrecord
1000
DSTYLE
1002
{
1070
    79
 70
     2
1070
   341
340
59
1070
   342
340
59
1070
   371
 70
    -1
1070
   372
 70
    -1
1002
}
  0
XRECORD
  5
340B
102
{ACAD_REACTORS
330
33FC
102
}
330
33FC
100
AcDbXrecord
340
0
  0
XRECORD
  5
340C
102
{ACAD_REACTORS
330
33FC
102
}
330
33FC
100
AcDbXrecord
 70
     0
  0
XRECORD
  5
340D
102
{ACAD_REACTORS
330
33FC
102
}
330
33FC
100
AcDbXrecord
340
0
  0
XRECORD
  5
340E
102
{ACAD_REACTORS
330
33FC
102
}
330
33FC
100
AcDbXrecord
 10
0.0
 20
0.0
 30
0.0
  0
XRECORD
  5
340F
102
{ACAD_REACTORS
330
33FC
102
}
330
33FC
100
AcDbXrecord
 10
0.0
 20
0.0
 30
0.0
  0
XRECORD
  5
3410
102
{ACAD_REACTORS
330
33FC
102
}
330
33FC
100
AcDbXrecord
 10
0.0
 20
0.0
 30
0.0
  0
XRECORD
  5
3411
102
{ACAD_REACTORS
330
33FC
102
}
330
33FC
100
AcDbXrecord
 10
0.0
 20
0.0
 30
0.0
  0
XRECORD
  5
3412
102
{ACAD_REACTORS
330
33FC
102
}
330
33FC
100
AcDbXrecord
 10
0.0
 20
0.0
 30
0.0
  0
XRECORD
  5
3413
102
{ACAD_REACTORS
330
33FC
102
}
330
33FC
100
AcDbXrecord
 10
0.0
 20
0.0
 30
0.0
  0
XRECORD
  5
3414
102
{ACAD_REACTORS
330
33FC
102
}
330
33FC
100
AcDbXrecord
340
0
  0
XRECORD
  5
3415
102
{ACAD_REACTORS
330
33FC
102
}
330
33FC
100
AcDbXrecord
 70
     0
  0
XRECORD
  5
3416
102
{ACAD_REACTORS
330
33FC
102
}
330
33FC
100
AcDbXrecord
340
0
  0
XRECORD
  5
3417
102
{ACAD_REACTORS
330
33FC
102
}
330
33FC
100
AcDbXrecord
 10
0.0
 20
0.0
 30
0.0
  0
XRECORD
  5
3418
102
{ACAD_REACTORS
330
33FC
102
}
330
33FC
100
AcDbXrecord
 10
0.0
 20
0.0
 30
0.0
  0
XRECORD
  5
3419
102
{ACAD_REACTORS
330
33FC
102
}
330
33FC
100
AcDbXrecord
 10
0.0
 20
0.0
 30
0.0
  0
XRECORD
  5
341A
102
{ACAD_REACTORS
330
33FC
102
}
330
33FC
100
AcDbXrecord
 10
0.0
 20
0.0
 30
0.0
  0
XRECORD
  5
341B
102
{ACAD_REACTORS
330
33FC
102
}
330
33FC
100
AcDbXrecord
 10
0.0
 20
0.0
 30
0.0
  0
XRECORD
  5
341C
102
{ACAD_REACTORS
330
33FC
102
}
330
33FC
100
AcDbXrecord
 10
0.0
 20
0.0
 30
0.0
  0
LAYER_INDEX
  5
33F3
102
{ACAD_REACTORS
330
33F2
102
}
330
33F2
100
AcDbIndex
 40
2453151.69238081
100
AcDbLayerIndex
  8
0
360
33F4
 90
        0
  8
AM_0
360
33F5
 90
       46
  8
AM_7
360
33F6
 90
        1
  8
AM_11
360
33F7
 90
       27
  8
AM_5
360
33F8
 90
        4
  8
Defpoints
360
33F9
 90
        0
  8
AM_6
360
33FA
 90
        1
  0
XRECORD
  5
2D
102
{ACAD_REACTORS
330
2C
102
}
330
2C
100
AcDbXrecord
  1
VERSION
140
15.0
  1
PRODUCT
  2
AutoCAD Mechanical 2000
  0
IDBUFFER
  5
33F4
330
0
100
AcDbIdBuffer
  0
IDBUFFER
  5
33F5
330
0
100
AcDbIdBuffer
330
329C
330
329F
330
32A0
330
32A1
330
32A6
330
32A7
330
32A8
330
32A9
330
32AA
330
32AB
330
32AC
330
32AD
330
32AE
330
32AF
330
32B0
330
32B1
330
32B2
330
32B3
330
32B4
330
32B5
330
32B6
330
32B7
330
32B8
330
32B9
330
32BA
330
32BB
330
32BC
330
32BD
330
32BE
330
32BF
330
C30
330
1CF0
330
1CF4
330
1CFE
330
1F13
330
1F16
330
2D4B
330
2D4C
330
2D4D
330
2D4F
330
2EA1
330
2EA2
330
3298
330
3299
330
329A
330
329B
  0
IDBUFFER
  5
33F6
330
0
100
AcDbIdBuffer
330
C9F
  0
IDBUFFER
  5
33F7
330
0
100
AcDbIdBuffer
330
2113
330
2114
330
2BE0
330
2BE1
330
3212
330
329D
330
329E
330
32A2
330
32A3
330
32A4
330
32A5
330
144A
330
144B
330
144E
330
144F
330
1450
330
1451
330
1452
330
1453
330
1DAD
330
1DAE
330
210D
330
210E
330
210F
330
2110
330
2111
330
2112
  0
IDBUFFER
  5
33F8
330
0
100
AcDbIdBuffer
330
CC6
330
22D9
330
2F49
330
3305
  0
IDBUFFER
  5
33F9
330
0
100
AcDbIdBuffer
  0
IDBUFFER
  5
33FA
330
0
100
AcDbIdBuffer
330
19BD
  0
ENDSEC
  0
EOF
