  0
SECTION
  2
HEADER
  9
$ACADVER
  1
AC1014
  9
$ACADMAINTVER
 70
     9
  9
$DWGCODEPAGE
  3
ANSI_932
  9
$INSBASE
 10
0.0
 20
0.0
 30
0.0
  9
$EXTMIN
 10
-91.90000099999995
 20
-20.75012923179931
 30
-0.00000001
  9
$EXTMAX
 10
14.56557174437803
 20
14.15699272172263
 30
0.00000001
  9
$LIMMIN
 10
-115.2743125114289
 20
-61.81965462428931
  9
$LIMMAX
 10
34.68289694917223
 20
37.20838581210049
  9
$ORTHOMODE
 70
     0
  9
$REGENMODE
 70
     1
  9
$FILLMODE
 70
     1
  9
$QTEXTMODE
 70
     0
  9
$MIRRTEXT
 70
     0
  9
$DRAGMODE
 70
     2
  9
$LTSCALE
 40
1.0
  9
$OSMODE
 70
    55
  9
$ATTMODE
 70
     1
  9
$TEXTSIZE
 40
2.5
  9
$TRACEWID
 40
1.0
  9
$TEXTSTYLE
  7
STANDARD
  9
$CLAYER
  8
AM_0
  9
$CELTYPE
  6
BYLAYER
  9
$CECOLOR
 62
   256
  9
$CELTSCALE
 40
1.0
  9
$DELOBJ
 70
     1
  9
$DISPSILH
 70
     0
  9
$DIMSCALE
 40
0.5
  9
$DIMASZ
 40
2.5
  9
$DIMEXO
 40
1.0
  9
$DIMDLI
 40
12.0
  9
$DIMRND
 40
0.0
  9
$DIMDLE
 40
0.0
  9
$DIMEXE
 40
1.0
  9
$DIMTP
 40
0.1
  9
$DIMTM
 40
0.1
  9
$DIMTXT
 40
3.2
  9
$DIMCEN
 40
0.0
  9
$DIMTSZ
 40
0.0
  9
$DIMTOL
 70
     0
  9
$DIMLIM
 70
     0
  9
$DIMTIH
 70
     0
  9
$DIMTOH
 70
     0
  9
$DIMSE1
 70
     0
  9
$DIMSE2
 70
     0
  9
$DIMTAD
 70
     3
  9
$DIMZIN
 70
     8
  9
$DIMBLK
  1
OPEN30
  9
$DIMASO
 70
     1
  9
$DIMSHO
 70
     1
  9
$DIMPOST
  1

  9
$DIMAPOST
  1
"
  9
$DIMALT
 70
     0
  9
$DIMALTD
 70
     2
  9
$DIMALTF
 40
0.0393701
  9
$DIMLFAC
 40
1.0
  9
$DIMTOFL
 70
     1
  9
$DIMTVP
 40
0.0
  9
$DIMTIX
 70
     0
  9
$DIMSOXD
 70
     0
  9
$DIMSAH
 70
     0
  9
$DIMBLK1
  1

  9
$DIMBLK2
  1

  9
$DIMSTYLE
  2
AM_JIS
  9
$DIMCLRD
 70
   256
  9
$DIMCLRE
 70
   256
  9
$DIMCLRT
 70
     2
  9
$DIMTFAC
 40
0.71
  9
$DIMGAP
 40
1.5
  9
$DIMJUST
 70
     0
  9
$DIMSD1
 70
     0
  9
$DIMSD2
 70
     0
  9
$DIMTOLJ
 70
     0
  9
$DIMTZIN
 70
     0
  9
$DIMALTZ
 70
     0
  9
$DIMALTTZ
 70
     0
  9
$DIMFIT
 70
     3
  9
$DIMUPT
 70
     0
  9
$DIMUNIT
 70
     2
  9
$DIMDEC
 70
     3
  9
$DIMTDEC
 70
     3
  9
$DIMALTU
 70
     2
  9
$DIMALTTD
 70
     2
  9
$DIMTXSTY
  7
ASAMI
  9
$DIMAUNIT
 70
     0
  9
$LUNITS
 70
     2
  9
$LUPREC
 70
     2
  9
$SKETCHINC
 40
1.0
  9
$FILLETRAD
 40
2.5
  9
$AUNITS
 70
     0
  9
$AUPREC
 70
     0
  9
$MENU
  1
.
  9
$ELEVATION
 40
0.0
  9
$PELEVATION
 40
0.0
  9
$THICKNESS
 40
0.0
  9
$LIMCHECK
 70
     0
  9
$BLIPMODE
 70
     0
  9
$CHAMFERA
 40
0.25
  9
$CHAMFERB
 40
0.25
  9
$CHAMFERC
 40
20.0
  9
$CHAMFERD
 40
0.0
  9
$SKPOLY
 70
     0
  9
$TDCREATE
 40
2452800.443498622
  9
$TDUPDATE
 40
2453151.578869166
  9
$TDINDWG
 40
0.0557588194
  9
$TDUSRTIMER
 40
0.0557588194
  9
$USRTIMER
 70
     1
  9
$ANGBASE
 50
0.0
  9
$ANGDIR
 70
     0
  9
$PDMODE
 70
     3
  9
$PDSIZE
 40
0.0
  9
$PLINEWID
 40
0.0
  9
$COORDS
 70
     1
  9
$SPLFRAME
 70
     0
  9
$SPLINETYPE
 70
     6
  9
$SPLINESEGS
 70
     8
  9
$ATTDIA
 70
     1
  9
$ATTREQ
 70
     1
  9
$HANDLING
 70
 12289
  9
$HANDSEED
  5
2F7C
  9
$SURFTAB1
 70
     6
  9
$SURFTAB2
 70
     6
  9
$SURFTYPE
 70
     6
  9
$SURFU
 70
     6
  9
$SURFV
 70
     6
  9
$UCSNAME
  2

  9
$UCSORG
 10
0.0
 20
0.0
 30
0.0
  9
$UCSXDIR
 10
1.0
 20
0.000000000000002
 30
0.0
  9
$UCSYDIR
 10
-0.000000000000002
 20
1.0
 30
0.0
  9
$PUCSNAME
  2

  9
$PUCSORG
 10
0.0
 20
0.0
 30
0.0
  9
$PUCSXDIR
 10
1.0
 20
0.0
 30
0.0
  9
$PUCSYDIR
 10
0.0
 20
1.0
 30
0.0
  9
$USERI1
 70
     0
  9
$USERI2
 70
     0
  9
$USERI3
 70
     0
  9
$USERI4
 70
     0
  9
$USERI5
 70
     0
  9
$USERR1
 40
0.0
  9
$USERR2
 40
0.0
  9
$USERR3
 40
0.0
  9
$USERR4
 40
0.0
  9
$USERR5
 40
0.0
  9
$WORLDVIEW
 70
     1
  9
$SHADEDGE
 70
     3
  9
$SHADEDIF
 70
    70
  9
$TILEMODE
 70
     1
  9
$MAXACTVP
 70
    64
  9
$PINSBASE
 10
0.0
 20
0.0
 30
0.0
  9
$PLIMCHECK
 70
     0
  9
$PEXTMIN
 10
1.000000000000000E+20
 20
1.000000000000000E+20
 30
1.000000000000000E+20
  9
$PEXTMAX
 10
-1.000000000000000E+20
 20
-1.000000000000000E+20
 30
-1.000000000000000E+20
  9
$PLIMMIN
 10
0.0
 20
0.0
  9
$PLIMMAX
 10
841.0
 20
594.0
  9
$UNITMODE
 70
     0
  9
$VISRETAIN
 70
     1
  9
$PLINEGEN
 70
     0
  9
$PSLTSCALE
 70
     0
  9
$TREEDEPTH
 70
  3020
  9
$PICKSTYLE
 70
     0
  9
$CMLSTYLE
  2
STANDARD
  9
$CMLJUST
 70
     0
  9
$CMLSCALE
 40
20.0
  9
$PROXYGRAPHICS
 70
     1
  9
$MEASUREMENT
 70
     1
  0
ENDSEC
  0
SECTION
  2
CLASSES
  0
CLASS
  1
ACDBDICTIONARYWDFLT
  2
AcDbDictionaryWithDefault
  3
AutoCAD 2000
 90
        0
280
     0
281
     0
  0
CLASS
  1
ACDBPLACEHOLDER
  2
AcDbPlaceHolder
  3
AutoCAD 2000
 90
        0
280
     0
281
     0
  0
CLASS
  1
LAYOUT
  2
AcDbLayout
  3
AutoCAD 2000
 90
        0
280
     0
281
     0
  0
CLASS
  1
AMGSETTINGSOBJ
  2
AmgSettingsObj
  3
"AcadM|Product Description: AutoCAD Mechanical 2000|Company: Autodesk"
 90
        0
280
     0
281
     0
  0
CLASS
  1
ACME_DOCUMENT
  2
AcMeDbDoc
  3
AcMeServices
 90
        0
280
     0
281
     0
  0
CLASS
  1
ACMESCOPE
  2
AcMeScope
  3
AcMeServices
 90
        0
280
     0
281
     0
  0
CLASS
  1
ACMECOMMANDHISTORY
  2
AcMeCommandHistory
  3
AcMeServices
 90
        0
280
     0
281
     0
  0
CLASS
  1
DICTIONARYVAR
  2
AcDbDictionaryVar
  3
AutoCAD 2000
 90
        0
280
     0
281
     0
  0
CLASS
  1
ACIMSYSVARMAN
  2
AcImSysVarManager
  3
AcMeServices
 90
        0
280
     0
281
     0
  0
CLASS
  1
ACIMREALSYSVAR
  2
AcImRealSysVar
  3
AcMeServices
 90
        0
280
     0
281
     0
  0
CLASS
  1
ACIMINTSYSVAR
  2
AcImIntSysVar
  3
AcMeServices
 90
        0
280
     0
281
     0
  0
CLASS
  1
ACMEDRAWINGMAN
  2
AcMeDrawingMan
  3
AcMeServices
 90
        0
280
     0
281
     0
  0
CLASS
  1
ACMEVIEW
  2
AcMeView
  3
AcMeServices
 90
        0
280
     0
281
     0
  0
CLASS
  1
ACDBENTITYCACHE
  2
AcMeEntityCache
  3
AcMeServices
 90
        0
280
     0
281
     0
  0
CLASS
  1
GSMANAGER
  2
AcMeGSManager
  3
AcMeServices
 90
        0
280
     0
281
     0
  0
CLASS
  1
AmdtInternalReactor
  2
AmdtInternalReactor
  3
AcMeServices
 90
        0
280
     0
281
     0
  0
CLASS
  1
ACMESTATEMGR
  2
AcMeStateMgr
  3
AcMeServices
 90
        0
280
     0
281
     0
  0
CLASS
  1
ACME_DATABASE
  2
AcMeDbDatabase
  3
AcMeServices
 90
        0
280
     0
281
     0
  0
CLASS
  1
ACRFINSADJUSTERMGR
  2
AcRfInsAdjusterMgr
  3
AcMeServices
 90
        0
280
     0
281
     0
  0
CLASS
  1
ACMDATADICTIONARY
  2
AcmDataDictionary
  3
"AcmSymBB|Product Description: AutoCAD Mechanical 2000|Company: Autodesk"
 90
        0
280
     0
281
     0
  0
CLASS
  1
ACMDATAENTRYBLOCK
  2
AcmDataEntryBlock
  3
"AcmSymBB|Product Description: AutoCAD Mechanical 2000|Company: Autodesk"
 90
        0
280
     0
281
     0
  0
CLASS
  1
AMGOBJPROPCFG
  2
AmgObjPropCfg
  3
"AmgLay|Product Description: AutoCAD Mechanical 2000|Company: Autodesk"
 90
        1
280
     0
281
     0
  0
CLASS
  1
ACAMGFILTERDAT
  2
AcAmgFilterDat
  3
"AcadM|Product Description: AutoCAD Mechanical 2000|Company: Autodesk"
 90
        0
280
     0
281
     0
  0
CLASS
  1
LAYER_INDEX
  2
AcDbLayerIndex
  3
AutoCAD 2000
 90
        0
280
     0
281
     0
  0
CLASS
  1
IDBUFFER
  2
AcDbIdBuffer
  3
AutoCAD 2000
 90
        0
280
     0
281
     0
  0
CLASS
  1
ACIMSTRSYSVAR
  2
AcImStrSysVar
  3
AcMeServices
 90
        0
280
     0
281
     0
  0
CLASS
  1
ACMSTANDARDJIS
  2
AcmStandardJIS
  3
"AcmSymBB|Product Description: AutoCAD Mechanical 2000|Company: Autodesk"
 90
        0
280
     0
281
     0
  0
CLASS
  1
ACMSURFSTANDARDJIS
  2
AcmSurfTextStdJIS
  3
"AcmSymBB|Product Description: AutoCAD Mechanical 2000|Company: Autodesk"
 90
        0
280
     0
281
     0
  0
CLASS
  1
ACMFCFSTANDARDJIS
  2
AcmFCFStdJIS
  3
"AcmSymBB|Product Description: AutoCAD Mechanical 2000|Company: Autodesk"
 90
        0
280
     0
281
     0
  0
CLASS
  1
ACMWELDSTANDARDJIS
  2
AcmWeldingStdJIS
  3
"AcmSymBB|Product Description: AutoCAD Mechanical 2000|Company: Autodesk"
 90
        0
280
     0
281
     0
  0
CLASS
  1
ACMIDSTANDARDJIS
  2
AcmIdStdJIS
  3
"AcmSymBB|Product Description: AutoCAD Mechanical 2000|Company: Autodesk"
 90
        0
280
     0
281
     0
  0
CLASS
  1
ACMDATUMSTANDARDJIS
  2
AcmDatumStdJIS
  3
"AcmSymBB|Product Description: AutoCAD Mechanical 2000|Company: Autodesk"
 90
        0
280
     0
281
     0
  0
CLASS
  1
ACMBOMSTANDARDJIS
  2
AcmBOMStdJIS
  3
"AcmSymBB|Product Description: AutoCAD Mechanical 2000|Company: Autodesk"
 90
        0
280
     0
281
     0
  0
CLASS
  1
ACMSTANDARDANSI
  2
AcmStandardANSI
  3
"AcmSymBB|Product Description: AutoCAD Mechanical 2000|Company: Autodesk"
 90
        0
280
     0
281
     0
  0
CLASS
  1
ACMSURFSTANDARDANSI
  2
AcmSurfTextStdANSI
  3
"AcmSymBB|Product Description: AutoCAD Mechanical 2000|Company: Autodesk"
 90
        0
280
     0
281
     0
  0
CLASS
  1
ACMFCFSTANDARDANSI
  2
AcmFCFStdANSI
  3
"AcmSymBB|Product Description: AutoCAD Mechanical 2000|Company: Autodesk"
 90
        0
280
     0
281
     0
  0
CLASS
  1
ACMWELDSTANDARDANSI
  2
AcmWeldingStdANSI
  3
"AcmSymBB|Product Description: AutoCAD Mechanical 2000|Company: Autodesk"
 90
        0
280
     0
281
     0
  0
CLASS
  1
ACMIDSTANDARDANSI
  2
AcmIdStdANSI
  3
"AcmSymBB|Product Description: AutoCAD Mechanical 2000|Company: Autodesk"
 90
        0
280
     0
281
     0
  0
CLASS
  1
ACMDATUMSTANDARDANSI
  2
AcmDatumStdANSI
  3
"AcmSymBB|Product Description: AutoCAD Mechanical 2000|Company: Autodesk"
 90
        0
280
     0
281
     0
  0
CLASS
  1
ACMBOMSTANDARDANSI
  2
AcmBOMStdANSI
  3
"AcmSymBB|Product Description: AutoCAD Mechanical 2000|Company: Autodesk"
 90
        0
280
     0
281
     0
  0
CLASS
  1
ACMSTANDARDBSI
  2
AcmStandardBSI
  3
"AcmSymBB|Product Description: AutoCAD Mechanical 2000|Company: Autodesk"
 90
        0
280
     0
281
     0
  0
CLASS
  1
ACMSURFSTANDARDBSI
  2
AcmSurfTextStdBSI
  3
"AcmSymBB|Product Description: AutoCAD Mechanical 2000|Company: Autodesk"
 90
        0
280
     0
281
     0
  0
CLASS
  1
ACMFCFSTANDARDBSI
  2
AcmFCFStdBSI
  3
"AcmSymBB|Product Description: AutoCAD Mechanical 2000|Company: Autodesk"
 90
        0
280
     0
281
     0
  0
CLASS
  1
ACMWELDSTANDARDBSI
  2
AcmWeldingStdBSI
  3
"AcmSymBB|Product Description: AutoCAD Mechanical 2000|Company: Autodesk"
 90
        0
280
     0
281
     0
  0
CLASS
  1
ACMIDSTANDARDBSI
  2
AcmIdStdBSI
  3
"AcmSymBB|Product Description: AutoCAD Mechanical 2000|Company: Autodesk"
 90
        0
280
     0
281
     0
  0
CLASS
  1
ACMDATUMSTANDARDBSI
  2
AcmDatumStdBSI
  3
"AcmSymBB|Product Description: AutoCAD Mechanical 2000|Company: Autodesk"
 90
        0
280
     0
281
     0
  0
CLASS
  1
ACMBOMSTANDARDBSI
  2
AcmBOMStdBSI
  3
"AcmSymBB|Product Description: AutoCAD Mechanical 2000|Company: Autodesk"
 90
        0
280
     0
281
     0
  0
CLASS
  1
LONG_TRANSACTION
  2
AcDbLongTransaction
  3
AutoCAD 2000
 90
        0
280
     0
281
     0
  0
CLASS
  1
LWPOLYLINE
  2
AcDbPolyline
  3
AutoCAD 2000
 90
        0
280
     0
281
     1
  0
CLASS
  1
HATCH
  2
AcDbHatch
  3
AutoCAD 2000
 90
        0
280
     0
281
     1
  0
CLASS
  1
XRECORD
  2
AcDbXrecord
  3
AutoCAD 2000
 90
        0
280
     0
281
     0
  0
ENDSEC
  0
SECTION
  2
TABLES
  0
TABLE
  2
VPORT
  5
8
330
0
100
AcDbSymbolTable
 70
     3
  0
VPORT
  5
2F51
330
8
100
AcDbSymbolTableRecord
100
AcDbViewportTableRecord
  2
*ACTIVE
 70
     0
 10
0.0
 20
0.0
 11
1.0
 21
1.0
 12
-36.69236363103911
 22
-3.296010582549598
 13
0.0
 23
0.0
 14
2.5
 24
2.5
 15
10.0
 25
10.0
 16
0.0
 26
0.0
 36
1.0
 17
0.0
 27
0.0
 37
0.0
 40
70.86591273694226
 41
1.56570841889117
 42
50.0
 43
0.0
 44
0.0
 50
0.0
 51
0.0
 71
     0
 72
   100
 73
     1
 74
     1
 75
     0
 76
     0
 77
     0
 78
     0
  0
ENDTAB
  0
TABLE
  2
LTYPE
  5
5
330
0
100
AcDbSymbolTable
 70
    10
  0
LTYPE
  5
14
330
5
100
AcDbSymbolTableRecord
100
AcDbLinetypeTableRecord
  2
BYBLOCK
 70
     0
  3

 72
    65
 73
     0
 40
0.0
  0
LTYPE
  5
15
330
5
100
AcDbSymbolTableRecord
100
AcDbLinetypeTableRecord
  2
BYLAYER
 70
     0
  3

 72
    65
 73
     0
 40
0.0
  0
LTYPE
  5
16
330
5
100
AcDbSymbolTableRecord
100
AcDbLinetypeTableRecord
  2
CONTINUOUS
 70
     0
  3
Solid line
 72
    65
 73
     0
 40
0.0
  0
LTYPE
  5
4B
330
5
100
AcDbSymbolTableRecord
100
AcDbLinetypeTableRecord
  2
AM_ISO02W050
 70
     0
  3
__ __ __ __ __ __ __ __ __ __ __ __ __ __ __
 72
    65
 73
     2
 40
7.5
 49
6.0
 74
     0
 49
-1.5
 74
     0
  0
LTYPE
  5
4C
330
5
100
AcDbSymbolTableRecord
100
AcDbLinetypeTableRecord
  2
AM_ISO08W050
 70
     0
  3
____ . ____ . ____ . ____ . ____ . ____ . ____
 72
    65
 73
     4
 40
18.0
 49
12.0
 74
     0
 49
-1.5
 74
     0
 49
3.0
 74
     0
 49
-1.5
 74
     0
  0
LTYPE
  5
4D
330
5
100
AcDbSymbolTableRecord
100
AcDbLinetypeTableRecord
  2
AM_ISO09W050
 70
     0
  3
_____ . . _____ . . _____ . . ____ .. ____
 72
    65
 73
     6
 40
22.5
 49
12.0
 74
     0
 49
-1.5
 74
     0
 49
3.0
 74
     0
 49
-1.5
 74
     0
 49
3.0
 74
     0
 49
-1.5
 74
     0
  0
LTYPE
  5
4E
330
5
100
AcDbSymbolTableRecord
100
AcDbLinetypeTableRecord
  2
AMCONSTR
 70
     0
  3
_______________________
 72
    65
 73
     2
 40
9999.0
 49
9999.0
 74
     0
 49
0.0
 74
     0
  0
LTYPE
  5
4F
330
5
100
AcDbSymbolTableRecord
100
AcDbLinetypeTableRecord
  2
AM_ISO02W050X2
 70
     0
  3
 _ _ _ _ _ _ _ _ _ _ _ _
 72
    65
 73
     2
 40
3.75
 49
3.0
 74
     0
 49
-0.75
 74
     0
  0
LTYPE
  5
50
330
5
100
AcDbSymbolTableRecord
100
AcDbLinetypeTableRecord
  2
AM_ISO08W050X2
 70
     0
  3
__ . __ . __ . __ . __ . __
 72
    65
 73
     4
 40
9.0
 49
6.0
 74
     0
 49
-0.75
 74
     0
 49
1.5
 74
     0
 49
-0.75
 74
     0
  0
LTYPE
  5
53
330
5
100
AcDbSymbolTableRecord
100
AcDbLinetypeTableRecord
  2
AMZIGZAG
 70
     0
  3
/\/-/\/-/\/-/\/-/\/-/\/
 72
    65
 73
     2
 40
11.00009999999999
 49
0.0001
 74
     4
 75
   135
340
52
 46
0.04
 50
0.0
 44
0.0
 45
0.0
 49
-11.0
 74
     0
  0
LTYPE
  5
166
330
5
100
AcDbSymbolTableRecord
100
AcDbLinetypeTableRecord
  2
ACJISTGL
 70
     0
  3
_ _ _ _ _
 72
    65
 73
     2
 40
3.0
 49
2.0
 74
     0
 49
-1.0
 74
     0
  0
LTYPE
  5
26A
330
5
100
AcDbSymbolTableRecord
100
AcDbLinetypeTableRecord
  2
ACJISTGB
 70
     0
  3
__ . . __ . .
 72
    65
 73
     6
 40
9.0
 49
4.0
 74
     0
 49
-1.0
 74
     0
 49
1.0
 74
     0
 49
-1.0
 74
     0
 49
1.0
 74
     0
 49
-1.0
 74
     0
  0
ENDTAB
  0
TABLE
  2
LAYER
  5
2
330
0
100
AcDbSymbolTable
 70
     7
  0
LAYER
  5
10
330
2
100
AcDbSymbolTableRecord
100
AcDbLayerTableRecord
  2
0
 70
     0
 62
     7
  6
CONTINUOUS
  0
LAYER
  5
3F9
330
2
100
AcDbSymbolTableRecord
100
AcDbLayerTableRecord
  2
AM_0
 70
     0
 62
     7
  6
CONTINUOUS
  0
LAYER
  5
C7C
330
2
100
AcDbSymbolTableRecord
100
AcDbLayerTableRecord
  2
AM_7
 70
     0
 62
     4
  6
AM_ISO08W050
  0
LAYER
  5
C97
330
2
100
AcDbSymbolTableRecord
100
AcDbLayerTableRecord
  2
AM_11
 70
     0
 62
     3
  6
AM_ISO09W050
  0
LAYER
  5
CC5
330
2
100
AcDbSymbolTableRecord
100
AcDbLayerTableRecord
  2
AM_5
 70
     0
 62
     3
  6
CONTINUOUS
  0
LAYER
  5
CC7
330
2
100
AcDbSymbolTableRecord
100
AcDbLayerTableRecord
  2
DEFPOINTS
 70
     0
 62
     7
  6
CONTINUOUS
  0
LAYER
  5
19BC
330
2
100
AcDbSymbolTableRecord
100
AcDbLayerTableRecord
  2
AM_6
 70
     0
 62
     2
  6
CONTINUOUS
  0
ENDTAB
  0
TABLE
  2
STYLE
  5
3
330
0
100
AcDbSymbolTable
 70
     5
  0
STYLE
  5
11
330
3
100
AcDbSymbolTableRecord
100
AcDbTextStyleTableRecord
  2
STANDARD
 70
     0
 40
0.0
 41
1.0
 50
0.0
 71
     0
 42
2.5
  3
simplex.shx
  4
EXTFONT.SHX
  0
STYLE
  5
52
330
3
100
AcDbSymbolTableRecord
100
AcDbTextStyleTableRecord
  2

 70
     1
 40
0.0
 41
1.0
 50
0.0
 71
     0
 42
2.5
  3
ltypeshp.shx
  4

  0
STYLE
  5
6B
330
3
100
AcDbSymbolTableRecord
100
AcDbTextStyleTableRecord
  2
ASAMI
 70
     0
 40
0.0
 41
1.0
 50
0.0
 71
     0
 42
2.5
  3
simplex.shx
  4
EXTFONT.SHX
  0
STYLE
  5
262
330
3
100
AcDbSymbolTableRecord
100
AcDbTextStyleTableRecord
  2
ACJISTS
 70
     0
 40
1.0
 41
1.0
 50
0.0
 71
     0
 42
2.5
  3
simplex.shx
  4
bigfont.shx
  0
STYLE
  5
269
330
3
100
AcDbSymbolTableRecord
100
AcDbTextStyleTableRecord
  2
ACJISGDT
 70
     0
 40
0.0
 41
1.0
 50
0.0
 71
     0
 42
2.5
  3
amgdtans.shx
  4

  0
ENDTAB
  0
TABLE
  2
VIEW
  5
6
330
0
100
AcDbSymbolTable
 70
     0
  0
ENDTAB
  0
TABLE
  2
UCS
  5
7
330
0
100
AcDbSymbolTable
 70
     0
  0
ENDTAB
  0
TABLE
  2
APPID
  5
9
330
0
100
AcDbSymbolTable
 70
    16
  0
APPID
  5
12
330
9
100
AcDbSymbolTableRecord
100
AcDbRegAppTableRecord
  2
ACAD
 70
     0
  0
APPID
  5
30
330
9
100
AcDbSymbolTableRecord
100
AcDbRegAppTableRecord
  2
MCAD_NO_VIS
 70
     0
  0
APPID
  5
31
330
9
100
AcDbSymbolTableRecord
100
AcDbRegAppTableRecord
  2
ACAD_TEMP_GRAPHIC
 70
     0
  0
APPID
  5
2C2
330
9
100
AcDbSymbolTableRecord
100
AcDbRegAppTableRecord
  2
GENIUS_GENDTOL_13
 70
     0
  0
APPID
  5
339
330
9
100
AcDbSymbolTableRecord
100
AcDbRegAppTableRecord
  2
GENIUS_GENODEF_13
 70
     0
  0
APPID
  5
33A
330
9
100
AcDbSymbolTableRecord
100
AcDbRegAppTableRecord
  2
GENIUS_GENOBJ-N-RSBK_13
 70
     0
  0
APPID
  5
33B
330
9
100
AcDbSymbolTableRecord
100
AcDbRegAppTableRecord
  2
GENIUS_GENOBJ-N-LIB_13
 70
     0
  0
APPID
  5
33C
330
9
100
AcDbSymbolTableRecord
100
AcDbRegAppTableRecord
  2
GENIUS_GENSCALE_13
 70
     0
  0
APPID
  5
378
330
9
100
AcDbSymbolTableRecord
100
AcDbRegAppTableRecord
  2
GENIUS_GENDIMSH_14
 70
     0
  0
APPID
  5
C82
330
9
100
AcDbSymbolTableRecord
100
AcDbRegAppTableRecord
  2
GENIUS_GENOBJ-N-CRS_13
 70
     0
  0
APPID
  5
C83
330
9
100
AcDbSymbolTableRecord
100
AcDbRegAppTableRecord
  2
GENIUS_GENOENT_13
 70
     0
  0
APPID
  5
C84
330
9
100
AcDbSymbolTableRecord
100
AcDbRegAppTableRecord
  2
GENIUS_GENOREF_13
 70
     0
  0
APPID
  5
C85
330
9
100
AcDbSymbolTableRecord
100
AcDbRegAppTableRecord
  2
GENIUS_GENOLIS_13
 70
     0
  0
APPID
  5
CA0
330
9
100
AcDbSymbolTableRecord
100
AcDbRegAppTableRecord
  2
GENIUS_GENOBJ-N-CEN_13
 70
     0
  0
APPID
  5
1CFA
330
9
100
AcDbSymbolTableRecord
100
AcDbRegAppTableRecord
  2
GENIUS_GENFIL_13
 70
     0
  0
APPID
  5
1CFB
330
9
100
AcDbSymbolTableRecord
100
AcDbRegAppTableRecord
  2
GENIUS_GENOBJ-N-CHA_13
 70
     0
  0
ENDTAB
  0
TABLE
  2
DIMSTYLE
  5
A
330
0
100
AcDbSymbolTable
 70
     9
  0
DIMSTYLE
105
58
330
A
100
AcDbSymbolTableRecord
100
AcDbDimStyleTableRecord
  2
AM_JIS
 70
     0
  3

  4
"
  5
OPEN30
  6

  7

 40
0.5
 41
2.5
 42
1.0
 43
12.0
 44
1.0
 45
0.0
 46
0.0
 47
0.1
 48
0.1
140
3.2
141
0.0
142
0.0
143
0.0393701
144
1.0
145
0.0
146
0.71
147
1.5
 71
     0
 72
     0
 73
     0
 74
     0
 75
     0
 76
     0
 77
     3
 78
     8
170
     0
171
     2
172
     1
173
     0
174
     0
175
     0
176
   256
177
   256
178
     2
270
     2
271
     3
272
     3
273
     2
274
     2
340
6B
275
     0
280
     0
281
     0
282
     0
283
     0
284
     0
285
     0
286
     0
287
     3
288
     0
  0
DIMSTYLE
105
5F
330
A
100
AcDbSymbolTableRecord
100
AcDbDimStyleTableRecord
  2
AM_JIS$3
 70
     0
  3

  4
"
  5
OPEN30
  6

  7

 40
0.5
 41
2.5
 42
1.0
 43
10.0
 44
1.0
 45
0.0
 46
0.0
 47
0.1
 48
0.1
140
3.2
141
0.0
142
0.0
143
0.0393701
144
1.0
145
0.0
146
0.71
147
1.5
 71
     0
 72
     0
 73
     0
 74
     1
 75
     0
 76
     0
 77
     3
 78
     8
170
     0
171
     2
172
     0
173
     0
174
     0
175
     0
176
   256
177
   256
178
     2
270
     2
271
     2
272
     3
273
     2
274
     2
340
6B
275
     0
280
     0
281
     0
282
     0
283
     0
284
     0
285
     0
286
     0
287
     0
288
     1
  0
DIMSTYLE
105
60
330
A
100
AcDbSymbolTableRecord
100
AcDbDimStyleTableRecord
  2
AM_JIS$4
 70
     0
  3

  4
"
  5
OPEN30
  6

  7

 40
0.5
 41
2.5
 42
1.0
 43
10.0
 44
1.0
 45
0.0
 46
0.0
 47
0.1
 48
0.1
140
3.2
141
0.0
142
0.0
143
0.0393701
144
1.0
145
0.0
146
0.71
147
1.5
 71
     0
 72
     0
 73
     0
 74
     1
 75
     0
 76
     0
 77
     3
 78
     8
170
     0
171
     2
172
     0
173
     0
174
     0
175
     0
176
   256
177
   256
178
     2
270
     2
271
     2
272
     3
273
     2
274
     2
340
6B
275
     0
280
     0
281
     0
282
     0
283
     0
284
     0
285
     0
286
     0
287
     0
288
     1
  0
DIMSTYLE
105
61
330
A
100
AcDbSymbolTableRecord
100
AcDbDimStyleTableRecord
  2
AM_JIS$6
 70
     0
  3

  4
"
  5
OPEN30
  6

  7

 40
0.5
 41
2.5
 42
1.0
 43
10.0
 44
1.0
 45
0.0
 46
0.0
 47
0.1
 48
0.1
140
3.2
141
0.0
142
0.0
143
0.0393701
144
1.0
145
0.0
146
0.71
147
1.5
 71
     0
 72
     0
 73
     0
 74
     0
 75
     0
 76
     0
 77
     0
 78
     8
170
     0
171
     2
172
     1
173
     0
174
     0
175
     0
176
   256
177
   256
178
     2
270
     2
271
     2
272
     2
273
     2
274
     2
340
6B
275
     0
280
     0
281
     0
282
     0
283
     0
284
     0
285
     0
286
     0
287
     3
288
     0
  0
DIMSTYLE
105
62
330
A
100
AcDbSymbolTableRecord
100
AcDbDimStyleTableRecord
  2
AM_JIS$7
 70
     0
  3

  4
"
  5
OPEN30
  6

  7

 40
0.5
 41
2.5
 42
1.0
 43
10.0
 44
1.0
 45
0.0
 46
0.0
 47
0.1
 48
0.1
140
3.2
141
0.0
142
0.0
143
0.0393701
144
1.0
145
0.0
146
0.71
147
1.5
 71
     0
 72
     0
 73
     0
 74
     0
 75
     0
 76
     0
 77
     3
 78
     8
170
     0
171
     2
172
     1
173
     0
174
     0
175
     0
176
   256
177
   256
178
     2
270
     2
271
     2
272
     3
273
     2
274
     2
340
6B
275
     0
280
     0
281
     0
282
     0
283
     0
284
     0
285
     0
286
     0
287
     3
288
     0
  0
DIMSTYLE
105
63
330
A
100
AcDbSymbolTableRecord
100
AcDbDimStyleTableRecord
  2
AM_JIS$SF
 70
     0
  3

  4
"
  5
OPEN30
  6

  7

 40
0.5
 41
2.5
 42
1.0
 43
10.0
 44
1.0
 45
0.0
 46
0.0
 47
0.1
 48
0.1
140
3.2
141
0.0
142
0.0
143
0.0393701
144
1.0
145
0.0
146
0.71
147
1.5
 71
     0
 72
     0
 73
     0
 74
     0
 75
     1
 76
     1
 77
     3
 78
     8
170
     0
171
     2
172
     1
173
     0
174
     0
175
     0
176
   256
177
   256
178
     2
270
     2
271
     2
272
     2
273
     2
274
     2
340
6B
275
     0
280
     0
281
     0
282
     0
283
     0
284
     0
285
     0
286
     0
287
     3
288
     0
  0
DIMSTYLE
105
68
330
A
100
AcDbSymbolTableRecord
100
AcDbDimStyleTableRecord
  2
AM_JIS$SH
 70
     0
  3

  4
"
  5

  6
GENAXEH
  7
OPEN30
 40
0.5
 41
2.5
 42
1.0
 43
10.0
 44
1.0
 45
0.0
 46
0.0
 47
0.1
 48
0.1
140
3.2
141
0.0
142
0.0
143
0.0393701
144
2.0
145
0.0
146
0.71
147
1.5
 71
     0
 72
     0
 73
     0
 74
     0
 75
     1
 76
     1
 77
     3
 78
     8
170
     0
171
     2
172
     1
173
     1
174
     0
175
     0
176
   256
177
   256
178
     2
270
     2
271
     2
272
     2
273
     2
274
     2
340
6B
275
     0
280
     0
281
     0
282
     0
283
     0
284
     0
285
     0
286
     0
287
     3
288
     0
  0
DIMSTYLE
105
B34
102
{ACAD_REACTORS
330
260B
102
}
330
A
100
AcDbSymbolTableRecord
100
AcDbDimStyleTableRecord
  2
AM_JIS$2
 70
     0
  3

  4
"
  5
OPEN30
  6

  7

 40
0.5
 41
2.5
 42
1.0
 43
12.0
 44
1.0
 45
0.0
 46
0.0
 47
0.1
 48
0.1
140
3.2
141
0.0
142
0.0
143
0.0393701
144
1.0
145
0.0
146
0.71
147
1.5
 71
     0
 72
     0
 73
     0
 74
     0
 75
     0
 76
     0
 77
     3
 78
     8
170
     0
171
     2
172
     1
173
     0
174
     0
175
     0
176
   256
177
   256
178
     2
270
     2
271
     3
272
     3
273
     2
274
     2
340
6B
275
     0
280
     0
281
     0
282
     0
283
     0
284
     0
285
     0
286
     0
287
     3
288
     0
  0
DIMSTYLE
105
BA5
102
{ACAD_REACTORS
330
CC6
330
218E
330
245D
102
}
330
A
100
AcDbSymbolTableRecord
100
AcDbDimStyleTableRecord
  2
AM_JIS$0
 70
     0
  3

  4
"
  5
OPEN30
  6

  7

 40
0.5
 41
2.5
 42
0.0
 43
10.0
 44
1.0
 45
0.0
 46
0.0
 47
0.1
 48
0.1000000001
140
3.799999999999999
141
0.0
142
0.0
143
0.0393701
144
1.0
145
0.0
146
0.71
147
1.5
 71
     0
 72
     0
 73
     0
 74
     0
 75
     0
 76
     0
 77
     3
 78
     1
170
     0
171
     2
172
     1
173
     0
174
     0
175
     0
176
     3
177
     3
178
     2
270
     2
271
     2
272
     2
273
     2
274
     2
340
11
275
     1
280
     0
281
     0
282
     0
283
     0
284
     8
285
     0
286
     0
287
     0
288
     0
  0
ENDTAB
  0
TABLE
  2
BLOCK_RECORD
  5
1
330
0
100
AcDbSymbolTable
 70
     9
  0
BLOCK_RECORD
  5
1F
102
{ACAD_XDICTIONARY
360
74
102
}
330
1
100
AcDbSymbolTableRecord
100
AcDbBlockTableRecord
  2
*MODEL_SPACE
  0
BLOCK_RECORD
  5
101
102
{ACAD_XDICTIONARY
360
2F7A
102
}
330
1
100
AcDbSymbolTableRecord
100
AcDbBlockTableRecord
  2
*PAPER_SPACE
  0
BLOCK_RECORD
  5
59
330
1
100
AcDbSymbolTableRecord
100
AcDbBlockTableRecord
  2
_OPEN30
  0
BLOCK_RECORD
  5
64
330
1
100
AcDbSymbolTableRecord
100
AcDbBlockTableRecord
  2
GENAXEH
  0
BLOCK_RECORD
  5
CC8
330
1
100
AcDbSymbolTableRecord
100
AcDbBlockTableRecord
  2
*D5
  0
BLOCK_RECORD
  5
218F
330
1
100
AcDbSymbolTableRecord
100
AcDbBlockTableRecord
  2
*D6
  0
BLOCK_RECORD
  5
245E
330
1
100
AcDbSymbolTableRecord
100
AcDbBlockTableRecord
  2
*D7
  0
BLOCK_RECORD
  5
260C
330
1
100
AcDbSymbolTableRecord
100
AcDbBlockTableRecord
  2
*D8
  0
ENDTAB
  0
ENDSEC
  0
SECTION
  2
BLOCKS
  0
BLOCK
  5
20
330
1F
100
AcDbEntity
  8
0
100
AcDbBlockBegin
  2
*MODEL_SPACE
 70
     0
 10
0.0
 20
0.0
 30
0.0
  3
*MODEL_SPACE
  1

  0
ENDBLK
  5
21
330
1F
100
AcDbEntity
  8
0
100
AcDbBlockEnd
  0
BLOCK
  5
103
330
101
100
AcDbEntity
 67
     1
  8
0
100
AcDbBlockBegin
  2
*PAPER_SPACE
 70
     0
 10
0.0
 20
0.0
 30
0.0
  3
*PAPER_SPACE
  1

  0
ENDBLK
  5
104
330
101
100
AcDbEntity
 67
     1
  8
0
100
AcDbBlockEnd
  0
BLOCK
  5
5D
330
59
100
AcDbEntity
  8
0
100
AcDbBlockBegin
  2
_OPEN30
 70
     0
 10
0.0
 20
0.0
 30
0.0
  3
_OPEN30
  1

  0
LINE
  5
5A
330
59
100
AcDbEntity
  8
0
 62
     0
100
AcDbLine
 10
-1.0
 20
0.26794919
 30
0.0
 11
0.0
 21
0.0
 31
0.0
  0
LINE
  5
5B
330
59
100
AcDbEntity
  8
0
 62
     0
100
AcDbLine
 10
0.0
 20
0.0
 30
0.0
 11
-1.0
 21
-0.26794919
 31
0.0
  0
LINE
  5
5C
330
59
100
AcDbEntity
  8
0
 62
     0
100
AcDbLine
 10
0.0
 20
0.0
 30
0.0
 11
-1.0
 21
0.0
 31
0.0
  0
ENDBLK
  5
5E
330
59
100
AcDbEntity
  8
0
100
AcDbBlockEnd
  0
BLOCK
  5
66
330
64
100
AcDbEntity
  8
0
100
AcDbBlockBegin
  2
GENAXEH
 70
     0
 10
0.0
 20
0.0
 30
0.0
  3
GENAXEH
  1

  0
LINE
  5
65
330
64
100
AcDbEntity
  8
0
100
AcDbLine
 10
-1.0
 20
0.0
 30
0.0
 11
1.0
 21
0.0
 31
0.0
  0
ENDBLK
  5
67
330
64
100
AcDbEntity
  8
0
100
AcDbBlockEnd
  0
BLOCK
  5
CD2
330
CC8
100
AcDbEntity
  8
0
100
AcDbBlockBegin
  2
*D5
 70
     1
 10
0.0
 20
0.0
 30
0.0
  3
*D5
  1

  0
LINE
  5
2F02
330
CC8
100
AcDbEntity
  8
AM_5
 62
     3
100
AcDbLine
 10
-80.99999999999997
 20
-2.35270261852208
 30
0.0
 11
-80.99999999999997
 21
-10.00012923179928
 31
0.0
  0
LINE
  5
2F03
330
CC8
100
AcDbEntity
  8
AM_5
 62
     3
100
AcDbLine
 10
-1.000000000000055
 20
-2.499999542519059
 30
0.0
 11
-1.000000000000056
 21
-10.00012923179928
 31
0.0
  0
LINE
  5
2F04
330
CC8
100
AcDbEntity
  8
AM_5
 62
     3
100
AcDbLine
 10
-79.74999999999997
 20
-9.500129231799288
 30
0.0
 11
-2.250000000000055
 21
-9.500129231799288
 31
0.0
  0
INSERT
  5
2F05
330
CC8
100
AcDbEntity
  8
AM_5
 62
     3
100
AcDbBlockReference
  2
_OPEN30
 10
-80.99999999999997
 20
-9.500129231799288
 30
0.0
 41
1.25
 42
1.25
 43
1.25
 50
180.0
  0
INSERT
  5
2F06
330
CC8
100
AcDbEntity
  8
AM_5
 62
     3
100
AcDbBlockReference
  2
_OPEN30
 10
-1.000000000000056
 20
-9.500129231799288
 30
0.0
 41
1.25
 42
1.25
 43
1.25
  0
MTEXT
  5
2F07
330
CC8
100
AcDbEntity
  8
AM_5
 62
     2
100
AcDbMText
 10
-41.00000000000001
 20
-7.800129231799288
 30
0.0
 40
1.9
 41
0.0
 71
     5
 72
     1
  1
80
1001
ACAD
1000
MTEXTBEGIN
1070
    73
1070
     1
1070
    44
1040
1.0
1070
    74
1070
     0
1000
MTEXTEND
  0
POINT
  5
2F08
330
CC8
100
AcDbEntity
  8
DEFPOINTS
 62
     0
100
AcDbPoint
 10
-80.99999999999997
 20
-2.35270261852208
 30
0.0
  0
POINT
  5
2F09
330
CC8
100
AcDbEntity
  8
DEFPOINTS
 62
     0
100
AcDbPoint
 10
-1.000000000000055
 20
-2.499999542519059
 30
0.0
  0
POINT
  5
2F0A
330
CC8
100
AcDbEntity
  8
DEFPOINTS
 62
     0
100
AcDbPoint
 10
-1.000000000000056
 20
-9.500129231799288
 30
0.0
  0
ENDBLK
  5
CD3
330
CC8
100
AcDbEntity
  8
0
100
AcDbBlockEnd
  0
BLOCK
  5
219B
330
218F
100
AcDbEntity
  8
0
100
AcDbBlockBegin
  2
*D6
 70
     1
 10
0.0
 20
0.0
 30
0.0
  3
*D6
  1

  0
LINE
  5
2F0B
330
218F
100
AcDbEntity
  8
AM_5
 62
     3
100
AcDbLine
 10
-80.74999999999993
 20
2.499999999999818
 30
0.0
 11
-89.75000099999993
 21
2.4999999999998
 31
0.0
  0
LINE
  5
2F0C
330
218F
100
AcDbEntity
  8
AM_5
 62
     3
100
AcDbLine
 10
-80.74999999999976
 20
-2.500000000000181
 30
0.0
 11
-89.75000099999993
 21
-2.500000000000199
 31
0.0
  0
LINE
  5
2F0D
330
218F
100
AcDbEntity
  8
AM_5
 62
     3
100
AcDbLine
 10
-89.25000099999996
 20
3.749999999999801
 30
0.0
 11
-89.25000099999996
 21
4.999999999999801
 31
0.0
  0
LINE
  5
2F0E
330
218F
100
AcDbEntity
  8
AM_5
 62
     3
100
AcDbLine
 10
-89.25000099999992
 20
-3.750000000000198
 30
0.0
 11
-89.25000099999992
 21
-5.000000000000198
 31
0.0
  0
LINE
  5
2F0F
330
218F
100
AcDbEntity
  8
AM_5
 62
     3
100
AcDbLine
 10
-89.25000099999994
 20
2.499999999999801
 30
0.0
 11
-89.25000099999994
 21
-2.500000000000198
 31
0.0
  0
INSERT
  5
2F10
330
218F
100
AcDbEntity
  8
AM_5
 62
     3
100
AcDbBlockReference
  2
_OPEN30
 10
-89.25000099999994
 20
2.499999999999801
 30
0.0
 41
1.25
 42
1.25
 43
1.25
 50
270.0000000000001
  0
INSERT
  5
2F11
330
218F
100
AcDbEntity
  8
AM_5
 62
     3
100
AcDbBlockReference
  2
_OPEN30
 10
-89.25000099999994
 20
-2.500000000000198
 30
0.0
 41
1.25
 42
1.25
 43
1.25
 50
90.0000000000001
  0
MTEXT
  5
2F12
330
218F
100
AcDbEntity
  8
AM_5
 62
     2
100
AcDbMText
 10
-90.95000099999994
 20
-0.0000000000001914
 30
0.0
 40
1.9
 41
0.0
 71
     5
 72
     1
  1
%%c5
 11
-0.000000000000002
 21
1.0
 31
0.0
1001
ACAD
1000
MTEXTBEGIN
1070
    73
1070
     1
1070
    44
1040
1.0
1070
    74
1070
     0
1000
MTEXTEND
  0
POINT
  5
2F13
330
218F
100
AcDbEntity
  8
DEFPOINTS
 62
     0
100
AcDbPoint
 10
-80.74999999999993
 20
2.499999999999997
 30
0.0
  0
POINT
  5
2F14
330
218F
100
AcDbEntity
  8
DEFPOINTS
 62
     0
100
AcDbPoint
 10
-80.74999999999976
 20
-2.500000000000002
 30
0.0
  0
POINT
  5
2F15
330
218F
100
AcDbEntity
  8
DEFPOINTS
 62
     0
100
AcDbPoint
 10
-89.25000099999994
 20
-2.5
 30
0.0
  0
ENDBLK
  5
219C
330
218F
100
AcDbEntity
  8
0
100
AcDbBlockEnd
  0
BLOCK
  5
246A
330
245E
100
AcDbEntity
  8
0
100
AcDbBlockBegin
  2
*D7
 70
     1
 10
0.0
 20
0.0
 30
0.0
  3
*D7
  1

  0
LINE
  5
2F21
330
245E
100
AcDbEntity
  8
AM_5
 62
     3
100
AcDbLine
 10
-1.000000000000038
 20
-2.499999542519059
 30
0.0
 11
8.704574799195848
 21
-2.499999542519062
 31
0.0
  0
LINE
  5
2F22
330
245E
100
AcDbEntity
  8
AM_5
 62
     3
100
AcDbLine
 10
-0.9999999999999472
 20
2.500000457480855
 30
0.0
 11
8.704574799195848
 21
2.500000457480853
 31
0.0
  0
LINE
  5
2F23
330
245E
100
AcDbEntity
  8
AM_5
 62
     3
100
AcDbLine
 10
8.204574799195848
 20
-3.749999542519062
 30
0.0
 11
8.204574799195846
 21
-4.999999542519062
 31
0.0
  0
LINE
  5
2F24
330
245E
100
AcDbEntity
  8
AM_5
 62
     3
100
AcDbLine
 10
8.204574799195848
 20
3.750000457480853
 30
0.0
 11
8.204574799195849
 21
9.485714743195137
 31
0.0
  0
LINE
  5
2F25
330
245E
100
AcDbEntity
  8
AM_5
 62
     3
100
AcDbLine
 10
8.204574799195848
 20
-2.499999542519062
 30
0.0
 11
8.204574799195848
 21
2.500000457480853
 31
0.0
  0
INSERT
  5
2F26
330
245E
100
AcDbEntity
  8
AM_5
 62
     3
100
AcDbBlockReference
  2
_OPEN30
 10
8.204574799195848
 20
-2.499999542519062
 30
0.0
 41
1.25
 42
1.25
 43
1.25
 50
90.0
  0
INSERT
  5
2F27
330
245E
100
AcDbEntity
  8
AM_5
 62
     3
100
AcDbBlockReference
  2
_OPEN30
 10
8.204574799195848
 20
2.500000457480853
 30
0.0
 41
1.25
 42
1.25
 43
1.25
 50
270.0
  0
MTEXT
  5
2F28
330
245E
100
AcDbEntity
  8
AM_5
 62
     2
100
AcDbMText
 10
6.504574799195848
 20
7.242857600337996
 30
0.0
 40
1.9
 41
0.0
 71
     5
 72
     1
  1
%%c5
 11
0.0000000000000001
 21
1.0
 31
0.0
1001
ACAD
1000
MTEXTBEGIN
1070
    73
1070
     1
1070
    44
1040
1.0
1070
    74
1070
     0
1000
MTEXTEND
  0
POINT
  5
2F29
330
245E
100
AcDbEntity
  8
DEFPOINTS
 62
     0
100
AcDbPoint
 10
-1.000000000000038
 20
-2.499999542519059
 30
0.0
  0
POINT
  5
2F2A
330
245E
100
AcDbEntity
  8
DEFPOINTS
 62
     0
100
AcDbPoint
 10
-0.9999999999999472
 20
2.500000457480855
 30
0.0
  0
POINT
  5
2F2B
330
245E
100
AcDbEntity
  8
DEFPOINTS
 62
     0
100
AcDbPoint
 10
8.204574799195848
 20
2.500000457480853
 30
0.0
  0
ENDBLK
  5
246B
330
245E
100
AcDbEntity
  8
0
100
AcDbBlockEnd
  0
BLOCK
  5
261C
330
260C
100
AcDbEntity
  8
0
100
AcDbBlockBegin
  2
*D8
 70
     1
 10
0.0
 20
0.0
 30
0.0
  3
*D8
  1

  0
LINE
  5
2F16
330
260C
100
AcDbEntity
  8
AM_5
100
AcDbLine
 10
0.1710100704080903
 20
-0.4698463108496347
 30
0.0
 11
5.152728969492302
 21
-14.15700660988591
 31
0.0
  0
LINE
  5
2F17
330
260C
100
AcDbEntity
  8
AM_5
100
AcDbLine
 10
0.1710113367807192
 20
0.4698458499258079
 30
0.0
 11
5.152767126747749
 21
14.15699272172263
 31
0.0
  0
ARC
  5
2F18
330
260C
100
AcDbEntity
  8
AM_5
100
AcDbCircle
 10
0.0000000000000194
 20
0.000000000000025
 30
0.0
 40
14.56557174439121
100
AcDbArc
 50
294.9185654746577
 51
65.08128009645574
  0
INSERT
  5
2F19
330
260C
100
AcDbEntity
  8
AM_5
100
AcDbBlockReference
  2
_OPEN30
 10
4.981718899084235
 20
-13.68716029903625
 30
0.0
 41
1.25
 42
1.25
 43
1.25
 50
202.4592826608221
  0
INSERT
  5
2F1A
330
260C
100
AcDbEntity
  8
AM_5
100
AcDbBlockReference
  2
_OPEN30
 10
4.98175578996705
 20
13.68714687179685
 30
0.0
 41
1.25
 42
1.25
 43
1.25
 50
157.5405629102913
  0
MTEXT
  5
2F1B
330
260C
100
AcDbEntity
  8
AM_5
 62
     2
100
AcDbMText
 10
13.01557174437942
 20
-0.0000175403866208
 30
0.0
 40
1.6
 41
0.0
 71
     5
 72
     1
  1
140°
  7
ASAMI
 11
0.0000013476462646
 21
0.9999999999990919
 31
0.0
1001
ACAD
1000
MTEXTBEGIN
1070
    73
1070
     1
1070
    44
1040
1.0
1070
    74
1070
     0
1000
MTEXTEND
  0
POINT
  5
2F1C
330
260C
100
AcDbEntity
  8
DEFPOINTS
 62
     0
100
AcDbPoint
 10
13.3743373933164
 20
-5.769140276570372
 30
0.0
  0
POINT
  5
2F1D
330
260C
100
AcDbEntity
  8
DEFPOINTS
 62
     0
100
AcDbPoint
 10
0.0000000000000205
 20
0.0000000000000281
 30
0.0
  0
POINT
  5
2F1E
330
260C
100
AcDbEntity
  8
DEFPOINTS
 62
     0
100
AcDbPoint
 10
0.0000000000000223
 20
0.0000000000000171
 30
0.0
  0
POINT
  5
2F1F
330
260C
100
AcDbEntity
  8
DEFPOINTS
 62
     0
100
AcDbPoint
 10
-0.2203534757974112
 20
0.605416204082454
 30
0.0
  0
POINT
  5
2F20
330
260C
100
AcDbEntity
  8
DEFPOINTS
 62
     0
100
AcDbPoint
 10
-0.2203570834776938
 20
-0.6054210388783582
 30
0.0
  0
ENDBLK
  5
261D
330
260C
100
AcDbEntity
  8
0
100
AcDbBlockEnd
  0
ENDSEC
  0
SECTION
  2
ENTITIES
  0
LINE
  5
C1D
330
1F
100
AcDbEntity
  8
AM_0
 48
0.5
100
AcDbLine
 10
0.0000000000000239
 20
0.0000000000000163
 30
0.0
 11
-0.2252502197040192
 21
0.6188698975065073
 31
0.0
  0
LINE
  5
C20
330
1F
100
AcDbEntity
  8
AM_0
 48
0.5
100
AcDbLine
 10
0.0000000000000221
 20
0.0000000000000276
 30
0.0
 11
-0.2252539075549748
 21
-0.6188748397423229
 31
0.0
  0
LINE
  5
C30
330
1F
100
AcDbEntity
  8
AM_0
 48
0.5
100
AcDbLine
 10
-80.99999999999997
 20
-2.250000000000003
 30
0.0
 11
-80.99999999999994
 21
2.249999999999996
 31
0.0
  0
LINE
  5
C9F
330
1F
100
AcDbEntity
  8
AM_7
100
AcDbLine
 10
-82.24999999999996
 20
-0.0000000000000038
 30
0.0
 11
1.204573799195843
 21
0.0000000000000523
 31
0.0
1001
GENIUS_GENODEF_13
1002
{
1000
HIER
1070
     0
1002
}
1002
{
1000
MANEDIT
1070
     0
1002
}
1002
{
1000
NOSEL
1070
     0
1002
}
1002
{
1000
BEHIND
1070
     0
1002
}
1002
{
1000
REACTOR
1002
}
1001
GENIUS_GENOBJ-N-CEN_13
1002
{
1000
OWNER
1000
GEN
1002
}
  0
DIMENSION
  5
CC6
330
1F
100
AcDbEntity
  8
AM_5
100
AcDbDimension
  2
*D5
 10
-1.000000000000056
 20
-9.500129231799288
 30
0.0
 11
-41.00000000000001
 21
-7.800129231799288
 31
0.0
 70
    32
  1
<>
  3
AM_JIS$0
100
AcDbAlignedDimension
 13
-80.99999999999997
 23
-2.35270261852208
 33
0.0
 14
-1.000000000000055
 24
-2.499999542519059
 34
0.0
 50
0.0000000000001132
100
AcDbRotatedDimension
1001
GENIUS_GENDTOL_13
1000

1000
h7
1000

1040
0.0
1001
ACAD
1000
DSTYLE
1002
{
1070
   271
1070
     0
1002
}
  0
ARC
  5
144A
330
1F
100
AcDbEntity
  8
AM_11
 48
0.5
100
AcDbCircle
 10
-40.36613718668323
 20
-11.04241155161754
 30
0.0
 40
12.20908006032291
100
AcDbArc
 50
64.74833051131179
 51
115.2516644797366
  0
ARC
  5
144B
330
1F
100
AcDbEntity
  8
AM_11
 48
0.5
100
AcDbCircle
 10
-40.36613718668323
 20
11.04241905039245
 30
0.0
 40
12.20908006032291
100
AcDbArc
 50
244.7482808787518
 51
295.2516148471758
  0
ARC
  5
144E
330
1F
100
AcDbEntity
  8
AM_11
 48
0.5
100
AcDbCircle
 10
-29.94947052001657
 20
-11.04241155161754
 30
0.0
 40
12.20908006032291
100
AcDbArc
 50
64.74833051131179
 51
115.2516644797366
  0
ARC
  5
144F
330
1F
100
AcDbEntity
  8
AM_11
 48
0.5
100
AcDbCircle
 10
-29.94947052001657
 20
11.04241905039245
 30
0.0
 40
12.20908006032291
100
AcDbArc
 50
244.7482808787518
 51
295.2516148471758
  0
ARC
  5
1450
330
1F
100
AcDbEntity
  8
AM_11
 48
0.5
100
AcDbCircle
 10
-19.53280385335282
 20
11.04241905039245
 30
0.0
 40
12.20908006032291
100
AcDbArc
 50
244.7482808787518
 51
295.2516148471758
  0
ARC
  5
1451
330
1F
100
AcDbEntity
  8
AM_11
 48
0.5
100
AcDbCircle
 10
-19.53280385335282
 20
-11.04241155161754
 30
0.0
 40
12.20908006032291
100
AcDbArc
 50
64.74833051131179
 51
115.2516644797366
  0
ARC
  5
1452
330
1F
100
AcDbEntity
  8
AM_11
 48
0.5
100
AcDbCircle
 10
-9.116137186686161
 20
-11.04241155161754
 30
0.0
 40
12.20908006032291
100
AcDbArc
 50
64.74833051131179
 51
115.2516644797366
  0
ARC
  5
1453
330
1F
100
AcDbEntity
  8
AM_11
 48
0.5
100
AcDbCircle
 10
-9.116137186686161
 20
11.04241905039245
 30
0.0
 40
12.20908006032291
100
AcDbArc
 50
244.7482808787518
 51
295.2516148471758
  0
ARC
  5
1454
330
1F
100
AcDbEntity
  8
AM_11
 48
0.5
100
AcDbCircle
 10
1.329430135091196
 20
11.28780614040117
 30
0.0
 40
12.48039295055231
100
AcDbArc
 50
244.7482808787518
 51
254.0147302238188
  0
TEXT
  5
19BD
330
1F
100
AcDbEntity
  8
AM_6
100
AcDbText
 10
-52.24999999999997
 20
-20.75012923179931
 30
0.0
 40
2.5
  1
MDW050MHK
 50
0.0000000000001527
 72
     4
 11
-40.99999999999997
 21
-19.50012923179928
 31
0.0
100
AcDbText
  0
LINE
  5
1CF0
330
1F
100
AcDbEntity
  8
AM_0
100
AcDbLine
 10
-80.74999999999993
 20
2.499999999999997
 30
0.0
 11
-26.51065555422898
 21
2.500000000000016
 31
0.0
1001
GENIUS_GENODEF_13
1002
{
1000
HIER
1070
     0
1002
}
1002
{
1000
MANEDIT
1070
     0
1002
}
1002
{
1000
NOSEL
1070
     0
1002
}
1002
{
1000
BEHIND
1070
     0
1002
}
1002
{
1000
REACTOR
1002
}
1001
GENIUS_GENOBJ-N-CEN_13
1002
{
1000
OWNER
1000
GEN
1002
}
  0
LINE
  5
1CF4
330
1F
100
AcDbEntity
  8
AM_0
100
AcDbLine
 10
-80.74999999999997
 20
-2.500000000000002
 30
0.0
 11
-27.61369570927694
 21
-2.499999999999983
 31
0.0
1001
GENIUS_GENODEF_13
1002
{
1000
HIER
1070
     0
1002
}
1002
{
1000
MANEDIT
1070
     0
1002
}
1002
{
1000
NOSEL
1070
     0
1002
}
1002
{
1000
BEHIND
1070
     0
1002
}
1002
{
1000
REACTOR
1002
}
1001
GENIUS_GENOBJ-N-CEN_13
1002
{
1000
OWNER
1000
GEN
1002
}
  0
LINE
  5
1CFE
330
1F
100
AcDbEntity
  8
AM_0
100
AcDbLine
 10
-80.74999999999997
 20
-2.500000000000002
 30
0.0
 11
-80.74999999999995
 21
2.499999999999997
 31
0.0
  0
ARC
  5
1DAB
330
1F
100
AcDbEntity
  8
AM_11
 48
0.5
100
AcDbCircle
 10
-50.78278106749332
 20
-11.04241155161757
 30
0.0
 40
12.20908006032291
100
AcDbArc
 50
64.74833051131179
 51
115.2516644797366
  0
ARC
  5
1DAC
330
1F
100
AcDbEntity
  8
AM_11
 48
0.5
100
AcDbCircle
 10
-50.7827810674933
 20
11.04241905039242
 30
0.0
 40
12.20908006032291
100
AcDbArc
 50
244.7482808787518
 51
295.2516148471758
  0
ARC
  5
1DAD
330
1F
100
AcDbEntity
  8
AM_11
 48
0.5
100
AcDbCircle
 10
-61.1994249483034
 20
-11.0424115516176
 30
0.0
 40
12.20908006032291
100
AcDbArc
 50
64.74833051131179
 51
115.2516644797366
  0
ARC
  5
1DAE
330
1F
100
AcDbEntity
  8
AM_11
 48
0.5
100
AcDbCircle
 10
-61.19942494830338
 20
11.04241905039239
 30
0.0
 40
12.20908006032291
100
AcDbArc
 50
244.7482808787518
 51
295.2516148471758
  0
ARC
  5
1DAF
330
1F
100
AcDbEntity
  8
AM_11
 48
0.5
100
AcDbCircle
 10
-71.61606882911347
 20
-11.04241155161763
 30
0.0
 40
12.20908006032291
100
AcDbArc
 50
64.74833051131179
 51
115.2516644797366
  0
ARC
  5
1DB0
330
1F
100
AcDbEntity
  8
AM_11
 48
0.5
100
AcDbCircle
 10
-71.61606882911346
 20
11.04241905039237
 30
0.0
 40
12.20908006032291
100
AcDbArc
 50
244.7482808787518
 51
295.2516148471758
  0
LINE
  5
1EB2
330
1F
100
AcDbEntity
  8
AM_0
100
AcDbLine
 10
-80.99999999999994
 20
2.249999999999996
 30
0.0
 11
-80.74999999999993
 21
2.499999999999997
 31
0.0
1001
GENIUS_GENFIL_13
1070
     0
1040
0.25
1040
0.25
1040
20.0
1040
0.0
1002
{
1002
}
1001
GENIUS_GENODEF_13
1002
{
1000
HIER
1070
     0
1002
}
1002
{
1000
MANEDIT
1070
     0
1002
}
1002
{
1000
NOSEL
1070
     0
1002
}
1002
{
1000
BEHIND
1070
     0
1002
}
1002
{
1000
REACTOR
1002
}
1001
GENIUS_GENOBJ-N-CHA_13
1002
{
1000
OWNER
1000
GEN
1002
}
  0
LINE
  5
1EB5
330
1F
100
AcDbEntity
  8
AM_0
100
AcDbLine
 10
-80.99999999999997
 20
-2.250000000000003
 30
0.0
 11
-80.74999999999997
 21
-2.500000000000002
 31
0.0
1001
GENIUS_GENFIL_13
1070
     0
1040
0.25
1040
0.25
1040
20.0
1040
0.0
1002
{
1002
}
1001
GENIUS_GENODEF_13
1002
{
1000
HIER
1070
     0
1002
}
1002
{
1000
MANEDIT
1070
     0
1002
}
1002
{
1000
NOSEL
1070
     0
1002
}
1002
{
1000
BEHIND
1070
     0
1002
}
1002
{
1000
REACTOR
1002
}
1001
GENIUS_GENOBJ-N-CHA_13
1002
{
1000
OWNER
1000
GEN
1002
}
  0
ARC
  5
1EBF
330
1F
100
AcDbEntity
  8
AM_11
 48
0.5
100
AcDbCircle
 10
-82.03270196212011
 20
11.04241905039234
 30
0.0
 40
12.20908006032291
100
AcDbArc
 50
274.8521466974949
 51
295.2516148471758
  0
ARC
  5
1EC0
330
1F
100
AcDbEntity
  8
AM_11
 48
0.5
100
AcDbCircle
 10
-82.03270196212013
 20
-11.04241155161765
 30
0.0
 40
12.20908006032291
100
AcDbArc
 50
64.74833051131179
 51
85.14785330250502
  0
DIMENSION
  5
218E
330
1F
100
AcDbEntity
  8
AM_5
100
AcDbDimension
  2
*D6
 10
-89.25000099999994
 20
-2.5
 30
0.0
 11
-89.25000099999994
 21
-0.0000000000000077
 31
0.0
 70
   160
  1
%%c<>
 51
359.9999999999998
  3
AM_JIS$0
100
AcDbAlignedDimension
 13
-80.74999999999993
 23
2.499999999999997
 33
0.0
 14
-80.74999999999976
 24
-2.500000000000002
 34
0.0
 50
270.0000000000001
100
AcDbRotatedDimension
1001
ACAD
1000
DSTYLE
1002
{
1070
   271
1070
     0
1002
}
1001
GENIUS_GENDTOL_13
1000

1000
h7
1000

1040
0.0
  0
DIMENSION
  5
245D
330
1F
100
AcDbEntity
  8
AM_5
100
AcDbDimension
  2
*D7
 10
8.204574799195848
 20
2.500000457480853
 30
0.0
 11
8.204574799195848
 21
7.242857600337996
 31
0.0
 70
   160
  1
%%c<>
  3
AM_JIS$0
100
AcDbAlignedDimension
 13
-1.000000000000038
 23
-2.499999542519059
 33
0.0
 14
-0.9999999999999472
 24
2.500000457480855
 34
0.0
 50
89.99999999999955
100
AcDbRotatedDimension
1001
GENIUS_GENDTOL_13
1000

1000
h7
1000

1040
0.0
1001
ACAD
1000
DSTYLE
1002
{
1070
   271
1070
     0
1002
}
  0
LINE
  5
2470
330
1F
100
AcDbEntity
  8
AM_0
 48
0.5
100
AcDbLine
 10
-0.8387091217633964
 20
1.817767319807088
 30
0.0
 11
-0.9999999999999472
 21
2.500000457480855
 31
0.0
  0
ELLIPSE
  5
249A
330
1F
100
AcDbEntity
  8
AM_0
 48
0.5
100
AcDbEllipse
 10
3.60136101786125
 20
2.716816435179793
 30
0.0
 11
4.468720943217904
 21
0.7542603640199949
 31
0.0
210
0.0
220
0.0
230
0.9999999999999998
 40
0.7605565264725771
 41
3.184410165628205
 42
3.569980850929193
  0
ELLIPSE
  5
25FC
330
1F
100
AcDbEntity
  8
AM_0
 48
0.5
100
AcDbEllipse
 10
3.601361017861254
 20
-2.716816435179685
 30
0.0
 11
4.468720943217904
 21
-0.7542603640199887
 31
0.0
210
0.0
220
0.0
230
-1.0
 40
0.7605565264725771
 41
3.184410165628205
 42
3.569980850929193
  0
LINE
  5
25FD
330
1F
100
AcDbEntity
  8
AM_0
 48
0.5
100
AcDbLine
 10
-0.8387091217633939
 20
-1.817767319806986
 30
0.0
 11
-1.000000000000038
 21
-2.499999542519059
 31
0.0
  0
DIMENSION
  5
260B
330
1F
100
AcDbEntity
  8
AM_5
100
AcDbDimension
  2
*D8
 10
-0.2203570834776939
 20
-0.6054210388783583
 30
0.0
 11
13.01557174437942
 21
-0.0000175403866493
 31
0.0
 70
    34
  1
<>
 51
359.9999999999998
  3
AM_JIS$2
100
AcDb2LineAngularDimension
 13
0.0000000000000223
 23
0.0000000000000171
 33
0.0
 14
-0.2203534757974112
 24
0.605416204082454
 34
0.0
 15
0.0000000000000205
 25
0.0000000000000281
 35
0.0
 16
13.3743373933164
 26
-5.769140276570372
 36
0.0
1001
ACAD
1000
DSTYLE
1002
{
1070
   179
1070
     3
1002
}
1001
GENIUS_GENDTOL_13
1000

1000
h7
1000

1040
0.0
  0
ELLIPSE
  5
2E11
330
1F
100
AcDbEntity
  8
AM_0
 48
0.5
100
AcDbEllipse
 10
-4.627552157690284
 20
4.660170096701803
 30
0.0
 11
6.711458045802472
 21
0.0008653860935103
 31
0.0
210
0.0
220
0.0
230
1.0
 40
0.9586931778405025
 41
-0.9324986002162244
 42
-0.8101210816073482
  0
LINE
  5
2E78
330
1F
100
AcDbEntity
  8
AM_0
 48
0.5
100
AcDbLine
 10
-2.794454037455614
 20
2.500000401248684
 30
0.0
 11
-0.9999999999999424
 21
2.500000457480855
 31
0.0
  0
LINE
  5
2E79
330
1F
100
AcDbEntity
  8
AM_0
 48
0.5
100
AcDbLine
 10
0.0000000000000162
 20
0.0000000000000069
 30
0.0
 11
-1.355808154907781
 21
0.959924519573761
 31
0.0
  0
LINE
  5
2E7A
330
1F
100
AcDbEntity
  8
AM_0
 48
0.5
100
AcDbLine
 10
-2.79445403745579
 20
-2.499999542519097
 30
0.0
 11
-0.9999999999999705
 21
-2.499999542519142
 31
0.0
  0
LINE
  5
2E7B
330
1F
100
AcDbEntity
  8
AM_11
 48
0.5
100
AcDbLine
 10
-11.20763078832496
 20
-2.499999542518846
 30
0.0
 11
-2.794459783333539
 21
-2.499999542519091
 31
0.0
  0
LINE
  5
2E7C
330
1F
100
AcDbEntity
  8
AM_11
 48
0.5
100
AcDbLine
 10
-11.3872995914991
 20
-2.499999598750889
 30
0.0
 11
-2.794454037455791
 21
-2.499999598751315
 31
0.0
  0
LINE
  5
2E7D
330
1F
100
AcDbEntity
  8
AM_11
 48
0.5
100
AcDbLine
 10
-11.3872995914989
 20
2.500000401249101
 30
0.0
 11
-2.794454037455614
 21
2.500000401248684
 31
0.0
  0
LINE
  5
2E7E
330
1F
100
AcDbEntity
  8
AM_11
 48
0.5
100
AcDbLine
 10
-11.20763078832483
 20
2.500000457481152
 30
0.0
 11
-2.794454037455614
 21
2.500000401248684
 31
0.0
  0
LINE
  5
2E7F
330
1F
100
AcDbEntity
  8
AM_0
 48
0.5
100
AcDbLine
 10
-22.27907950750095
 20
1.19051457155645
 30
0.0
 11
-28.49999999999996
 21
-0.2023151241634966
 31
0.0
  0
LINE
  5
2E80
330
1F
100
AcDbEntity
  8
AM_11
100
AcDbLine
 10
-21.0289761081076
 20
2.500000401249579
 30
0.0
 11
-26.51065778064501
 21
2.500000401249615
 31
0.0
  0
LINE
  5
2E81
330
1F
100
AcDbEntity
  8
AM_11
 48
0.5
100
AcDbLine
 10
-27.59713951861254
 20
-2.500128221799407
 30
0.0
 11
-21.19993841403853
 21
-2.499974207168525
 31
0.0
  0
LINE
  5
2E82
330
1F
100
AcDbEntity
  8
AM_0
 48
0.5
100
AcDbLine
 10
-21.11353794169557
 20
-2.500128221799696
 30
0.0
 11
-11.3872995914991
 21
-2.499999598750889
 31
0.0
  0
LINE
  5
2E83
330
1F
100
AcDbEntity
  8
AM_0
 48
0.5
100
AcDbLine
 10
-21.02901207912575
 20
2.500000401249579
 30
0.0
 11
-11.3872995914989
 21
2.500000401249101
 31
0.0
  0
SPLINE
  5
2E84
330
1F
100
AcDbEntity
  8
AM_0
 48
0.5
100
AcDbSpline
210
0.0
220
0.0
230
1.0
 70
     8
 71
     3
 72
    10
 73
     6
 74
     0
 42
0.0000000001
 43
0.0000000001
 40
0.0
 40
0.0
 40
0.0
 40
0.0
 40
2.69986029516136
 40
4.147722969032201
 40
6.285750005020438
 40
6.285750005020438
 40
6.285750005020438
 40
6.285750005020438
 10
-3.32644929231824
 20
0.4525167683758057
 30
0.0
 10
-2.597068152465989
 20
0.2202198556931261
 30
0.0
 10
-2.126133522754324
 20
-0.1366061313507568
 30
0.0
 10
-1.01243638527363
 20
0.0361395800410854
 30
0.0
 10
-1.222177950139689
 20
0.6179699936687736
 30
0.0
 10
-1.360761775265438
 20
0.9726135506692658
 30
0.0
  0
ELLIPSE
  5
2E85
330
1F
100
AcDbEntity
  8
AM_0
 48
0.5
100
AcDbEllipse
 10
2.551140057599157
 20
-0.5557151034321737
 30
0.0
 11
4.032439329192189
 21
0.6722265636066035
 31
0.0
210
0.0
220
0.0
230
0.9999999999999998
 40
0.9202781567818764
 41
3.097328672937846
 42
3.504026884132501
  0
SPLINE
  5
2E86
330
1F
100
AcDbEntity
  8
AM_0
100
AcDbSpline
210
0.0
220
0.0
230
1.0
 70
     8
 71
     3
 72
    22
 73
    18
 74
     0
 42
0.0000000001
 43
0.0000000001
 40
17.17441611292
 40
17.17441611292
 40
17.17441611292
 40
17.17441611292
 40
17.38177636558528
 40
18.41823744757437
 40
19.46215659509824
 40
20.51397914882054
 40
21.57394542641293
 40
22.64209583141747
 40
23.71826625065247
 40
24.80210429862395
 40
25.8930771157021
 40
26.99048705697709
 40
28.09349309193389
 40
29.20112995599786
 40
30.31233024745139
 40
31.42594771747373
 40
32.5407895042663
 40
32.54078950426994
 40
32.54078950426994
 40
32.54078950426994
 10
-13.12835432744251
 20
-2.245017692873444
 30
0.0
 10
-13.15889932908618
 20
-2.239230438077871
 30
0.0
 10
-13.34199993234307
 20
-2.20397963655547
 30
0.0
 10
-13.67742991983178
 20
-2.133297191509092
 30
0.0
 10
-14.13337840464585
 20
-2.024060152598115
 30
0.0
 10
-14.5892804292664
 20
-1.902348937858167
 30
0.0
 10
-15.04513921233616
 20
-1.768923298870321
 30
0.0
 10
-15.50095415169741
 20
-1.624601332073878
 30
0.0
 10
-15.95673085790346
 20
-1.470281219758598
 30
0.0
 10
-16.41247144132861
 20
-1.306911363682168
 30
0.0
 10
-16.86818011865698
 20
-1.135499256795382
 30
0.0
 10
-17.32386195708011
 20
-0.9571024032234861
 30
0.0
 10
-17.77952091164141
 20
-0.7728177706139538
 30
0.0
 10
-18.23516156928502
 20
-0.5837791091669606
 30
0.0
 10
-18.69078796886874
 20
-0.3911487926709465
 30
0.0
 10
-19.14640686010148
 20
-0.1961154542969119
 30
0.0
 10
-19.4500931659019
 20
-0.0653107313213352
 30
0.0
 10
-19.60201974361671
 20
0.0001275578253542
 30
0.0
  0
SPLINE
  5
2E87
330
1F
100
AcDbEntity
  8
AM_0
100
AcDbSpline
210
0.0
220
0.0
230
1.0
 70
     8
 71
     3
 72
    46
 73
    42
 74
     0
 42
0.0000000001
 43
0.0000000001
 40
0.0
 40
0.0
 40
0.0
 40
0.0
 40
0.5056245176053715
 40
0.759310862862336
 40
1.013969309739036
 40
1.269880374404297
 40
1.527291183660732
 40
1.786406454158005
 40
2.047386241038974
 40
2.310345544571907
 40
2.575337113970003
 40
2.842374715221223
 40
3.111417320030211
 40
3.382376832022752
 40
3.655120036292296
 40
3.929472521611371
 40
4.205224030350333
 40
4.482133246366229
 40
4.759933319229942
 40
5.038338087391601
 40
5.317048131389549
 40
5.595758175387723
 40
5.874162943549383
 40
6.151963016412869
 40
6.428872232428759
 40
6.704623741167955
 40
6.978976226486705
 40
7.251719430756336
 40
7.522680721168327
 40
7.791723325977311
 40
8.058760927228529
 40
8.32375249662655
 40
8.586708135057122
 40
8.84768792193809
 40
9.106803192435362
 40
9.364213819003406
 40
9.620125035580644
 40
9.87478726697307
 40
10.12847352585208
 40
10.38149610319407
 40
10.63418200686337
 40
10.63418200686337
 40
10.63418200686337
 40
10.63418200686337
 10
-1.517521079162256
 20
-2.499999598751375
 30
0.0
 10
-1.82171519457229
 20
-2.494304405499078
 30
0.0
 10
-2.278532236086723
 20
-2.485751770189674
 30
0.0
 10
-2.885981777174244
 20
-2.433094765792466
 30
0.0
 10
-3.34209715934349
 20
-2.380002497975988
 30
0.0
 10
-3.798173554505591
 20
-2.311841044664613
 30
0.0
 10
-4.254209761199156
 20
-2.229516773391713
 30
0.0
 10
-4.710203436676742
 20
-2.133423264307693
 30
0.0
 10
-5.166153817217484
 20
-2.024186505624463
 30
0.0
 10
-5.622058873681098
 20
-1.902477227210855
 30
0.0
 10
-6.0779195173125
 20
-1.769050315146656
 30
0.0
 10
-6.53373452198515
 20
-1.624728526621763
 30
0.0
 10
-6.989511210610967
 20
-1.47040836623371
 30
0.0
 10
-7.445251798355758
 20
-1.307038522296676
 30
0.0
 10
-7.900960476179254
 20
-1.13562641544173
 30
0.0
 10
-8.356642308203872
 20
-0.9572295493744345
 30
0.0
 10
-8.812301288048203
 20
-0.7729449670889303
 30
0.0
 10
-9.267941850423802
 20
-0.5839061157737184
 30
0.0
 10
-9.723568826419517
 20
-0.3912764187895654
 30
0.0
 10
-10.17918637821758
 20
-0.1962404133661073
 30
0.0
 10
-10.63480010001401
 20
0.0000004012093639
 30
0.0
 10
-11.09041382171039
 20
0.1962412160233089
 30
0.0
 10
-11.54603137380869
 20
0.3912772207317057
 30
0.0
 10
-12.00165834870701
 20
0.5839069203291129
 30
0.0
 10
-12.45729891515174
 20
0.7729457619526995
 30
0.0
 10
-12.91295787990814
 20
0.957230380173725
 30
0.0
 10
-13.3686397678086
 20
1.135627113159165
 30
0.0
 10
-13.82434922963937
 20
1.307040084927712
 30
0.0
 10
-14.28009158817221
 20
1.470408444566901
 30
0.0
 10
-14.73586908983377
 20
1.624729396255882
 30
0.0
 10
-15.19168408389376
 20
1.769051227724187
 30
0.0
 10
-15.64754285490143
 20
1.90247691370909
 30
0.0
 10
-16.1034448737634
 20
2.024188074862149
 30
0.0
 10
-16.55939339314528
 20
2.133425279789491
 30
0.0
 10
-17.01538680471769
 20
2.229512501931645
 30
0.0
 10
-17.47142334574908
 20
2.311860650487303
 30
0.0
 10
-17.92750265162593
 20
2.379924768369336
 30
0.0
 10
-18.38361568354826
 20
2.433390795860598
 30
0.0
 10
-18.83975693496189
 20
2.471535991162062
 30
0.0
 10
-19.29591474396367
 20
2.495539300156685
 30
0.0
 10
-19.60009412504723
 20
2.498514027690104
 30
0.0
 10
-19.7520825624034
 20
2.500000401249521
 30
0.0
  0
SPLINE
  5
2E88
330
1F
100
AcDbEntity
  8
AM_0
100
AcDbSpline
210
0.0
220
0.0
230
1.0
 70
     8
 71
     3
 72
    55
 73
    51
 74
     0
 42
0.0000000001
 43
0.0000000001
 40
0.0
 40
0.0
 40
0.0
 40
0.0
 40
1.010743684496582
 40
2.022833576467832
 40
3.037578957496688
 40
4.056212745003489
 40
5.079857003664532
 40
6.109500240690281
 40
7.145961322679372
 40
8.189895241603872
 40
9.241717795325891
 40
10.30168407291828
 40
11.36983447792315
 40
12.44600489715814
 40
13.52984294512926
 40
14.62081576220742
 40
15.7182257034828
 40
16.82123173843959
 40
17.92886860250316
 40
19.0400688939571
 40
20.15368796660465
 40
21.26852814259644
 40
22.38336992938901
 40
23.49698739941135
 40
24.6081876908653
 40
25.71582455492886
 40
26.81883757994213
 40
27.91624752121713
 40
29.00722033829659
 40
30.09105838626677
 40
31.16722880550176
 40
32.23537921050758
 40
33.29534548809967
 40
34.347168041821
 40
35.39108718934584
 40
36.42754827133493
 40
37.45720575381954
 40
38.48085062012849
 40
39.49948440763516
 40
40.51422944315121
 40
41.52631975251916
 40
42.53706336719636
 40
43.54780698187354
 40
44.55989729124051
 40
45.57464232675757
 40
46.59327611426424
 40
47.6169209805722
 40
48.64656348684535
 40
49.68302456883444
 40
50.58557219878025
 40
50.58557219878025
 40
50.58557219878025
 40
50.58557219878025
 10
-2.79445403745579
 20
-2.499999598751307
 30
0.0
 10
-2.946442447775444
 20
-2.498512159317497
 30
0.0
 10
-3.250621701471911
 20
-2.495535299332324
 30
0.0
 10
-3.706779885388273
 20
-2.471538465907015
 30
0.0
 10
-4.162918597631695
 20
-2.433389769433058
 30
0.0
 10
-4.619029079367053
 20
-2.37992292042064
 30
0.0
 10
-5.075106779329754
 20
-2.311862497183675
 30
0.0
 10
-5.531142700126502
 20
-2.229511153578119
 30
0.0
 10
-5.987138367177198
 20
-2.133423637607019
 30
0.0
 10
-6.443089736721852
 20
-2.024188343243836
 30
0.0
 10
-6.898993702900658
 20
-1.9024759685693
 30
0.0
 10
-7.354852538142856
 20
-1.769050489577681
 30
0.0
 10
-7.81066746332929
 20
-1.624728479347469
 30
0.0
 10
-8.266444173502398
 20
-1.470408379052617
 30
0.0
 10
-8.722184755377661
 20
-1.307038518773513
 30
0.0
 10
-9.177893434918086
 20
-1.135626416596065
 30
0.0
 10
-9.633575265994585
 20
-0.9572295483035702
 30
0.0
 10
-10.08923424791419
 20
-0.7729449702302376
 30
0.0
 10
-10.54487480289927
 20
-0.5839061042197106
 30
0.0
 10
-11.00050180649731
 20
-0.3912764620333239
 30
0.0
 10
-11.45611925499095
 20
-0.1962402515474143
 30
0.0
 10
-11.91173358240424
 20
-0.0000001088416789
 30
0.0
 10
-12.36734586449043
 20
0.1962435663089144
 30
0.0
 10
-12.82296484011443
 20
0.3912767395651565
 30
0.0
 10
-13.27859128123486
 20
0.5839069648304981
 30
0.0
 10
-13.734232648622
 20
0.7729465509948476
 30
0.0
 10
-14.18989352083364
 20
0.9572295563512206
 30
0.0
 10
-14.64557607109648
 20
1.135627329364065
 30
0.0
 10
-15.10128481642606
 20
1.307039292543958
 30
0.0
 10
-15.55702538171839
 20
1.470409187179142
 30
0.0
 10
-16.01280209305853
 20
1.624729287699737
 30
0.0
 10
-16.46861702985496
 20
1.769051263420388
 30
0.0
 10
-16.92447581804754
 20
1.902476878651694
 30
0.0
 10
-17.38037782491858
 20
2.024188178607516
 30
0.0
 10
-17.83632637493066
 20
2.133424903680523
 30
0.0
 10
-18.29232187283064
 20
2.229514351850683
 30
0.0
 10
-18.74836104987668
 20
2.311856289789634
 30
0.0
 10
-19.20444025659123
 20
2.379937779166371
 30
0.0
 10
-19.66055087353815
 20
2.433341250130391
 30
0.0
 10
-20.1166899027206
 20
2.471721609741104
 30
0.0
 10
-20.57284769986917
 20
2.494848613516194
 30
0.0
 10
-21.0290155208087
 20
2.502574580226847
 30
0.0
 10
-21.48518334107706
 20
2.494848613504121
 30
0.0
 10
-21.94134114024311
 20
2.471721609789783
 30
0.0
 10
-22.39748016199781
 20
2.43334124994737
 30
0.0
 10
-22.85359080679319
 20
2.37993777985473
 30
0.0
 10
-23.3096676853418
 20
2.311856619110252
 30
0.0
 10
-23.76570506576709
 20
2.229515193752747
 30
0.0
 10
-24.20096743796635
 20
2.137786756281726
 30
0.0
 10
-24.48337062195802
 20
2.070704882788465
 30
0.0
 10
-24.61438923968213
 20
2.038012613384331
 30
0.0
  0
SPLINE
  5
2E89
330
1F
100
AcDbEntity
  8
AM_0
 48
0.5
100
AcDbSpline
210
0.0
220
0.0
230
1.0
 70
     8
 71
     3
 72
    26
 73
    22
 74
     0
 42
0.0000000001
 43
0.0000000001
 40
0.0
 40
0.0
 40
0.0
 40
0.0
 40
0.2526859211241313
 40
0.5057083941171959
 40
0.7593947393741639
 40
1.01405318625086
 40
1.26996425091637
 40
1.527375060172565
 40
1.786490330669834
 40
2.047470117551047
 40
2.310425755981314
 40
2.575417325379407
 40
2.842456731169063
 40
3.111495753801943
 40
3.382458822635121
 40
3.655202026904655
 40
3.929554512223505
 40
4.205306020962704
 40
4.482215236978595
 40
4.76001530984208
 40
5.029821427366006
 40
5.029821427366006
 40
5.029821427366006
 40
5.029821427366006
 10
-19.85248853671644
 20
-2.500128221799759
 30
0.0
 10
-20.00447694705438
 20
-2.498640782430772
 30
0.0
 10
-20.3086562007876
 20
-2.495663922575299
 30
0.0
 10
-20.76481438442896
 20
-2.471667088175299
 30
0.0
 10
-21.22095309772159
 20
-2.433518395420529
 30
0.0
 10
-21.67706357551313
 20
-2.380051532427879
 30
0.0
 10
-22.13314129030611
 20
-2.311991161762243
 30
0.0
 10
-22.58917715526325
 20
-2.229639620212849
 30
0.0
 10
-23.04517086700411
 20
-2.133553306746992
 30
0.0
 10
-23.50111931566166
 20
-2.024315801239722
 30
0.0
 10
-23.95702142332959
 20
-1.902604904161152
 30
0.0
 10
-24.41288094209933
 20
-1.76917815425826
 30
0.0
 10
-24.86869598303792
 20
-1.624859418703676
 30
0.0
 10
-25.32447171065802
 20
-1.470533984408549
 30
0.0
 10
-25.78021421899542
 20
-1.307168836762573
 30
0.0
 10
-26.23592449273827
 20
-1.135754990851118
 30
0.0
 10
-26.69160592896724
 20
-0.9573574016615378
 30
0.0
 10
-27.14726689573585
 20
-0.7730767438028277
 30
0.0
 10
-27.60289986274075
 20
-0.5840228312281758
 30
0.0
 10
-28.05385248925696
 20
-0.3934372595007401
 30
0.0
 10
-28.3526255709264
 20
-0.2654005355350532
 30
0.0
 10
-28.49999999999997
 20
-0.2023151241634923
 30
0.0
  0
SPLINE
  5
2E8A
330
1F
100
AcDbEntity
  8
AM_0
 48
0.5
100
AcDbSpline
210
0.0
220
0.0
230
1.0
 70
     8
 71
     3
 72
    22
 73
    18
 74
     0
 42
0.0000000001
 43
0.0000000001
 40
0.0
 40
0.0
 40
0.0
 40
0.0
 40
1.010743684496582
 40
2.022833993863546
 40
3.037578683882831
 40
4.056212471389632
 40
5.079857945358201
 40
6.109499720892564
 40
7.145961650132166
 40
8.189873411961459
 40
9.241710626092514
 40
10.30166235592959
 40
11.36982472628033
 40
12.44598212828784
 40
13.52983440361964
 40
14.62080578343036
 40
14.90544694398022
 40
14.90544694398022
 40
14.90544694398022
 40
14.90544694398022
 10
-21.11353794169557
 20
-2.500128221799696
 30
0.0
 10
-21.28140993437202
 20
-2.498641226741436
 30
0.0
 10
-21.58558930895694
 20
-2.495665255485147
 30
0.0
 10
-22.04174701490519
 20
-2.47166173746568
 30
0.0
 10
-22.49788622073895
 20
-2.433519463460597
 30
0.0
 10
-22.9539969450042
 20
-2.380052565159472
 30
0.0
 10
-23.410073402763
 20
-2.311985792181128
 30
0.0
 10
-23.86611083608918
 20
-2.229641370909339
 30
0.0
 10
-24.32210256241581
 20
-2.133551565765616
 30
0.0
 10
-24.77805171730106
 20
-2.024312478723222
 30
0.0
 10
-25.23395419425181
 20
-1.902606180379332
 30
0.0
 10
-25.68981237576954
 20
-1.769173388975091
 30
0.0
 10
-26.14562920046465
 20
-1.624863198368421
 30
0.0
 10
-26.60140432596515
 20
-1.470533526533361
 30
0.0
 10
-27.05714629068117
 20
-1.307167523352784
 30
0.0
 10
-27.39966822643144
 20
-1.178335754297102
 30
0.0
 10
-27.590533401804
 20
-1.104699656290687
 30
0.0
 10
-27.56298019488509
 20
-1.115398681705686
 30
0.0
  0
ELLIPSE
  5
2E8B
330
1F
100
AcDbEntity
  8
AM_0
 48
0.5
100
AcDbEllipse
 10
-27.82358186934289
 20
-1.692184877683126
 30
0.0
 11
-0.6766403842907361
 21
0.0000000000001067
 31
0.0
210
0.0
220
0.0
230
1.0
 40
0.9236811968519042
 41
4.317028824483203
 42
6.257553905069485
  0
SPLINE
  5
2E8C
330
1F
100
AcDbEntity
  8
AM_0
100
AcDbSpline
210
0.0
220
0.0
230
1.0
 70
     8
 71
     3
 72
    11
 73
     7
 74
     0
 42
0.0000000001
 43
0.0000000001
 40
11.27226913003534
 40
11.27226913003534
 40
11.27226913003534
 40
11.2722691300354
 40
12.28301561507924
 40
13.29510212255852
 40
14.30984805882082
 40
15.18258238371378
 40
15.18258238371378
 40
15.18258238371378
 40
15.18258238371378
 10
-11.38729959149907
 20
-2.49999959875089
 30
0.0
 10
-11.5387100650596
 20
-2.487763872255625
 30
0.0
 10
-11.84124542323577
 20
-2.45814171093116
 30
0.0
 10
-12.29348622431114
 20
-2.398386484515482
 30
0.0
 10
-12.7226707187787
 20
-2.327015418467009
 30
0.0
 10
-13.00024205717592
 20
-2.272150355856358
 30
0.0
 10
-13.12815483374601
 20
-2.245048530354331
 30
0.0
  0
SPLINE
  5
2E8D
330
1F
100
AcDbEntity
  8
AM_0
100
AcDbSpline
210
0.0
220
0.0
230
1.0
 70
     8
 71
     3
 72
    17
 73
    13
 74
     0
 42
0.0000000001
 43
0.0000000001
 40
1.580019955310467
 40
1.580019955310467
 40
1.580019955310467
 40
1.580019955310467
 40
2.030549285115227
 40
3.082371838836284
 40
4.126290986361125
 40
5.162752068350215
 40
6.192395305374981
 40
7.216039564037012
 40
8.234688489606833
 40
9.249433870634691
 40
10.26152376260694
 40
11.27226744710342
 40
11.27226744710342
 40
11.27226744710342
 40
11.27226744710352
 10
-7.090541610146877
 20
-1.845073215227003
 30
0.0
 10
-7.155080379198822
 20
-1.86407594070412
 30
0.0
 10
-7.370661550418896
 20
-1.926359911632198
 30
0.0
 10
-7.738712071584696
 20
-2.024054548592026
 30
0.0
 10
-8.194597089412868
 20
-2.133459581906933
 30
0.0
 10
-8.650607611959623
 20
-2.229502675271141
 30
0.0
 10
-9.106639028749356
 20
-2.311861294391151
 30
0.0
 10
-9.562720129344615
 20
-2.379936358694153
 30
0.0
 10
-10.0188327392744
 20
-2.43333939380512
 30
0.0
 10
-10.47497375042642
 20
-2.471724330187659
 30
0.0
 10
-10.9311319246674
 20
-2.494844079548556
 30
0.0
 10
-11.23531118318458
 20
-2.499999613056026
 30
0.0
 10
-11.38729959149904
 20
-2.49999959875089
 30
0.0
  0
SPLINE
  5
2E8E
330
1F
100
AcDbEntity
  8
AM_0
100
AcDbSpline
210
0.0
220
0.0
230
1.0
 70
     8
 71
     3
 72
    13
 73
     9
 74
     0
 42
0.0000000001
 43
0.0000000001
 40
16.03460056234195
 40
16.03460056234195
 40
16.03460056234195
 40
16.03460056234195
 40
16.35212717791071
 40
17.38177067057215
 40
18.41822498539278
 40
19.46214186516937
 40
20.5139635832251
 40
21.34083983469381
 40
21.34083983469381
 40
21.34083983469381
 40
21.34083983469381
 10
-27.59787016238476
 20
-2.500128221799348
 30
0.0
 10
-27.46872604700568
 20
-2.491916274583063
 30
0.0
 10
-27.27009291374887
 20
-2.455165375587572
 30
0.0
 10
-26.92019899064771
 20
-2.383154781453949
 30
0.0
 10
-26.46708514024112
 20
-2.276077362535764
 30
0.0
 10
-26.01439223570395
 20
-2.15584685531345
 30
0.0
 10
-25.59550237694846
 20
-2.032960485925311
 30
0.0
 10
-25.32825802367288
 20
-1.948344475232567
 30
0.0
 10
-25.21101952759866
 20
-1.910097267378209
 30
0.0
  0
ELLIPSE
  5
2E8F
330
1F
100
AcDbEntity
  8
AM_0
 48
0.5
100
AcDbEllipse
 10
-27.59786987917325
 20
-1.666794888466052
 30
0.0
 11
-0.9021871790542824
 21
0.0000000000002324
 31
0.0
210
0.0
220
0.0
230
1.0
 40
0.9236811968519353
 41
0.0112467747893814
 42
1.57079601287859
  0
ELLIPSE
  5
2E90
330
1F
100
AcDbEntity
  8
AM_0
 48
0.5
100
AcDbEllipse
 10
-0.8070402296760596
 20
-0.6515355303733445
 30
0.0
 11
-0.3701614850522736
 21
0.206069755946642
 31
0.0
210
0.0
220
0.0
230
1.0
 40
0.494388444399378
 41
4.471379808732988
 42
7.614820150062501
  0
ELLIPSE
  5
2E91
330
1F
100
AcDbEntity
  8
AM_0
 48
0.5
100
AcDbEllipse
 10
-0.8070402296760596
 20
-0.6515355303733445
 30
0.0
 11
-0.0750471664394057
 21
0.410142625853657
 31
0.0
210
0.0
220
0.0
230
1.0
 40
0.5104074076697866
 41
1.800673351689298
 42
4.936015241401273
  0
ELLIPSE
  5
2E92
330
1F
100
AcDbEntity
  8
AM_0
 48
0.5
100
AcDbEllipse
 10
2.650693251592932
 20
-10.96007388255435
 30
0.0
 11
0.0000000000026171
 21
11.06917088827348
 31
0.0
210
0.0
220
0.0
230
0.9999999999999998
 40
0.8382222222222765
 41
0.4036548536071729
 42
0.4643678680716917
  0
SPLINE
  5
2E93
330
1F
100
AcDbEntity
  8
AM_0
 48
0.5
100
AcDbSpline
210
0.0
220
0.0
230
1.0
 70
     8
 71
     3
 72
    17
 73
    13
 74
     0
 42
0.0000000001
 43
0.0000000001
 40
0.0
 40
0.0
 40
0.0
 40
0.0
 40
1.010743614677189
 40
2.022833924044153
 40
3.037578959561199
 40
4.056212747067873
 40
5.079857613375832
 40
6.109500119648989
 40
7.14596120163808
 40
8.18989512056258
 40
9.241717674284874
 40
9.693948937866434
 40
9.693948937866434
 40
9.693948937866434
 40
9.693948937866434
 10
-2.794454037455614
 20
2.500000401248684
 30
0.0
 10
-2.946442475435349
 20
2.49851403373608
 30
0.0
 10
-3.250621857766715
 20
2.495539318304374
 30
0.0
 10
-3.70677965739081
 20
2.471535918375169
 30
0.0
 10
-4.162918677263014
 20
2.433391259645019
 30
0.0
 10
-4.61902932917009
 20
2.379924305701133
 30
0.0
 10
-5.075106180966257
 20
2.311860191164837
 30
0.0
 10
-5.531143662123659
 20
2.229514485630283
 30
0.0
 10
-5.987135651852852
 20
2.133417275636689
 30
0.0
 10
-6.443099844473406
 20
2.024215512350596
 30
0.0
 10
-6.811166030605493
 20
1.925841230736941
 30
0.0
 10
-7.027316075220174
 20
1.864343157887697
 30
0.0
 10
-7.09219272202023
 20
1.845519009474708
 30
0.0
  0
SPLINE
  5
2E94
330
1F
100
AcDbEntity
  8
AM_0
 48
0.5
100
AcDbSpline
210
0.0
220
0.0
230
1.0
 70
     8
 71
     3
 72
    25
 73
    21
 74
     0
 42
0.0000000001
 43
0.0000000001
 40
6.846175049578289
 40
6.846175049578289
 40
6.846175049578289
 40
6.846175049578289
 40
7.604337694224321
 40
8.711974558287883
 40
9.814980593243754
 40
10.91239053451967
 40
12.0033633515982
 40
13.08720139956839
 40
14.16337181880432
 40
15.23152222380919
 40
16.29148850140128
 40
17.34331105512262
 40
18.38723020264746
 40
19.42369128463655
 40
20.45333379090873
 40
21.47697865721768
 40
22.49561244472435
 40
23.5103574802404
 40
24.52244778960836
 40
25.53320666051913
 40
25.53320666051913
 40
25.53320666051913
 40
25.53320666051913
 10
-3.32644929231824
 20
0.4525167683758057
 30
0.0
 10
-3.430072816902353
 20
0.4964123221421818
 30
0.0
 10
-3.68530309378785
 20
0.6039977842070048
 30
0.0
 10
-4.092519422308203
 20
0.7729456885587852
 30
0.0
 10
-4.548178351967383
 20
0.9572303732419971
 30
0.0
 10
-5.003860197010066
 20
1.13562721294753
 30
0.0
 10
-5.459568872592517
 20
1.307039323580788
 30
0.0
 10
-5.915309456434044
 20
1.470409178431876
 30
0.0
 10
-6.371086162703495
 20
1.624729291924398
 30
0.0
 10
-6.826901101406998
 20
1.769051255262499
 30
0.0
 10
-7.282759887015263
 20
1.902476906777149
 30
0.0
 10
-7.738661902241065
 20
2.024188075360294
 30
0.0
 10
-8.194610421732958
 20
2.133425284594304
 30
0.0
 10
-8.650603836427588
 20
2.229512482422597
 30
0.0
 10
-9.106640364984253
 20
2.311860723069675
 30
0.0
 10
-9.562717469773975
 20
2.379924164200339
 30
0.0
 10
-10.0188280544202
 20
2.43339129764093
 30
0.0
 10
-10.47496709212132
 20
2.471535907064732
 30
0.0
 10
-10.9311271783663
 20
2.495539446257127
 30
0.0
 10
-11.23530885787142
 20
2.498514068883566
 30
0.0
 10
-11.3872995914989
 20
2.500000401249105
 30
0.0
  0
ELLIPSE
  5
2E95
330
1F
100
AcDbEntity
  8
AM_0
 48
0.5
100
AcDbEllipse
 10
1.53931251808482
 20
3.001404266074522
 30
0.0
 11
-9.218452536658444
 21
7.008982188388646
 31
0.0
210
0.0
220
0.0
230
1.0
 40
0.4384903520450125
 41
1.368155494961157
 42
1.573977015767051
  0
SPLINE
  5
2E96
330
1F
100
AcDbEntity
  8
AM_0
100
AcDbSpline
210
0.0
220
0.0
230
1.0
 70
     8
 71
     3
 72
    23
 73
    19
 74
     0
 42
0.0000000001
 43
0.0000000001
 40
16.0358125233297
 40
16.0358125233297
 40
16.0358125233297
 40
16.0358125233297
 40
16.35212704903564
 40
17.38177054169784
 40
18.41822485651776
 40
19.46214173629503
 40
20.51396345435107
 40
21.57393551351153
 40
22.64208202342361
 40
23.7182574881101
 40
24.80209208578934
 40
25.89306333925047
 40
26.99048218457928
 40
28.09348763352352
 40
29.20111863782268
 40
30.31232390128032
 40
31.42594612798585
 40
32.5407912310448
 40
32.5407912310486
 40
32.5407912310486
 40
32.5407912310486
 10
-26.51209250467422
 20
2.500258898006634
 30
0.0
 10
-26.46540713902364
 20
2.491849864604969
 30
0.0
 10
-26.26695370638365
 20
2.455127481260845
 30
0.0
 10
-25.91723754431532
 20
2.383154351116963
 30
0.0
 10
-25.46412375093103
 20
2.276076635297873
 30
0.0
 10
-25.01143083095112
 20
2.155846208481301
 30
0.0
 10
-24.55913203438983
 20
2.023158903053763
 30
0.0
 10
-24.10721130836136
 20
1.87875445371346
 30
0.0
 10
-23.65564253293086
 20
1.723458337190091
 30
0.0
 10
-23.20439426256514
 20
1.558174337927999
 30
0.0
 10
-22.75344085571676
 20
1.383838449578355
 30
0.0
 10
-22.3027461578159
 20
1.201465092054268
 30
0.0
 10
-21.85227364509726
 20
1.01211429810379
 30
0.0
 10
-21.40199330386216
 20
0.8168747554111861
 30
0.0
 10
-20.95186745970126
 20
0.6168817551802483
 30
0.0
 10
-20.50185442142836
 20
0.4133031098060556
 30
0.0
 10
-20.05191754527898
 20
0.2073185024113774
 30
0.0
 10
-19.75204019643804
 20
0.0692170862751688
 30
0.0
 10
-19.60201974361469
 20
0.0001275578244617
 30
0.0
  0
VIEWPORT
  5
110
330
101
100
AcDbEntity
 67
     1
  8
0
100
AcDbViewport
 10
420.5
 20
297.0
 30
0.0
 40
948.9782706766916
 41
628.452
 68
     1
 69
     1
1001
ACAD
1000
MVIEW
1002
{
1070
    16
1010
0.0
1020
0.0
1030
0.0
1010
0.0
1020
0.0
1030
1.0
1040
0.0
1040
628.452
1040
420.5
1040
297.0
1040
50.0
1040
0.0
1040
0.0
1070
     0
1070
   100
1070
     1
1070
     1
1070
     0
1070
     0
1070
     0
1070
     0
1040
0.0
1040
0.0
1040
0.0
1040
10.0
1040
10.0
1040
10.0
1040
10.0
1070
     0
1002
{
1002
}
1002
}
  0
ENDSEC
  0
SECTION
  2
OBJECTS
  0
DICTIONARY
  5
C
330
0
100
AcDbDictionary
  3
ACAD_GROUP
350
D
  3
ACAD_LAYOUT
350
1A
  3
ACAD_MLINESTYLE
350
17
  3
ACAD_PLOTSETTINGS
350
19
  3
ACAD_PLOTSTYLENAME
350
E
  3
ACDBVARIABLEDICTIONARY
350
34
  3
ACMDICTIONARY
350
43
  3
AMG
350
2B
  3
AMGSNAPSETTINGS
350
6E
  3
DWGPROPS
350
2F46
  3
ACDBHEADERROUNDTRIPXREC
350
2F52
  0
DICTIONARY
  5
74
330
1F
100
AcDbDictionary
280
     1
  3
ACAD_INDEX
360
2F48
  3
ACAD_LAYOUTSELFREF
360
2F75
  0
DICTIONARY
  5
2F7A
330
101
100
AcDbDictionary
280
     1
  3
ACAD_LAYOUTSELFREF
360
2F7B
  0
DICTIONARY
  5
D
102
{ACAD_REACTORS
330
C
102
}
330
C
100
AcDbDictionary
  0
DICTIONARY
  5
1A
102
{ACAD_REACTORS
330
C
102
}
330
C
100
AcDbDictionary
  0
DICTIONARY
  5
17
102
{ACAD_REACTORS
330
C
102
}
330
C
100
AcDbDictionary
  3
STANDARD
350
18
  0
DICTIONARY
  5
19
102
{ACAD_REACTORS
330
C
102
}
330
C
100
AcDbDictionary
  0
ACDBDICTIONARYWDFLT
  5
E
102
{ACAD_REACTORS
330
C
102
}
330
C
100
AcDbDictionary
281
     1
  3
Normal
350
F
100
AcDbDictionaryWithDefault
340
F
  0
DICTIONARY
  5
34
102
{ACAD_REACTORS
330
C
102
}
330
C
100
AcDbDictionary
  3
INDEXCTL
350
35
  3
SORTENTS
350
B5E
  0
DICTIONARY
  5
43
102
{ACAD_REACTORS
330
C
102
}
330
C
100
AcDbDictionary
  3
ACMSTDDICTIONARY
350
260
  0
DICTIONARY
  5
2B
102
{ACAD_REACTORS
330
C
102
}
330
C
100
AcDbDictionary
  3
ACMGSETTINGS
350
2C
  0
DICTIONARY
  5
6E
102
{ACAD_REACTORS
330
C
102
}
330
C
100
AcDbDictionary
  0
XRECORD
  5
2F46
102
{ACAD_REACTORS
330
C
102
}
330
C
100
AcDbXrecord
  1
DWGPROPS COOKIE
  2

  3

  4

  6

  7

  8

  9

300
AmdtFileType=82
301
=
302
=
303
=
304
=
305
=
306
=
307
=
308
=
309
=
 40
0.0556678587962963
 41
2452800.443498622
 42
2452946.604216759
  1

 90
        1
  0
DICTIONARY
  5
2F52
102
{ACAD_REACTORS
330
C
102
}
330
C
100
AcDbDictionary
  3
TSTACKALIGN
350
2F53
  3
TSTACKSIZE
350
2F54
  3
HYPERLINKBASE
350
2F55
  3
STYLESHEET
350
2F56
  3
LAYOUTDICT
350
2F57
  3
PLOTSETDICT
350
2F58
  3
PLOTSTYLNAMDICT
350
2F59
  3
LWETCUNION
350
2F5A
  3
INSUNITS
350
2F5B
  3
CEPSNTYPE
350
2F5C
  3
FINGERPRINTGUID
350
2F5D
  3
VERSIONGUID
350
2F5E
  3
PSVPSCALE
350
2F5F
  3
DIMSTYLEDATA
350
2F60
  3
PUCSORTHOREF
350
2F61
  3
PUCSORTHOVIEW
350
2F62
  3
PUCSBASE
350
2F63
  3
PUCSORGTOP
350
2F64
  3
PUCSORGBOTTOM
350
2F65
  3
PUCSORGLEFT
350
2F66
  3
PUCSORGRIGHT
350
2F67
  3
PUCSORGFRONT
350
2F68
  3
PUCSORGBACK
350
2F69
  3
UCSORTHOREF
350
2F6A
  3
UCSORTHOVIEW
350
2F6B
  3
UCSBASE
350
2F6C
  3
UCSORGTOP
350
2F6D
  3
UCSORGBOTTOM
350
2F6E
  3
UCSORGLEFT
350
2F6F
  3
UCSORGRIGHT
350
2F70
  3
UCSORGFRONT
350
2F71
  3
UCSORGBACK
350
2F72
  0
DICTIONARY
  5
2F48
102
{ACAD_REACTORS
330
74
102
}
330
74
100
AcDbDictionary
  3
*A1
350
2F49
  0
XRECORD
  5
2F75
102
{ACAD_REACTORS
330
74
102
}
330
74
100
AcDbXrecord
340
1F
  0
XRECORD
  5
2F7B
102
{ACAD_REACTORS
330
2F7A
102
}
330
2F7A
100
AcDbXrecord
340
101
  0
MLINESTYLE
  5
18
102
{ACAD_REACTORS
330
17
102
}
330
17
100
AcDbMlineStyle
  2
STANDARD
 70
     0
  3

 62
   256
 51
90.0
 52
90.0
 71
     2
 49
0.5
 62
   256
  6
BYLAYER
 49
-0.5
 62
   256
  6
BYLAYER
  0
ACDBPLACEHOLDER
  5
F
102
{ACAD_REACTORS
330
E
102
}
330
E
100
AcDbPlaceHolder
280
     0
  0
DICTIONARYVAR
  5
35
102
{ACAD_REACTORS
330
34
102
}
330
34
100
DictionaryVariables
280
     0
  1
1
  0
DICTIONARYVAR
  5
B5E
102
{ACAD_REACTORS
330
34
102
}
330
34
100
DictionaryVariables
280
     0
  1
96
  0
DICTIONARY
  5
260
102
{ACAD_REACTORS
330
43
102
}
330
43
100
AcDbDictionary
  0
DICTIONARY
  5
2C
102
{ACAD_REACTORS
330
2B
102
}
330
2B
100
AcDbDictionary
  3
DWGSETTINGS
350
2D
  0
XRECORD
  5
2F53
102
{ACAD_REACTORS
330
2F52
102
}
330
2F52
100
AcDbXrecord
 90
        1
  0
XRECORD
  5
2F54
102
{ACAD_REACTORS
330
2F52
102
}
330
2F52
100
AcDbXrecord
 90
       70
  0
XRECORD
  5
2F55
102
{ACAD_REACTORS
330
2F52
102
}
330
2F52
100
AcDbXrecord
  1

  0
XRECORD
  5
2F56
102
{ACAD_REACTORS
330
2F52
102
}
330
2F52
100
AcDbXrecord
  1
ASAMI.ctb
  0
XRECORD
  5
2F57
102
{ACAD_REACTORS
330
2F52
102
}
330
2F52
100
AcDbXrecord
340
1A
  0
XRECORD
  5
2F58
102
{ACAD_REACTORS
330
2F52
102
}
330
2F52
100
AcDbXrecord
340
19
  0
XRECORD
  5
2F59
102
{ACAD_REACTORS
330
2F52
102
}
330
2F52
100
AcDbXrecord
340
E
  0
XRECORD
  5
2F5A
102
{ACAD_REACTORS
330
2F52
102
}
330
2F52
100
AcDbXrecord
 90
    10781
  0
XRECORD
  5
2F5B
102
{ACAD_REACTORS
330
2F52
102
}
330
2F52
100
AcDbXrecord
 90
        4
  0
XRECORD
  5
2F5C
102
{ACAD_REACTORS
330
2F52
102
}
330
2F52
100
AcDbXrecord
 90
        0
  0
XRECORD
  5
2F5D
102
{ACAD_REACTORS
330
2F52
102
}
330
2F52
100
AcDbXrecord
  1
{AFB28963-8C59-40AE-9337-C84526B81ACE}
  0
XRECORD
  5
2F5E
102
{ACAD_REACTORS
330
2F52
102
}
330
2F52
100
AcDbXrecord
  1
{B614FFFA-A466-46C8-940D-27B716561CCC}
  0
XRECORD
  5
2F5F
102
{ACAD_REACTORS
330
2F52
102
}
330
2F52
100
AcDbXrecord
 40
0.0
  0
XRECORD
  5
2F60
102
{ACAD_REACTORS
330
2F52
102
}
330
2F52
100
AcDbXrecord
1000
DSTYLE
1002
{
1070
    79
 70
     2
1070
   341
340
59
1070
   342
340
59
1070
   371
 70
    -1
1070
   372
 70
    -1
1002
}
  0
XRECORD
  5
2F61
102
{ACAD_REACTORS
330
2F52
102
}
330
2F52
100
AcDbXrecord
340
0
  0
XRECORD
  5
2F62
102
{ACAD_REACTORS
330
2F52
102
}
330
2F52
100
AcDbXrecord
 70
     0
  0
XRECORD
  5
2F63
102
{ACAD_REACTORS
330
2F52
102
}
330
2F52
100
AcDbXrecord
340
0
  0
XRECORD
  5
2F64
102
{ACAD_REACTORS
330
2F52
102
}
330
2F52
100
AcDbXrecord
 10
0.0
 20
0.0
 30
0.0
  0
XRECORD
  5
2F65
102
{ACAD_REACTORS
330
2F52
102
}
330
2F52
100
AcDbXrecord
 10
0.0
 20
0.0
 30
0.0
  0
XRECORD
  5
2F66
102
{ACAD_REACTORS
330
2F52
102
}
330
2F52
100
AcDbXrecord
 10
0.0
 20
0.0
 30
0.0
  0
XRECORD
  5
2F67
102
{ACAD_REACTORS
330
2F52
102
}
330
2F52
100
AcDbXrecord
 10
0.0
 20
0.0
 30
0.0
  0
XRECORD
  5
2F68
102
{ACAD_REACTORS
330
2F52
102
}
330
2F52
100
AcDbXrecord
 10
0.0
 20
0.0
 30
0.0
  0
XRECORD
  5
2F69
102
{ACAD_REACTORS
330
2F52
102
}
330
2F52
100
AcDbXrecord
 10
0.0
 20
0.0
 30
0.0
  0
XRECORD
  5
2F6A
102
{ACAD_REACTORS
330
2F52
102
}
330
2F52
100
AcDbXrecord
340
0
  0
XRECORD
  5
2F6B
102
{ACAD_REACTORS
330
2F52
102
}
330
2F52
100
AcDbXrecord
 70
     0
  0
XRECORD
  5
2F6C
102
{ACAD_REACTORS
330
2F52
102
}
330
2F52
100
AcDbXrecord
340
0
  0
XRECORD
  5
2F6D
102
{ACAD_REACTORS
330
2F52
102
}
330
2F52
100
AcDbXrecord
 10
0.0
 20
0.0
 30
0.0
  0
XRECORD
  5
2F6E
102
{ACAD_REACTORS
330
2F52
102
}
330
2F52
100
AcDbXrecord
 10
0.0
 20
0.0
 30
0.0
  0
XRECORD
  5
2F6F
102
{ACAD_REACTORS
330
2F52
102
}
330
2F52
100
AcDbXrecord
 10
0.0
 20
0.0
 30
0.0
  0
XRECORD
  5
2F70
102
{ACAD_REACTORS
330
2F52
102
}
330
2F52
100
AcDbXrecord
 10
0.0
 20
0.0
 30
0.0
  0
XRECORD
  5
2F71
102
{ACAD_REACTORS
330
2F52
102
}
330
2F52
100
AcDbXrecord
 10
0.0
 20
0.0
 30
0.0
  0
XRECORD
  5
2F72
102
{ACAD_REACTORS
330
2F52
102
}
330
2F52
100
AcDbXrecord
 10
0.0
 20
0.0
 30
0.0
  0
LAYER_INDEX
  5
2F49
102
{ACAD_REACTORS
330
2F48
102
}
330
2F48
100
AcDbIndex
 40
2453151.578869166
100
AcDbLayerIndex
  8
0
360
2F4A
 90
        0
  8
AM_0
360
2F4B
 90
       38
  8
AM_7
360
2F4C
 90
        1
  8
AM_11
360
2F4D
 90
       23
  8
AM_5
360
2F4E
 90
        4
  8
Defpoints
360
2F4F
 90
        0
  8
AM_6
360
2F50
 90
        1
  0
XRECORD
  5
2D
102
{ACAD_REACTORS
330
2C
102
}
330
2C
100
AcDbXrecord
  1
VERSION
140
15.0
  1
PRODUCT
  2
AutoCAD Mechanical 2000
  0
IDBUFFER
  5
2F4A
330
0
100
AcDbIdBuffer
  0
IDBUFFER
  5
2F4B
330
0
100
AcDbIdBuffer
330
2E7F
330
2E82
330
2E83
330
2E84
330
2E85
330
2E86
330
2E87
330
2E88
330
2E89
330
2E8A
330
2E8B
330
2E8C
330
2E8D
330
2E8E
330
2E8F
330
2E90
330
2E91
330
2E92
330
2E93
330
2E94
330
2E95
330
2E96
330
C1D
330
C20
330
C30
330
1CF0
330
1CF4
330
1CFE
330
1EB2
330
1EB5
330
2470
330
249A
330
25FC
330
25FD
330
2E11
330
2E78
330
2E79
330
2E7A
  0
IDBUFFER
  5
2F4C
330
0
100
AcDbIdBuffer
330
C9F
  0
IDBUFFER
  5
2F4D
330
0
100
AcDbIdBuffer
330
1EC0
330
2E7B
330
2E7C
330
2E7D
330
2E7E
330
2E80
330
2E81
330
144A
330
144B
330
144E
330
144F
330
1450
330
1451
330
1452
330
1453
330
1454
330
1DAB
330
1DAC
330
1DAD
330
1DAE
330
1DAF
330
1DB0
330
1EBF
  0
IDBUFFER
  5
2F4E
330
0
100
AcDbIdBuffer
330
CC6
330
218E
330
245D
330
260B
  0
IDBUFFER
  5
2F4F
330
0
100
AcDbIdBuffer
  0
IDBUFFER
  5
2F50
330
0
100
AcDbIdBuffer
330
19BD
  0
ENDSEC
  0
EOF
