  0
SECTION
  2
HEADER
  9
$ACADVER
  1
AC1014
  9
$ACADMAINTVER
 70
     9
  9
$DWGCODEPAGE
  3
ANSI_932
  9
$INSBASE
 10
0.0
 20
0.0
 30
0.0
  9
$EXTMIN
 10
-98.33462311650956
 20
-48.42855170325258
 30
-0.00000001
  9
$EXTMAX
 10
27.60339580202654
 20
26.40854920198099
 30
0.00000001
  9
$LIMMIN
 10
-126.8542831328179
 20
-72.98496145468305
  9
$LIMMAX
 10
46.11653033956929
 20
46.39197937004576
  9
$ORTHOMODE
 70
     0
  9
$REGENMODE
 70
     1
  9
$FILLMODE
 70
     1
  9
$QTEXTMODE
 70
     0
  9
$MIRRTEXT
 70
     0
  9
$DRAGMODE
 70
     2
  9
$LTSCALE
 40
0.5
  9
$OSMODE
 70
    55
  9
$ATTMODE
 70
     1
  9
$TEXTSIZE
 40
2.5
  9
$TRACEWID
 40
1.0
  9
$TEXTSTYLE
  7
STANDARD
  9
$CLAYER
  8
AM_0
  9
$CELTYPE
  6
BYLAYER
  9
$CECOLOR
 62
   256
  9
$CELTSCALE
 40
1.0
  9
$DELOBJ
 70
     1
  9
$DISPSILH
 70
     0
  9
$DIMSCALE
 40
0.5
  9
$DIMASZ
 40
2.5
  9
$DIMEXO
 40
1.0
  9
$DIMDLI
 40
12.0
  9
$DIMRND
 40
0.0
  9
$DIMDLE
 40
0.0
  9
$DIMEXE
 40
1.0
  9
$DIMTP
 40
0.1
  9
$DIMTM
 40
0.1
  9
$DIMTXT
 40
3.2
  9
$DIMCEN
 40
0.0
  9
$DIMTSZ
 40
0.0
  9
$DIMTOL
 70
     0
  9
$DIMLIM
 70
     0
  9
$DIMTIH
 70
     0
  9
$DIMTOH
 70
     0
  9
$DIMSE1
 70
     0
  9
$DIMSE2
 70
     0
  9
$DIMTAD
 70
     3
  9
$DIMZIN
 70
     8
  9
$DIMBLK
  1
OPEN30
  9
$DIMASO
 70
     1
  9
$DIMSHO
 70
     1
  9
$DIMPOST
  1

  9
$DIMAPOST
  1
"
  9
$DIMALT
 70
     0
  9
$DIMALTD
 70
     2
  9
$DIMALTF
 40
0.0393701
  9
$DIMLFAC
 40
1.0
  9
$DIMTOFL
 70
     1
  9
$DIMTVP
 40
0.0
  9
$DIMTIX
 70
     0
  9
$DIMSOXD
 70
     0
  9
$DIMSAH
 70
     0
  9
$DIMBLK1
  1

  9
$DIMBLK2
  1

  9
$DIMSTYLE
  2
AM_JIS
  9
$DIMCLRD
 70
   256
  9
$DIMCLRE
 70
   256
  9
$DIMCLRT
 70
     2
  9
$DIMTFAC
 40
0.71
  9
$DIMGAP
 40
1.5
  9
$DIMJUST
 70
     0
  9
$DIMSD1
 70
     0
  9
$DIMSD2
 70
     0
  9
$DIMTOLJ
 70
     0
  9
$DIMTZIN
 70
     0
  9
$DIMALTZ
 70
     0
  9
$DIMALTTZ
 70
     0
  9
$DIMFIT
 70
     3
  9
$DIMUPT
 70
     0
  9
$DIMUNIT
 70
     2
  9
$DIMDEC
 70
     3
  9
$DIMTDEC
 70
     3
  9
$DIMALTU
 70
     2
  9
$DIMALTTD
 70
     2
  9
$DIMTXSTY
  7
ASAMI
  9
$DIMAUNIT
 70
     0
  9
$LUNITS
 70
     2
  9
$LUPREC
 70
     2
  9
$SKETCHINC
 40
1.0
  9
$FILLETRAD
 40
2.5
  9
$AUNITS
 70
     0
  9
$AUPREC
 70
     0
  9
$MENU
  1
.
  9
$ELEVATION
 40
0.0
  9
$PELEVATION
 40
0.0
  9
$THICKNESS
 40
0.0
  9
$LIMCHECK
 70
     0
  9
$BLIPMODE
 70
     0
  9
$CHAMFERA
 40
2.5
  9
$CHAMFERB
 40
2.5
  9
$CHAMFERC
 40
20.0
  9
$CHAMFERD
 40
0.0
  9
$SKPOLY
 70
     0
  9
$TDCREATE
 40
2452800.443498622
  9
$TDUPDATE
 40
2453151.580976181
  9
$TDINDWG
 40
0.2513612269
  9
$TDUSRTIMER
 40
0.2513612269
  9
$USRTIMER
 70
     1
  9
$ANGBASE
 50
0.0
  9
$ANGDIR
 70
     0
  9
$PDMODE
 70
     0
  9
$PDSIZE
 40
0.0
  9
$PLINEWID
 40
0.0
  9
$COORDS
 70
     1
  9
$SPLFRAME
 70
     0
  9
$SPLINETYPE
 70
     6
  9
$SPLINESEGS
 70
     8
  9
$ATTDIA
 70
     1
  9
$ATTREQ
 70
     1
  9
$HANDLING
 70
 12289
  9
$HANDSEED
  5
3DC3
  9
$SURFTAB1
 70
     6
  9
$SURFTAB2
 70
     6
  9
$SURFTYPE
 70
     6
  9
$SURFU
 70
     6
  9
$SURFV
 70
     6
  9
$UCSNAME
  2

  9
$UCSORG
 10
0.0000000000000031
 20
-0.0000000000000078
 30
0.0
  9
$UCSXDIR
 10
1.0
 20
0.0000000000000027
 30
0.0
  9
$UCSYDIR
 10
-0.0000000000000027
 20
1.0
 30
0.0
  9
$PUCSNAME
  2

  9
$PUCSORG
 10
0.0
 20
0.0
 30
0.0
  9
$PUCSXDIR
 10
1.0
 20
0.0
 30
0.0
  9
$PUCSYDIR
 10
0.0
 20
1.0
 30
0.0
  9
$USERI1
 70
     0
  9
$USERI2
 70
     0
  9
$USERI3
 70
     0
  9
$USERI4
 70
     0
  9
$USERI5
 70
     0
  9
$USERR1
 40
0.0
  9
$USERR2
 40
0.0
  9
$USERR3
 40
0.0
  9
$USERR4
 40
0.0
  9
$USERR5
 40
0.0
  9
$WORLDVIEW
 70
     1
  9
$SHADEDGE
 70
     3
  9
$SHADEDIF
 70
    70
  9
$TILEMODE
 70
     1
  9
$MAXACTVP
 70
    64
  9
$PINSBASE
 10
0.0
 20
0.0
 30
0.0
  9
$PLIMCHECK
 70
     0
  9
$PEXTMIN
 10
1.000000000000000E+20
 20
1.000000000000000E+20
 30
1.000000000000000E+20
  9
$PEXTMAX
 10
-1.000000000000000E+20
 20
-1.000000000000000E+20
 30
-1.000000000000000E+20
  9
$PLIMMIN
 10
0.0
 20
0.0
  9
$PLIMMAX
 10
841.0
 20
594.0
  9
$UNITMODE
 70
     0
  9
$VISRETAIN
 70
     1
  9
$PLINEGEN
 70
     0
  9
$PSLTSCALE
 70
     0
  9
$TREEDEPTH
 70
  3020
  9
$PICKSTYLE
 70
     0
  9
$CMLSTYLE
  2
STANDARD
  9
$CMLJUST
 70
     0
  9
$CMLSCALE
 40
20.0
  9
$PROXYGRAPHICS
 70
     1
  9
$MEASUREMENT
 70
     1
  0
ENDSEC
  0
SECTION
  2
CLASSES
  0
CLASS
  1
ACDBDICTIONARYWDFLT
  2
AcDbDictionaryWithDefault
  3
AutoCAD 2000
 90
        0
280
     0
281
     0
  0
CLASS
  1
ACDBPLACEHOLDER
  2
AcDbPlaceHolder
  3
AutoCAD 2000
 90
        0
280
     0
281
     0
  0
CLASS
  1
LAYOUT
  2
AcDbLayout
  3
AutoCAD 2000
 90
        0
280
     0
281
     0
  0
CLASS
  1
AMGSETTINGSOBJ
  2
AmgSettingsObj
  3
"AcadM|Product Description: AutoCAD Mechanical 2000|Company: Autodesk"
 90
        0
280
     0
281
     0
  0
CLASS
  1
ACME_DOCUMENT
  2
AcMeDbDoc
  3
AcMeServices
 90
        0
280
     0
281
     0
  0
CLASS
  1
ACMESCOPE
  2
AcMeScope
  3
AcMeServices
 90
        0
280
     0
281
     0
  0
CLASS
  1
ACMECOMMANDHISTORY
  2
AcMeCommandHistory
  3
AcMeServices
 90
        0
280
     0
281
     0
  0
CLASS
  1
DICTIONARYVAR
  2
AcDbDictionaryVar
  3
AutoCAD 2000
 90
        0
280
     0
281
     0
  0
CLASS
  1
ACIMSYSVARMAN
  2
AcImSysVarManager
  3
AcMeServices
 90
        0
280
     0
281
     0
  0
CLASS
  1
ACIMREALSYSVAR
  2
AcImRealSysVar
  3
AcMeServices
 90
        0
280
     0
281
     0
  0
CLASS
  1
ACIMINTSYSVAR
  2
AcImIntSysVar
  3
AcMeServices
 90
        0
280
     0
281
     0
  0
CLASS
  1
ACMEDRAWINGMAN
  2
AcMeDrawingMan
  3
AcMeServices
 90
        0
280
     0
281
     0
  0
CLASS
  1
ACMEVIEW
  2
AcMeView
  3
AcMeServices
 90
        0
280
     0
281
     0
  0
CLASS
  1
ACDBENTITYCACHE
  2
AcMeEntityCache
  3
AcMeServices
 90
        0
280
     0
281
     0
  0
CLASS
  1
GSMANAGER
  2
AcMeGSManager
  3
AcMeServices
 90
        0
280
     0
281
     0
  0
CLASS
  1
AmdtInternalReactor
  2
AmdtInternalReactor
  3
AcMeServices
 90
        0
280
     0
281
     0
  0
CLASS
  1
ACMESTATEMGR
  2
AcMeStateMgr
  3
AcMeServices
 90
        0
280
     0
281
     0
  0
CLASS
  1
ACME_DATABASE
  2
AcMeDbDatabase
  3
AcMeServices
 90
        0
280
     0
281
     0
  0
CLASS
  1
ACRFINSADJUSTERMGR
  2
AcRfInsAdjusterMgr
  3
AcMeServices
 90
        0
280
     0
281
     0
  0
CLASS
  1
ACMDATADICTIONARY
  2
AcmDataDictionary
  3
"AcmSymBB|Product Description: AutoCAD Mechanical 2000|Company: Autodesk"
 90
        0
280
     0
281
     0
  0
CLASS
  1
ACMDATAENTRYBLOCK
  2
AcmDataEntryBlock
  3
"AcmSymBB|Product Description: AutoCAD Mechanical 2000|Company: Autodesk"
 90
        0
280
     0
281
     0
  0
CLASS
  1
AMGOBJPROPCFG
  2
AmgObjPropCfg
  3
"AmgLay|Product Description: AutoCAD Mechanical 2000|Company: Autodesk"
 90
        1
280
     0
281
     0
  0
CLASS
  1
ACAMGFILTERDAT
  2
AcAmgFilterDat
  3
"AcadM|Product Description: AutoCAD Mechanical 2000|Company: Autodesk"
 90
        0
280
     0
281
     0
  0
CLASS
  1
LAYER_INDEX
  2
AcDbLayerIndex
  3
AutoCAD 2000
 90
        0
280
     0
281
     0
  0
CLASS
  1
IDBUFFER
  2
AcDbIdBuffer
  3
AutoCAD 2000
 90
        0
280
     0
281
     0
  0
CLASS
  1
ACIMSTRSYSVAR
  2
AcImStrSysVar
  3
AcMeServices
 90
        0
280
     0
281
     0
  0
CLASS
  1
ACMSTANDARDJIS
  2
AcmStandardJIS
  3
"AcmSymBB|Product Description: AutoCAD Mechanical 2000|Company: Autodesk"
 90
        0
280
     0
281
     0
  0
CLASS
  1
ACMSURFSTANDARDJIS
  2
AcmSurfTextStdJIS
  3
"AcmSymBB|Product Description: AutoCAD Mechanical 2000|Company: Autodesk"
 90
        0
280
     0
281
     0
  0
CLASS
  1
ACMFCFSTANDARDJIS
  2
AcmFCFStdJIS
  3
"AcmSymBB|Product Description: AutoCAD Mechanical 2000|Company: Autodesk"
 90
        0
280
     0
281
     0
  0
CLASS
  1
ACMWELDSTANDARDJIS
  2
AcmWeldingStdJIS
  3
"AcmSymBB|Product Description: AutoCAD Mechanical 2000|Company: Autodesk"
 90
        0
280
     0
281
     0
  0
CLASS
  1
ACMIDSTANDARDJIS
  2
AcmIdStdJIS
  3
"AcmSymBB|Product Description: AutoCAD Mechanical 2000|Company: Autodesk"
 90
        0
280
     0
281
     0
  0
CLASS
  1
ACMDATUMSTANDARDJIS
  2
AcmDatumStdJIS
  3
"AcmSymBB|Product Description: AutoCAD Mechanical 2000|Company: Autodesk"
 90
        0
280
     0
281
     0
  0
CLASS
  1
ACMBOMSTANDARDJIS
  2
AcmBOMStdJIS
  3
"AcmSymBB|Product Description: AutoCAD Mechanical 2000|Company: Autodesk"
 90
        0
280
     0
281
     0
  0
CLASS
  1
ACMSTANDARDANSI
  2
AcmStandardANSI
  3
"AcmSymBB|Product Description: AutoCAD Mechanical 2000|Company: Autodesk"
 90
        0
280
     0
281
     0
  0
CLASS
  1
ACMSURFSTANDARDANSI
  2
AcmSurfTextStdANSI
  3
"AcmSymBB|Product Description: AutoCAD Mechanical 2000|Company: Autodesk"
 90
        0
280
     0
281
     0
  0
CLASS
  1
ACMFCFSTANDARDANSI
  2
AcmFCFStdANSI
  3
"AcmSymBB|Product Description: AutoCAD Mechanical 2000|Company: Autodesk"
 90
        0
280
     0
281
     0
  0
CLASS
  1
ACMWELDSTANDARDANSI
  2
AcmWeldingStdANSI
  3
"AcmSymBB|Product Description: AutoCAD Mechanical 2000|Company: Autodesk"
 90
        0
280
     0
281
     0
  0
CLASS
  1
ACMIDSTANDARDANSI
  2
AcmIdStdANSI
  3
"AcmSymBB|Product Description: AutoCAD Mechanical 2000|Company: Autodesk"
 90
        0
280
     0
281
     0
  0
CLASS
  1
ACMDATUMSTANDARDANSI
  2
AcmDatumStdANSI
  3
"AcmSymBB|Product Description: AutoCAD Mechanical 2000|Company: Autodesk"
 90
        0
280
     0
281
     0
  0
CLASS
  1
ACMBOMSTANDARDANSI
  2
AcmBOMStdANSI
  3
"AcmSymBB|Product Description: AutoCAD Mechanical 2000|Company: Autodesk"
 90
        0
280
     0
281
     0
  0
CLASS
  1
ACMSTANDARDBSI
  2
AcmStandardBSI
  3
"AcmSymBB|Product Description: AutoCAD Mechanical 2000|Company: Autodesk"
 90
        0
280
     0
281
     0
  0
CLASS
  1
ACMSURFSTANDARDBSI
  2
AcmSurfTextStdBSI
  3
"AcmSymBB|Product Description: AutoCAD Mechanical 2000|Company: Autodesk"
 90
        0
280
     0
281
     0
  0
CLASS
  1
ACMFCFSTANDARDBSI
  2
AcmFCFStdBSI
  3
"AcmSymBB|Product Description: AutoCAD Mechanical 2000|Company: Autodesk"
 90
        0
280
     0
281
     0
  0
CLASS
  1
ACMWELDSTANDARDBSI
  2
AcmWeldingStdBSI
  3
"AcmSymBB|Product Description: AutoCAD Mechanical 2000|Company: Autodesk"
 90
        0
280
     0
281
     0
  0
CLASS
  1
ACMIDSTANDARDBSI
  2
AcmIdStdBSI
  3
"AcmSymBB|Product Description: AutoCAD Mechanical 2000|Company: Autodesk"
 90
        0
280
     0
281
     0
  0
CLASS
  1
ACMDATUMSTANDARDBSI
  2
AcmDatumStdBSI
  3
"AcmSymBB|Product Description: AutoCAD Mechanical 2000|Company: Autodesk"
 90
        0
280
     0
281
     0
  0
CLASS
  1
ACMBOMSTANDARDBSI
  2
AcmBOMStdBSI
  3
"AcmSymBB|Product Description: AutoCAD Mechanical 2000|Company: Autodesk"
 90
        0
280
     0
281
     0
  0
CLASS
  1
LONG_TRANSACTION
  2
AcDbLongTransaction
  3
AutoCAD 2000
 90
        0
280
     0
281
     0
  0
CLASS
  1
LWPOLYLINE
  2
AcDbPolyline
  3
AutoCAD 2000
 90
        0
280
     0
281
     1
  0
CLASS
  1
HATCH
  2
AcDbHatch
  3
AutoCAD 2000
 90
        0
280
     0
281
     1
  0
CLASS
  1
XRECORD
  2
AcDbXrecord
  3
AutoCAD 2000
 90
        0
280
     0
281
     0
  0
ENDSEC
  0
SECTION
  2
TABLES
  0
TABLE
  2
VPORT
  5
8
330
0
100
AcDbSymbolTable
 70
     3
  0
VPORT
  5
3D98
330
8
100
AcDbSymbolTableRecord
100
AcDbViewportTableRecord
  2
*ACTIVE
 70
     0
 10
0.0
 20
0.0
 11
1.0
 21
1.0
 12
-30.75143644339419
 22
-5.265666579701459
 13
0.0
 23
0.0
 14
2.5
 24
2.5
 15
10.0
 25
10.0
 16
0.0
 26
0.0
 36
1.0
 17
0.0
 27
0.0
 37
0.0
 40
128.6892061434764
 41
1.56570841889117
 42
50.0
 43
0.0
 44
0.0
 50
0.0
 51
0.0
 71
     0
 72
   100
 73
     1
 74
     1
 75
     0
 76
     0
 77
     0
 78
     0
  0
ENDTAB
  0
TABLE
  2
LTYPE
  5
5
330
0
100
AcDbSymbolTable
 70
    10
  0
LTYPE
  5
14
330
5
100
AcDbSymbolTableRecord
100
AcDbLinetypeTableRecord
  2
BYBLOCK
 70
     0
  3

 72
    65
 73
     0
 40
0.0
  0
LTYPE
  5
15
330
5
100
AcDbSymbolTableRecord
100
AcDbLinetypeTableRecord
  2
BYLAYER
 70
     0
  3

 72
    65
 73
     0
 40
0.0
  0
LTYPE
  5
16
330
5
100
AcDbSymbolTableRecord
100
AcDbLinetypeTableRecord
  2
CONTINUOUS
 70
     0
  3
Solid line
 72
    65
 73
     0
 40
0.0
  0
LTYPE
  5
4B
330
5
100
AcDbSymbolTableRecord
100
AcDbLinetypeTableRecord
  2
AM_ISO02W050
 70
     0
  3
__ __ __ __ __ __ __ __ __ __ __ __ __ __ __
 72
    65
 73
     2
 40
7.5
 49
6.0
 74
     0
 49
-1.5
 74
     0
  0
LTYPE
  5
4C
330
5
100
AcDbSymbolTableRecord
100
AcDbLinetypeTableRecord
  2
AM_ISO08W050
 70
     0
  3
____ . ____ . ____ . ____ . ____ . ____ . ____
 72
    65
 73
     4
 40
18.0
 49
12.0
 74
     0
 49
-1.5
 74
     0
 49
3.0
 74
     0
 49
-1.5
 74
     0
  0
LTYPE
  5
4D
330
5
100
AcDbSymbolTableRecord
100
AcDbLinetypeTableRecord
  2
AM_ISO09W050
 70
     0
  3
_____ . . _____ . . _____ . . ____ .. ____
 72
    65
 73
     6
 40
22.5
 49
12.0
 74
     0
 49
-1.5
 74
     0
 49
3.0
 74
     0
 49
-1.5
 74
     0
 49
3.0
 74
     0
 49
-1.5
 74
     0
  0
LTYPE
  5
4E
330
5
100
AcDbSymbolTableRecord
100
AcDbLinetypeTableRecord
  2
AMCONSTR
 70
     0
  3
_______________________
 72
    65
 73
     2
 40
9999.0
 49
9999.0
 74
     0
 49
0.0
 74
     0
  0
LTYPE
  5
4F
330
5
100
AcDbSymbolTableRecord
100
AcDbLinetypeTableRecord
  2
AM_ISO02W050X2
 70
     0
  3
 _ _ _ _ _ _ _ _ _ _ _ _
 72
    65
 73
     2
 40
3.75
 49
3.0
 74
     0
 49
-0.75
 74
     0
  0
LTYPE
  5
50
330
5
100
AcDbSymbolTableRecord
100
AcDbLinetypeTableRecord
  2
AM_ISO08W050X2
 70
     0
  3
__ . __ . __ . __ . __ . __
 72
    65
 73
     4
 40
9.0
 49
6.0
 74
     0
 49
-0.75
 74
     0
 49
1.5
 74
     0
 49
-0.75
 74
     0
  0
LTYPE
  5
53
330
5
100
AcDbSymbolTableRecord
100
AcDbLinetypeTableRecord
  2
AMZIGZAG
 70
     0
  3
/\/-/\/-/\/-/\/-/\/-/\/
 72
    65
 73
     2
 40
11.00009999999999
 49
0.0001
 74
     4
 75
   135
340
52
 46
0.04
 50
0.0
 44
0.0
 45
0.0
 49
-11.0
 74
     0
  0
LTYPE
  5
166
330
5
100
AcDbSymbolTableRecord
100
AcDbLinetypeTableRecord
  2
ACJISTGL
 70
     0
  3
_ _ _ _ _
 72
    65
 73
     2
 40
3.0
 49
2.0
 74
     0
 49
-1.0
 74
     0
  0
LTYPE
  5
26A
330
5
100
AcDbSymbolTableRecord
100
AcDbLinetypeTableRecord
  2
ACJISTGB
 70
     0
  3
__ . . __ . .
 72
    65
 73
     6
 40
9.0
 49
4.0
 74
     0
 49
-1.0
 74
     0
 49
1.0
 74
     0
 49
-1.0
 74
     0
 49
1.0
 74
     0
 49
-1.0
 74
     0
  0
ENDTAB
  0
TABLE
  2
LAYER
  5
2
330
0
100
AcDbSymbolTable
 70
    10
  0
LAYER
  5
10
330
2
100
AcDbSymbolTableRecord
100
AcDbLayerTableRecord
  2
0
 70
     0
 62
     7
  6
CONTINUOUS
  0
LAYER
  5
3F9
330
2
100
AcDbSymbolTableRecord
100
AcDbLayerTableRecord
  2
AM_0
 70
     0
 62
     7
  6
CONTINUOUS
  0
LAYER
  5
BA4
330
2
100
AcDbSymbolTableRecord
100
AcDbLayerTableRecord
  2
PV0001_1
 70
     0
 62
     7
  6
CONTINUOUS
  0
LAYER
  5
C6C
330
2
100
AcDbSymbolTableRecord
100
AcDbLayerTableRecord
  2
AM_CL
 70
     0
 62
     1
  6
AMCONSTR
  0
LAYER
  5
C7C
330
2
100
AcDbSymbolTableRecord
100
AcDbLayerTableRecord
  2
AM_7
 70
     0
 62
     4
  6
AM_ISO08W050
  0
LAYER
  5
C97
330
2
100
AcDbSymbolTableRecord
100
AcDbLayerTableRecord
  2
AM_11
 70
     0
 62
     3
  6
AM_ISO09W050
  0
LAYER
  5
CC5
330
2
100
AcDbSymbolTableRecord
100
AcDbLayerTableRecord
  2
AM_5
 70
     0
 62
     3
  6
CONTINUOUS
  0
LAYER
  5
CC7
330
2
100
AcDbSymbolTableRecord
100
AcDbLayerTableRecord
  2
DEFPOINTS
 70
     0
 62
     7
  6
CONTINUOUS
  0
LAYER
  5
19BC
330
2
100
AcDbSymbolTableRecord
100
AcDbLayerTableRecord
  2
AM_6
 70
     0
 62
     2
  6
CONTINUOUS
  0
LAYER
  5
1F8E
330
2
100
AcDbSymbolTableRecord
100
AcDbLayerTableRecord
  2
AM_4
 70
     0
 62
     3
  6
CONTINUOUS
  0
ENDTAB
  0
TABLE
  2
STYLE
  5
3
330
0
100
AcDbSymbolTable
 70
     5
  0
STYLE
  5
11
330
3
100
AcDbSymbolTableRecord
100
AcDbTextStyleTableRecord
  2
STANDARD
 70
     0
 40
0.0
 41
1.0
 50
0.0
 71
     0
 42
2.5
  3
simplex.shx
  4
EXTFONT.SHX
  0
STYLE
  5
52
330
3
100
AcDbSymbolTableRecord
100
AcDbTextStyleTableRecord
  2

 70
     1
 40
0.0
 41
1.0
 50
0.0
 71
     0
 42
2.5
  3
ltypeshp.shx
  4

  0
STYLE
  5
6B
330
3
100
AcDbSymbolTableRecord
100
AcDbTextStyleTableRecord
  2
ASAMI
 70
     0
 40
0.0
 41
1.0
 50
0.0
 71
     0
 42
2.5
  3
simplex.shx
  4
EXTFONT.SHX
  0
STYLE
  5
262
330
3
100
AcDbSymbolTableRecord
100
AcDbTextStyleTableRecord
  2
ACJISTS
 70
     0
 40
1.0
 41
1.0
 50
0.0
 71
     0
 42
2.5
  3
simplex.shx
  4
bigfont.shx
  0
STYLE
  5
269
330
3
100
AcDbSymbolTableRecord
100
AcDbTextStyleTableRecord
  2
ACJISGDT
 70
     0
 40
0.0
 41
1.0
 50
0.0
 71
     0
 42
2.5
  3
amgdtans.shx
  4

  0
ENDTAB
  0
TABLE
  2
VIEW
  5
6
330
0
100
AcDbSymbolTable
 70
     0
  0
ENDTAB
  0
TABLE
  2
UCS
  5
7
330
0
100
AcDbSymbolTable
 70
     0
  0
ENDTAB
  0
TABLE
  2
APPID
  5
9
330
0
100
AcDbSymbolTable
 70
    16
  0
APPID
  5
12
330
9
100
AcDbSymbolTableRecord
100
AcDbRegAppTableRecord
  2
ACAD
 70
     0
  0
APPID
  5
30
330
9
100
AcDbSymbolTableRecord
100
AcDbRegAppTableRecord
  2
MCAD_NO_VIS
 70
     0
  0
APPID
  5
31
330
9
100
AcDbSymbolTableRecord
100
AcDbRegAppTableRecord
  2
ACAD_TEMP_GRAPHIC
 70
     0
  0
APPID
  5
2C2
330
9
100
AcDbSymbolTableRecord
100
AcDbRegAppTableRecord
  2
GENIUS_GENDTOL_13
 70
     0
  0
APPID
  5
339
330
9
100
AcDbSymbolTableRecord
100
AcDbRegAppTableRecord
  2
GENIUS_GENODEF_13
 70
     0
  0
APPID
  5
33A
330
9
100
AcDbSymbolTableRecord
100
AcDbRegAppTableRecord
  2
GENIUS_GENOBJ-N-RSBK_13
 70
     0
  0
APPID
  5
33B
330
9
100
AcDbSymbolTableRecord
100
AcDbRegAppTableRecord
  2
GENIUS_GENOBJ-N-LIB_13
 70
     0
  0
APPID
  5
33C
330
9
100
AcDbSymbolTableRecord
100
AcDbRegAppTableRecord
  2
GENIUS_GENSCALE_13
 70
     0
  0
APPID
  5
378
330
9
100
AcDbSymbolTableRecord
100
AcDbRegAppTableRecord
  2
GENIUS_GENDIMSH_14
 70
     0
  0
APPID
  5
C82
330
9
100
AcDbSymbolTableRecord
100
AcDbRegAppTableRecord
  2
GENIUS_GENOBJ-N-CRS_13
 70
     0
  0
APPID
  5
C83
330
9
100
AcDbSymbolTableRecord
100
AcDbRegAppTableRecord
  2
GENIUS_GENOENT_13
 70
     0
  0
APPID
  5
C84
330
9
100
AcDbSymbolTableRecord
100
AcDbRegAppTableRecord
  2
GENIUS_GENOREF_13
 70
     0
  0
APPID
  5
C85
330
9
100
AcDbSymbolTableRecord
100
AcDbRegAppTableRecord
  2
GENIUS_GENOLIS_13
 70
     0
  0
APPID
  5
CA0
330
9
100
AcDbSymbolTableRecord
100
AcDbRegAppTableRecord
  2
GENIUS_GENOBJ-N-CEN_13
 70
     0
  0
APPID
  5
31AE
330
9
100
AcDbSymbolTableRecord
100
AcDbRegAppTableRecord
  2
GENIUS_GENFIL_13
 70
     0
  0
APPID
  5
31AF
330
9
100
AcDbSymbolTableRecord
100
AcDbRegAppTableRecord
  2
GENIUS_GENOBJ-N-CHA_13
 70
     0
  0
ENDTAB
  0
TABLE
  2
DIMSTYLE
  5
A
330
0
100
AcDbSymbolTable
 70
    10
  0
DIMSTYLE
105
58
330
A
100
AcDbSymbolTableRecord
100
AcDbDimStyleTableRecord
  2
AM_JIS
 70
     0
  3

  4
"
  5
OPEN30
  6

  7

 40
0.5
 41
2.5
 42
1.0
 43
12.0
 44
1.0
 45
0.0
 46
0.0
 47
0.1
 48
0.1
140
3.2
141
0.0
142
0.0
143
0.0393701
144
1.0
145
0.0
146
0.71
147
1.5
 71
     0
 72
     0
 73
     0
 74
     0
 75
     0
 76
     0
 77
     3
 78
     8
170
     0
171
     2
172
     1
173
     0
174
     0
175
     0
176
   256
177
   256
178
     2
270
     2
271
     3
272
     3
273
     2
274
     2
340
6B
275
     0
280
     0
281
     0
282
     0
283
     0
284
     0
285
     0
286
     0
287
     3
288
     0
  0
DIMSTYLE
105
5F
330
A
100
AcDbSymbolTableRecord
100
AcDbDimStyleTableRecord
  2
AM_JIS$3
 70
     0
  3

  4
"
  5
OPEN30
  6

  7

 40
0.5
 41
2.5
 42
1.0
 43
10.0
 44
1.0
 45
0.0
 46
0.0
 47
0.1
 48
0.1
140
3.2
141
0.0
142
0.0
143
0.0393701
144
1.0
145
0.0
146
0.71
147
1.5
 71
     0
 72
     0
 73
     0
 74
     1
 75
     0
 76
     0
 77
     3
 78
     8
170
     0
171
     2
172
     0
173
     0
174
     0
175
     0
176
   256
177
   256
178
     2
270
     2
271
     2
272
     3
273
     2
274
     2
340
6B
275
     0
280
     0
281
     0
282
     0
283
     0
284
     0
285
     0
286
     0
287
     0
288
     1
  0
DIMSTYLE
105
60
330
A
100
AcDbSymbolTableRecord
100
AcDbDimStyleTableRecord
  2
AM_JIS$4
 70
     0
  3

  4
"
  5
OPEN30
  6

  7

 40
0.5
 41
2.5
 42
1.0
 43
10.0
 44
1.0
 45
0.0
 46
0.0
 47
0.1
 48
0.1
140
3.2
141
0.0
142
0.0
143
0.0393701
144
1.0
145
0.0
146
0.71
147
1.5
 71
     0
 72
     0
 73
     0
 74
     1
 75
     0
 76
     0
 77
     3
 78
     8
170
     0
171
     2
172
     0
173
     0
174
     0
175
     0
176
   256
177
   256
178
     2
270
     2
271
     2
272
     3
273
     2
274
     2
340
6B
275
     0
280
     0
281
     0
282
     0
283
     0
284
     0
285
     0
286
     0
287
     0
288
     1
  0
DIMSTYLE
105
61
330
A
100
AcDbSymbolTableRecord
100
AcDbDimStyleTableRecord
  2
AM_JIS$6
 70
     0
  3

  4
"
  5
OPEN30
  6

  7

 40
0.5
 41
2.5
 42
1.0
 43
10.0
 44
1.0
 45
0.0
 46
0.0
 47
0.1
 48
0.1
140
3.2
141
0.0
142
0.0
143
0.0393701
144
1.0
145
0.0
146
0.71
147
1.5
 71
     0
 72
     0
 73
     0
 74
     0
 75
     0
 76
     0
 77
     0
 78
     8
170
     0
171
     2
172
     1
173
     0
174
     0
175
     0
176
   256
177
   256
178
     2
270
     2
271
     2
272
     2
273
     2
274
     2
340
6B
275
     0
280
     0
281
     0
282
     0
283
     0
284
     0
285
     0
286
     0
287
     3
288
     0
  0
DIMSTYLE
105
62
330
A
100
AcDbSymbolTableRecord
100
AcDbDimStyleTableRecord
  2
AM_JIS$7
 70
     0
  3

  4
"
  5
OPEN30
  6

  7

 40
0.5
 41
2.5
 42
1.0
 43
10.0
 44
1.0
 45
0.0
 46
0.0
 47
0.1
 48
0.1
140
3.2
141
0.0
142
0.0
143
0.0393701
144
1.0
145
0.0
146
0.71
147
1.5
 71
     0
 72
     0
 73
     0
 74
     0
 75
     0
 76
     0
 77
     3
 78
     8
170
     0
171
     2
172
     1
173
     0
174
     0
175
     0
176
   256
177
   256
178
     2
270
     2
271
     2
272
     3
273
     2
274
     2
340
6B
275
     0
280
     0
281
     0
282
     0
283
     0
284
     0
285
     0
286
     0
287
     3
288
     0
  0
DIMSTYLE
105
63
330
A
100
AcDbSymbolTableRecord
100
AcDbDimStyleTableRecord
  2
AM_JIS$SF
 70
     0
  3

  4
"
  5
OPEN30
  6

  7

 40
0.5
 41
2.5
 42
1.0
 43
10.0
 44
1.0
 45
0.0
 46
0.0
 47
0.1
 48
0.1
140
3.2
141
0.0
142
0.0
143
0.0393701
144
1.0
145
0.0
146
0.71
147
1.5
 71
     0
 72
     0
 73
     0
 74
     0
 75
     1
 76
     1
 77
     3
 78
     8
170
     0
171
     2
172
     1
173
     0
174
     0
175
     0
176
   256
177
   256
178
     2
270
     2
271
     2
272
     2
273
     2
274
     2
340
6B
275
     0
280
     0
281
     0
282
     0
283
     0
284
     0
285
     0
286
     0
287
     3
288
     0
  0
DIMSTYLE
105
68
330
A
100
AcDbSymbolTableRecord
100
AcDbDimStyleTableRecord
  2
AM_JIS$SH
 70
     0
  3

  4
"
  5

  6
GENAXEH
  7
OPEN30
 40
0.5
 41
2.5
 42
1.0
 43
10.0
 44
1.0
 45
0.0
 46
0.0
 47
0.1
 48
0.1
140
3.2
141
0.0
142
0.0
143
0.0393701
144
2.0
145
0.0
146
0.71
147
1.5
 71
     0
 72
     0
 73
     0
 74
     0
 75
     1
 76
     1
 77
     3
 78
     8
170
     0
171
     2
172
     1
173
     1
174
     0
175
     0
176
   256
177
   256
178
     2
270
     2
271
     2
272
     2
273
     2
274
     2
340
6B
275
     0
280
     0
281
     0
282
     0
283
     0
284
     0
285
     0
286
     0
287
     3
288
     0
  0
DIMSTYLE
105
B34
102
{ACAD_REACTORS
330
31FC
330
3C6A
102
}
330
A
100
AcDbSymbolTableRecord
100
AcDbDimStyleTableRecord
  2
AM_JIS$2
 70
     0
  3

  4
"
  5
OPEN30
  6

  7

 40
0.5
 41
2.5
 42
1.0
 43
12.0
 44
1.0
 45
0.0
 46
0.0
 47
0.1
 48
0.1
140
3.2
141
0.0
142
0.0
143
0.0393701
144
1.0
145
0.0
146
0.71
147
1.5
 71
     0
 72
     0
 73
     0
 74
     0
 75
     0
 76
     0
 77
     3
 78
     8
170
     0
171
     2
172
     1
173
     0
174
     0
175
     0
176
   256
177
   256
178
     2
270
     2
271
     3
272
     3
273
     2
274
     2
340
6B
275
     0
280
     0
281
     0
282
     0
283
     0
284
     0
285
     0
286
     0
287
     3
288
     0
  0
DIMSTYLE
105
BA5
102
{ACAD_REACTORS
330
31FD
330
31FE
330
3202
330
320B
330
323E
102
}
330
A
100
AcDbSymbolTableRecord
100
AcDbDimStyleTableRecord
  2
AM_JIS$0
 70
     0
  3

  4
"
  5
OPEN30
  6

  7

 40
0.5
 41
2.5
 42
0.8
 43
10.0
 44
1.0
 45
0.0
 46
0.0
 47
0.1
 48
0.1000000001
140
3.799999999999999
141
0.0
142
0.0
143
0.0393701
144
1.0
145
0.0
146
0.71
147
1.5
 71
     0
 72
     0
 73
     0
 74
     0
 75
     0
 76
     0
 77
     3
 78
     9
170
     0
171
     2
172
     1
173
     0
174
     0
175
     0
176
     3
177
     3
178
     2
270
     2
271
     2
272
     2
273
     2
274
     2
340
11
275
     1
280
     0
281
     0
282
     0
283
     0
284
     8
285
     0
286
     0
287
     0
288
     0
  0
DIMSTYLE
105
BA6
330
A
100
AcDbSymbolTableRecord
100
AcDbDimStyleTableRecord
  2
AM_JISORG-1P0$2
 70
     0
  3

  4
"
  5
OPEN30
  6

  7

 40
1.0
 41
2.5
 42
0.0
 43
10.0
 44
1.0
 45
0.0
 46
0.0
 47
0.1
 48
0.1000000001
140
3.799999999999999
141
0.0
142
0.0
143
0.0393701
144
-0.999999980146674
145
0.0
146
0.71
147
1.5
 71
     0
 72
     0
 73
     0
 74
     0
 75
     0
 76
     0
 77
     3
 78
     1
170
     0
171
     2
172
     1
173
     0
174
     0
175
     0
176
     3
177
     3
178
     2
270
     2
271
     2
272
     2
273
     2
274
     2
340
11
275
     1
280
     0
281
     0
282
     0
283
     0
284
     8
285
     0
286
     0
287
     0
288
     0
  0
ENDTAB
  0
TABLE
  2
BLOCK_RECORD
  5
1
330
0
100
AcDbSymbolTable
 70
    15
  0
BLOCK_RECORD
  5
1F
102
{ACAD_XDICTIONARY
360
74
102
}
330
1
100
AcDbSymbolTableRecord
100
AcDbBlockTableRecord
  2
*MODEL_SPACE
  0
BLOCK_RECORD
  5
101
102
{ACAD_XDICTIONARY
360
3DC1
102
}
330
1
100
AcDbSymbolTableRecord
100
AcDbBlockTableRecord
  2
*PAPER_SPACE
  0
BLOCK_RECORD
  5
59
330
1
100
AcDbSymbolTableRecord
100
AcDbBlockTableRecord
  2
_OPEN30
  0
BLOCK_RECORD
  5
64
330
1
100
AcDbSymbolTableRecord
100
AcDbBlockTableRecord
  2
GENAXEH
  0
BLOCK_RECORD
  5
C31
330
1
100
AcDbSymbolTableRecord
100
AcDbBlockTableRecord
  2
A$C36D02A34
  0
BLOCK_RECORD
  5
2453
330
1
100
AcDbSymbolTableRecord
100
AcDbBlockTableRecord
  2
*D6
  0
BLOCK_RECORD
  5
245F
330
1
100
AcDbSymbolTableRecord
100
AcDbBlockTableRecord
  2
A$C4FFC6CC0
  0
BLOCK_RECORD
  5
3244
330
1
100
AcDbSymbolTableRecord
100
AcDbBlockTableRecord
  2
*D8
  0
BLOCK_RECORD
  5
3252
330
1
100
AcDbSymbolTableRecord
100
AcDbBlockTableRecord
  2
*D9
  0
BLOCK_RECORD
  5
3260
330
1
100
AcDbSymbolTableRecord
100
AcDbBlockTableRecord
  2
*D10
  0
BLOCK_RECORD
  5
326E
330
1
100
AcDbSymbolTableRecord
100
AcDbBlockTableRecord
  2
*D11
  0
BLOCK_RECORD
  5
3288
330
1
100
AcDbSymbolTableRecord
100
AcDbBlockTableRecord
  2
*D12
  0
BLOCK_RECORD
  5
3294
330
1
100
AcDbSymbolTableRecord
100
AcDbBlockTableRecord
  2
*D13
  0
BLOCK_RECORD
  5
3C6B
330
1
100
AcDbSymbolTableRecord
100
AcDbBlockTableRecord
  2
*D14
  0
ENDTAB
  0
ENDSEC
  0
SECTION
  2
BLOCKS
  0
BLOCK
  5
20
330
1F
100
AcDbEntity
  8
0
100
AcDbBlockBegin
  2
*MODEL_SPACE
 70
     0
 10
0.0
 20
0.0
 30
0.0
  3
*MODEL_SPACE
  1

  0
ENDBLK
  5
21
330
1F
100
AcDbEntity
  8
0
100
AcDbBlockEnd
  0
BLOCK
  5
103
330
101
100
AcDbEntity
 67
     1
  8
0
100
AcDbBlockBegin
  2
*PAPER_SPACE
 70
     0
 10
0.0
 20
0.0
 30
0.0
  3
*PAPER_SPACE
  1

  0
ENDBLK
  5
104
330
101
100
AcDbEntity
 67
     1
  8
0
100
AcDbBlockEnd
  0
BLOCK
  5
5D
330
59
100
AcDbEntity
  8
0
100
AcDbBlockBegin
  2
_OPEN30
 70
     0
 10
0.0
 20
0.0
 30
0.0
  3
_OPEN30
  1

  0
LINE
  5
5A
330
59
100
AcDbEntity
  8
0
 62
     0
100
AcDbLine
 10
-1.0
 20
0.26794919
 30
0.0
 11
0.0
 21
0.0
 31
0.0
  0
LINE
  5
5B
330
59
100
AcDbEntity
  8
0
 62
     0
100
AcDbLine
 10
0.0
 20
0.0
 30
0.0
 11
-1.0
 21
-0.26794919
 31
0.0
  0
LINE
  5
5C
330
59
100
AcDbEntity
  8
0
 62
     0
100
AcDbLine
 10
0.0
 20
0.0
 30
0.0
 11
-1.0
 21
0.0
 31
0.0
  0
ENDBLK
  5
5E
330
59
100
AcDbEntity
  8
0
100
AcDbBlockEnd
  0
BLOCK
  5
66
330
64
100
AcDbEntity
  8
0
100
AcDbBlockBegin
  2
GENAXEH
 70
     0
 10
0.0
 20
0.0
 30
0.0
  3
GENAXEH
  1

  0
LINE
  5
65
330
64
100
AcDbEntity
  8
0
100
AcDbLine
 10
-1.0
 20
0.0
 30
0.0
 11
1.0
 21
0.0
 31
0.0
  0
ENDBLK
  5
67
330
64
100
AcDbEntity
  8
0
100
AcDbBlockEnd
  0
BLOCK
  5
C4B
330
C31
100
AcDbEntity
  8
0
100
AcDbBlockBegin
  2
A$C36D02A34
 70
     0
 10
0.0
 20
0.0
 30
0.0
  3
A$C36D02A34
  1

  0
ARC
  5
C32
330
C31
100
AcDbEntity
  8
PV0001_1
  6
CONTINUOUS
 48
0.5
100
AcDbCircle
 10
18.06811523436999
 20
-11.83651161193799
 30
0.0
 40
21.600000381469
100
AcDbArc
 50
123.2290435713209
 51
126.6341524197568
  0
ARC
  5
C33
330
C31
100
AcDbEntity
  8
PV0001_1
  6
CONTINUOUS
 48
0.5
100
AcDbCircle
 10
18.06811523436999
 20
-11.83651161193799
 30
0.0
 40
21.600000381469
100
AcDbArc
 50
135.0736707620117
 51
146.7709980930592
  0
ARC
  5
C34
330
C31
100
AcDbEntity
  8
PV0001_1
  6
CONTINUOUS
 48
0.5
100
AcDbCircle
 10
-18.0680770874
 20
11.8365631103514
 30
0.0
 40
21.600000381469
100
AcDbArc
 50
315.0734847530392
 51
326.770781348241
  0
ARC
  5
C35
330
C31
100
AcDbEntity
  8
PV0001_1
  6
CONTINUOUS
 48
0.5
100
AcDbCircle
 10
-18.0680770874
 20
11.8365631103514
 30
0.0
 40
21.600000381469
100
AcDbArc
 50
303.2288882981993
 51
306.633986901359
  0
ARC
  5
C36
330
C31
100
AcDbEntity
  8
PV0001_1
  6
CONTINUOUS
 48
0.5
100
AcDbCircle
 10
-0.6269836425800009
 20
-2.044216156005997
 30
0.0
 40
2.0
100
AcDbArc
 50
337.4067997351092
 51
43.42231293132884
  0
ARC
  5
C37
330
C31
100
AcDbEntity
  8
PV0001_1
  6
CONTINUOUS
 48
0.5
100
AcDbCircle
 10
0.626953125
 20
2.044223785401001
 30
0.0
 40
2.0
100
AcDbArc
 50
157.4068184044407
 51
223.4222769591536
  0
CIRCLE
  5
C38
330
C31
100
AcDbEntity
  8
PV0001_1
  6
CONTINUOUS
 48
0.5
100
AcDbCircle
 10
3.856727600100001
 20
4.596265792847002
 30
0.0
 40
1.6000000238419
  0
CIRCLE
  5
C39
330
C31
100
AcDbEntity
  8
PV0001_1
  6
CONTINUOUS
 48
0.5
100
AcDbCircle
 10
-3.856727600100001
 20
-4.596265792845997
 30
0.0
 40
1.6000000238419
  0
ARC
  5
C3A
330
C31
100
AcDbEntity
  8
PV0001_1
  6
CONTINUOUS
 48
0.5
100
AcDbCircle
 10
-5.58123779297
 20
5.092639923096001
 30
0.0
 40
5.019082546234099
100
AcDbArc
 50
240.2658959250867
 51
321.5156269706421
  0
ARC
  5
C3B
330
C31
100
AcDbEntity
  8
PV0001_1
  6
CONTINUOUS
 48
0.5
100
AcDbCircle
 10
5.486755371089998
 20
-4.601703643798998
 30
0.0
 40
4.651036739349399
100
AcDbArc
 50
56.25271400417071
 51
145.528859890601
  0
ARC
  5
C3C
330
C31
100
AcDbEntity
  8
PV0001_1
  6
CONTINUOUS
 48
0.5
100
AcDbCircle
 10
-2.11590576172
 20
-3.453323364257997
 30
0.0
 40
4.050000190734899
100
AcDbArc
 50
43.42230610113921
 51
58.50391703385149
  0
ARC
  5
C3D
330
C31
100
AcDbEntity
  8
PV0001_1
  6
CONTINUOUS
 48
0.5
100
AcDbCircle
 10
2.115875244139999
 20
3.453330993653001
 30
0.0
 40
4.050000190734899
100
AcDbArc
 50
223.4222942619974
 51
238.5038164022482
  0
ARC
  5
C3E
330
C31
100
AcDbEntity
  8
PV0001_1
  6
CONTINUOUS
 48
0.5
100
AcDbCircle
 10
-6.70369720459
 20
5.094657897949002
 30
0.0
 40
5.940000057220499
100
AcDbArc
 50
328.2536768887549
 51
31.74641873389623
  0
ARC
  5
C3F
330
C31
100
AcDbEntity
  8
PV0001_1
  6
CONTINUOUS
 48
0.5
100
AcDbCircle
 10
6.703674316410001
 20
-5.094650268553998
 30
0.0
 40
5.940000057220499
100
AcDbArc
 50
148.2533403882529
 51
211.7466423089037
  0
ARC
  5
C40
330
C31
100
AcDbEntity
  8
PV0001_1
  6
CONTINUOUS
 48
0.5
100
AcDbCircle
 10
0.0
 20
0.0
 30
0.0
 40
8.812800407409699
100
AcDbArc
 50
175.2198288164333
 51
272.8622597568298
  0
ARC
  5
C41
330
C31
100
AcDbEntity
  8
PV0001_1
  6
CONTINUOUS
 48
0.5
100
AcDbCircle
 10
0.0
 20
0.0
 30
0.0
 40
9.1800003051758
100
AcDbArc
 50
272.7511362215027
 51
280.3697477877874
  0
ARC
  5
C42
330
C31
100
AcDbEntity
  8
PV0001_1
  6
CONTINUOUS
 48
0.5
100
AcDbCircle
 10
0.0
 20
0.0
 30
0.0
 40
8.812800407409699
100
AcDbArc
 50
355.2198199654955
 51
92.86229572901076
  0
ARC
  5
C43
330
C31
100
AcDbEntity
  8
PV0001_1
  6
CONTINUOUS
 48
0.5
100
AcDbCircle
 10
0.0
 20
0.0
 30
0.0
 40
9.1800003051758
100
AcDbArc
 50
92.75115489083434
 51
100.3697664571193
  0
CIRCLE
  5
C44
330
C31
100
AcDbEntity
  8
PV0001_1
  6
CONTINUOUS
100
AcDbCircle
 10
0.0
 20
0.0
 30
0.0
 40
9.1800003051758
  0
LINE
  5
C45
330
C31
100
AcDbEntity
  8
PV0001_1
  6
CONTINUOUS
 48
0.5
100
AcDbLine
 10
-1.652404785160001
 20
9.030059814453
 30
0.0
 11
-1.652404785160001
 21
8.220062255860002
 31
0.0
  0
LINE
  5
C46
330
C31
100
AcDbEntity
  8
PV0001_1
  6
CONTINUOUS
 48
0.5
100
AcDbLine
 10
1.652404785160001
 20
-8.220058441161999
 30
0.0
 11
1.652404785160001
 21
-9.030055999755997
 31
0.0
  0
LINE
  5
C47
330
C31
100
AcDbEntity
  8
PV0001_1
  6
CONTINUOUS
 48
0.5
100
AcDbLine
 10
-8.78217315674
 20
0.7343807220460015
 30
0.0
 11
-8.070594787600001
 21
0.7343997955320028
 31
0.0
  0
LINE
  5
C48
330
C31
100
AcDbEntity
  8
PV0001_1
  6
CONTINUOUS
 48
0.5
100
AcDbLine
 10
8.07057952881
 20
-0.7343864440919994
 30
0.0
 11
8.78215789795
 21
-0.7343654632569994
 31
0.0
  0
LINE
  5
C49
330
C31
100
AcDbEntity
  8
PV0001_1
  6
CONTINUOUS
 48
0.5
100
AcDbLine
 10
0.4406127929700006
 20
-9.169414520263
 30
0.0
 11
0.4406127929700006
 21
-8.812801361083998
 31
0.0
  0
LINE
  5
C4A
330
C31
100
AcDbEntity
  8
PV0001_1
  6
CONTINUOUS
 48
0.5
100
AcDbLine
 10
-0.4406127929700006
 20
9.169418334961001
 30
0.0
 11
-0.4406127929700006
 21
8.812805175781001
 31
0.0
  0
ENDBLK
  5
C4C
330
C31
100
AcDbEntity
  8
0
100
AcDbBlockEnd
  0
BLOCK
  5
245D
330
2453
100
AcDbEntity
  8
0
100
AcDbBlockBegin
  2
*D6
 70
     1
 10
0.0
 20
0.0
 30
0.0
  3
*D6
  1

  0
LINE
  5
2454
330
2453
100
AcDbEntity
  8
AM_5
 62
     3
100
AcDbLine
 10
-137.574381722344
 20
-5.00000294019065
 30
0.0
 11
-152.8199008769066
 21
-5.000002940190694
 31
0.0
  0
LINE
  5
2455
330
2453
100
AcDbEntity
  8
AM_5
 62
     3
100
AcDbLine
 10
-137.5743817223442
 20
5.00002461040103
 30
0.0
 11
-152.8199008769066
 21
5.000024610400987
 31
0.0
  0
LINE
  5
2456
330
2453
100
AcDbEntity
  8
AM_5
 62
     3
100
AcDbLine
 10
-151.8199008769066
 20
-2.500002940190691
 30
0.0
 11
-151.8199008769066
 21
2.50002461040099
 31
0.0
  0
INSERT
  5
2457
330
2453
100
AcDbEntity
  8
AM_5
 62
     3
100
AcDbBlockReference
  2
_OPEN30
 10
-151.8199008769066
 20
-5.00000294019069
 30
0.0
 41
2.5
 42
2.5
 43
2.5
 50
270.0000000000001
  0
INSERT
  5
2458
330
2453
100
AcDbEntity
  8
AM_5
 62
     3
100
AcDbBlockReference
  2
_OPEN30
 10
-151.8199008769066
 20
5.00002461040099
 30
0.0
 41
2.5
 42
2.5
 43
2.5
 50
90.00000000000015
  0
MTEXT
  5
2459
330
2453
100
AcDbEntity
  8
AM_5
 62
     2
100
AcDbMText
 10
-155.2199008769066
 20
0.000010835105146
 30
0.0
 40
3.799999999999999
 41
0.0
 71
     5
 72
     1
  1
%%c10
 11
-0.0000000000000028
 21
1.0
 31
0.0
1001
ACAD
1000
MTEXTBEGIN
1070
    73
1070
     1
1070
    44
1040
1.0
1070
    74
1070
     0
1000
MTEXTEND
  0
POINT
  5
245A
330
2453
100
AcDbEntity
  8
DEFPOINTS
 62
     0
100
AcDbPoint
 10
-137.5743817223441
 20
-5.000002940190223
 30
0.0
  0
POINT
  5
245B
330
2453
100
AcDbEntity
  8
DEFPOINTS
 62
     0
100
AcDbPoint
 10
-137.5743817223441
 20
5.000024610401458
 30
0.0
  0
POINT
  5
245C
330
2453
100
AcDbEntity
  8
DEFPOINTS
 62
     0
100
AcDbPoint
 10
-151.8199008769066
 20
5.000024610401462
 30
0.0
  0
ENDBLK
  5
245E
330
2453
100
AcDbEntity
  8
0
100
AcDbBlockEnd
  0
BLOCK
  5
246B
330
245F
100
AcDbEntity
  8
0
100
AcDbBlockBegin
  2
A$C4FFC6CC0
 70
     0
 10
0.0
 20
0.0
 30
0.0
  3
A$C4FFC6CC0
  1

  0
DIMENSION
  5
2460
330
245F
100
AcDbEntity
  8
AM_5
100
AcDbDimension
  2
*D6
 10
-70.00000100000002
 20
5.000008477104842
 30
0.0
 11
-70.00000100000002
 21
-0.0000052981910228
 31
0.0
 12
81.81989987690661
 22
-0.0000161332966199
 32
0.0
 70
   128
  1
%%c<>
 51
359.9999999999998
  3
AM_JIS$0
100
AcDbAlignedDimension
 13
-55.75448184543748
 23
-5.000019073486843
 33
0.0
 14
-55.75448184543756
 24
5.000008477104838
 34
0.0
 50
270.0
100
AcDbRotatedDimension
1001
ACAD
1000
DSTYLE
1002
{
1070
   271
1070
     0
1002
}
1001
GENIUS_GENDTOL_13
1000

1000
h7
1000

1040
0.0
  0
LINE
  5
2461
330
245F
100
AcDbEntity
  8
AM_0
 48
0.5
100
AcDbLine
 10
-56.0
 20
-4.754495620727796
 30
0.0
 11
-56.00000000000003
 21
4.754485024345811
 31
0.0
  0
LINE
  5
2462
330
245F
100
AcDbEntity
  8
AM_0
 48
0.5
100
AcDbLine
 10
-55.75448184543751
 20
-5.000019073486843
 30
0.0
 11
-55.75448184543754
 21
5.000008477104838
 31
0.0
  0
LINE
  5
2463
330
245F
100
AcDbEntity
  8
AM_0
100
AcDbLine
 10
-0.0000000000000142
 20
4.999995231627903
 30
0.0
 11
-55.75448184543754
 21
4.999995231627746
 31
0.0
  0
LINE
  5
2464
330
245F
100
AcDbEntity
  8
AM_0
 48
0.5
100
AcDbLine
 10
-55.99996821086117
 20
4.754439989725671
 30
0.0
 11
-55.75443945990975
 21
4.999963442484006
 31
0.0
  0
LINE
  5
2465
330
245F
100
AcDbEntity
  8
AM_0
100
AcDbLine
 10
-55.75448184543751
 20
-5.000008477105588
 30
0.0
 11
0.0000000000000142
 21
-5.00000847710543
 31
0.0
  0
LINE
  5
2466
330
245F
100
AcDbEntity
  8
AM_0
 48
0.5
100
AcDbLine
 10
-55.99996821086114
 20
-4.754474427965309
 30
0.0
 11
-55.75443945990972
 21
-4.999997880724334
 31
0.0
  0
LINE
  5
2467
330
245F
100
AcDbEntity
  8
AM_0
100
AcDbLine
 10
0.7794201296714505
 20
4.549985867772141
 30
0.0
 11
0.7794201296714789
 21
-4.550003370497427
 31
0.0
  0
LINE
  5
2468
330
245F
100
AcDbEntity
  8
AM_0
 48
0.5
100
AcDbLine
 10
0.0000000000000142
 20
-5.00000847710543
 30
0.0
 11
-0.0000000000000142
 21
5.000008477104995
 31
0.0
  0
LINE
  5
2469
330
245F
100
AcDbEntity
  8
AM_0
 48
0.5
100
AcDbLine
 10
0.7794201296714647
 20
-4.550003370497435
 30
0.0
 11
-0.0000105963812445
 21
-5.00000847710543
 31
0.0
  0
LINE
  5
246A
330
245F
100
AcDbEntity
  8
AM_0
 48
0.5
100
AcDbLine
 10
0.7794201296714647
 20
4.549985867772141
 30
0.0
 11
-0.0000000000000142
 21
4.999984635246652
 31
0.0
  0
ENDBLK
  5
246C
330
245F
100
AcDbEntity
  8
0
100
AcDbBlockEnd
  0
BLOCK
  5
3250
330
3244
100
AcDbEntity
  8
0
100
AcDbBlockBegin
  2
*D8
 70
     1
 10
0.0
 20
0.0
 30
0.0
  3
*D8
  1

  0
LINE
  5
3537
330
3244
100
AcDbEntity
  8
AM_5
100
AcDbLine
 10
0.1710100704080519
 20
-0.46984631084965
 30
0.0
 11
9.611927001088011
 21
-26.40855261237381
 31
0.0
  0
LINE
  5
3538
330
3244
100
AcDbEntity
  8
AM_5
100
AcDbLine
 10
0.1710098052266613
 20
0.4698478148157159
 30
0.0
 11
9.611945285898373
 21
26.40854920198099
 31
0.0
  0
ARC
  5
3539
330
3244
100
AcDbEntity
  8
AM_5
100
AcDbCircle
 10
-0.0000005904945895
 20
0.000001622370506
 30
0.0
 40
27.60339639252271
100
AcDbArc
 50
292.594819857225
 51
67.40514047219765
  0
INSERT
  5
353A
330
3244
100
AcDbEntity
  8
AM_5
100
AcDbBlockReference
  2
_OPEN30
 10
9.440916930679938
 20
-25.93870630152416
 30
0.0
 41
1.25
 42
1.25
 43
1.25
 50
201.2974098521061
  0
INSERT
  5
353B
330
3244
100
AcDbEntity
  8
AM_5
100
AcDbBlockReference
  2
_OPEN30
 10
9.440934890177123
 20
25.93870300953578
 30
0.0
 41
1.25
 42
1.25
 43
1.25
 50
158.7025504773165
  0
MTEXT
  5
353C
330
3244
100
AcDbEntity
  8
AM_5
 62
     2
100
AcDbMText
 10
26.05339580202647
 20
-0.000007933679533
 30
0.0
 40
1.6
 41
0.0
 71
     5
 72
     1
  1
140°
  7
ASAMI
 11
0.0000000000000001
 21
1.0
 31
0.0
1001
ACAD
1000
MTEXTBEGIN
1070
    73
1070
     1
1070
    44
1040
1.0
1070
    74
1070
     0
1000
MTEXTEND
  0
POINT
  5
353D
330
3244
100
AcDbEntity
  8
DEFPOINTS
 62
     0
100
AcDbPoint
 10
25.34588761859608
 20
10.93313673060979
 30
0.0
  0
POINT
  5
353E
330
3244
100
AcDbEntity
  8
DEFPOINTS
 62
     0
100
AcDbPoint
 10
-0.0000000000000213
 20
0.0
 30
0.0
  0
POINT
  5
353F
330
3244
100
AcDbEntity
  8
DEFPOINTS
 62
     0
100
AcDbPoint
 10
-0.0000006834663893
 20
0.0000013669331338
 30
0.0
  0
POINT
  5
3540
330
3244
100
AcDbEntity
  8
DEFPOINTS
 62
     0
100
AcDbPoint
 10
-0.286932261784635
 20
-0.7883349736532637
 30
0.0
  0
POINT
  5
3541
330
3244
100
AcDbEntity
  8
DEFPOINTS
 62
     0
100
AcDbPoint
 10
-0.2869274775186525
 20
0.7883267720540062
 30
0.0
  0
ENDBLK
  5
3251
330
3244
100
AcDbEntity
  8
0
100
AcDbBlockEnd
  0
BLOCK
  5
325E
330
3252
100
AcDbEntity
  8
0
100
AcDbBlockBegin
  2
*D9
 70
     1
 10
0.0
 20
0.0
 30
0.0
  3
*D9
  1

  0
LINE
  5
3C37
330
3252
100
AcDbEntity
  8
AM_5
 62
     3
100
AcDbLine
 10
-0.9281187923502713
 20
-2.949999999999971
 30
0.0
 11
-0.9281187923502722
 21
-18.07820495491972
 31
0.0
  0
LINE
  5
3C38
330
3252
100
AcDbEntity
  8
AM_5
 62
     3
100
AcDbLine
 10
-12.92812623977654
 20
-4.374865122224045
 30
0.0
 11
-12.92812623977654
 21
-18.07820495491972
 31
0.0
  0
LINE
  5
3C39
330
3252
100
AcDbEntity
  8
AM_5
 62
     3
100
AcDbLine
 10
-2.178118792350272
 20
-17.57820495491972
 30
0.0
 11
-11.67812623977654
 21
-17.57820495491972
 31
0.0
  0
INSERT
  5
3C3A
330
3252
100
AcDbEntity
  8
AM_5
 62
     3
100
AcDbBlockReference
  2
_OPEN30
 10
-0.9281187923502722
 20
-17.57820495491972
 30
0.0
 41
1.25
 42
1.25
 43
1.25
  0
INSERT
  5
3C3B
330
3252
100
AcDbEntity
  8
AM_5
 62
     3
100
AcDbBlockReference
  2
_OPEN30
 10
-12.92812623977654
 20
-17.57820495491972
 30
0.0
 41
1.25
 42
1.25
 43
1.25
 50
180.0
  0
MTEXT
  5
3C3C
330
3252
100
AcDbEntity
  8
AM_5
 62
     2
100
AcDbMText
 10
-5.784880738306377
 20
-15.87820495491972
 30
0.0
 40
1.9
 41
0.0
 71
     5
 72
     1
  1
12
1001
ACAD
1000
MTEXTBEGIN
1070
    73
1070
     1
1070
    44
1040
1.0
1070
    74
1070
     0
1000
MTEXTEND
  0
POINT
  5
3C3D
330
3252
100
AcDbEntity
  8
DEFPOINTS
 62
     0
100
AcDbPoint
 10
-0.9281187923502713
 20
-2.549999999999971
 30
0.0
  0
POINT
  5
3C3E
330
3252
100
AcDbEntity
  8
DEFPOINTS
 62
     0
100
AcDbPoint
 10
-12.92812623977654
 20
-3.974865122224045
 30
0.0
  0
POINT
  5
3C3F
330
3252
100
AcDbEntity
  8
DEFPOINTS
 62
     0
100
AcDbPoint
 10
-12.92812623977654
 20
-17.57820495491972
 30
0.0
  0
ENDBLK
  5
325F
330
3252
100
AcDbEntity
  8
0
100
AcDbBlockEnd
  0
BLOCK
  5
326C
330
3260
100
AcDbEntity
  8
0
100
AcDbBlockBegin
  2
*D10
 70
     1
 10
0.0
 20
0.0
 30
0.0
  3
*D10
  1

  0
LINE
  5
3C52
330
3260
100
AcDbEntity
  8
AM_5
 62
     3
100
AcDbLine
 10
-0.5281262397765535
 20
-2.549989237845174
 30
0.0
 11
15.10312663665501
 21
-2.549989237845178
 31
0.0
  0
LINE
  5
3C53
330
3260
100
AcDbEntity
  8
AM_5
 62
     3
100
AcDbLine
 10
-0.528118792350305
 20
2.550000000000042
 30
0.0
 11
15.10312663665501
 21
2.550000000000037
 31
0.0
  0
LINE
  5
3C54
330
3260
100
AcDbEntity
  8
AM_5
 62
     3
100
AcDbLine
 10
14.60312663665502
 20
-3.799989237845178
 30
0.0
 11
14.60312663665501
 21
-5.049989237845178
 31
0.0
  0
LINE
  5
3C55
330
3260
100
AcDbEntity
  8
AM_5
 62
     3
100
AcDbLine
 10
14.60312663665502
 20
3.800000000000038
 30
0.0
 11
14.60312663665502
 21
11.43571428571432
 31
0.0
  0
LINE
  5
3C56
330
3260
100
AcDbEntity
  8
AM_5
 62
     3
100
AcDbLine
 10
14.60312663665502
 20
-2.549989237845178
 30
0.0
 11
14.60312663665502
 21
2.550000000000038
 31
0.0
  0
INSERT
  5
3C57
330
3260
100
AcDbEntity
  8
AM_5
 62
     3
100
AcDbBlockReference
  2
_OPEN30
 10
14.60312663665502
 20
-2.549989237845178
 30
0.0
 41
1.25
 42
1.25
 43
1.25
 50
90.0
  0
INSERT
  5
3C58
330
3260
100
AcDbEntity
  8
AM_5
 62
     3
100
AcDbBlockReference
  2
_OPEN30
 10
14.60312663665502
 20
2.550000000000038
 30
0.0
 41
1.25
 42
1.25
 43
1.25
 50
270.0
  0
MTEXT
  5
3C59
330
3260
100
AcDbEntity
  8
AM_5
 62
     2
100
AcDbMText
 10
12.90312663665502
 20
8.242857142857184
 30
0.0
 40
1.9
 41
0.0
 71
     5
 72
     1
  1
%%C5.1
 11
0.0000000000000001
 21
1.0
 31
0.0
1001
ACAD
1000
MTEXTBEGIN
1070
    73
1070
     1
1070
    44
1040
1.0
1070
    74
1070
     0
1000
MTEXTEND
  0
POINT
  5
3C5A
330
3260
100
AcDbEntity
  8
DEFPOINTS
 62
     0
100
AcDbPoint
 10
-0.9281262397765534
 20
-2.549989237845174
 30
0.0
  0
POINT
  5
3C5B
330
3260
100
AcDbEntity
  8
DEFPOINTS
 62
     0
100
AcDbPoint
 10
-0.9281187923503049
 20
2.550000000000042
 30
0.0
  0
POINT
  5
3C5C
330
3260
100
AcDbEntity
  8
DEFPOINTS
 62
     0
100
AcDbPoint
 10
14.60312663665502
 20
2.550000000000038
 30
0.0
  0
ENDBLK
  5
326D
330
3260
100
AcDbEntity
  8
0
100
AcDbBlockEnd
  0
BLOCK
  5
3278
330
326E
100
AcDbEntity
  8
0
100
AcDbBlockBegin
  2
*D11
 70
     1
 10
0.0
 20
0.0
 30
0.0
  3
*D11
  1

  0
LINE
  5
374B
330
326E
100
AcDbEntity
  8
AM_5
 62
     3
100
AcDbLine
 10
-0.9281187923502713
 20
-2.949999999999971
 30
0.0
 11
-0.9281187923502734
 21
-37.67855170325253
 31
0.0
  0
LINE
  5
374C
330
326E
100
AcDbEntity
  8
AM_5
 62
     3
100
AcDbLine
 10
-84.92812623977656
 20
-3.60848623772367
 30
0.0
 11
-84.92812623977656
 21
-37.67855170325253
 31
0.0
  0
LINE
  5
374D
330
326E
100
AcDbEntity
  8
AM_5
 62
     3
100
AcDbLine
 10
-2.178118792350273
 20
-37.17855170325254
 30
0.0
 11
-83.67812623977656
 21
-37.17855170325254
 31
0.0
  0
INSERT
  5
374E
330
326E
100
AcDbEntity
  8
AM_5
 62
     3
100
AcDbBlockReference
  2
_OPEN30
 10
-0.9281187923502734
 20
-37.17855170325254
 30
0.0
 41
1.25
 42
1.25
 43
1.25
  0
INSERT
  5
374F
330
326E
100
AcDbEntity
  8
AM_5
 62
     3
100
AcDbBlockReference
  2
_OPEN30
 10
-84.92812623977656
 20
-37.17855170325254
 30
0.0
 41
1.25
 42
1.25
 43
1.25
 50
180.0
  0
MTEXT
  5
3750
330
326E
100
AcDbEntity
  8
AM_5
 62
     2
100
AcDbMText
 10
-42.92812251606341
 20
-35.47855170325253
 30
0.0
 40
1.9
 41
0.0
 71
     5
 72
     1
  1
84
1001
ACAD
1000
MTEXTBEGIN
1070
    73
1070
     1
1070
    44
1040
1.0
1070
    74
1070
     0
1000
MTEXTEND
  0
POINT
  5
3751
330
326E
100
AcDbEntity
  8
DEFPOINTS
 62
     0
100
AcDbPoint
 10
-0.9281187923502713
 20
-2.549999999999971
 30
0.0
  0
POINT
  5
3752
330
326E
100
AcDbEntity
  8
DEFPOINTS
 62
     0
100
AcDbPoint
 10
-84.92812623977656
 20
-3.20848623772367
 30
0.0
  0
POINT
  5
3753
330
326E
100
AcDbEntity
  8
DEFPOINTS
 62
     0
100
AcDbPoint
 10
-84.92812623977656
 20
-37.17855170325254
 30
0.0
  0
ENDBLK
  5
3279
330
326E
100
AcDbEntity
  8
0
100
AcDbBlockEnd
  0
BLOCK
  5
3292
330
3288
100
AcDbEntity
  8
0
100
AcDbBlockBegin
  2
*D12
 70
     1
 10
0.0
 20
0.0
 30
0.0
  3
*D12
  1

  0
LINE
  5
3C40
330
3288
100
AcDbEntity
  8
AM_5
 62
     3
100
AcDbLine
 10
-0.9281262397765534
 20
-2.949999999999971
 30
0.0
 11
-0.928126239776555
 21
-27.87837854341593
 31
0.0
  0
LINE
  5
3C41
330
3288
100
AcDbEntity
  8
AM_5
 62
     3
100
AcDbLine
 10
-30.92722963713046
 20
-3.183304992870595
 30
0.0
 11
-30.92722963713046
 21
-27.87837854341593
 31
0.0
  0
LINE
  5
3C42
330
3288
100
AcDbEntity
  8
AM_5
 62
     3
100
AcDbLine
 10
-2.178126239776554
 20
-27.37837854341593
 30
0.0
 11
-29.67722963713046
 21
-27.37837854341593
 31
0.0
  0
INSERT
  5
3C43
330
3288
100
AcDbEntity
  8
AM_5
 62
     3
100
AcDbBlockReference
  2
_OPEN30
 10
-0.928126239776555
 20
-27.37837854341593
 30
0.0
 41
1.25
 42
1.25
 43
1.25
  0
INSERT
  5
3C44
330
3288
100
AcDbEntity
  8
AM_5
 62
     3
100
AcDbBlockReference
  2
_OPEN30
 10
-30.92722963713046
 20
-27.37837854341593
 30
0.0
 41
1.25
 42
1.25
 43
1.25
 50
180.0
  0
MTEXT
  5
3C45
330
3288
100
AcDbEntity
  8
AM_5
 62
     2
100
AcDbMText
 10
-15.92767793845351
 20
-25.67837854341593
 30
0.0
 40
1.9
 41
0.0
 71
     5
 72
     1
  1
30
1001
ACAD
1000
MTEXTBEGIN
1070
    73
1070
     1
1070
    44
1040
1.0
1070
    74
1070
     0
1000
MTEXTEND
  0
POINT
  5
3C46
330
3288
100
AcDbEntity
  8
DEFPOINTS
 62
     0
100
AcDbPoint
 10
-0.9281262397765534
 20
-2.549999999999971
 30
0.0
  0
POINT
  5
3C47
330
3288
100
AcDbEntity
  8
DEFPOINTS
 62
     0
100
AcDbPoint
 10
-30.92722963713046
 20
-2.783304992870595
 30
0.0
  0
POINT
  5
3C48
330
3288
100
AcDbEntity
  8
DEFPOINTS
 62
     0
100
AcDbPoint
 10
-30.92722963713046
 20
-27.37837854341593
 30
0.0
  0
ENDBLK
  5
3293
330
3288
100
AcDbEntity
  8
0
100
AcDbBlockEnd
  0
BLOCK
  5
32A0
330
3294
100
AcDbEntity
  8
0
100
AcDbBlockBegin
  2
*D13
 70
     1
 10
0.0
 20
0.0
 30
0.0
  3
*D13
  1

  0
LINE
  5
3754
330
3294
100
AcDbEntity
  8
AM_5
 62
     3
100
AcDbLine
 10
-85.08923735088769
 20
4.000164365276432
 30
0.0
 11
-96.18462311650956
 21
4.000164365276435
 31
0.0
  0
LINE
  5
3755
330
3294
100
AcDbEntity
  8
AM_5
 62
     3
100
AcDbLine
 10
-85.08923735088767
 20
-4.000166580989785
 30
0.0
 11
-96.18462311650956
 21
-4.000166580989781
 31
0.0
  0
LINE
  5
3756
330
3294
100
AcDbEntity
  8
AM_5
 62
     3
100
AcDbLine
 10
-95.68462311650955
 20
2.750164365276435
 30
0.0
 11
-95.68462311650955
 21
-2.750166580989781
 31
0.0
  0
INSERT
  5
3757
330
3294
100
AcDbEntity
  8
AM_5
 62
     3
100
AcDbBlockReference
  2
_OPEN30
 10
-95.68462311650955
 20
4.000164365276435
 30
0.0
 41
1.25
 42
1.25
 43
1.25
 50
90.0
  0
INSERT
  5
3758
330
3294
100
AcDbEntity
  8
AM_5
 62
     3
100
AcDbBlockReference
  2
_OPEN30
 10
-95.68462311650955
 20
-4.000166580989781
 30
0.0
 41
1.25
 42
1.25
 43
1.25
 50
270.0
  0
MTEXT
  5
3759
330
3294
100
AcDbEntity
  8
AM_5
 62
     2
100
AcDbMText
 10
-97.38462311650955
 20
-0.0000011078566883
 30
0.0
 40
1.9
 41
0.0
 71
     5
 72
     1
  1
%%C8
 11
0.0000000000000001
 21
1.0
 31
0.0
1001
ACAD
1000
MTEXTBEGIN
1070
    73
1070
     1
1070
    44
1040
1.0
1070
    74
1070
     0
1000
MTEXTEND
  0
POINT
  5
375A
330
3294
100
AcDbEntity
  8
DEFPOINTS
 62
     0
100
AcDbPoint
 10
-84.68923735088768
 20
4.000164365276432
 30
0.0
  0
POINT
  5
375B
330
3294
100
AcDbEntity
  8
DEFPOINTS
 62
     0
100
AcDbPoint
 10
-84.68923735088766
 20
-4.000166580989785
 30
0.0
  0
POINT
  5
375C
330
3294
100
AcDbEntity
  8
DEFPOINTS
 62
     0
100
AcDbPoint
 10
-95.68462311650955
 20
-4.000166580989781
 30
0.0
  0
ENDBLK
  5
32A1
330
3294
100
AcDbEntity
  8
0
100
AcDbBlockEnd
  0
BLOCK
  5
3C7B
330
3C6B
100
AcDbEntity
  8
0
100
AcDbBlockBegin
  2
*D14
 70
     1
 10
0.0
 20
0.0
 30
0.0
  3
*D14
  1

  0
LINE
  5
3D32
330
3C6B
100
AcDbEntity
  8
AM_5
100
AcDbLine
 10
-13.20424089272032
 20
4.250979775167689
 30
0.0
 11
-33.77924410834625
 21
24.8259829907935
 31
0.0
  0
LINE
  5
3D33
330
3C6B
100
AcDbEntity
  8
AM_5
100
AcDbLine
 10
-13.28167963036979
 20
-4.328418512817369
 30
0.0
 11
-33.77924410834597
 21
-24.82598299079389
 31
0.0
  0
ARC
  5
3D34
330
3C6B
100
AcDbEntity
  8
AM_5
100
AcDbCircle
 10
-8.953261117552555
 20
-0.000000000000056
 30
0.0
 40
34.60924184482411
100
AcDbArc
 50
137.0694939819993
 51
222.9305060180013
  0
INSERT
  5
3D35
330
3C6B
100
AcDbEntity
  8
AM_5
100
AcDbBlockReference
  2
_OPEN30
 10
-33.42569071775297
 20
24.47242960020022
 30
0.0
 41
1.25
 42
1.25
 43
1.25
 50
46.03474699099974
  0
INSERT
  5
3D36
330
3C6B
100
AcDbEntity
  8
AM_5
100
AcDbBlockReference
  2
_OPEN30
 10
-33.4256907177527
 20
-24.47242960020061
 30
0.0
 41
1.25
 42
1.25
 43
1.25
 50
313.9652530090009
  0
MTEXT
  5
3D37
330
3C6B
100
AcDbEntity
  8
AM_5
 62
     2
100
AcDbMText
 10
-45.11250296237667
 20
-0.0000000000002641
 30
0.0
 40
1.6
 41
0.0
 71
     5
 72
     1
  1
90°
  7
ASAMI
 11
-0.0000000000000028
 21
1.0
 31
0.0
1001
ACAD
1000
MTEXTBEGIN
1070
    73
1070
     1
1070
    44
1040
1.0
1070
    74
1070
     0
1000
MTEXTEND
  0
POINT
  5
3D38
330
3C6B
100
AcDbEntity
  8
DEFPOINTS
 62
     0
100
AcDbPoint
 10
-42.3832216437525
 20
8.957530925999501
 30
0.0
  0
POINT
  5
3D39
330
3C6B
100
AcDbEntity
  8
DEFPOINTS
 62
     0
100
AcDbPoint
 10
-11.50326111755274
 20
-2.550000000000243
 30
0.0
  0
POINT
  5
3D3A
330
3C6B
100
AcDbEntity
  8
DEFPOINTS
 62
     0
100
AcDbPoint
 10
-11.50326111755275
 20
2.550000000000173
 30
0.0
  0
POINT
  5
3D3B
330
3C6B
100
AcDbEntity
  8
DEFPOINTS
 62
     0
100
AcDbPoint
 10
-12.85068750212704
 20
3.897426384574456
 30
0.0
  0
POINT
  5
3D3C
330
3C6B
100
AcDbEntity
  8
DEFPOINTS
 62
     0
100
AcDbPoint
 10
-12.92812623977653
 20
-3.974865122224052
 30
0.0
  0
ENDBLK
  5
3C7C
330
3C6B
100
AcDbEntity
  8
0
100
AcDbBlockEnd
  0
ENDSEC
  0
SECTION
  2
ENTITIES
  0
TEXT
  5
19BD
330
1F
100
AcDbEntity
  8
AM_6
100
AcDbText
 10
-53.58288442082531
 20
-48.42855170325257
 30
0.0
 40
2.5
  1
MDW051S2K
 50
0.0000000000001527
 72
     4
 11
-42.92812251606339
 21
-47.17855170325253
 31
0.0
100
AcDbText
  0
DIMENSION
  5
31FC
330
1F
100
AcDbEntity
  8
AM_5
100
AcDbDimension
  2
*D8
 10
-0.2869274775186525
 20
0.7883267720540062
 30
0.0
 11
26.05339580202647
 21
-0.0000079336795372
 31
0.0
 70
    34
  1
<>
  3
AM_JIS$2
100
AcDb2LineAngularDimension
 13
-0.0000006834663893
 23
0.0000013669331338
 33
0.0
 14
-0.286932261784635
 24
-0.7883349736532637
 34
0.0
 15
-0.0000000000000213
 25
0.0
 35
0.0
 16
25.34588761859608
 26
10.93313673060979
 36
0.0
1001
ACAD
1000
DSTYLE
1002
{
1070
   179
1070
     3
1002
}
1001
GENIUS_GENDTOL_13
1000

1000
h7
1000

1040
0.0
  0
DIMENSION
  5
31FD
330
1F
100
AcDbEntity
  8
AM_5
100
AcDbDimension
  2
*D9
 10
-12.92812623977654
 20
-17.57820495491972
 30
0.0
 11
-5.784880738306377
 21
-17.57820495491972
 31
0.0
 70
   160
  1
<>
  3
AM_JIS$0
100
AcDbAlignedDimension
 13
-0.9281187923502713
 23
-2.549999999999971
 33
0.0
 14
-12.92812623977654
 24
-3.974865122224045
 34
0.0
 50
180.0
100
AcDbRotatedDimension
1001
ACAD
1000
DSTYLE
1002
{
1070
   271
1070
     1
1002
}
1001
GENIUS_GENDTOL_13
1000

1000
h7
1000

1040
0.0
  0
DIMENSION
  5
31FE
330
1F
100
AcDbEntity
  8
AM_5
100
AcDbDimension
  2
*D10
 10
14.60312663665502
 20
2.550000000000038
 30
0.0
 11
14.60312663665502
 21
8.242857142857182
 31
0.0
 70
   160
  1
%%C<>
  3
AM_JIS$0
100
AcDbAlignedDimension
 13
-0.9281262397765534
 23
-2.549989237845174
 33
0.0
 14
-0.9281187923503049
 24
2.550000000000042
 34
0.0
 50
90.0
100
AcDbRotatedDimension
1001
ACAD
1000
DSTYLE
1002
{
1070
   271
1070
     1
1002
}
1001
GENIUS_GENDTOL_13
1000

1000
h7
1000

1040
0.0
  0
LINE
  5
31FF
330
1F
100
AcDbEntity
  8
AM_0
100
AcDbLine
 10
-34.54969788778115
 20
4.000164365276532
 30
0.0
 11
-84.68923735088768
 21
4.000164365276435
 31
0.0
  0
LINE
  5
3200
330
1F
100
AcDbEntity
  8
AM_0
100
AcDbLine
 10
-27.76998601453676
 20
-4.00016491822157
 30
0.0
 11
-84.68923735088765
 21
-4.000166782249458
 31
0.0
  0
LINE
  5
3201
330
1F
100
AcDbEntity
  8
AM_7
100
AcDbLine
 10
3.226237378435541
 20
0.0
 30
0.0
 11
-89.50840562560768
 21
-0.0000000000002247
 31
0.0
  0
DIMENSION
  5
3202
330
1F
100
AcDbEntity
  8
AM_5
100
AcDbDimension
  2
*D11
 10
-84.92812623977656
 20
-37.17855170325254
 30
0.0
 11
-42.92812251606341
 21
-35.47855170325253
 31
0.0
 70
    32
  1
<>
  3
AM_JIS$0
100
AcDbAlignedDimension
 13
-0.9281187923502713
 23
-2.549999999999971
 33
0.0
 14
-84.92812623977656
 24
-3.20848623772367
 34
0.0
 50
180.0
100
AcDbRotatedDimension
1001
GENIUS_GENDTOL_13
1000

1000
h7
1000

1040
0.0
1001
ACAD
1000
DSTYLE
1002
{
1070
   271
1070
     1
1002
}
  0
DIMENSION
  5
320B
330
1F
100
AcDbEntity
  8
AM_5
100
AcDbDimension
  2
*D12
 10
-30.92722963713046
 20
-27.37837854341593
 30
0.0
 11
-15.92767793845351
 21
-25.67837854341593
 31
0.0
 70
    32
  1
<>
  3
AM_JIS$0
100
AcDbAlignedDimension
 13
-0.9281262397765534
 23
-2.549999999999971
 33
0.0
 14
-30.92722963713046
 24
-2.783304992870595
 34
0.0
 50
180.0
100
AcDbRotatedDimension
1001
GENIUS_GENDTOL_13
1000

1000
h7
1000

1040
0.0
1001
ACAD
1000
DSTYLE
1002
{
1070
   271
1070
     1
1002
}
  0
LINE
  5
320C
330
1F
100
AcDbEntity
  8
AM_0
 48
0.5
100
AcDbLine
 10
-2.367817861297442
 20
2.550000000000042
 30
0.0
 11
-0.9281187923503049
 21
2.550000000000042
 31
0.0
  0
LINE
  5
320D
330
1F
100
AcDbEntity
  8
AM_0
 48
0.5
100
AcDbLine
 10
-0.8444272284884469
 20
2.210000324249107
 30
0.0
 11
-2.36778732064484
 21
2.210000324249107
 31
0.0
  0
LINE
  5
320E
330
1F
100
AcDbEntity
  8
AM_0
 48
0.5
100
AcDbLine
 10
-2.048967766842013
 20
-2.549999999999971
 30
0.0
 11
-0.9281187923502713
 21
-2.549999999999971
 31
0.0
  0
LINE
  5
3212
330
1F
100
AcDbEntity
  8
AM_0
 48
0.5
100
AcDbLine
 10
-0.850781440734875
 20
-2.337496757507548
 30
0.0
 11
-0.9281262397765534
 21
-2.549999999999971
 31
0.0
  0
ARC
  5
3213
330
1F
100
AcDbEntity
  8
AM_0
 48
0.5
100
AcDbCircle
 10
3.570501613616927
 20
3.152570247650159
 30
0.0
 40
4.495784187316781
100
AcDbArc
 50
190.4452443731646
 51
209.5547271424571
  0
LINE
  5
3214
330
1F
100
AcDbEntity
  8
AM_0
 48
0.5
100
AcDbLine
 10
-0.8507846832273239
 20
2.337511348724496
 30
0.0
 11
-0.9281246185303459
 21
2.549998378753767
 31
0.0
  0
ARC
  5
3215
330
1F
100
AcDbEntity
  8
AM_0
 48
0.5
100
AcDbCircle
 10
3.570501613616944
 20
-3.152571868896229
 30
0.0
 40
4.495784187316781
100
AcDbArc
 50
150.4452250462215
 51
169.5547078155142
  0
LINE
  5
3216
330
1F
100
AcDbEntity
  8
AM_0
 48
0.5
100
AcDbLine
 10
-0.0000014007095581
 20
-0.0000000000000078
 30
0.0
 11
-1.237249955755301
 21
0.9920653550522089
 31
0.0
  0
LINE
  5
3217
330
1F
100
AcDbEntity
  8
AM_0
 48
0.5
100
AcDbLine
 10
-0.000000810622902
 20
0.0000016212462764
 30
0.0
 11
-0.340315008163147
 21
-0.9350019454957298
 31
0.0
  0
LINE
  5
3218
330
1F
100
AcDbEntity
  8
AM_0
 48
0.5
100
AcDbLine
 10
-0.0000000000000005
 20
0.0000000000000015
 30
0.0
 11
-0.3403093338011847
 21
0.9349922180175436
 31
0.0
  0
ELLIPSE
  5
3219
330
1F
100
AcDbEntity
  8
AM_0
 48
0.5
100
AcDbEllipse
 10
1.975981114593827
 20
-0.5668298721311711
 30
0.0
 11
-0.0000000000000492
 21
-4.080000162124611
 31
0.0
210
0.0
220
0.0
230
1.0
 40
0.8144800295859891
 41
-1.443613828220574
 42
-1.063207999863884
  0
ELLIPSE
  5
321A
330
1F
100
AcDbEntity
  8
AM_0
 48
0.5
100
AcDbEllipse
 10
-3.105777892270719
 20
3.338512161311451
 30
0.0
 11
90.02696944665878
 21
76.1288559112899
 31
0.0
210
0.0
220
0.0
230
1.0
 40
0.0386315505468456
 41
4.70373824542329
 42
4.714219606999152
  0
ELLIPSE
  5
321B
330
1F
100
AcDbEntity
  8
AM_0
 48
0.5
100
AcDbEllipse
 10
-3.767441587322077
 20
4.279824447631674
 30
0.0
 11
-0.0000000000112938
 21
-6.148320174218462
 31
0.0
210
0.0
220
0.0
230
1.0
 40
0.8144800295862856
 41
0.5105833252303227
 42
0.5990781029097283
  0
DIMENSION
  5
323E
330
1F
100
AcDbEntity
  8
AM_5
100
AcDbDimension
  2
*D13
 10
-95.68462311650955
 20
-4.000166580989781
 30
0.0
 11
-97.38462311650955
 21
-0.0000011078566883
 31
0.0
 70
    32
  1
%%C<>
  3
AM_JIS$0
100
AcDbAlignedDimension
 13
-84.68923735088768
 23
4.000164365276432
 33
0.0
 14
-84.68923735088766
 24
-4.000166580989785
 34
0.0
 50
270.0
100
AcDbRotatedDimension
1001
ACAD
1000
DSTYLE
1002
{
1070
   271
1070
     1
1002
}
1001
GENIUS_GENDTOL_13
1000

1000
h7
1000

1040
0.0
  0
LINE
  5
323F
330
1F
100
AcDbEntity
  8
AM_0
100
AcDbLine
 10
-84.68923735088766
 20
-4.000166580989785
 30
0.0
 11
-84.68923735088768
 21
4.000164365276432
 31
0.0
  0
LINE
  5
3240
330
1F
100
AcDbEntity
  8
AM_0
 48
0.5
100
AcDbLine
 10
-84.92812623977656
 20
-0.0000000000002143
 30
0.0
 11
-84.92812623977654
 21
-3.708486237723705
 31
0.0
  0
LINE
  5
3241
330
1F
100
AcDbEntity
  8
AM_0
 48
0.5
100
AcDbLine
 10
-84.92812623977656
 20
-0.0000000000002143
 30
0.0
 11
-84.92812623977656
 21
3.708484001503349
 31
0.0
  0
LINE
  5
3242
330
1F
100
AcDbEntity
  8
AM_0
100
AcDbLine
 10
-84.92812623977656
 20
3.708484001503349
 30
0.0
 11
-84.68923735088768
 21
4.000164365276432
 31
0.0
1001
GENIUS_GENFIL_13
1070
     0
1040
1.0
1040
1.0
1040
20.0
1040
0.0
1002
{
1002
}
1001
GENIUS_GENODEF_13
1002
{
1000
HIER
1070
     0
1002
}
1002
{
1000
MANEDIT
1070
     0
1002
}
1002
{
1000
NOSEL
1070
     0
1002
}
1002
{
1000
BEHIND
1070
     0
1002
}
1002
{
1000
REACTOR
1002
}
1001
GENIUS_GENOBJ-N-CHA_13
1002
{
1000
OWNER
1000
GEN
1002
}
  0
LINE
  5
3243
330
1F
100
AcDbEntity
  8
AM_0
 48
0.5
100
AcDbLine
 10
-84.68923735088766
 20
-4.000166580989785
 30
0.0
 11
-84.92812623977654
 21
-3.708486237723705
 31
0.0
1001
GENIUS_GENFIL_13
1070
     0
1040
1.0
1040
1.0
1040
20.0
1040
0.0
1002
{
1002
}
1001
GENIUS_GENODEF_13
1002
{
1000
HIER
1070
     0
1002
}
1002
{
1000
MANEDIT
1070
     0
1002
}
1002
{
1000
NOSEL
1070
     0
1002
}
1002
{
1000
BEHIND
1070
     0
1002
}
1002
{
1000
REACTOR
1002
}
1001
GENIUS_GENOBJ-N-CHA_13
1002
{
1000
OWNER
1000
GEN
1002
}
  0
LINE
  5
37E0
330
1F
100
AcDbEntity
  8
AM_0
100
AcDbLine
 10
-29.43206683338859
 20
4.000164365276568
 30
0.0
 11
-40.9775486576009
 21
4.000164365276495
 31
0.0
  0
ELLIPSE
  5
3B09
330
1F
100
AcDbEntity
  8
AM_0
 48
0.5
100
AcDbEllipse
 10
1.186249784771065
 20
3.06143188476562
 30
0.0
 11
0.6291121868832218
 21
4.959838499653559
 31
0.0
210
0.0
220
0.0
230
1.0
 40
0.8466078179710084
 41
2.225987634979885
 42
2.658835137844322
  0
SPLINE
  5
3B0A
330
1F
100
AcDbEntity
  8
AM_0
 48
0.5
100
AcDbSpline
210
0.0
220
0.0
230
1.0
 70
     8
 71
     3
 72
    10
 73
     6
 74
     0
 42
0.0000000001
 43
0.0000000001
 40
0.0
 40
0.0
 40
0.0
 40
0.0
 40
2.69986029516136
 40
4.147722969032201
 40
6.285750005020438
 40
6.285750005020438
 40
6.285750005020438
 40
6.285750005020438
 10
-2.526560508270835
 20
0.4615364074706962
 30
0.0
 10
-2.270391827750345
 20
0.2246237861764592
 30
0.0
 10
-1.876846753567895
 20
-0.1393387206082234
 30
0.0
 10
-0.9461655189877225
 20
0.0368619050114477
 30
0.0
 10
-1.121439865991908
 20
0.630328926911656
 30
0.0
 10
-1.237249955755301
 20
0.9920653550522089
 30
0.0
  0
SPLINE
  5
3B0B
330
1F
100
AcDbEntity
  8
AM_0
100
AcDbSpline
210
0.0
220
0.0
230
1.0
 70
     8
 71
     3
 72
    17
 73
    13
 74
     0
 42
0.0000000001
 43
0.0000000001
 40
1.580019955310467
 40
1.580019955310467
 40
1.580019955310467
 40
1.580019955310467
 40
2.030549285115227
 40
3.082371838836284
 40
4.126290986361125
 40
5.162752068350215
 40
6.192395305374981
 40
7.216039564037012
 40
8.234688489606833
 40
9.249433870634691
 40
10.26152376260694
 40
11.27226744710342
 40
11.27226744710342
 40
11.27226744710342
 40
11.27226744710352
 10
-5.496652873756117
 20
-1.881975088805403
 30
0.0
 10
-5.547576808449832
 20
-1.901357868792049
 30
0.0
 10
-5.717679858843752
 20
-1.964887519138722
 30
0.0
 10
-6.008087949657358
 20
-2.064536048837777
 30
0.0
 10
-6.367801331501375
 20
-2.176129182819022
 30
0.0
 10
-6.727613742102645
 20
-2.274093138050502
 30
0.0
 10
-7.087442639182945
 20
-2.35809892955294
 30
0.0
 10
-7.44731073897671
 20
-2.427535495142039
 30
0.0
 10
-7.807203701024825
 20
-2.482006590955161
 30
0.0
 10
-8.167119072889676
 20
-2.521159226065387
 30
0.0
 10
-8.527047987188542
 20
-2.544741370413556
 30
0.0
 10
-8.76705883529512
 20
-2.550000014591201
 30
0.0
 10
-8.88698439156003
 20
-2.549999999999922
 30
0.0
  0
SPLINE
  5
3B0C
330
1F
100
AcDbEntity
  8
AM_0
 48
0.5
100
AcDbSpline
210
0.0
220
0.0
230
1.0
 70
     8
 71
     3
 72
    16
 73
    12
 74
     0
 42
0.0000000001
 43
0.0000000001
 40
0.0
 40
0.0
 40
0.0
 40
0.0
 40
1.010743614677189
 40
2.022833924044153
 40
3.037578959561199
 40
4.056212747067873
 40
5.079857613375832
 40
6.109500119648989
 40
7.14596120163808
 40
8.18989512056258
 40
8.362086094421943
 40
8.362086094421943
 40
8.362086094421943
 40
8.362086094421943
 10
-2.10682316331397
 20
2.210000324249119
 30
0.0
 10
-2.226742075904653
 20
2.209985000918456
 30
0.0
 10
-2.466762787846446
 20
2.204752624051869
 30
0.0
 10
-2.826687471381293
 20
2.181154033297232
 30
0.0
 10
-3.186602344409517
 20
2.142008540271939
 30
0.0
 10
-3.546493419983991
 20
2.087536180915586
 30
0.0
 10
-3.906358457117329
 20
2.018094194512658
 30
0.0
 10
-4.266191316676685
 20
1.93410355523701
 30
0.0
 10
-4.62599213199563
 20
1.836093300641014
 30
0.0
 10
-4.884722677454409
 20
1.755961032000773
 30
0.0
 10
-5.023795285823309
 20
1.710044807414744
 30
0.0
 10
-5.043474282229972
 20
1.703491026698223
 30
0.0
  0
LINE
  5
3B0D
330
1F
100
AcDbEntity
  8
AM_7
 48
0.5
100
AcDbLine
 10
-8.886984391560066
 20
2.550000000000091
 30
0.0
 11
-2.106850337948188
 21
2.550000000000053
 31
0.0
  0
LINE
  5
3B0E
330
1F
100
AcDbEntity
  8
AM_7
 48
0.5
100
AcDbLine
 10
-8.886984391560059
 20
-2.549999999999922
 30
0.0
 11
-2.106850337948178
 21
-2.54999999999996
 31
0.0
  0
SPLINE
  5
3B0F
330
1F
100
AcDbEntity
  8
AM_0
 48
0.5
100
AcDbSpline
210
0.0
220
0.0
230
1.0
 70
     8
 71
     3
 72
    25
 73
    21
 74
     0
 42
0.0000000001
 43
0.0000000001
 40
6.846175049578289
 40
6.846175049578289
 40
6.846175049578289
 40
6.846175049578289
 40
7.604337694224321
 40
8.711974558287883
 40
9.814980593243754
 40
10.91239053451967
 40
12.0033633515982
 40
13.08720139956839
 40
14.16337181880432
 40
15.23152222380919
 40
16.29148850140128
 40
17.34331105512262
 40
18.38723020264746
 40
19.42369128463655
 40
20.45333379090873
 40
21.47697865721768
 40
22.49561244472435
 40
23.5103574802404
 40
24.52244778960836
 40
25.53320666051913
 40
25.53320666051913
 40
25.53320666051913
 40
25.53320666051913
 10
-2.526618052981339
 20
0.4615666944696476
 30
0.0
 10
-2.608381583277483
 20
0.5063401593113215
 30
0.0
 10
-2.809769526414669
 20
0.6160773306174966
 30
0.0
 10
-3.131081166292636
 20
0.788404193056259
 30
0.0
 10
-3.490616154601683
 20
0.9763745714330427
 30
0.0
 10
-3.850169224158817
 20
1.158339347932715
 30
0.0
 10
-4.209743464194966
 20
1.333179700778599
 30
0.0
 10
-4.569342881254527
 20
1.49981695272664
 30
0.0
 10
-4.928970800502614
 20
1.657223468489013
 30
0.0
 10
-5.288628886827034
 20
1.804431871093894
 30
0.0
 10
-5.648321570292804
 20
1.940526035638765
 30
0.0
 10
-6.008048363833086
 20
2.064671427593625
 30
0.0
 10
-6.367811851289927
 20
2.176093381012314
 30
0.0
 10
-6.72761076304148
 20
2.274102322797144
 30
0.0
 10
-7.087443693531321
 20
2.358097528257124
 30
0.0
 10
-7.447308640458308
 20
2.427522238210358
 30
0.0
 10
-7.807200004468397
 20
2.482058714319817
 30
0.0
 10
-8.167113819193469
 20
2.520966215932057
 30
0.0
 10
-8.527044242147812
 20
2.545449825908339
 30
0.0
 10
-8.767057000520635
 20
2.548483940987148
 30
0.0
 10
-8.886984391560053
 20
2.550000000000024
 30
0.0
  0
SPLINE
  5
3B10
330
1F
100
AcDbEntity
  8
AM_0
 48
0.5
100
AcDbSpline
210
0.0
220
0.0
230
1.0
 70
     8
 71
     3
 72
    17
 73
    13
 74
     0
 42
0.0000000001
 43
0.0000000001
 40
0.0
 40
0.0
 40
0.0
 40
0.0
 40
1.010743614677189
 40
2.022833924044153
 40
3.037578959561199
 40
4.056212747067873
 40
5.079857613375832
 40
6.109500119648989
 40
7.14596120163808
 40
8.18989512056258
 40
9.241717674284874
 40
9.693948937866434
 40
9.693948937866434
 40
9.693948937866434
 40
9.693948937866434
 10
-2.106850337948179
 20
2.549999999999986
 30
0.0
 10
-2.226775917620323
 20
2.548483905137158
 30
0.0
 10
-2.46678686342177
 20
2.545449695396768
 30
0.0
 10
-2.826715482131363
 20
2.520966227469025
 30
0.0
 10
-3.186629282788637
 20
2.482058675564284
 30
0.0
 10
-3.546520699870491
 20
2.427522382541408
 30
0.0
 10
-3.906385447174415
 20
2.358096985714389
 30
0.0
 10
-4.266219129308256
 20
2.274104366069106
 30
0.0
 10
-4.626016916699215
 20
2.176085211875621
 30
0.0
 10
-4.985792770945716
 20
2.064699413323756
 30
0.0
 10
-5.276213222108477
 20
1.964357646077798
 30
0.0
 10
-5.446765138695893
 20
1.901629611771555
 30
0.0
 10
-5.497955673832002
 20
1.882428980390357
 30
0.0
  0
ELLIPSE
  5
3B11
330
1F
100
AcDbEntity
  8
AM_0
100
AcDbEllipse
 10
-14.98832636202017
 20
4.789272710040871
 30
0.0
 11
0.5976542131645873
 21
2.653015240285216
 31
0.0
210
0.0
220
0.0
230
1.0
 40
0.848132337833957
 41
4.281395953300329
 42
4.564670071616668
  0
LINE
  5
3B12
330
1F
100
AcDbEntity
  8
AM_0
 48
0.5
100
AcDbLine
 10
-14.04195648198291
 20
4.000164365276689
 30
0.0
 11
-12.85068750212704
 21
3.897426384574456
 31
0.0
  0
SPLINE
  5
3B13
330
1F
100
AcDbEntity
  8
AM_0
100
AcDbSpline
210
0.0
220
0.0
230
1.0
 70
     8
 71
     3
 72
    12
 73
     8
 74
     0
 42
0.0000000001
 43
0.0000000001
 40
16.52159807216846
 40
16.52159807216846
 40
16.52159807216846
 40
16.52159807216846
 40
17.38177054169784
 40
18.41822485651776
 40
19.46214173629503
 40
20.51396345435107
 40
21.27054030077571
 40
21.27054030077571
 40
21.27054030077571
 40
21.27054030077571
 10
-13.84780744736888
 20
4.000164365276686
 30
0.0
 10
-13.76460908123286
 20
3.909820019983489
 30
0.0
 10
-13.58318450425166
 20
3.70550070896242
 30
0.0
 10
-13.30872098800549
 20
3.372274997017366
 30
0.0
 10
-13.02410615500881
 20
2.999621032032617
 30
0.0
 10
-12.77170261135065
 20
2.645480738223003
 30
0.0
 10
-12.61517975071958
 20
2.413643937028798
 30
0.0
 10
-11.84973500609439
 20
1.57947079501557
 30
0.0
  0
ELLIPSE
  5
3B14
330
1F
100
AcDbEntity
  8
AM_0
100
AcDbEllipse
 10
-6.027312004324716
 20
-0.27302704412452
 30
0.0
 11
0.0000000000026575
 21
6.536727949923191
 31
0.0
210
0.0
220
0.0
230
1.0
 40
0.9288031970066914
 41
1.124229503792042
 42
1.283460445065466
  0
LINE
  5
3B15
330
1F
100
AcDbEntity
  8
AM_0
100
AcDbLine
 10
-11.50326111755275
 20
2.550000000000173
 30
0.0
 11
-12.85068750212704
 21
3.897426384574456
 31
0.0
  0
ELLIPSE
  5
3B16
330
1F
100
AcDbEntity
  8
AM_0
100
AcDbEllipse
 10
-11.41090409868491
 20
32.66994347112454
 30
0.0
 11
0.8032765420353536
 21
33.80968359022718
 31
0.0
210
0.0
220
0.0
230
1.0
 40
0.5807177899118356
 41
3.07682296358452
 42
3.154816148130302
  0
ELLIPSE
  5
3B17
330
1F
100
AcDbEntity
  8
AM_0
100
AcDbEllipse
 10
-6.027312004324764
 20
0.2730270441247251
 30
0.0
 11
-0.0000000000008748
 21
6.536727949923105
 31
0.0
210
0.0
220
0.0
230
1.0
 40
0.9288031970066901
 41
1.789146231048265
 42
2.017363149798003
  0
LINE
  5
3B18
330
1F
100
AcDbEntity
  8
AM_0
 48
0.5
100
AcDbLine
 10
-13.88274548145611
 20
-4.000165021646313
 30
0.0
 11
-12.92812623977654
 21
-3.974865122224048
 31
0.0
  0
ELLIPSE
  5
3B1A
330
1F
100
AcDbEntity
  8
AM_0
100
AcDbEllipse
 10
-6.391346300682171
 20
-0.0000000000005582
 30
0.0
 11
-0.4208582356216389
 21
10.54985886877318
 31
0.0
210
0.0
220
0.0
230
0.9999999999999998
 40
0.6768173867989832
 41
1.642378782515427
 42
1.929961220696042
  0
LINE
  5
3B1B
330
1F
100
AcDbEntity
  8
AM_0
 48
0.5
100
AcDbLine
 10
-11.50326111755279
 20
2.550000000000173
 30
0.0
 11
-8.886984391560066
 21
2.550000000000091
 31
0.0
  0
LINE
  5
3B1C
330
1F
100
AcDbEntity
  8
AM_0
 48
0.5
100
AcDbLine
 10
-11.50326111755285
 20
-2.549999999999907
 30
0.0
 11
-8.886984391560059
 21
-2.549999999999922
 31
0.0
  0
SPLINE
  5
3B1D
330
1F
100
AcDbEntity
  8
AM_0
100
AcDbSpline
210
0.0
220
0.0
230
1.0
 70
     8
 71
     3
 72
    11
 73
     7
 74
     0
 42
0.0000000001
 43
0.0000000001
 40
11.27226913003534
 40
11.27226913003534
 40
11.27226913003534
 40
11.2722691300354
 40
12.28301561507924
 40
13.29510212255852
 40
14.30984805882082
 40
15.09690564740603
 40
15.09690564740603
 40
15.09690564740603
 40
15.09690564740603
 10
-8.886984391560066
 20
-2.549999999999922
 30
0.0
 10
-9.006453931819407
 20
-2.537519558974766
 30
0.0
 10
-9.24516767006726
 20
-2.507304954423852
 30
0.0
 10
-9.602005604197337
 20
-2.446354623479892
 30
0.0
 10
-10.68395036510802
 20
-2.013405542552723
 30
0.0
 10
-11.54719945156623
 20
-1.55542840463369
 30
0.0
 10
-11.95448940979739
 20
-1.142952443885046
 30
0.0
  0
SPLINE
  5
3B1E
330
1F
100
AcDbEntity
  8
AM_0
100
AcDbSpline
210
0.0
220
0.0
230
1.0
 70
     8
 71
     3
 72
    33
 73
    29
 74
     0
 42
0.0000000001
 43
0.0000000001
 40
0.0
 40
0.0
 40
0.0
 40
0.0
 40
1.010743684496582
 40
2.022833576467832
 40
3.037578957496688
 40
4.056212745003489
 40
5.079857003664532
 40
6.109500240690281
 40
7.145961322679372
 40
8.189895241603872
 40
9.241717795325891
 40
10.30168407291828
 40
11.36983447792315
 40
12.44600489715814
 40
13.52984294512926
 40
14.62081576220742
 40
15.7182257034828
 40
16.82123173843959
 40
17.92886860250316
 40
19.0400688939571
 40
20.15368796660465
 40
21.26852814259644
 40
22.38336992938901
 40
23.49698739941135
 40
24.6081876908653
 40
25.71582455492886
 40
26.81883757994213
 40
27.56016774795276
 40
27.56016774795276
 40
27.56016774795276
 40
27.56016774795276
 10
-2.106850337948187
 20
-2.54999999999996
 30
0.0
 10
-2.226775895795301
 20
-2.548482811777505
 30
0.0
 10
-2.466786740098135
 20
-2.545446414592634
 30
0.0
 10
-2.826715662031309
 20
-2.520969644498859
 30
0.0
 10
-3.186629219955905
 20
-2.482057974095471
 30
0.0
 10
-3.546520502764781
 20
-2.427521788102852
 30
0.0
 10
-3.90638591930949
 20
-2.358100156401139
 30
0.0
 10
-4.266218370249941
 20
-2.274101785923486
 30
0.0
 10
-4.626019059209756
 20
-2.176092519632967
 30
0.0
 10
-4.985784795483935
 20
-2.064672519382528
 30
0.0
 10
-5.345513128412134
 20
-1.940525897214541
 30
0.0
 10
-5.705205851041281
 20
-1.804431908643145
 30
0.0
 10
-6.064863926700157
 20
-1.65722345820837
 30
0.0
 10
-6.424491849028374
 20
-1.499816955907671
 30
0.0
 10
-6.784091264536492
 20
-1.333179698422916
 30
0.0
 10
-7.143665507695631
 20
-1.158339354202005
 30
0.0
 10
-7.503218566232824
 20
-0.9763745485436423
 30
0.0
 10
-7.862753595777689
 20
-0.7884042789088197
 30
0.0
 10
-8.22227408565862
 20
-0.5955846355780839
 30
0.0
 10
-8.581783882897665
 20
-0.3991024005480004
 30
0.0
 10
-8.941286140737949
 20
-0.2001654658523544
 30
0.0
 10
-9.300785935908232
 20
-0.0000005202925938
 30
0.0
 10
-9.660284117225218
 20
0.2001680283610343
 30
0.0
 10
-10.01978758003871
 20
0.399101865082356
 30
0.0
 10
-10.37929693345809
 20
0.5955846948529889
 30
0.0
 10
-10.73881806436008
 20
0.7884050727406359
 30
0.0
 10
-10.92216141431044
 20
0.9561407789435136
 30
0.0
 10
-11.11787301924465
 20
1.058564278222299
 30
0.0
 10
-11.84973500609443
 20
1.579470795015502
 30
0.0
  0
SPLINE
  5
3B1F
330
1F
100
AcDbEntity
  8
AM_0
100
AcDbSpline
210
0.0
220
0.0
230
1.0
 70
     8
 71
     3
 72
    37
 73
    33
 74
     0
 42
0.0000000001
 43
0.0000000001
 40
0.0
 40
0.0
 40
0.0
 40
0.0
 40
2.022498070421493
 40
3.03724345144935
 40
4.055877238956151
 40
5.079521497617194
 40
6.109164734642943
 40
7.145625816632033
 40
8.189544964155905
 40
9.24138217828764
 40
10.30134845588002
 40
11.3694988608849
 40
12.44566928012083
 40
13.52950732809102
 40
14.62048014516917
 40
15.71789008644548
 40
16.82089612140135
 40
17.92853298546491
 40
19.03973327691977
 40
20.1533523495664
 40
21.2681925255582
 40
22.3830327015509
 40
23.49665177419753
 40
24.60785206565148
 40
25.71548892971504
 40
26.81849496467183
 40
27.91590490594683
 40
29.00687772302536
 40
30.09072288467331
 40
31.16689330390925
 40
32.23504370891412
 40
32.37258236425404
 40
32.37258236425404
 40
32.37258236425404
 40
32.37258236425404
 10
-1.099293926017623
 20
-2.549999999999966
 30
0.0
 10
-1.339316496867813
 20
-2.544190902882678
 30
0.0
 10
-1.699765286498926
 20
-2.535467214867114
 30
0.0
 10
-2.179069760607679
 20
-2.481757070381938
 30
0.0
 10
-2.538964910075005
 20
-2.427602957209183
 30
0.0
 10
-2.898829297074499
 20
-2.35807827483157
 30
0.0
 10
-3.258661973600146
 20
-2.274107518133229
 30
0.0
 10
-3.618461091120965
 20
-2.176092138867595
 30
0.0
 10
-3.978226047027422
 20
-2.064670645010708
 30
0.0
 10
-4.337955240238452
 20
-1.940527181028831
 30
0.0
 10
-4.697649389766423
 20
-1.804431730723425
 30
0.0
 10
-5.057307528143413
 20
-1.657223506428018
 30
0.0
 10
-5.416935433469868
 20
-1.499816942832245
 30
0.0
 10
-5.77653485360928
 20
-1.333179702016486
 30
0.0
 10
-6.136109095413699
 20
-1.158339353024471
 30
0.0
 10
-6.495662154698997
 20
-0.9763745496359021
 30
0.0
 10
-6.855197182606369
 20
-0.7884042757047066
 30
0.0
 10
-7.214717678318763
 20
-0.5955846473631558
 30
0.0
 10
-7.574227453778343
 20
-0.3991023564394014
 30
0.0
 10
-7.933729793130375
 20
-0.2001656309074057
 30
0.0
 10
-8.293229110442272
 20
-0.000000000040471
 30
0.0
 10
-8.652728427675178
 20
0.2001656310697786
 30
0.0
 10
-9.012230767264085
 20
0.3991023558722677
 30
0.0
 10
-9.371740541857816
 20
0.5955846494616994
 30
0.0
 10
-9.731261040780925
 20
0.7884042679176786
 30
0.0
 10
-10.09079605678323
 20
0.9763745785030678
 30
0.0
 10
-10.45034916015703
 20
1.158339246148189
 30
0.0
 10
-10.80992402057776
 20
1.333180477352141
 30
0.0
 10
-11.02604221387057
 20
1.499816204184078
 30
0.0
 10
-11.38567076071809
 20
1.657223574906777
 30
0.0
 10
-11.48254373239214
 20
1.762054562691577
 30
0.0
 10
-11.61846810941385
 20
1.8152980236709
 30
0.0
 10
-11.76361540861816
 20
1.868383396672145
 30
0.0
  0
ELLIPSE
  5
3B65
330
1F
100
AcDbEntity
  8
AM_0
100
AcDbEllipse
 10
-19.40117784700065
 20
-2.879383640466542
 30
0.0
 11
-0.0000000000203506
 21
0.8648661949068863
 31
0.0
210
0.0
220
0.0
230
1.0
 40
0.8180457544940914
 41
3.427918371515771
 42
3.631632084743036
  0
LINE
  5
3B66
330
1F
100
AcDbEntity
  8
AM_0
100
AcDbLine
 10
-19.0681853604588
 20
-3.642467452332876
 30
0.0
 11
-18.01251853988902
 21
-2.954078525588401
 31
0.0
  0
SPLINE
  5
3B67
330
1F
100
AcDbEntity
  8
AM_0
 48
0.5
100
AcDbSpline
210
0.0
220
0.0
230
1.0
 70
     8
 71
     3
 72
    15
 73
    11
 74
     0
 42
0.0000000001
 43
0.0000000001
 40
7.907745354493536
 40
7.907745354493536
 40
7.907745354493536
 40
7.907745354493536
 40
8.189873411961459
 40
9.241710626092514
 40
10.30166235592959
 40
11.36982472628033
 40
12.44598212828784
 40
13.52983440361964
 40
14.62080578343036
 40
14.90544694398022
 40
14.90544694398022
 40
14.90544694398022
 40
14.90544694398022
 10
-17.20920098201613
 20
-3.363027552719533
 30
0.0
 10
-17.24778150004664
 20
-3.346298269314039
 30
0.0
 10
-17.43001504166428
 20
-3.266072180685545
 30
0.0
 10
-17.75547408691038
 20
-3.112760061549995
 30
0.0
 10
-18.18445786119486
 20
-2.891189161240669
 30
0.0
 10
-18.61340271678353
 20
-2.651555870802601
 30
0.0
 10
-19.04230833148855
 20
-2.39528480000303
 30
0.0
 10
-19.47118274035132
 20
-2.124008511590594
 30
0.0
 10
-19.79351183025412
 20
-1.910077807168411
 30
0.0
 10
-19.9731248472634
 20
-1.787801893138278
 30
0.0
 10
-20.81895444038955
 20
-1.297530869023956
 30
0.0
  0
SPLINE
  5
3B68
330
1F
100
AcDbEntity
  8
AM_0
 48
0.5
100
AcDbSpline
210
0.0
220
0.0
230
1.0
 70
     8
 71
     3
 72
    16
 73
    12
 74
     0
 42
0.0000000001
 43
0.0000000001
 40
0.0
 40
0.0
 40
0.0
 40
0.0
 40
1.010743614677189
 40
2.022833924044153
 40
3.037578959561199
 40
4.056212747067873
 40
5.079857613375832
 40
6.109500119648989
 40
7.14596120163808
 40
8.18989512056258
 40
8.545190612624931
 40
8.545190612624931
 40
8.545190612624931
 40
8.545190612624931
 10
-14.0419564819829
 20
4.000164365276542
 30
0.0
 10
-14.18497672750679
 20
4.000146337088066
 30
0.0
 10
-14.47123533685476
 20
3.993990346650522
 30
0.0
 10
-14.90049637247604
 20
3.966226157883622
 30
0.0
 10
-15.32974570768217
 20
3.920170744277504
 30
0.0
 10
-15.75896666106257
 20
3.856082982280515
 30
0.0
 10
-16.1881565599232
 20
3.774383170673702
 30
0.0
 10
-16.61730808248074
 20
3.675566593542225
 30
0.0
 10
-17.04642138775435
 20
3.560255673581444
 30
0.0
 10
-17.38007687137384
 20
3.458315097575902
 30
0.0
 10
-17.57078752390894
 20
3.395619119294019
 30
0.0
 10
-19.21146382832518
 20
2.987742039320843
 30
0.0
  0
SPLINE
  5
3B69
330
1F
100
AcDbEntity
  8
AM_0
 48
0.5
100
AcDbSpline
210
0.0
220
0.0
230
1.0
 70
     8
 71
     3
 72
    12
 73
     8
 74
     0
 42
0.0000000001
 43
0.0000000001
 40
3.172436591848706
 40
3.172436591848706
 40
3.172436591848706
 40
3.172436591848706
 40
4.056212471389632
 40
5.079857945358201
 40
6.109499720892564
 40
7.145961650132166
 40
7.907745354493536
 40
7.907745354493536
 40
7.907745354493536
 40
7.907745354493536
 10
-13.88274548145611
 20
-4.000165021646313
 30
0.0
 10
-14.91091960372614
 20
-4.002217966990372
 30
0.0
 10
-15.62876964232552
 20
-3.900618416671949
 30
0.0
 10
-16.0391173393519
 20
-3.792552548843531
 30
0.0
 10
-16.4682697979343
 20
-3.655816088752733
 30
0.0
 10
-16.8584521661538
 20
-3.510729580454087
 30
0.0
 10
-17.10502839384744
 20
-3.408198868179259
 30
0.0
 10
-17.20920098201613
 20
-3.363027552719533
 30
0.0
  0
LINE
  5
3B6A
330
1F
100
AcDbEntity
  8
AM_0
100
AcDbLine
 10
-20.01026285211339
 20
-4.00016496525829
 30
0.0
 11
-19.20135898139744
 21
-3.709039466822214
 31
0.0
  0
SPLINE
  5
3B6B
330
1F
100
AcDbEntity
  8
AM_0
100
AcDbSpline
210
0.0
220
0.0
230
1.0
 70
     8
 71
     3
 72
     8
 73
     4
 74
     0
 42
0.0000000001
 43
0.0000000001
 40
16.03460024169435
 40
16.03460024169435
 40
16.03460024169435
 40
16.03460024169435
 40
16.03905285852473
 40
16.03905285852473
 40
16.03905285852473
 40
16.03905285852473
 10
-21.50240615530895
 20
4.000732661220142
 30
0.0
 10
-21.5017877241068
 20
4.000543299344302
 30
0.0
 10
-21.50116930160894
 20
4.000353867357874
 30
0.0
 10
-21.5005508878203
 20
4.000164365276583
 30
0.0
  0
LINE
  5
3B6C
330
1F
100
AcDbEntity
  8
AM_0
100
AcDbLine
 10
-21.50055088782031
 20
4.000164365276648
 30
0.0
 11
-21.80167883421441
 21
4.000164365276652
 31
0.0
  0
SPLINE
  5
3B6D
330
1F
100
AcDbEntity
  8
AM_0
 48
0.5
100
AcDbSpline
210
0.0
220
0.0
230
1.0
 70
     8
 71
     3
 72
    16
 73
    12
 74
     0
 42
0.0000000001
 43
0.0000000001
 40
0.0
 40
0.0
 40
0.0
 40
0.0
 40
1.010743614677189
 40
2.022833924044153
 40
3.037578959561199
 40
4.056212747067873
 40
5.079857613375832
 40
6.109500119648989
 40
7.14596120163808
 40
8.18989512056258
 40
8.545190612624931
 40
8.545190612624931
 40
8.545190612624931
 40
8.545190612624931
 10
-21.80167881165014
 20
4.000164365276587
 30
0.0
 10
-21.94469905717402
 20
4.000146337088113
 30
0.0
 10
-22.23095766652198
 20
3.993990346650568
 30
0.0
 10
-22.66021870214328
 20
3.966226157883669
 30
0.0
 10
-23.08946803734943
 20
3.920170744277548
 30
0.0
 10
-23.51868899072982
 20
3.856082982280561
 30
0.0
 10
-23.94787888959042
 20
3.774383170673781
 30
0.0
 10
-24.37703041214797
 20
3.675566593542302
 30
0.0
 10
-24.80614371742157
 20
3.560255673581522
 30
0.0
 10
-25.13979920104107
 20
3.458315097575979
 30
0.0
 10
-25.33050985357618
 20
3.395619119294096
 30
0.0
 10
-26.97118615799244
 20
2.98774203932092
 30
0.0
  0
ELLIPSE
  5
3B6E
330
1F
100
AcDbEntity
  8
AM_0
100
AcDbEllipse
 10
-27.16090017666789
 20
-2.879383640466481
 30
0.0
 11
-0.0000000000103231
 21
0.8648661949075837
 31
0.0
210
0.0
220
0.0
230
1.0
 40
0.8180457544987961
 41
3.427918371527998
 42
3.631632084753699
  0
LINE
  5
3B6F
330
1F
100
AcDbEntity
  8
AM_0
100
AcDbLine
 10
-26.82790769012604
 20
-3.642467452332814
 30
0.0
 11
-25.66415792012691
 21
-2.883598802149753
 31
0.0
  0
SPLINE
  5
3B70
330
1F
100
AcDbEntity
  8
AM_0
 48
0.5
100
AcDbSpline
210
0.0
220
0.0
230
1.0
 70
     8
 71
     3
 72
    15
 73
    11
 74
     0
 42
0.0000000001
 43
0.0000000001
 40
7.907745354493536
 40
7.907745354493536
 40
7.907745354493536
 40
7.907745354493536
 40
8.189873411961459
 40
9.241710626092514
 40
10.30166235592959
 40
11.36982472628033
 40
12.44598212828784
 40
13.52983440361964
 40
14.62080578343036
 40
14.90544694398022
 40
14.90544694398022
 40
14.90544694398022
 40
14.90544694398022
 10
-24.96892331720331
 20
-3.211834782417177
 30
0.0
 10
-25.0075038352338
 20
-3.195105499011683
 30
0.0
 10
-25.18973737685144
 20
-3.114879410383189
 30
0.0
 10
-25.51519642209757
 20
-2.96156729124764
 30
0.0
 10
-25.94418019638202
 20
-2.739996390938314
 30
0.0
 10
-26.37312505197071
 20
-2.500363100500245
 30
0.0
 10
-26.80203066667572
 20
-2.244092029700675
 30
0.0
 10
-27.23090507553848
 20
-1.972815741288238
 30
0.0
 10
-27.55323416544127
 20
-1.758885036866056
 30
0.0
 10
-27.73284718245057
 20
-1.636609122835922
 30
0.0
 10
-27.76998518178061
 20
-1.611201276283626
 30
0.0
  0
ELLIPSE
  5
3B71
330
1F
100
AcDbEntity
  8
AM_0
100
AcDbEllipse
 10
-29.00855931716633
 20
-2.667961950785669
 30
0.0
 11
1.918670319964135
 21
0.1153430420849262
 31
0.0
210
0.0
220
0.0
230
1.0
 40
0.6924354690120515
 41
0.828197737627461
 42
4.670786455030318
  0
SPLINE
  5
3B72
330
1F
100
AcDbEntity
  8
AM_0
 48
0.5
100
AcDbSpline
210
0.0
220
0.0
230
1.0
 70
     8
 71
     3
 72
    15
 73
    11
 74
     0
 42
0.0000000001
 43
0.0000000001
 40
0.0
 40
0.0
 40
0.0
 40
0.0
 40
1.010743684496582
 40
2.022833993863546
 40
3.037578683882831
 40
4.056212471389632
 40
5.079857945358201
 40
6.109499720892564
 40
7.145961650132166
 40
7.907745354493536
 40
7.907745354493536
 40
7.907745354493536
 40
7.907745354493536
 10
-21.56384583441134
 20
-4.000165061098613
 30
0.0
 10
-21.7974988457467
 20
-3.967398671589397
 30
0.0
 10
-22.08191519140925
 20
-3.946367442881325
 30
0.0
 10
-22.51118083212913
 20
-3.906508566797075
 30
0.0
 10
-22.94042906337983
 20
-3.843171677100039
 30
0.0
 10
-23.36965049214849
 20
-3.754387588356418
 30
0.0
 10
-23.79883967453906
 20
-3.641359778541175
 30
0.0
 10
-24.22799213312147
 20
-3.504623318450377
 30
0.0
 10
-24.61817450134096
 20
-3.359536810151731
 30
0.0
 10
-24.8647507290346
 20
-3.257006097876903
 30
0.0
 10
-24.96892331720331
 20
-3.211834782417177
 30
0.0
  0
LINE
  5
3B73
330
1F
100
AcDbEntity
  8
AM_0
100
AcDbLine
 10
-27.76998601453674
 20
-4.000165443954537
 30
0.0
 11
-26.96108131106466
 21
-3.709039466822153
 31
0.0
  0
SPLINE
  5
3B74
330
1F
100
AcDbEntity
  8
AM_0
100
AcDbSpline
210
0.0
220
0.0
230
1.0
 70
     8
 71
     3
 72
    23
 73
    19
 74
     0
 42
0.0000000001
 43
0.0000000001
 40
16.03905285852473
 40
16.03905285852473
 40
16.03905285852473
 40
16.03905285852473
 40
16.35212704903564
 40
17.38177054169784
 40
18.41822485651776
 40
19.46214173629503
 40
20.51396345435107
 40
21.57393551351153
 40
22.64208202342361
 40
23.7182574881101
 40
24.80209208578934
 40
25.89306333925047
 40
26.99048218457928
 40
28.09348763352352
 40
29.20111863782268
 40
30.31232390128032
 40
31.42594612798585
 40
32.5407912310448
 40
32.5407912310486
 40
32.5407912310486
 40
32.5407912310486
 10
-21.5005508878203
 20
4.000164365276583
 30
0.0
 10
-21.45706872807949
 20
3.986840018508766
 30
0.0
 10
-21.27076639664688
 20
3.928208110809297
 30
0.0
 10
-20.94211481485021
 20
3.813203002890729
 30
0.0
 10
-20.5157136375824
 20
3.641871617636891
 30
0.0
 10
-20.08970852178463
 20
3.449495030047512
 30
0.0
 10
-19.66407429447481
 20
3.237186617689153
 30
0.0
 10
-19.23879584913993
 20
3.006130004713725
 30
0.0
 10
-18.81384860570511
 20
2.75764600816076
 30
0.0
 10
-18.3892029724595
 20
2.493180742561283
 30
0.0
 10
-17.96483481951295
 20
2.214231859295184
 30
0.0
 10
-17.54071012373197
 20
1.922422496917851
 30
0.0
 10
-17.11679451455273
 20
1.619448777518911
 30
0.0
 10
-16.69305974768725
 20
1.307052672970119
 30
0.0
 10
-16.26947036976228
 20
0.9870507238387585
 30
0.0
 10
-15.84598714743036
 20
0.6613115067359466
 30
0.0
 10
-15.42257559720288
 20
0.3317225922177305
 30
0.0
 10
-15.14037704918098
 20
0.1107512467688215
 30
0.0
 10
-13.34198924738773
 20
-1.03865474190536
 30
0.0
  0
LINE
  5
3B75
330
1F
100
AcDbEntity
  8
AM_0
100
AcDbLine
 10
-20.01026285211339
 20
-4.00016496525829
 30
0.0
 11
-21.56384583441123
 21
-4.000165061098613
 31
0.0
  0
SPLINE
  5
3B76
330
1F
100
AcDbEntity
  8
AM_0
100
AcDbSpline
210
0.0
220
0.0
230
1.0
 70
     8
 71
     3
 72
    23
 73
    19
 74
     0
 42
0.0000000001
 43
0.0000000001
 40
16.03905285852473
 40
16.03905285852473
 40
16.03905285852473
 40
16.03905285852473
 40
16.35212704903564
 40
17.38177054169784
 40
18.41822485651776
 40
19.46214173629503
 40
20.51396345435107
 40
21.57393551351153
 40
22.64208202342361
 40
23.7182574881101
 40
24.80209208578934
 40
25.89306333925047
 40
26.99048218457928
 40
28.09348763352352
 40
29.20111863782268
 40
30.31232390128032
 40
31.42594612798585
 40
32.5407912310448
 40
32.5407912310486
 40
32.5407912310486
 40
32.5407912310486
 10
-29.26027321748752
 20
4.00016436527663
 30
0.0
 10
-29.21679105774671
 20
3.986840018508812
 30
0.0
 10
-29.0304887263141
 20
3.928208110809342
 30
0.0
 10
-28.70183714451744
 20
3.813203002890808
 30
0.0
 10
-28.27543596724966
 20
3.641871617636967
 30
0.0
 10
-27.84943085145187
 20
3.44949503004759
 30
0.0
 10
-27.42379662414205
 20
3.237186617689232
 30
0.0
 10
-26.99851817880718
 20
3.006130004713802
 30
0.0
 10
-26.57357093537235
 20
2.757646008160838
 30
0.0
 10
-26.14892530212674
 20
2.493180742561361
 30
0.0
 10
-25.72455714918021
 20
2.214231859295262
 30
0.0
 10
-25.30043245339921
 20
1.922422496917929
 30
0.0
 10
-24.87651684421997
 20
1.619448777518989
 30
0.0
 10
-24.45278207735449
 20
1.307052672970197
 30
0.0
 10
-24.0291926994295
 20
0.9870507238388363
 30
0.0
 10
-23.60570947709758
 20
0.6613115067359919
 30
0.0
 10
-23.18229792687014
 20
0.3317225922177759
 30
0.0
 10
-22.90009937884824
 20
0.110751246768867
 30
0.0
 10
-20.81895444038955
 20
-1.297530869023956
 30
0.0
  0
LINE
  5
3C2A
330
1F
100
AcDbEntity
  8
AM_0
100
AcDbLine
 10
-11.50326111755274
 20
-2.550000000000243
 30
0.0
 11
-12.92812623977653
 21
-3.974865122224052
 31
0.0
  0
DIMENSION
  5
3C6A
330
1F
100
AcDbEntity
  8
AM_5
100
AcDbDimension
  2
*D14
 10
-12.92812623977653
 20
-3.974865122224052
 30
0.0
 11
-45.11250296237667
 21
-0.0000000000001256
 31
0.0
 70
    34
  1
<>
 51
359.9999999999998
  3
AM_JIS$2
100
AcDb2LineAngularDimension
 13
-11.50326111755275
 23
2.550000000000173
 33
0.0
 14
-12.85068750212704
 24
3.897426384574456
 34
0.0
 15
-11.50326111755274
 25
-2.550000000000243
 35
0.0
 16
-42.3832216437525
 26
8.957530925999501
 36
0.0
1001
ACAD
1000
DSTYLE
1002
{
1070
   179
1070
     3
1002
}
1001
GENIUS_GENDTOL_13
1000

1000
h7
1000

1040
0.0
  0
VIEWPORT
  5
110
330
101
100
AcDbEntity
 67
     1
  8
0
100
AcDbViewport
 10
420.5
 20
297.0
 30
0.0
 40
948.9782706766916
 41
628.452
 68
     1
 69
     1
1001
ACAD
1000
MVIEW
1002
{
1070
    16
1010
0.0
1020
0.0
1030
0.0
1010
0.0
1020
0.0
1030
1.0
1040
0.0
1040
628.452
1040
420.5
1040
297.0
1040
50.0
1040
0.0
1040
0.0
1070
     0
1070
   100
1070
     1
1070
     1
1070
     0
1070
     0
1070
     0
1070
     0
1040
0.0
1040
0.0
1040
0.0
1040
10.0
1040
10.0
1040
10.0
1040
10.0
1070
     0
1002
{
1002
}
1002
}
  0
ENDSEC
  0
SECTION
  2
OBJECTS
  0
DICTIONARY
  5
C
330
0
100
AcDbDictionary
  3
ACAD_GROUP
350
D
  3
ACAD_LAYOUT
350
1A
  3
ACAD_MLINESTYLE
350
17
  3
ACAD_PLOTSETTINGS
350
19
  3
ACAD_PLOTSTYLENAME
350
E
  3
ACDBVARIABLEDICTIONARY
350
34
  3
ACMDICTIONARY
350
43
  3
AMG
350
2B
  3
AMGSNAPSETTINGS
350
6E
  3
DWGPROPS
350
3D8A
  3
ACDBHEADERROUNDTRIPXREC
350
3D99
  0
DICTIONARY
  5
74
330
1F
100
AcDbDictionary
280
     1
  3
ACAD_INDEX
360
3D8C
  3
ACAD_LAYOUTSELFREF
360
3DBC
  0
DICTIONARY
  5
3DC1
330
101
100
AcDbDictionary
280
     1
  3
ACAD_LAYOUTSELFREF
360
3DC2
  0
DICTIONARY
  5
D
102
{ACAD_REACTORS
330
C
102
}
330
C
100
AcDbDictionary
  0
DICTIONARY
  5
1A
102
{ACAD_REACTORS
330
C
102
}
330
C
100
AcDbDictionary
  0
DICTIONARY
  5
17
102
{ACAD_REACTORS
330
C
102
}
330
C
100
AcDbDictionary
  3
STANDARD
350
18
  0
DICTIONARY
  5
19
102
{ACAD_REACTORS
330
C
102
}
330
C
100
AcDbDictionary
  0
ACDBDICTIONARYWDFLT
  5
E
102
{ACAD_REACTORS
330
C
102
}
330
C
100
AcDbDictionary
281
     1
  3
Normal
350
F
100
AcDbDictionaryWithDefault
340
F
  0
DICTIONARY
  5
34
102
{ACAD_REACTORS
330
C
102
}
330
C
100
AcDbDictionary
  3
INDEXCTL
350
35
  3
SORTENTS
350
B5E
  0
DICTIONARY
  5
43
102
{ACAD_REACTORS
330
C
102
}
330
C
100
AcDbDictionary
  3
ACMSTDDICTIONARY
350
260
  0
DICTIONARY
  5
2B
102
{ACAD_REACTORS
330
C
102
}
330
C
100
AcDbDictionary
  3
ACMGSETTINGS
350
2C
  0
DICTIONARY
  5
6E
102
{ACAD_REACTORS
330
C
102
}
330
C
100
AcDbDictionary
  0
XRECORD
  5
3D8A
102
{ACAD_REACTORS
330
C
102
}
330
C
100
AcDbXrecord
  1
DWGPROPS COOKIE
  2

  3

  4

  6

  7

  8

  9

300
AmdtFileType=82
301
=
302
=
303
=
304
=
305
=
306
=
307
=
308
=
309
=
 40
0.2512619444444444
 41
2452800.443498622
 42
2453002.947118587
  1

 90
        1
  0
DICTIONARY
  5
3D99
102
{ACAD_REACTORS
330
C
102
}
330
C
100
AcDbDictionary
  3
TSTACKALIGN
350
3D9A
  3
TSTACKSIZE
350
3D9B
  3
HYPERLINKBASE
350
3D9C
  3
STYLESHEET
350
3D9D
  3
LAYOUTDICT
350
3D9E
  3
PLOTSETDICT
350
3D9F
  3
PLOTSTYLNAMDICT
350
3DA0
  3
LWETCUNION
350
3DA1
  3
INSUNITS
350
3DA2
  3
CEPSNTYPE
350
3DA3
  3
FINGERPRINTGUID
350
3DA4
  3
VERSIONGUID
350
3DA5
  3
PSVPSCALE
350
3DA6
  3
DIMSTYLEDATA
350
3DA7
  3
PUCSORTHOREF
350
3DA8
  3
PUCSORTHOVIEW
350
3DA9
  3
PUCSBASE
350
3DAA
  3
PUCSORGTOP
350
3DAB
  3
PUCSORGBOTTOM
350
3DAC
  3
PUCSORGLEFT
350
3DAD
  3
PUCSORGRIGHT
350
3DAE
  3
PUCSORGFRONT
350
3DAF
  3
PUCSORGBACK
350
3DB0
  3
UCSORTHOREF
350
3DB1
  3
UCSORTHOVIEW
350
3DB2
  3
UCSBASE
350
3DB3
  3
UCSORGTOP
350
3DB4
  3
UCSORGBOTTOM
350
3DB5
  3
UCSORGLEFT
350
3DB6
  3
UCSORGRIGHT
350
3DB7
  3
UCSORGFRONT
350
3DB8
  3
UCSORGBACK
350
3DB9
  0
DICTIONARY
  5
3D8C
102
{ACAD_REACTORS
330
74
102
}
330
74
100
AcDbDictionary
  3
*A1
350
3D8D
  0
XRECORD
  5
3DBC
102
{ACAD_REACTORS
330
74
102
}
330
74
100
AcDbXrecord
340
1F
  0
XRECORD
  5
3DC2
102
{ACAD_REACTORS
330
3DC1
102
}
330
3DC1
100
AcDbXrecord
340
101
  0
MLINESTYLE
  5
18
102
{ACAD_REACTORS
330
17
102
}
330
17
100
AcDbMlineStyle
  2
STANDARD
 70
     0
  3

 62
   256
 51
90.0
 52
90.0
 71
     2
 49
0.5
 62
   256
  6
BYLAYER
 49
-0.5
 62
   256
  6
BYLAYER
  0
ACDBPLACEHOLDER
  5
F
102
{ACAD_REACTORS
330
E
102
}
330
E
100
AcDbPlaceHolder
280
     0
  0
DICTIONARYVAR
  5
35
102
{ACAD_REACTORS
330
34
102
}
330
34
100
DictionaryVariables
280
     0
  1
1
  0
DICTIONARYVAR
  5
B5E
102
{ACAD_REACTORS
330
34
102
}
330
34
100
DictionaryVariables
280
     0
  1
96
  0
DICTIONARY
  5
260
102
{ACAD_REACTORS
330
43
102
}
330
43
100
AcDbDictionary
  0
DICTIONARY
  5
2C
102
{ACAD_REACTORS
330
2B
102
}
330
2B
100
AcDbDictionary
  3
DWGSETTINGS
350
2D
  0
XRECORD
  5
3D9A
102
{ACAD_REACTORS
330
3D99
102
}
330
3D99
100
AcDbXrecord
 90
        1
  0
XRECORD
  5
3D9B
102
{ACAD_REACTORS
330
3D99
102
}
330
3D99
100
AcDbXrecord
 90
       70
  0
XRECORD
  5
3D9C
102
{ACAD_REACTORS
330
3D99
102
}
330
3D99
100
AcDbXrecord
  1

  0
XRECORD
  5
3D9D
102
{ACAD_REACTORS
330
3D99
102
}
330
3D99
100
AcDbXrecord
  1
ASAMI.ctb
  0
XRECORD
  5
3D9E
102
{ACAD_REACTORS
330
3D99
102
}
330
3D99
100
AcDbXrecord
340
1A
  0
XRECORD
  5
3D9F
102
{ACAD_REACTORS
330
3D99
102
}
330
3D99
100
AcDbXrecord
340
19
  0
XRECORD
  5
3DA0
102
{ACAD_REACTORS
330
3D99
102
}
330
3D99
100
AcDbXrecord
340
E
  0
XRECORD
  5
3DA1
102
{ACAD_REACTORS
330
3D99
102
}
330
3D99
100
AcDbXrecord
 90
    10781
  0
XRECORD
  5
3DA2
102
{ACAD_REACTORS
330
3D99
102
}
330
3D99
100
AcDbXrecord
 90
        4
  0
XRECORD
  5
3DA3
102
{ACAD_REACTORS
330
3D99
102
}
330
3D99
100
AcDbXrecord
 90
        0
  0
XRECORD
  5
3DA4
102
{ACAD_REACTORS
330
3D99
102
}
330
3D99
100
AcDbXrecord
  1
{AFB28963-8C59-40AE-9337-C84526B81ACE}
  0
XRECORD
  5
3DA5
102
{ACAD_REACTORS
330
3D99
102
}
330
3D99
100
AcDbXrecord
  1
{343AEC4A-46A8-4834-A8AF-C877EB64D08D}
  0
XRECORD
  5
3DA6
102
{ACAD_REACTORS
330
3D99
102
}
330
3D99
100
AcDbXrecord
 40
0.0
  0
XRECORD
  5
3DA7
102
{ACAD_REACTORS
330
3D99
102
}
330
3D99
100
AcDbXrecord
1000
DSTYLE
1002
{
1070
    79
 70
     2
1070
   341
340
59
1070
   342
340
59
1070
   371
 70
    -1
1070
   372
 70
    -1
1002
}
  0
XRECORD
  5
3DA8
102
{ACAD_REACTORS
330
3D99
102
}
330
3D99
100
AcDbXrecord
340
0
  0
XRECORD
  5
3DA9
102
{ACAD_REACTORS
330
3D99
102
}
330
3D99
100
AcDbXrecord
 70
     0
  0
XRECORD
  5
3DAA
102
{ACAD_REACTORS
330
3D99
102
}
330
3D99
100
AcDbXrecord
340
0
  0
XRECORD
  5
3DAB
102
{ACAD_REACTORS
330
3D99
102
}
330
3D99
100
AcDbXrecord
 10
0.0
 20
0.0
 30
0.0
  0
XRECORD
  5
3DAC
102
{ACAD_REACTORS
330
3D99
102
}
330
3D99
100
AcDbXrecord
 10
0.0
 20
0.0
 30
0.0
  0
XRECORD
  5
3DAD
102
{ACAD_REACTORS
330
3D99
102
}
330
3D99
100
AcDbXrecord
 10
0.0
 20
0.0
 30
0.0
  0
XRECORD
  5
3DAE
102
{ACAD_REACTORS
330
3D99
102
}
330
3D99
100
AcDbXrecord
 10
0.0
 20
0.0
 30
0.0
  0
XRECORD
  5
3DAF
102
{ACAD_REACTORS
330
3D99
102
}
330
3D99
100
AcDbXrecord
 10
0.0
 20
0.0
 30
0.0
  0
XRECORD
  5
3DB0
102
{ACAD_REACTORS
330
3D99
102
}
330
3D99
100
AcDbXrecord
 10
0.0
 20
0.0
 30
0.0
  0
XRECORD
  5
3DB1
102
{ACAD_REACTORS
330
3D99
102
}
330
3D99
100
AcDbXrecord
340
0
  0
XRECORD
  5
3DB2
102
{ACAD_REACTORS
330
3D99
102
}
330
3D99
100
AcDbXrecord
 70
     0
  0
XRECORD
  5
3DB3
102
{ACAD_REACTORS
330
3D99
102
}
330
3D99
100
AcDbXrecord
340
0
  0
XRECORD
  5
3DB4
102
{ACAD_REACTORS
330
3D99
102
}
330
3D99
100
AcDbXrecord
 10
0.0
 20
0.0
 30
0.0
  0
XRECORD
  5
3DB5
102
{ACAD_REACTORS
330
3D99
102
}
330
3D99
100
AcDbXrecord
 10
0.0
 20
0.0
 30
0.0
  0
XRECORD
  5
3DB6
102
{ACAD_REACTORS
330
3D99
102
}
330
3D99
100
AcDbXrecord
 10
0.0
 20
0.0
 30
0.0
  0
XRECORD
  5
3DB7
102
{ACAD_REACTORS
330
3D99
102
}
330
3D99
100
AcDbXrecord
 10
0.0
 20
0.0
 30
0.0
  0
XRECORD
  5
3DB8
102
{ACAD_REACTORS
330
3D99
102
}
330
3D99
100
AcDbXrecord
 10
0.0
 20
0.0
 30
0.0
  0
XRECORD
  5
3DB9
102
{ACAD_REACTORS
330
3D99
102
}
330
3D99
100
AcDbXrecord
 10
0.0
 20
0.0
 30
0.0
  0
LAYER_INDEX
  5
3D8D
102
{ACAD_REACTORS
330
3D8C
102
}
330
3D8C
100
AcDbIndex
 40
2453151.580976181
100
AcDbLayerIndex
  8
0
360
3D8E
 90
        0
  8
AM_0
360
3D8F
 90
       60
  8
PV0001_1
360
3D90
 90
        0
  8
AM_CL
360
3D91
 90
        0
  8
AM_7
360
3D92
 90
        3
  8
AM_11
360
3D93
 90
        0
  8
AM_5
360
3D94
 90
        7
  8
Defpoints
360
3D95
 90
        0
  8
AM_6
360
3D96
 90
        1
  8
AM_4
360
3D97
 90
        0
  0
XRECORD
  5
2D
102
{ACAD_REACTORS
330
2C
102
}
330
2C
100
AcDbXrecord
  1
VERSION
140
15.0
  1
PRODUCT
  2
AutoCAD Mechanical 2000
  0
IDBUFFER
  5
3D8E
330
0
100
AcDbIdBuffer
  0
IDBUFFER
  5
3D8F
330
0
100
AcDbIdBuffer
330
3B6C
330
3B6D
330
3B6E
330
3B6F
330
3B70
330
3B71
330
3B72
330
3B73
330
3B74
330
3B75
330
3B76
330
3C2A
330
31FF
330
3200
330
320C
330
320D
330
320E
330
3212
330
3213
330
3214
330
3215
330
3216
330
3217
330
3218
330
3219
330
321A
330
321B
330
323F
330
3240
330
3241
330
3242
330
3243
330
37E0
330
3B09
330
3B0A
330
3B0B
330
3B0C
330
3B0F
330
3B10
330
3B11
330
3B12
330
3B13
330
3B14
330
3B15
330
3B16
330
3B17
330
3B18
330
3B1A
330
3B1B
330
3B1C
330
3B1D
330
3B1E
330
3B1F
330
3B65
330
3B66
330
3B67
330
3B68
330
3B69
330
3B6A
330
3B6B
  0
IDBUFFER
  5
3D90
330
0
100
AcDbIdBuffer
  0
IDBUFFER
  5
3D91
330
0
100
AcDbIdBuffer
  0
IDBUFFER
  5
3D92
330
0
100
AcDbIdBuffer
330
3201
330
3B0D
330
3B0E
  0
IDBUFFER
  5
3D93
330
0
100
AcDbIdBuffer
  0
IDBUFFER
  5
3D94
330
0
100
AcDbIdBuffer
330
31FC
330
31FD
330
31FE
330
3202
330
320B
330
323E
330
3C6A
  0
IDBUFFER
  5
3D95
330
0
100
AcDbIdBuffer
  0
IDBUFFER
  5
3D96
330
0
100
AcDbIdBuffer
330
19BD
  0
IDBUFFER
  5
3D97
330
0
100
AcDbIdBuffer
  0
ENDSEC
  0
EOF
