  0
SECTION
  2
HEADER
  9
$ACADVER
  1
AC1014
  9
$ACADMAINTVER
 70
     9
  9
$DWGCODEPAGE
  3
ANSI_932
  9
$INSBASE
 10
0.0
 20
0.0
 30
0.0
  9
$EXTMIN
 10
-112.0250219808317
 20
-26.25000100000011
 30
-0.00000001
  9
$EXTMAX
 10
15.50703714757518
 20
15.04169468822249
 30
0.00000001
  9
$LIMMIN
 10
-118.7376616840613
 20
-44.05358703045147
  9
$LIMMAX
 10
23.3009026967577
 20
29.02021291074325
  9
$ORTHOMODE
 70
     0
  9
$REGENMODE
 70
     1
  9
$FILLMODE
 70
     1
  9
$QTEXTMODE
 70
     0
  9
$MIRRTEXT
 70
     0
  9
$DRAGMODE
 70
     2
  9
$LTSCALE
 40
1.0
  9
$OSMODE
 70
    55
  9
$ATTMODE
 70
     1
  9
$TEXTSIZE
 40
2.5
  9
$TRACEWID
 40
1.0
  9
$TEXTSTYLE
  7
STANDARD
  9
$CLAYER
  8
AM_0
  9
$CELTYPE
  6
BYLAYER
  9
$CECOLOR
 62
   256
  9
$CELTSCALE
 40
1.0
  9
$DELOBJ
 70
     1
  9
$DISPSILH
 70
     0
  9
$DIMSCALE
 40
0.5
  9
$DIMASZ
 40
2.5
  9
$DIMEXO
 40
1.0
  9
$DIMDLI
 40
12.0
  9
$DIMRND
 40
0.0
  9
$DIMDLE
 40
0.0
  9
$DIMEXE
 40
1.0
  9
$DIMTP
 40
0.1
  9
$DIMTM
 40
0.1
  9
$DIMTXT
 40
3.2
  9
$DIMCEN
 40
0.0
  9
$DIMTSZ
 40
0.0
  9
$DIMTOL
 70
     0
  9
$DIMLIM
 70
     0
  9
$DIMTIH
 70
     0
  9
$DIMTOH
 70
     0
  9
$DIMSE1
 70
     0
  9
$DIMSE2
 70
     0
  9
$DIMTAD
 70
     3
  9
$DIMZIN
 70
     8
  9
$DIMBLK
  1
OPEN30
  9
$DIMASO
 70
     1
  9
$DIMSHO
 70
     1
  9
$DIMPOST
  1

  9
$DIMAPOST
  1
"
  9
$DIMALT
 70
     0
  9
$DIMALTD
 70
     2
  9
$DIMALTF
 40
0.0393701
  9
$DIMLFAC
 40
1.0
  9
$DIMTOFL
 70
     1
  9
$DIMTVP
 40
0.0
  9
$DIMTIX
 70
     0
  9
$DIMSOXD
 70
     0
  9
$DIMSAH
 70
     0
  9
$DIMBLK1
  1

  9
$DIMBLK2
  1

  9
$DIMSTYLE
  2
AM_JIS
  9
$DIMCLRD
 70
   256
  9
$DIMCLRE
 70
   256
  9
$DIMCLRT
 70
     2
  9
$DIMTFAC
 40
0.71
  9
$DIMGAP
 40
1.5
  9
$DIMJUST
 70
     0
  9
$DIMSD1
 70
     0
  9
$DIMSD2
 70
     0
  9
$DIMTOLJ
 70
     0
  9
$DIMTZIN
 70
     0
  9
$DIMALTZ
 70
     0
  9
$DIMALTTZ
 70
     0
  9
$DIMFIT
 70
     3
  9
$DIMUPT
 70
     0
  9
$DIMUNIT
 70
     2
  9
$DIMDEC
 70
     3
  9
$DIMTDEC
 70
     3
  9
$DIMALTU
 70
     2
  9
$DIMALTTD
 70
     2
  9
$DIMTXSTY
  7
ASAMI
  9
$DIMAUNIT
 70
     0
  9
$LUNITS
 70
     2
  9
$LUPREC
 70
     2
  9
$SKETCHINC
 40
1.0
  9
$FILLETRAD
 40
2.5
  9
$AUNITS
 70
     0
  9
$AUPREC
 70
     0
  9
$MENU
  1
.
  9
$ELEVATION
 40
0.0
  9
$PELEVATION
 40
0.0
  9
$THICKNESS
 40
0.0
  9
$LIMCHECK
 70
     0
  9
$BLIPMODE
 70
     0
  9
$CHAMFERA
 40
0.25
  9
$CHAMFERB
 40
0.25
  9
$CHAMFERC
 40
20.0
  9
$CHAMFERD
 40
0.0
  9
$SKPOLY
 70
     0
  9
$TDCREATE
 40
2452800.443498622
  9
$TDUPDATE
 40
2453151.693166759
  9
$TDINDWG
 40
0.0773311111
  9
$TDUSRTIMER
 40
0.0773311111
  9
$USRTIMER
 70
     1
  9
$ANGBASE
 50
0.0
  9
$ANGDIR
 70
     0
  9
$PDMODE
 70
     3
  9
$PDSIZE
 40
0.0
  9
$PLINEWID
 40
0.0
  9
$COORDS
 70
     1
  9
$SPLFRAME
 70
     0
  9
$SPLINETYPE
 70
     6
  9
$SPLINESEGS
 70
     8
  9
$ATTDIA
 70
     1
  9
$ATTREQ
 70
     1
  9
$HANDLING
 70
 12289
  9
$HANDSEED
  5
2AF0
  9
$SURFTAB1
 70
     6
  9
$SURFTAB2
 70
     6
  9
$SURFTYPE
 70
     6
  9
$SURFU
 70
     6
  9
$SURFV
 70
     6
  9
$UCSNAME
  2

  9
$UCSORG
 10
-0.0000000000000239
 20
0.0000000000000206
 30
0.0
  9
$UCSXDIR
 10
1.0
 20
0.000000000000002
 30
0.0
  9
$UCSYDIR
 10
-0.000000000000002
 20
1.0
 30
0.0
  9
$PUCSNAME
  2

  9
$PUCSORG
 10
0.0
 20
0.0
 30
0.0
  9
$PUCSXDIR
 10
1.0
 20
0.0
 30
0.0
  9
$PUCSYDIR
 10
0.0
 20
1.0
 30
0.0
  9
$USERI1
 70
     0
  9
$USERI2
 70
     0
  9
$USERI3
 70
     0
  9
$USERI4
 70
     0
  9
$USERI5
 70
     0
  9
$USERR1
 40
0.0
  9
$USERR2
 40
0.0
  9
$USERR3
 40
0.0
  9
$USERR4
 40
0.0
  9
$USERR5
 40
0.0
  9
$WORLDVIEW
 70
     1
  9
$SHADEDGE
 70
     3
  9
$SHADEDIF
 70
    70
  9
$TILEMODE
 70
     1
  9
$MAXACTVP
 70
    64
  9
$PINSBASE
 10
0.0
 20
0.0
 30
0.0
  9
$PLIMCHECK
 70
     0
  9
$PEXTMIN
 10
1.000000000000000E+20
 20
1.000000000000000E+20
 30
1.000000000000000E+20
  9
$PEXTMAX
 10
-1.000000000000000E+20
 20
-1.000000000000000E+20
 30
-1.000000000000000E+20
  9
$PLIMMIN
 10
0.0
 20
0.0
  9
$PLIMMAX
 10
841.0
 20
594.0
  9
$UNITMODE
 70
     0
  9
$VISRETAIN
 70
     1
  9
$PLINEGEN
 70
     0
  9
$PSLTSCALE
 70
     0
  9
$TREEDEPTH
 70
  3020
  9
$PICKSTYLE
 70
     0
  9
$CMLSTYLE
  2
STANDARD
  9
$CMLJUST
 70
     0
  9
$CMLSCALE
 40
20.0
  9
$PROXYGRAPHICS
 70
     1
  9
$MEASUREMENT
 70
     1
  0
ENDSEC
  0
SECTION
  2
CLASSES
  0
CLASS
  1
ACDBDICTIONARYWDFLT
  2
AcDbDictionaryWithDefault
  3
AutoCAD 2000
 90
        0
280
     0
281
     0
  0
CLASS
  1
ACDBPLACEHOLDER
  2
AcDbPlaceHolder
  3
AutoCAD 2000
 90
        0
280
     0
281
     0
  0
CLASS
  1
LAYOUT
  2
AcDbLayout
  3
AutoCAD 2000
 90
        0
280
     0
281
     0
  0
CLASS
  1
AMGSETTINGSOBJ
  2
AmgSettingsObj
  3
"AcadM|Product Description: AutoCAD Mechanical 2000|Company: Autodesk"
 90
        0
280
     0
281
     0
  0
CLASS
  1
ACME_DOCUMENT
  2
AcMeDbDoc
  3
AcMeServices
 90
        0
280
     0
281
     0
  0
CLASS
  1
ACMESCOPE
  2
AcMeScope
  3
AcMeServices
 90
        0
280
     0
281
     0
  0
CLASS
  1
ACMECOMMANDHISTORY
  2
AcMeCommandHistory
  3
AcMeServices
 90
        0
280
     0
281
     0
  0
CLASS
  1
DICTIONARYVAR
  2
AcDbDictionaryVar
  3
AutoCAD 2000
 90
        0
280
     0
281
     0
  0
CLASS
  1
ACIMSYSVARMAN
  2
AcImSysVarManager
  3
AcMeServices
 90
        0
280
     0
281
     0
  0
CLASS
  1
ACIMREALSYSVAR
  2
AcImRealSysVar
  3
AcMeServices
 90
        0
280
     0
281
     0
  0
CLASS
  1
ACIMINTSYSVAR
  2
AcImIntSysVar
  3
AcMeServices
 90
        0
280
     0
281
     0
  0
CLASS
  1
ACMEDRAWINGMAN
  2
AcMeDrawingMan
  3
AcMeServices
 90
        0
280
     0
281
     0
  0
CLASS
  1
ACMEVIEW
  2
AcMeView
  3
AcMeServices
 90
        0
280
     0
281
     0
  0
CLASS
  1
ACDBENTITYCACHE
  2
AcMeEntityCache
  3
AcMeServices
 90
        0
280
     0
281
     0
  0
CLASS
  1
GSMANAGER
  2
AcMeGSManager
  3
AcMeServices
 90
        0
280
     0
281
     0
  0
CLASS
  1
AmdtInternalReactor
  2
AmdtInternalReactor
  3
AcMeServices
 90
        0
280
     0
281
     0
  0
CLASS
  1
ACMESTATEMGR
  2
AcMeStateMgr
  3
AcMeServices
 90
        0
280
     0
281
     0
  0
CLASS
  1
ACME_DATABASE
  2
AcMeDbDatabase
  3
AcMeServices
 90
        0
280
     0
281
     0
  0
CLASS
  1
ACRFINSADJUSTERMGR
  2
AcRfInsAdjusterMgr
  3
AcMeServices
 90
        0
280
     0
281
     0
  0
CLASS
  1
ACMDATADICTIONARY
  2
AcmDataDictionary
  3
"AcmSymBB|Product Description: AutoCAD Mechanical 2000|Company: Autodesk"
 90
        0
280
     0
281
     0
  0
CLASS
  1
ACMDATAENTRYBLOCK
  2
AcmDataEntryBlock
  3
"AcmSymBB|Product Description: AutoCAD Mechanical 2000|Company: Autodesk"
 90
        0
280
     0
281
     0
  0
CLASS
  1
AMGOBJPROPCFG
  2
AmgObjPropCfg
  3
"AmgLay|Product Description: AutoCAD Mechanical 2000|Company: Autodesk"
 90
        1
280
     0
281
     0
  0
CLASS
  1
ACAMGFILTERDAT
  2
AcAmgFilterDat
  3
"AcadM|Product Description: AutoCAD Mechanical 2000|Company: Autodesk"
 90
        0
280
     0
281
     0
  0
CLASS
  1
LAYER_INDEX
  2
AcDbLayerIndex
  3
AutoCAD 2000
 90
        0
280
     0
281
     0
  0
CLASS
  1
IDBUFFER
  2
AcDbIdBuffer
  3
AutoCAD 2000
 90
        0
280
     0
281
     0
  0
CLASS
  1
ACIMSTRSYSVAR
  2
AcImStrSysVar
  3
AcMeServices
 90
        0
280
     0
281
     0
  0
CLASS
  1
ACMSTANDARDJIS
  2
AcmStandardJIS
  3
"AcmSymBB|Product Description: AutoCAD Mechanical 2000|Company: Autodesk"
 90
        0
280
     0
281
     0
  0
CLASS
  1
ACMSURFSTANDARDJIS
  2
AcmSurfTextStdJIS
  3
"AcmSymBB|Product Description: AutoCAD Mechanical 2000|Company: Autodesk"
 90
        0
280
     0
281
     0
  0
CLASS
  1
ACMFCFSTANDARDJIS
  2
AcmFCFStdJIS
  3
"AcmSymBB|Product Description: AutoCAD Mechanical 2000|Company: Autodesk"
 90
        0
280
     0
281
     0
  0
CLASS
  1
ACMWELDSTANDARDJIS
  2
AcmWeldingStdJIS
  3
"AcmSymBB|Product Description: AutoCAD Mechanical 2000|Company: Autodesk"
 90
        0
280
     0
281
     0
  0
CLASS
  1
ACMIDSTANDARDJIS
  2
AcmIdStdJIS
  3
"AcmSymBB|Product Description: AutoCAD Mechanical 2000|Company: Autodesk"
 90
        0
280
     0
281
     0
  0
CLASS
  1
ACMDATUMSTANDARDJIS
  2
AcmDatumStdJIS
  3
"AcmSymBB|Product Description: AutoCAD Mechanical 2000|Company: Autodesk"
 90
        0
280
     0
281
     0
  0
CLASS
  1
ACMBOMSTANDARDJIS
  2
AcmBOMStdJIS
  3
"AcmSymBB|Product Description: AutoCAD Mechanical 2000|Company: Autodesk"
 90
        0
280
     0
281
     0
  0
CLASS
  1
ACMSTANDARDANSI
  2
AcmStandardANSI
  3
"AcmSymBB|Product Description: AutoCAD Mechanical 2000|Company: Autodesk"
 90
        0
280
     0
281
     0
  0
CLASS
  1
ACMSURFSTANDARDANSI
  2
AcmSurfTextStdANSI
  3
"AcmSymBB|Product Description: AutoCAD Mechanical 2000|Company: Autodesk"
 90
        0
280
     0
281
     0
  0
CLASS
  1
ACMFCFSTANDARDANSI
  2
AcmFCFStdANSI
  3
"AcmSymBB|Product Description: AutoCAD Mechanical 2000|Company: Autodesk"
 90
        0
280
     0
281
     0
  0
CLASS
  1
ACMWELDSTANDARDANSI
  2
AcmWeldingStdANSI
  3
"AcmSymBB|Product Description: AutoCAD Mechanical 2000|Company: Autodesk"
 90
        0
280
     0
281
     0
  0
CLASS
  1
ACMIDSTANDARDANSI
  2
AcmIdStdANSI
  3
"AcmSymBB|Product Description: AutoCAD Mechanical 2000|Company: Autodesk"
 90
        0
280
     0
281
     0
  0
CLASS
  1
ACMDATUMSTANDARDANSI
  2
AcmDatumStdANSI
  3
"AcmSymBB|Product Description: AutoCAD Mechanical 2000|Company: Autodesk"
 90
        0
280
     0
281
     0
  0
CLASS
  1
ACMBOMSTANDARDANSI
  2
AcmBOMStdANSI
  3
"AcmSymBB|Product Description: AutoCAD Mechanical 2000|Company: Autodesk"
 90
        0
280
     0
281
     0
  0
CLASS
  1
ACMSTANDARDBSI
  2
AcmStandardBSI
  3
"AcmSymBB|Product Description: AutoCAD Mechanical 2000|Company: Autodesk"
 90
        0
280
     0
281
     0
  0
CLASS
  1
ACMSURFSTANDARDBSI
  2
AcmSurfTextStdBSI
  3
"AcmSymBB|Product Description: AutoCAD Mechanical 2000|Company: Autodesk"
 90
        0
280
     0
281
     0
  0
CLASS
  1
ACMFCFSTANDARDBSI
  2
AcmFCFStdBSI
  3
"AcmSymBB|Product Description: AutoCAD Mechanical 2000|Company: Autodesk"
 90
        0
280
     0
281
     0
  0
CLASS
  1
ACMWELDSTANDARDBSI
  2
AcmWeldingStdBSI
  3
"AcmSymBB|Product Description: AutoCAD Mechanical 2000|Company: Autodesk"
 90
        0
280
     0
281
     0
  0
CLASS
  1
ACMIDSTANDARDBSI
  2
AcmIdStdBSI
  3
"AcmSymBB|Product Description: AutoCAD Mechanical 2000|Company: Autodesk"
 90
        0
280
     0
281
     0
  0
CLASS
  1
ACMDATUMSTANDARDBSI
  2
AcmDatumStdBSI
  3
"AcmSymBB|Product Description: AutoCAD Mechanical 2000|Company: Autodesk"
 90
        0
280
     0
281
     0
  0
CLASS
  1
ACMBOMSTANDARDBSI
  2
AcmBOMStdBSI
  3
"AcmSymBB|Product Description: AutoCAD Mechanical 2000|Company: Autodesk"
 90
        0
280
     0
281
     0
  0
CLASS
  1
LONG_TRANSACTION
  2
AcDbLongTransaction
  3
AutoCAD 2000
 90
        0
280
     0
281
     0
  0
CLASS
  1
LWPOLYLINE
  2
AcDbPolyline
  3
AutoCAD 2000
 90
        0
280
     0
281
     1
  0
CLASS
  1
HATCH
  2
AcDbHatch
  3
AutoCAD 2000
 90
        0
280
     0
281
     1
  0
CLASS
  1
XRECORD
  2
AcDbXrecord
  3
AutoCAD 2000
 90
        0
280
     0
281
     0
  0
ENDSEC
  0
SECTION
  2
TABLES
  0
TABLE
  2
VPORT
  5
8
330
0
100
AcDbSymbolTable
 70
     3
  0
VPORT
  5
2ABA
330
8
100
AcDbSymbolTableRecord
100
AcDbViewportTableRecord
  2
*ACTIVE
 70
     0
 10
0.0
 20
0.0
 11
1.0
 21
1.0
 12
-45.89680656456526
 22
-5.604431533193675
 13
0.0
 23
0.0
 14
2.5
 24
2.5
 15
10.0
 25
10.0
 16
0.0
 26
0.0
 36
1.0
 17
0.0
 27
0.0
 37
0.0
 40
84.88736606358877
 41
1.56570841889117
 42
50.0
 43
0.0
 44
0.0
 50
0.0
 51
0.0
 71
     0
 72
   100
 73
     1
 74
     1
 75
     0
 76
     0
 77
     0
 78
     0
  0
ENDTAB
  0
TABLE
  2
LTYPE
  5
5
330
0
100
AcDbSymbolTable
 70
    10
  0
LTYPE
  5
14
330
5
100
AcDbSymbolTableRecord
100
AcDbLinetypeTableRecord
  2
BYBLOCK
 70
     0
  3

 72
    65
 73
     0
 40
0.0
  0
LTYPE
  5
15
330
5
100
AcDbSymbolTableRecord
100
AcDbLinetypeTableRecord
  2
BYLAYER
 70
     0
  3

 72
    65
 73
     0
 40
0.0
  0
LTYPE
  5
16
330
5
100
AcDbSymbolTableRecord
100
AcDbLinetypeTableRecord
  2
CONTINUOUS
 70
     0
  3
Solid line
 72
    65
 73
     0
 40
0.0
  0
LTYPE
  5
4B
330
5
100
AcDbSymbolTableRecord
100
AcDbLinetypeTableRecord
  2
AM_ISO02W050
 70
     0
  3
__ __ __ __ __ __ __ __ __ __ __ __ __ __ __
 72
    65
 73
     2
 40
7.5
 49
6.0
 74
     0
 49
-1.5
 74
     0
  0
LTYPE
  5
4C
330
5
100
AcDbSymbolTableRecord
100
AcDbLinetypeTableRecord
  2
AM_ISO08W050
 70
     0
  3
____ . ____ . ____ . ____ . ____ . ____ . ____
 72
    65
 73
     4
 40
18.0
 49
12.0
 74
     0
 49
-1.5
 74
     0
 49
3.0
 74
     0
 49
-1.5
 74
     0
  0
LTYPE
  5
4D
330
5
100
AcDbSymbolTableRecord
100
AcDbLinetypeTableRecord
  2
AM_ISO09W050
 70
     0
  3
_____ . . _____ . . _____ . . ____ .. ____
 72
    65
 73
     6
 40
22.5
 49
12.0
 74
     0
 49
-1.5
 74
     0
 49
3.0
 74
     0
 49
-1.5
 74
     0
 49
3.0
 74
     0
 49
-1.5
 74
     0
  0
LTYPE
  5
4E
330
5
100
AcDbSymbolTableRecord
100
AcDbLinetypeTableRecord
  2
AMCONSTR
 70
     0
  3
_______________________
 72
    65
 73
     2
 40
9999.0
 49
9999.0
 74
     0
 49
0.0
 74
     0
  0
LTYPE
  5
4F
330
5
100
AcDbSymbolTableRecord
100
AcDbLinetypeTableRecord
  2
AM_ISO02W050X2
 70
     0
  3
 _ _ _ _ _ _ _ _ _ _ _ _
 72
    65
 73
     2
 40
3.75
 49
3.0
 74
     0
 49
-0.75
 74
     0
  0
LTYPE
  5
50
330
5
100
AcDbSymbolTableRecord
100
AcDbLinetypeTableRecord
  2
AM_ISO08W050X2
 70
     0
  3
__ . __ . __ . __ . __ . __
 72
    65
 73
     4
 40
9.0
 49
6.0
 74
     0
 49
-0.75
 74
     0
 49
1.5
 74
     0
 49
-0.75
 74
     0
  0
LTYPE
  5
53
330
5
100
AcDbSymbolTableRecord
100
AcDbLinetypeTableRecord
  2
AMZIGZAG
 70
     0
  3
/\/-/\/-/\/-/\/-/\/-/\/
 72
    65
 73
     2
 40
11.00009999999999
 49
0.0001
 74
     4
 75
   135
340
52
 46
0.04
 50
0.0
 44
0.0
 45
0.0
 49
-11.0
 74
     0
  0
LTYPE
  5
166
330
5
100
AcDbSymbolTableRecord
100
AcDbLinetypeTableRecord
  2
ACJISTGL
 70
     0
  3
_ _ _ _ _
 72
    65
 73
     2
 40
3.0
 49
2.0
 74
     0
 49
-1.0
 74
     0
  0
LTYPE
  5
26A
330
5
100
AcDbSymbolTableRecord
100
AcDbLinetypeTableRecord
  2
ACJISTGB
 70
     0
  3
__ . . __ . .
 72
    65
 73
     6
 40
9.0
 49
4.0
 74
     0
 49
-1.0
 74
     0
 49
1.0
 74
     0
 49
-1.0
 74
     0
 49
1.0
 74
     0
 49
-1.0
 74
     0
  0
ENDTAB
  0
TABLE
  2
LAYER
  5
2
330
0
100
AcDbSymbolTable
 70
     8
  0
LAYER
  5
10
330
2
100
AcDbSymbolTableRecord
100
AcDbLayerTableRecord
  2
0
 70
     0
 62
     7
  6
CONTINUOUS
  0
LAYER
  5
3F9
330
2
100
AcDbSymbolTableRecord
100
AcDbLayerTableRecord
  2
AM_0
 70
     0
 62
     7
  6
CONTINUOUS
  0
LAYER
  5
C7C
330
2
100
AcDbSymbolTableRecord
100
AcDbLayerTableRecord
  2
AM_7
 70
     0
 62
     4
  6
AM_ISO08W050
  0
LAYER
  5
C97
330
2
100
AcDbSymbolTableRecord
100
AcDbLayerTableRecord
  2
AM_11
 70
     0
 62
     3
  6
AM_ISO09W050
  0
LAYER
  5
CC5
330
2
100
AcDbSymbolTableRecord
100
AcDbLayerTableRecord
  2
AM_5
 70
     0
 62
     3
  6
CONTINUOUS
  0
LAYER
  5
CC7
330
2
100
AcDbSymbolTableRecord
100
AcDbLayerTableRecord
  2
DEFPOINTS
 70
     0
 62
     7
  6
CONTINUOUS
  0
LAYER
  5
19BC
330
2
100
AcDbSymbolTableRecord
100
AcDbLayerTableRecord
  2
AM_6
 70
     0
 62
     2
  6
CONTINUOUS
  0
LAYER
  5
260D
330
2
100
AcDbSymbolTableRecord
100
AcDbLayerTableRecord
  2
AM_CL
 70
     0
 62
     1
  6
AMCONSTR
  0
ENDTAB
  0
TABLE
  2
STYLE
  5
3
330
0
100
AcDbSymbolTable
 70
     5
  0
STYLE
  5
11
330
3
100
AcDbSymbolTableRecord
100
AcDbTextStyleTableRecord
  2
STANDARD
 70
     0
 40
0.0
 41
1.0
 50
0.0
 71
     0
 42
2.5
  3
simplex.shx
  4
EXTFONT.SHX
  0
STYLE
  5
52
330
3
100
AcDbSymbolTableRecord
100
AcDbTextStyleTableRecord
  2

 70
     1
 40
0.0
 41
1.0
 50
0.0
 71
     0
 42
2.5
  3
ltypeshp.shx
  4

  0
STYLE
  5
6B
330
3
100
AcDbSymbolTableRecord
100
AcDbTextStyleTableRecord
  2
ASAMI
 70
     0
 40
0.0
 41
1.0
 50
0.0
 71
     0
 42
2.5
  3
simplex.shx
  4
EXTFONT.SHX
  0
STYLE
  5
262
330
3
100
AcDbSymbolTableRecord
100
AcDbTextStyleTableRecord
  2
ACJISTS
 70
     0
 40
1.0
 41
1.0
 50
0.0
 71
     0
 42
2.5
  3
simplex.shx
  4
bigfont.shx
  0
STYLE
  5
269
330
3
100
AcDbSymbolTableRecord
100
AcDbTextStyleTableRecord
  2
ACJISGDT
 70
     0
 40
0.0
 41
1.0
 50
0.0
 71
     0
 42
2.5
  3
amgdtans.shx
  4

  0
ENDTAB
  0
TABLE
  2
VIEW
  5
6
330
0
100
AcDbSymbolTable
 70
     0
  0
ENDTAB
  0
TABLE
  2
UCS
  5
7
330
0
100
AcDbSymbolTable
 70
     0
  0
ENDTAB
  0
TABLE
  2
APPID
  5
9
330
0
100
AcDbSymbolTable
 70
    16
  0
APPID
  5
12
330
9
100
AcDbSymbolTableRecord
100
AcDbRegAppTableRecord
  2
ACAD
 70
     0
  0
APPID
  5
30
330
9
100
AcDbSymbolTableRecord
100
AcDbRegAppTableRecord
  2
MCAD_NO_VIS
 70
     0
  0
APPID
  5
31
330
9
100
AcDbSymbolTableRecord
100
AcDbRegAppTableRecord
  2
ACAD_TEMP_GRAPHIC
 70
     0
  0
APPID
  5
2C2
330
9
100
AcDbSymbolTableRecord
100
AcDbRegAppTableRecord
  2
GENIUS_GENDTOL_13
 70
     0
  0
APPID
  5
339
330
9
100
AcDbSymbolTableRecord
100
AcDbRegAppTableRecord
  2
GENIUS_GENODEF_13
 70
     0
  0
APPID
  5
33A
330
9
100
AcDbSymbolTableRecord
100
AcDbRegAppTableRecord
  2
GENIUS_GENOBJ-N-RSBK_13
 70
     0
  0
APPID
  5
33B
330
9
100
AcDbSymbolTableRecord
100
AcDbRegAppTableRecord
  2
GENIUS_GENOBJ-N-LIB_13
 70
     0
  0
APPID
  5
33C
330
9
100
AcDbSymbolTableRecord
100
AcDbRegAppTableRecord
  2
GENIUS_GENSCALE_13
 70
     0
  0
APPID
  5
378
330
9
100
AcDbSymbolTableRecord
100
AcDbRegAppTableRecord
  2
GENIUS_GENDIMSH_14
 70
     0
  0
APPID
  5
C82
330
9
100
AcDbSymbolTableRecord
100
AcDbRegAppTableRecord
  2
GENIUS_GENOBJ-N-CRS_13
 70
     0
  0
APPID
  5
C83
330
9
100
AcDbSymbolTableRecord
100
AcDbRegAppTableRecord
  2
GENIUS_GENOENT_13
 70
     0
  0
APPID
  5
C84
330
9
100
AcDbSymbolTableRecord
100
AcDbRegAppTableRecord
  2
GENIUS_GENOREF_13
 70
     0
  0
APPID
  5
C85
330
9
100
AcDbSymbolTableRecord
100
AcDbRegAppTableRecord
  2
GENIUS_GENOLIS_13
 70
     0
  0
APPID
  5
CA0
330
9
100
AcDbSymbolTableRecord
100
AcDbRegAppTableRecord
  2
GENIUS_GENOBJ-N-CEN_13
 70
     0
  0
APPID
  5
1CFA
330
9
100
AcDbSymbolTableRecord
100
AcDbRegAppTableRecord
  2
GENIUS_GENFIL_13
 70
     0
  0
APPID
  5
1CFB
330
9
100
AcDbSymbolTableRecord
100
AcDbRegAppTableRecord
  2
GENIUS_GENOBJ-N-CHA_13
 70
     0
  0
ENDTAB
  0
TABLE
  2
DIMSTYLE
  5
A
330
0
100
AcDbSymbolTable
 70
     9
  0
DIMSTYLE
105
58
330
A
100
AcDbSymbolTableRecord
100
AcDbDimStyleTableRecord
  2
AM_JIS
 70
     0
  3

  4
"
  5
OPEN30
  6

  7

 40
0.5
 41
2.5
 42
1.0
 43
12.0
 44
1.0
 45
0.0
 46
0.0
 47
0.1
 48
0.1
140
3.2
141
0.0
142
0.0
143
0.0393701
144
1.0
145
0.0
146
0.71
147
1.5
 71
     0
 72
     0
 73
     0
 74
     0
 75
     0
 76
     0
 77
     3
 78
     8
170
     0
171
     2
172
     1
173
     0
174
     0
175
     0
176
   256
177
   256
178
     2
270
     2
271
     3
272
     3
273
     2
274
     2
340
6B
275
     0
280
     0
281
     0
282
     0
283
     0
284
     0
285
     0
286
     0
287
     3
288
     0
  0
DIMSTYLE
105
5F
330
A
100
AcDbSymbolTableRecord
100
AcDbDimStyleTableRecord
  2
AM_JIS$3
 70
     0
  3

  4
"
  5
OPEN30
  6

  7

 40
0.5
 41
2.5
 42
1.0
 43
10.0
 44
1.0
 45
0.0
 46
0.0
 47
0.1
 48
0.1
140
3.2
141
0.0
142
0.0
143
0.0393701
144
1.0
145
0.0
146
0.71
147
1.5
 71
     0
 72
     0
 73
     0
 74
     1
 75
     0
 76
     0
 77
     3
 78
     8
170
     0
171
     2
172
     0
173
     0
174
     0
175
     0
176
   256
177
   256
178
     2
270
     2
271
     2
272
     3
273
     2
274
     2
340
6B
275
     0
280
     0
281
     0
282
     0
283
     0
284
     0
285
     0
286
     0
287
     0
288
     1
  0
DIMSTYLE
105
60
330
A
100
AcDbSymbolTableRecord
100
AcDbDimStyleTableRecord
  2
AM_JIS$4
 70
     0
  3

  4
"
  5
OPEN30
  6

  7

 40
0.5
 41
2.5
 42
1.0
 43
10.0
 44
1.0
 45
0.0
 46
0.0
 47
0.1
 48
0.1
140
3.2
141
0.0
142
0.0
143
0.0393701
144
1.0
145
0.0
146
0.71
147
1.5
 71
     0
 72
     0
 73
     0
 74
     1
 75
     0
 76
     0
 77
     3
 78
     8
170
     0
171
     2
172
     0
173
     0
174
     0
175
     0
176
   256
177
   256
178
     2
270
     2
271
     2
272
     3
273
     2
274
     2
340
6B
275
     0
280
     0
281
     0
282
     0
283
     0
284
     0
285
     0
286
     0
287
     0
288
     1
  0
DIMSTYLE
105
61
330
A
100
AcDbSymbolTableRecord
100
AcDbDimStyleTableRecord
  2
AM_JIS$6
 70
     0
  3

  4
"
  5
OPEN30
  6

  7

 40
0.5
 41
2.5
 42
1.0
 43
10.0
 44
1.0
 45
0.0
 46
0.0
 47
0.1
 48
0.1
140
3.2
141
0.0
142
0.0
143
0.0393701
144
1.0
145
0.0
146
0.71
147
1.5
 71
     0
 72
     0
 73
     0
 74
     0
 75
     0
 76
     0
 77
     0
 78
     8
170
     0
171
     2
172
     1
173
     0
174
     0
175
     0
176
   256
177
   256
178
     2
270
     2
271
     2
272
     2
273
     2
274
     2
340
6B
275
     0
280
     0
281
     0
282
     0
283
     0
284
     0
285
     0
286
     0
287
     3
288
     0
  0
DIMSTYLE
105
62
330
A
100
AcDbSymbolTableRecord
100
AcDbDimStyleTableRecord
  2
AM_JIS$7
 70
     0
  3

  4
"
  5
OPEN30
  6

  7

 40
0.5
 41
2.5
 42
1.0
 43
10.0
 44
1.0
 45
0.0
 46
0.0
 47
0.1
 48
0.1
140
3.2
141
0.0
142
0.0
143
0.0393701
144
1.0
145
0.0
146
0.71
147
1.5
 71
     0
 72
     0
 73
     0
 74
     0
 75
     0
 76
     0
 77
     3
 78
     8
170
     0
171
     2
172
     1
173
     0
174
     0
175
     0
176
   256
177
   256
178
     2
270
     2
271
     2
272
     3
273
     2
274
     2
340
6B
275
     0
280
     0
281
     0
282
     0
283
     0
284
     0
285
     0
286
     0
287
     3
288
     0
  0
DIMSTYLE
105
63
330
A
100
AcDbSymbolTableRecord
100
AcDbDimStyleTableRecord
  2
AM_JIS$SF
 70
     0
  3

  4
"
  5
OPEN30
  6

  7

 40
0.5
 41
2.5
 42
1.0
 43
10.0
 44
1.0
 45
0.0
 46
0.0
 47
0.1
 48
0.1
140
3.2
141
0.0
142
0.0
143
0.0393701
144
1.0
145
0.0
146
0.71
147
1.5
 71
     0
 72
     0
 73
     0
 74
     0
 75
     1
 76
     1
 77
     3
 78
     8
170
     0
171
     2
172
     1
173
     0
174
     0
175
     0
176
   256
177
   256
178
     2
270
     2
271
     2
272
     2
273
     2
274
     2
340
6B
275
     0
280
     0
281
     0
282
     0
283
     0
284
     0
285
     0
286
     0
287
     3
288
     0
  0
DIMSTYLE
105
68
330
A
100
AcDbSymbolTableRecord
100
AcDbDimStyleTableRecord
  2
AM_JIS$SH
 70
     0
  3

  4
"
  5

  6
GENAXEH
  7
OPEN30
 40
0.5
 41
2.5
 42
1.0
 43
10.0
 44
1.0
 45
0.0
 46
0.0
 47
0.1
 48
0.1
140
3.2
141
0.0
142
0.0
143
0.0393701
144
2.0
145
0.0
146
0.71
147
1.5
 71
     0
 72
     0
 73
     0
 74
     0
 75
     1
 76
     1
 77
     3
 78
     8
170
     0
171
     2
172
     1
173
     1
174
     0
175
     0
176
   256
177
   256
178
     2
270
     2
271
     2
272
     2
273
     2
274
     2
340
6B
275
     0
280
     0
281
     0
282
     0
283
     0
284
     0
285
     0
286
     0
287
     3
288
     0
  0
DIMSTYLE
105
B34
102
{ACAD_REACTORS
330
2736
102
}
330
A
100
AcDbSymbolTableRecord
100
AcDbDimStyleTableRecord
  2
AM_JIS$2
 70
     0
  3

  4
"
  5
OPEN30
  6

  7

 40
0.5
 41
2.5
 42
1.0
 43
12.0
 44
1.0
 45
0.0
 46
0.0
 47
0.1
 48
0.1
140
3.2
141
0.0
142
0.0
143
0.0393701
144
1.0
145
0.0
146
0.71
147
1.5
 71
     0
 72
     0
 73
     0
 74
     0
 75
     0
 76
     0
 77
     3
 78
     8
170
     0
171
     2
172
     1
173
     0
174
     0
175
     0
176
   256
177
   256
178
     2
270
     2
271
     3
272
     3
273
     2
274
     2
340
6B
275
     0
280
     0
281
     0
282
     0
283
     0
284
     0
285
     0
286
     0
287
     3
288
     0
  0
DIMSTYLE
105
BA5
102
{ACAD_REACTORS
330
CC6
330
DF5
330
254C
330
29BB
102
}
330
A
100
AcDbSymbolTableRecord
100
AcDbDimStyleTableRecord
  2
AM_JIS$0
 70
     0
  3

  4
"
  5
OPEN30
  6

  7

 40
0.5
 41
2.5
 42
0.0
 43
10.0
 44
1.0
 45
0.0
 46
0.0
 47
0.1
 48
0.1000000001
140
3.799999999999999
141
0.0
142
0.0
143
0.0393701
144
1.0
145
0.0
146
0.71
147
1.5
 71
     0
 72
     0
 73
     0
 74
     0
 75
     0
 76
     0
 77
     3
 78
     1
170
     0
171
     2
172
     1
173
     0
174
     0
175
     0
176
     3
177
     3
178
     2
270
     2
271
     2
272
     2
273
     2
274
     2
340
11
275
     1
280
     0
281
     0
282
     0
283
     0
284
     8
285
     0
286
     0
287
     0
288
     0
  0
ENDTAB
  0
TABLE
  2
BLOCK_RECORD
  5
1
330
0
100
AcDbSymbolTable
 70
    11
  0
BLOCK_RECORD
  5
1F
102
{ACAD_XDICTIONARY
360
74
102
}
330
1
100
AcDbSymbolTableRecord
100
AcDbBlockTableRecord
  2
*MODEL_SPACE
  0
BLOCK_RECORD
  5
101
102
{ACAD_XDICTIONARY
360
2AE3
102
}
330
1
100
AcDbSymbolTableRecord
100
AcDbBlockTableRecord
  2
*PAPER_SPACE
  0
BLOCK_RECORD
  5
59
330
1
100
AcDbSymbolTableRecord
100
AcDbBlockTableRecord
  2
_OPEN30
  0
BLOCK_RECORD
  5
64
330
1
100
AcDbSymbolTableRecord
100
AcDbBlockTableRecord
  2
GENAXEH
  0
BLOCK_RECORD
  5
CC8
330
1
100
AcDbSymbolTableRecord
100
AcDbBlockTableRecord
  2
*D5
  0
BLOCK_RECORD
  5
DF6
330
1
100
AcDbSymbolTableRecord
100
AcDbBlockTableRecord
  2
*D6
  0
BLOCK_RECORD
  5
254D
330
1
100
AcDbSymbolTableRecord
100
AcDbBlockTableRecord
  2
*D8
  0
BLOCK_RECORD
  5
2737
330
1
100
AcDbSymbolTableRecord
100
AcDbBlockTableRecord
  2
*D9
  0
BLOCK_RECORD
  5
29BC
330
1
100
AcDbSymbolTableRecord
100
AcDbBlockTableRecord
  2
*D10
  0
ENDTAB
  0
ENDSEC
  0
SECTION
  2
BLOCKS
  0
BLOCK
  5
20
330
1F
100
AcDbEntity
  8
0
100
AcDbBlockBegin
  2
*MODEL_SPACE
 70
     0
 10
0.0
 20
0.0
 30
0.0
  3
*MODEL_SPACE
  1

  0
ENDBLK
  5
21
330
1F
100
AcDbEntity
  8
0
100
AcDbBlockEnd
  0
BLOCK
  5
103
330
101
100
AcDbEntity
 67
     1
  8
0
100
AcDbBlockBegin
  2
*PAPER_SPACE
 70
     0
 10
0.0
 20
0.0
 30
0.0
  3
*PAPER_SPACE
  1

  0
ENDBLK
  5
104
330
101
100
AcDbEntity
 67
     1
  8
0
100
AcDbBlockEnd
  0
BLOCK
  5
5D
330
59
100
AcDbEntity
  8
0
100
AcDbBlockBegin
  2
_OPEN30
 70
     0
 10
0.0
 20
0.0
 30
0.0
  3
_OPEN30
  1

  0
LINE
  5
5A
330
59
100
AcDbEntity
  8
0
 62
     0
100
AcDbLine
 10
-1.0
 20
0.26794919
 30
0.0
 11
0.0
 21
0.0
 31
0.0
  0
LINE
  5
5B
330
59
100
AcDbEntity
  8
0
 62
     0
100
AcDbLine
 10
0.0
 20
0.0
 30
0.0
 11
-1.0
 21
-0.26794919
 31
0.0
  0
LINE
  5
5C
330
59
100
AcDbEntity
  8
0
 62
     0
100
AcDbLine
 10
0.0
 20
0.0
 30
0.0
 11
-1.0
 21
0.0
 31
0.0
  0
ENDBLK
  5
5E
330
59
100
AcDbEntity
  8
0
100
AcDbBlockEnd
  0
BLOCK
  5
66
330
64
100
AcDbEntity
  8
0
100
AcDbBlockBegin
  2
GENAXEH
 70
     0
 10
0.0
 20
0.0
 30
0.0
  3
GENAXEH
  1

  0
LINE
  5
65
330
64
100
AcDbEntity
  8
0
100
AcDbLine
 10
-1.0
 20
0.0
 30
0.0
 11
1.0
 21
0.0
 31
0.0
  0
ENDBLK
  5
67
330
64
100
AcDbEntity
  8
0
100
AcDbBlockEnd
  0
BLOCK
  5
CD2
330
CC8
100
AcDbEntity
  8
0
100
AcDbBlockBegin
  2
*D5
 70
     1
 10
0.0
 20
0.0
 30
0.0
  3
*D5
  1

  0
LINE
  5
2A67
330
CC8
100
AcDbEntity
  8
AM_5
 62
     3
100
AcDbLine
 10
-101.0
 20
-2.750000000000297
 30
0.0
 11
-101.0
 21
-15.50000100000008
 31
0.0
  0
LINE
  5
2A68
330
CC8
100
AcDbEntity
  8
AM_5
 62
     3
100
AcDbLine
 10
-1.000000000000041
 20
-2.699999850856289
 30
0.0
 11
-1.000000000000042
 21
-15.50000100000008
 31
0.0
  0
LINE
  5
2A69
330
CC8
100
AcDbEntity
  8
AM_5
 62
     3
100
AcDbLine
 10
-99.75000000000003
 20
-15.00000100000008
 30
0.0
 11
-2.250000000000041
 21
-15.00000100000008
 31
0.0
  0
INSERT
  5
2A6A
330
CC8
100
AcDbEntity
  8
AM_5
 62
     3
100
AcDbBlockReference
  2
_OPEN30
 10
-101.0
 20
-15.00000100000008
 30
0.0
 41
1.25
 42
1.25
 43
1.25
 50
180.0
  0
INSERT
  5
2A6B
330
CC8
100
AcDbEntity
  8
AM_5
 62
     3
100
AcDbBlockReference
  2
_OPEN30
 10
-1.000000000000041
 20
-15.00000100000008
 30
0.0
 41
1.25
 42
1.25
 43
1.25
  0
MTEXT
  5
2A6C
330
CC8
100
AcDbEntity
  8
AM_5
 62
     2
100
AcDbMText
 10
-51.00000000000004
 20
-13.30000100000008
 30
0.0
 40
1.9
 41
0.0
 71
     5
 72
     1
  1
100
1001
ACAD
1000
MTEXTBEGIN
1070
    73
1070
     1
1070
    44
1040
1.0
1070
    74
1070
     0
1000
MTEXTEND
  0
POINT
  5
2A6D
330
CC8
100
AcDbEntity
  8
DEFPOINTS
 62
     0
100
AcDbPoint
 10
-101.0
 20
-2.750000000000297
 30
0.0
  0
POINT
  5
2A6E
330
CC8
100
AcDbEntity
  8
DEFPOINTS
 62
     0
100
AcDbPoint
 10
-1.000000000000041
 20
-2.699999850856289
 30
0.0
  0
POINT
  5
2A6F
330
CC8
100
AcDbEntity
  8
DEFPOINTS
 62
     0
100
AcDbPoint
 10
-1.000000000000041
 20
-15.00000100000008
 30
0.0
  0
ENDBLK
  5
CD3
330
CC8
100
AcDbEntity
  8
0
100
AcDbBlockEnd
  0
BLOCK
  5
E00
330
DF6
100
AcDbEntity
  8
0
100
AcDbBlockBegin
  2
*D6
 70
     1
 10
0.0
 20
0.0
 30
0.0
  3
*D6
  1

  0
LINE
  5
2A70
330
DF6
100
AcDbEntity
  8
AM_5
 62
     3
100
AcDbLine
 10
-49.00000000000004
 20
-3.00000000000018
 30
0.0
 11
-49.00000000000004
 21
-10.50000100000005
 31
0.0
  0
LINE
  5
2A71
330
DF6
100
AcDbEntity
  8
AM_5
 62
     3
100
AcDbLine
 10
-1.000000000000041
 20
-2.699999850856289
 30
0.0
 11
-1.000000000000041
 21
-10.50000100000005
 31
0.0
  0
LINE
  5
2A72
330
DF6
100
AcDbEntity
  8
AM_5
 62
     3
100
AcDbLine
 10
-47.75000000000004
 20
-10.00000100000005
 30
0.0
 11
-2.250000000000041
 21
-10.00000100000005
 31
0.0
  0
INSERT
  5
2A73
330
DF6
100
AcDbEntity
  8
AM_5
 62
     3
100
AcDbBlockReference
  2
_OPEN30
 10
-49.00000000000004
 20
-10.00000100000005
 30
0.0
 41
1.25
 42
1.25
 43
1.25
 50
180.0
  0
INSERT
  5
2A74
330
DF6
100
AcDbEntity
  8
AM_5
 62
     3
100
AcDbBlockReference
  2
_OPEN30
 10
-1.000000000000041
 20
-10.00000100000005
 30
0.0
 41
1.25
 42
1.25
 43
1.25
  0
MTEXT
  5
2A75
330
DF6
100
AcDbEntity
  8
AM_5
 62
     2
100
AcDbMText
 10
-25.00000000000004
 20
-8.300001000000053
 30
0.0
 40
1.9
 41
0.0
 71
     5
 72
     1
  1
48
1001
ACAD
1000
MTEXTBEGIN
1070
    73
1070
     1
1070
    44
1040
1.0
1070
    74
1070
     0
1000
MTEXTEND
  0
POINT
  5
2A76
330
DF6
100
AcDbEntity
  8
DEFPOINTS
 62
     0
100
AcDbPoint
 10
-49.00000000000004
 20
-3.00000000000018
 30
0.0
  0
POINT
  5
2A77
330
DF6
100
AcDbEntity
  8
DEFPOINTS
 62
     0
100
AcDbPoint
 10
-1.000000000000041
 20
-2.699999850856289
 30
0.0
  0
POINT
  5
2A78
330
DF6
100
AcDbEntity
  8
DEFPOINTS
 62
     0
100
AcDbPoint
 10
-1.000000000000041
 20
-10.00000100000005
 30
0.0
  0
ENDBLK
  5
E01
330
DF6
100
AcDbEntity
  8
0
100
AcDbBlockEnd
  0
BLOCK
  5
2557
330
254D
100
AcDbEntity
  8
0
100
AcDbBlockBegin
  2
*D8
 70
     1
 10
0.0
 20
0.0
 30
0.0
  3
*D8
  1

  0
LINE
  5
2855
330
254D
100
AcDbEntity
  8
AM_5
 62
     3
100
AcDbLine
 10
-100.7499999999998
 20
2.999999999999717
 30
0.0
 11
-109.8750219808317
 21
2.999999999999699
 31
0.0
  0
LINE
  5
2856
330
254D
100
AcDbEntity
  8
AM_5
 62
     3
100
AcDbLine
 10
-100.7499999999996
 20
-3.000000000000833
 30
0.0
 11
-109.8750219808317
 21
-3.00000000000085
 31
0.0
  0
LINE
  5
2857
330
254D
100
AcDbEntity
  8
AM_5
 62
     3
100
AcDbLine
 10
-109.3750219808317
 20
1.7499999999997
 30
0.0
 11
-109.3750219808317
 21
-1.750000000000849
 31
0.0
  0
INSERT
  5
2858
330
254D
100
AcDbEntity
  8
AM_5
 62
     3
100
AcDbBlockReference
  2
_OPEN30
 10
-109.3750219808317
 20
2.9999999999997
 30
0.0
 41
1.25
 42
1.25
 43
1.25
 50
90.0000000000001
  0
INSERT
  5
2859
330
254D
100
AcDbEntity
  8
AM_5
 62
     3
100
AcDbBlockReference
  2
_OPEN30
 10
-109.3750219808317
 20
-3.000000000000849
 30
0.0
 41
1.25
 42
1.25
 43
1.25
 50
270.0000000000001
  0
MTEXT
  5
285A
330
254D
100
AcDbEntity
  8
AM_5
 62
     2
100
AcDbMText
 10
-111.0750219808317
 20
-0.0000000000005738
 30
0.0
 40
1.9
 41
0.0
 71
     5
 72
     1
  1
%%c6
 11
-0.000000000000002
 21
1.0
 31
0.0
1001
ACAD
1000
MTEXTBEGIN
1070
    73
1070
     1
1070
    44
1040
1.0
1070
    74
1070
     0
1000
MTEXTEND
  0
POINT
  5
285B
330
254D
100
AcDbEntity
  8
DEFPOINTS
 62
     0
100
AcDbPoint
 10
-100.7499999999998
 20
2.999999999999941
 30
0.0
  0
POINT
  5
285C
330
254D
100
AcDbEntity
  8
DEFPOINTS
 62
     0
100
AcDbPoint
 10
-100.7499999999996
 20
-3.000000000000609
 30
0.0
  0
POINT
  5
285D
330
254D
100
AcDbEntity
  8
DEFPOINTS
 62
     0
100
AcDbPoint
 10
-109.3750219808317
 20
-3.000000000000607
 30
0.0
  0
ENDBLK
  5
2558
330
254D
100
AcDbEntity
  8
0
100
AcDbBlockEnd
  0
BLOCK
  5
2747
330
2737
100
AcDbEntity
  8
0
100
AcDbBlockBegin
  2
*D9
 70
     1
 10
0.0
 20
0.0
 30
0.0
  3
*D9
  1

  0
LINE
  5
2AE5
330
2737
100
AcDbEntity
  8
AM_5
100
AcDbLine
 10
0.17101007166283
 20
-0.4698463103929726
 30
0.0
 11
5.474729139433102
 21
-15.04169468822226
 31
0.0
  0
LINE
  5
2AE6
330
2737
100
AcDbEntity
  8
AM_5
100
AcDbLine
 10
0.1710100716628072
 20
0.4698463103929407
 30
0.0
 11
5.474729139432372
 21
15.04169468822249
 31
0.0
  0
ARC
  5
2AE7
330
2737
100
AcDbEntity
  8
AM_5
100
AcDbCircle
 10
-0.000000000000009
 20
-0.0000000000000201
 30
0.0
 40
15.50703714757516
100
AcDbArc
 50
294.6197818554178
 51
65.38021814458492
  0
INSERT
  5
2AE8
330
2737
100
AcDbEntity
  8
AM_5
100
AcDbBlockReference
  2
_OPEN30
 10
5.303719067770263
 20
-14.57184837782931
 30
0.0
 41
1.25
 42
1.25
 43
1.25
 50
202.3098909277092
  0
INSERT
  5
2AE9
330
2737
100
AcDbEntity
  8
AM_5
100
AcDbBlockReference
  2
_OPEN30
 10
5.303719067769556
 20
14.57184837782953
 30
0.0
 41
1.25
 42
1.25
 43
1.25
 50
157.6901090722935
  0
MTEXT
  5
2AEA
330
2737
100
AcDbEntity
  8
AM_5
 62
     2
100
AcDbMText
 10
13.95703714757515
 20
0.0000000000003488
 30
0.0
 40
1.6
 41
0.0
 71
     5
 72
     1
  1
140°
  7
ASAMI
 11
-0.000000000000002
 21
1.0
 31
0.0
  0
POINT
  5
2AEB
330
2737
100
AcDbEntity
  8
DEFPOINTS
 62
     0
100
AcDbPoint
 10
14.23881127889435
 20
-6.142023645371857
 30
0.0
  0
POINT
  5
2AEC
330
2737
100
AcDbEntity
  8
DEFPOINTS
 62
     0
100
AcDbPoint
 10
-0.289208433385835
 20
-0.7945936402435147
 30
0.0
  0
POINT
  5
2AED
330
2737
100
AcDbEntity
  8
DEFPOINTS
 62
     0
100
AcDbPoint
 10
-0.2892084333858715
 20
0.7945936402434639
 30
0.0
  0
POINT
  5
2AEE
330
2737
100
AcDbEntity
  8
DEFPOINTS
 62
     0
100
AcDbPoint
 10
-0.0000000000000168
 20
0.0000000000000012
 30
0.0
  0
POINT
  5
2AEF
330
2737
100
AcDbEntity
  8
DEFPOINTS
 62
     0
100
AcDbPoint
 10
-0.0000000000000168
 20
-0.0000000000000414
 30
0.0
  0
ENDBLK
  5
2748
330
2737
100
AcDbEntity
  8
0
100
AcDbBlockEnd
  0
BLOCK
  5
29C8
330
29BC
100
AcDbEntity
  8
0
100
AcDbBlockBegin
  2
*D10
 70
     1
 10
0.0
 20
0.0
 30
0.0
  3
*D10
  1

  0
LINE
  5
2A79
330
29BC
100
AcDbEntity
  8
AM_5
 62
     3
100
AcDbLine
 10
-1.000000000000048
 20
-2.699999850856277
 30
0.0
 11
8.925011198283725
 21
-2.699999850856279
 31
0.0
  0
LINE
  5
2A7A
330
29BC
100
AcDbEntity
  8
AM_5
 62
     3
100
AcDbLine
 10
-1.000013987220015
 20
2.700000149143741
 30
0.0
 11
8.925011198283725
 21
2.700000149143739
 31
0.0
  0
LINE
  5
2A7B
330
29BC
100
AcDbEntity
  8
AM_5
 62
     3
100
AcDbLine
 10
8.425011198283725
 20
-3.949999850856279
 30
0.0
 11
8.425011198283723
 21
-5.199999850856279
 31
0.0
  0
LINE
  5
2A7C
330
29BC
100
AcDbEntity
  8
AM_5
 62
     3
100
AcDbLine
 10
8.425011198283725
 20
3.950000149143739
 30
0.0
 11
8.425011198283728
 21
12.51254593392758
 31
0.0
  0
LINE
  5
2A7D
330
29BC
100
AcDbEntity
  8
AM_5
 62
     3
100
AcDbLine
 10
8.425011198283725
 20
-2.699999850856279
 30
0.0
 11
8.425011198283725
 21
2.700000149143739
 31
0.0
  0
INSERT
  5
2A7E
330
29BC
100
AcDbEntity
  8
AM_5
 62
     3
100
AcDbBlockReference
  2
_OPEN30
 10
8.425011198283725
 20
-2.699999850856279
 30
0.0
 41
1.25
 42
1.25
 43
1.25
 50
90.0
  0
INSERT
  5
2A7F
330
29BC
100
AcDbEntity
  8
AM_5
 62
     3
100
AcDbBlockReference
  2
_OPEN30
 10
8.425011198283725
 20
2.700000149143739
 30
0.0
 41
1.25
 42
1.25
 43
1.25
 50
270.0
  0
MTEXT
  5
2A80
330
29BC
100
AcDbEntity
  8
AM_5
 62
     2
100
AcDbMText
 10
6.725011198283725
 20
8.867307838689493
 30
0.0
 40
1.9
 41
0.0
 71
     5
 72
     1
  1
%%c5.4
 11
0.0000000000000001
 21
1.0
 31
0.0
1001
ACAD
1000
MTEXTBEGIN
1070
    73
1070
     1
1070
    44
1040
1.0
1070
    74
1070
     0
1000
MTEXTEND
  0
POINT
  5
2A81
330
29BC
100
AcDbEntity
  8
DEFPOINTS
 62
     0
100
AcDbPoint
 10
-1.000000000000048
 20
-2.699999850856277
 30
0.0
  0
POINT
  5
2A82
330
29BC
100
AcDbEntity
  8
DEFPOINTS
 62
     0
100
AcDbPoint
 10
-1.000013987220015
 20
2.700000149143741
 30
0.0
  0
POINT
  5
2A83
330
29BC
100
AcDbEntity
  8
DEFPOINTS
 62
     0
100
AcDbPoint
 10
8.425011198283725
 20
2.700000149143739
 30
0.0
  0
ENDBLK
  5
29C9
330
29BC
100
AcDbEntity
  8
0
100
AcDbBlockEnd
  0
ENDSEC
  0
SECTION
  2
ENTITIES
  0
LINE
  5
C9F
330
1F
100
AcDbEntity
  8
AM_7
100
AcDbLine
 10
-102.3750209808316
 20
-0.0000000000000841
 30
0.0
 11
1.425010198283711
 21
0.0000000000000021
 31
0.0
1001
GENIUS_GENODEF_13
1002
{
1000
HIER
1070
     0
1002
}
1002
{
1000
MANEDIT
1070
     0
1002
}
1002
{
1000
NOSEL
1070
     0
1002
}
1002
{
1000
BEHIND
1070
     0
1002
}
1002
{
1000
REACTOR
1002
}
1001
GENIUS_GENOBJ-N-CEN_13
1002
{
1000
OWNER
1000
GEN
1002
}
  0
DIMENSION
  5
CC6
330
1F
100
AcDbEntity
  8
AM_5
100
AcDbDimension
  2
*D5
 10
-1.000000000000041
 20
-15.00000100000008
 30
0.0
 11
-51.00000000000004
 21
-13.30000100000008
 31
0.0
 70
    32
  1
<>
  3
AM_JIS$0
100
AcDbAlignedDimension
 13
-101.0
 23
-2.750000000000297
 33
0.0
 14
-1.000000000000041
 24
-2.699999850856289
 34
0.0
 50
0.0000000000001132
100
AcDbRotatedDimension
1001
GENIUS_GENDTOL_13
1000

1000
h7
1000

1040
0.0
1001
ACAD
1000
DSTYLE
1002
{
1070
   271
1070
     0
1002
}
  0
DIMENSION
  5
DF5
330
1F
100
AcDbEntity
  8
AM_5
100
AcDbDimension
  2
*D6
 10
-1.000000000000041
 20
-10.00000100000005
 30
0.0
 11
-25.00000000000004
 21
-8.300001000000053
 31
0.0
 70
    32
  1
<>
  3
AM_JIS$0
100
AcDbAlignedDimension
 13
-49.00000000000004
 23
-3.00000000000018
 33
0.0
 14
-1.000000000000041
 24
-2.699999850856289
 34
0.0
 50
0.0000000000001527
100
AcDbRotatedDimension
1001
GENIUS_GENDTOL_13
1000

1000
h7
1000

1040
0.0
1001
ACAD
1000
DSTYLE
1002
{
1070
   271
1070
     0
1002
}
  0
ARC
  5
144A
330
1F
100
AcDbEntity
  8
AM_11
 48
0.5
100
AcDbCircle
 10
-44.30277188618329
 20
-12.14665270677935
 30
0.0
 40
13.42998806635521
100
AcDbArc
 50
64.74833051131179
 51
115.2516644797366
  0
ARC
  5
144B
330
1F
100
AcDbEntity
  8
AM_11
 48
0.5
100
AcDbCircle
 10
-44.30277188618328
 20
12.14666095543165
 30
0.0
 40
13.42998806635521
100
AcDbArc
 50
244.7482808787518
 51
295.2516148471758
  0
ARC
  5
144E
330
1F
100
AcDbEntity
  8
AM_11
 48
0.5
100
AcDbCircle
 10
-32.84443855284996
 20
-12.14665270677935
 30
0.0
 40
13.42998806635521
100
AcDbArc
 50
64.74833051131179
 51
115.2516644797366
  0
ARC
  5
144F
330
1F
100
AcDbEntity
  8
AM_11
 48
0.5
100
AcDbCircle
 10
-32.84443855284996
 20
12.14666095543165
 30
0.0
 40
13.42998806635521
100
AcDbArc
 50
244.7482808787518
 51
295.2516148471758
  0
ARC
  5
1450
330
1F
100
AcDbEntity
  8
AM_11
 48
0.5
100
AcDbCircle
 10
-21.38610521951983
 20
12.14666095543165
 30
0.0
 40
13.42998806635521
100
AcDbArc
 50
244.7482808787518
 51
295.2516148471758
  0
ARC
  5
1451
330
1F
100
AcDbEntity
  8
AM_11
 48
0.5
100
AcDbCircle
 10
-21.38610521951983
 20
-12.14665270677935
 30
0.0
 40
13.42998806635521
100
AcDbArc
 50
64.74833051131179
 51
115.2516644797366
  0
ARC
  5
1452
330
1F
100
AcDbEntity
  8
AM_11
 48
0.5
100
AcDbCircle
 10
-9.927771886186496
 20
-12.14665270677935
 30
0.0
 40
13.42998806635521
100
AcDbArc
 50
64.74833051131179
 51
115.2516644797366
  0
ARC
  5
1453
330
1F
100
AcDbEntity
  8
AM_11
 48
0.5
100
AcDbCircle
 10
-9.927771886186496
 20
12.14666095543165
 30
0.0
 40
13.42998806635521
100
AcDbArc
 50
244.7482808787518
 51
295.2516148471758
  0
TEXT
  5
19BD
330
1F
100
AcDbEntity
  8
AM_6
100
AcDbText
 10
-61.83334382374916
 20
-26.25000100000011
 30
0.0
 40
2.5
  1
MDW054LHK
 50
0.0000000000001527
 72
     4
 11
-51.00001049041583
 21
-25.00000100000008
 31
0.0
100
AcDbText
  0
ARC
  5
1DAB
330
1F
100
AcDbEntity
  8
AM_11
 48
0.5
100
AcDbCircle
 10
-55.76108015507438
 20
-12.14665270677938
 30
0.0
 40
13.42998806635521
100
AcDbArc
 50
64.74833051131179
 51
115.2516644797366
  0
ARC
  5
1DAC
330
1F
100
AcDbEntity
  8
AM_11
 48
0.5
100
AcDbCircle
 10
-55.76108015507436
 20
12.14666095543162
 30
0.0
 40
13.42998806635521
100
AcDbArc
 50
244.7482808787518
 51
295.2516148471758
  0
ARC
  5
1DAD
330
1F
100
AcDbEntity
  8
AM_11
 48
0.5
100
AcDbCircle
 10
-67.21938842396546
 20
-12.14665270677942
 30
0.0
 40
13.42998806635521
100
AcDbArc
 50
64.74833051131179
 51
115.2516644797366
  0
ARC
  5
1DAE
330
1F
100
AcDbEntity
  8
AM_11
 48
0.5
100
AcDbCircle
 10
-67.21938842396546
 20
12.14666095543158
 30
0.0
 40
13.42998806635521
100
AcDbArc
 50
244.7482808787518
 51
295.2516148471758
  0
ARC
  5
1DAF
330
1F
100
AcDbEntity
  8
AM_11
 48
0.5
100
AcDbCircle
 10
-78.67769669285656
 20
-12.14665270677945
 30
0.0
 40
13.42998806635521
100
AcDbArc
 50
64.74833051131179
 51
115.2516644797366
  0
ARC
  5
1DB0
330
1F
100
AcDbEntity
  8
AM_11
 48
0.5
100
AcDbCircle
 10
-78.67769669285654
 20
12.14666095543155
 30
0.0
 40
13.42998806635521
100
AcDbArc
 50
244.7482808787518
 51
295.2516148471758
  0
ARC
  5
1F05
330
1F
100
AcDbEntity
  8
AM_11
 48
0.5
100
AcDbCircle
 10
-90.13601784622503
 20
-12.1466548782672
 30
0.0
 40
13.42998806635521
100
AcDbArc
 50
64.74833051131179
 51
115.2516644797366
  0
ARC
  5
1F06
330
1F
100
AcDbEntity
  8
AM_11
 48
0.5
100
AcDbCircle
 10
-90.13601784622501
 20
12.1466587839438
 30
0.0
 40
13.42998806635521
100
AcDbArc
 50
244.7482808787518
 51
295.2516148471758
  0
ARC
  5
1F0B
330
1F
100
AcDbEntity
  8
AM_11
 48
0.5
100
AcDbCircle
 10
-101.594343603469
 20
-12.1466548782672
 30
0.0
 40
13.42998806635521
100
AcDbArc
 50
64.74833051131179
 51
87.46363868627874
  0
ARC
  5
1F0C
330
1F
100
AcDbEntity
  8
AM_11
 48
0.5
100
AcDbCircle
 10
-101.5943436034689
 20
12.1466587839438
 30
0.0
 40
13.42998806635521
100
AcDbArc
 50
272.5363613137212
 51
295.2516148471758
  0
LINE
  5
1F19
330
1F
100
AcDbEntity
  8
AM_0
100
AcDbLine
 10
-100.75
 20
-3.000000000000058
 30
0.0
 11
-100.75
 21
2.999999999999941
 31
0.0
  0
LINE
  5
1F1A
330
1F
100
AcDbEntity
  8
AM_0
 48
0.5
100
AcDbLine
 10
-101.0
 20
-2.750000000000283
 30
0.0
 11
-101.0
 21
2.749999999999716
 31
0.0
  0
LINE
  5
1F1B
330
1F
100
AcDbEntity
  8
AM_0
100
AcDbLine
 10
-101.0
 20
-2.750000000000283
 30
0.0
 11
-100.75
 21
-3.000000000000282
 31
0.0
1001
GENIUS_GENFIL_13
1070
     0
1040
0.25
1040
0.25
1040
20.0
1040
0.0
1002
{
1002
}
1001
GENIUS_GENODEF_13
1002
{
1000
HIER
1070
     0
1002
}
1002
{
1000
MANEDIT
1070
     0
1002
}
1002
{
1000
NOSEL
1070
     0
1002
}
1002
{
1000
BEHIND
1070
     0
1002
}
1002
{
1000
REACTOR
1002
}
1001
GENIUS_GENOBJ-N-CHA_13
1002
{
1000
OWNER
1000
GEN
1002
}
  0
LINE
  5
1F1C
330
1F
100
AcDbEntity
  8
AM_0
100
AcDbLine
 10
-101.0
 20
2.749999999999716
 30
0.0
 11
-100.75
 21
2.999999999999717
 31
0.0
1001
GENIUS_GENFIL_13
1070
     0
1040
0.25
1040
0.25
1040
20.0
1040
0.0
1002
{
1002
}
1001
GENIUS_GENODEF_13
1002
{
1000
HIER
1070
     0
1002
}
1002
{
1000
MANEDIT
1070
     0
1002
}
1002
{
1000
NOSEL
1070
     0
1002
}
1002
{
1000
BEHIND
1070
     0
1002
}
1002
{
1000
REACTOR
1002
}
1001
GENIUS_GENOBJ-N-CHA_13
1002
{
1000
OWNER
1000
GEN
1002
}
  0
LINE
  5
1F2F
330
1F
100
AcDbEntity
  8
AM_0
 48
0.5
100
AcDbLine
 10
-49.00000000000004
 20
-3.00000000000018
 30
0.0
 11
-49.00000000000003
 21
3.000000000000043
 31
0.0
  0
LINE
  5
1F31
330
1F
100
AcDbEntity
  8
AM_0
100
AcDbLine
 10
-100.75
 20
2.999999999999941
 30
0.0
 11
-49.00000000000003
 21
3.000000000000043
 31
0.0
  0
LINE
  5
1F32
330
1F
100
AcDbEntity
  8
AM_0
100
AcDbLine
 10
-100.75
 20
-3.000000000000282
 30
0.0
 11
-49.00000000000004
 21
-3.00000000000018
 31
0.0
  0
LINE
  5
1F5B
330
1F
100
AcDbEntity
  8
AM_0
100
AcDbLine
 10
-49.00000000000003
 20
3.000000000000043
 30
0.0
 11
-48.480385016055
 21
2.700000149144427
 31
0.0
  0
LINE
  5
1F5C
330
1F
100
AcDbEntity
  8
AM_0
100
AcDbLine
 10
-49.00000000000004
 20
-3.00000000000018
 30
0.0
 11
-48.48038501605509
 21
-2.7000001491446
 31
0.0
  0
LINE
  5
2434
330
1F
100
AcDbEntity
  8
AM_0
 48
0.5
100
AcDbLine
 10
-0.9166134198471972
 20
2.337511489582385
 30
0.0
 11
-1.000013987220015
 21
2.700000149143741
 31
0.0
  0
LINE
  5
2437
330
1F
100
AcDbEntity
  8
AM_0
 48
0.5
100
AcDbLine
 10
-0.9166099230416564
 20
-2.337496616649583
 30
0.0
 11
-1.000000000000048
 21
-2.699999850856277
 31
0.0
  0
LINE
  5
2442
330
1F
100
AcDbEntity
  8
AM_0
100
AcDbLine
 10
-48.48038501605509
 20
-2.700000149144599
 30
0.0
 11
-48.48038501605501
 21
2.700000149144436
 31
0.0
  0
ELLIPSE
  5
245F
330
1F
100
AcDbEntity
  8
AM_0
 48
0.5
100
AcDbEllipse
 10
3.925384326543456
 20
-3.305989277576228
 30
0.0
 11
2.436930427497456
 21
5.205145729177516
 31
0.0
210
0.0
220
0.0
230
1.0
 40
0.8524756746286305
 41
1.485882733847986
 42
1.776854386604848
  0
ELLIPSE
  5
2460
330
1F
100
AcDbEntity
  8
AM_0
 48
0.5
100
AcDbEllipse
 10
3.925384233732741
 20
3.3059878601966
 30
0.0
 11
-2.43693404402829
 21
5.205129135270516
 31
0.0
210
0.0
220
0.0
230
1.0
 40
0.8524775971145565
 41
1.364735592005148
 42
1.655708372890887
  0
DIMENSION
  5
254C
330
1F
100
AcDbEntity
  8
AM_5
100
AcDbDimension
  2
*D8
 10
-109.3750219808317
 20
-3.000000000000607
 30
0.0
 11
-111.0750219808317
 21
-0.0000000000003493
 31
0.0
 70
    32
  1
%%c<>
 51
359.9999999999998
  3
AM_JIS$0
100
AcDbAlignedDimension
 13
-100.7499999999998
 23
2.999999999999941
 33
0.0
 14
-100.7499999999996
 24
-3.000000000000609
 34
0.0
 50
270.0000000000002
100
AcDbRotatedDimension
1001
ACAD
1000
DSTYLE
1002
{
1070
   271
1070
     0
1002
}
1001
GENIUS_GENDTOL_13
1000

1000
h7
1000

1040
0.0
  0
LINE
  5
2651
330
1F
100
AcDbEntity
  8
AM_0
100
AcDbLine
 10
-0.2892084333858715
 20
0.7945936402434639
 30
0.0
 11
-0.0000000000000168
 21
0.0000000000000012
 31
0.0
  0
LINE
  5
2652
330
1F
100
AcDbEntity
  8
AM_0
100
AcDbLine
 10
-0.289208433385835
 20
-0.7945936402435147
 30
0.0
 11
-0.0000000000000168
 21
-0.0000000000000414
 31
0.0
  0
DIMENSION
  5
2736
330
1F
100
AcDbEntity
  8
AM_5
100
AcDbDimension
  2
*D9
 10
-0.0000000000000168
 20
-0.0000000000000414
 30
0.0
 11
13.95703714757515
 21
0.0000000000003184
 31
0.0
 70
    34
  1
<>
 51
359.9999999999998
  3
AM_JIS$2
100
AcDb2LineAngularDimension
 13
-0.2892084333858715
 23
0.7945936402434639
 33
0.0
 14
-0.0000000000000168
 24
0.0000000000000012
 34
0.0
 15
-0.289208433385835
 25
-0.7945936402435147
 35
0.0
 16
14.23881127889435
 26
-6.142023645371857
 36
0.0
1001
GENIUS_GENDTOL_13
1000

1000
h7
1000

1040
0.0
1001
ACAD
1000
DSTYLE
1002
{
1070
   271
1070
     0
1002
}
  0
DIMENSION
  5
29BB
330
1F
100
AcDbEntity
  8
AM_5
100
AcDbDimension
  2
*D10
 10
8.425011198283725
 20
2.700000149143739
 30
0.0
 11
8.425011198283725
 21
8.867307838689493
 31
0.0
 70
   160
  1
%%c<>
  3
AM_JIS$0
100
AcDbAlignedDimension
 13
-1.000000000000048
 23
-2.699999850856277
 33
0.0
 14
-1.000013987220015
 24
2.700000149143741
 34
0.0
 50
89.99999999999944
100
AcDbRotatedDimension
1001
ACAD
1000
DSTYLE
1002
{
1070
   271
1070
     1
1002
}
1001
GENIUS_GENDTOL_13
1000

1000
h7
1000

1040
0.0
  0
LINE
  5
2A31
330
1F
100
AcDbEntity
  8
AM_0
 48
0.5
100
AcDbLine
 10
0.0000000000000001
 20
0.0000000000000022
 30
0.0
 11
-1.350605487820047
 21
1.036718136204103
 31
0.0
  0
LINE
  5
2A32
330
1F
100
AcDbEntity
  8
AM_0
 48
0.5
100
AcDbLine
 10
-2.484100341793721
 20
-2.699999850856237
 30
0.0
 11
-1.000000000000059
 21
-2.699999850856256
 31
0.0
  0
ELLIPSE
  5
2A33
330
1F
100
AcDbEntity
  8
AM_11
 48
0.5
100
AcDbEllipse
 10
1.530561447146926
 20
12.8611704233982
 30
0.0
 11
-0.0000000000003649
 21
14.2199873643761
 31
0.0
210
0.0
220
0.0
230
1.0
 40
0.9444444444444467
 41
2.700867013135169
 42
2.86259706417586
  0
ELLIPSE
  5
2A34
330
1F
100
AcDbEntity
  8
AM_0
 48
0.5
100
AcDbEllipse
 10
2.845227559410858
 20
-0.6001726566422783
 30
0.0
 11
4.399990902822318
 21
0.0025311287369094
 31
0.0
210
0.0
220
0.0
230
1.0
 40
0.9817745527070179
 41
3.268195145618157
 42
3.648620878332011
  0
ELLIPSE
  5
2A35
330
1F
100
AcDbEntity
  8
AM_0
 48
0.5
100
AcDbEllipse
 10
-4.92964190082819
 20
5.135697312654143
 30
0.0
 11
-4.551373063997639
 21
5.510698039595411
 31
0.0
210
0.0
220
0.0
230
1.0
 40
0.6397932457792074
 41
3.07426486251442
 42
3.257858469092735
  0
ELLIPSE
  5
2A36
330
1F
100
AcDbEntity
  8
AM_0
 48
0.5
100
AcDbEllipse
 10
-0.8184388478563114
 20
-0.7036587177387634
 30
0.0
 11
-0.0805585514612266
 21
0.4429903525059766
 31
0.0
210
0.0
220
0.0
230
1.0
 40
0.5086770109757229
 41
1.80155538641581
 42
4.936897276127786
  0
ELLIPSE
  5
2A37
330
1F
100
AcDbEntity
  8
AM_0
 48
0.5
100
AcDbEllipse
 10
-0.8184388478563114
 20
-0.7036587177387634
 30
0.0
 11
-0.3981031198818908
 21
0.2229551236854685
 31
0.0
210
0.0
220
0.0
230
1.0
 40
0.4953308308353244
 41
4.473404885090412
 42
7.616845226419918
  0
SPLINE
  5
2A38
330
1F
100
AcDbEntity
  8
AM_0
 48
0.5
100
AcDbSpline
210
0.0
220
0.0
230
1.0
 70
     8
 71
     3
 72
    10
 73
     6
 74
     0
 42
0.0000000001
 43
0.0000000001
 40
0.0
 40
0.0
 40
0.0
 40
0.0
 40
2.69986029516136
 40
4.147722969032201
 40
6.285750005020438
 40
6.285750005020438
 40
6.285750005020438
 40
6.285750005020438
 10
-3.024559656775801
 20
0.4886857570538767
 30
0.0
 10
-2.694692144898383
 20
0.2378370992129672
 30
0.0
 10
-2.187925532491259
 20
-0.1475349667944191
 30
0.0
 10
-0.989490569332689
 20
0.0390304015087876
 30
0.0
 10
-1.21519073152552
 20
0.6674072482266882
 30
0.0
 10
-1.364318978128232
 20
1.050422289787218
 30
0.0
  0
ELLIPSE
  5
2A39
330
1F
100
AcDbEntity
  8
AM_0
 48
0.5
100
AcDbEllipse
 10
1.75641314188996
 20
3.241516262424941
 30
0.0
 11
5.542473077773959
 21
0.0000000000000939
 31
0.0
210
0.0
220
0.0
230
1.0
 40
0.9818181818181793
 41
3.671960206823858
 42
4.080081137018754
  0
ELLIPSE
  5
2A3A
330
1F
100
AcDbEntity
  8
AM_0
 48
0.5
100
AcDbEllipse
 10
-4.759485880530363
 20
4.531578976047891
 30
0.0
 11
-6.630541364350993
 21
0.0000000000213057
 31
0.0
210
0.0
220
0.0
230
1.0
 40
0.9818181818182472
 41
2.081379652026497
 42
2.169874429706005
  0
LINE
  5
2A3B
330
1F
100
AcDbEntity
  8
AM_0
 48
0.5
100
AcDbLine
 10
-38.96967093149497
 20
1.368040043248024
 30
0.0
 11
-45.00000000000003
 21
-0.2183634220226445
 31
0.0
  0
ELLIPSE
  5
2A3C
330
1F
100
AcDbEntity
  8
AM_0
 48
0.5
100
AcDbEllipse
 10
-44.31251398722007
 20
-1.827421039210167
 30
0.0
 11
0.687711998815623
 21
0.0013113871770411
 31
0.0
210
0.0
220
0.0
230
0.9999999999999998
 40
0.9814314162125747
 41
1.17369407453374
 42
3.114016143053556
  0
LINE
  5
2A3D
330
1F
100
AcDbEntity
  8
AM_0
 48
0.5
100
AcDbLine
 10
-18.98386885388437
 20
-2.699999850856061
 30
0.0
 11
-11.21485519408846
 21
-2.699999850856113
 31
0.0
  0
LINE
  5
2A3E
330
1F
100
AcDbEntity
  8
AM_11
 48
0.5
100
AcDbLine
 10
-44.08317947387397
 20
-2.699999850855672
 30
0.0
 11
-37.51114273070971
 21
-2.699999850855797
 31
0.0
  0
LINE
  5
2A3F
330
1F
100
AcDbEntity
  8
AM_0
 48
0.5
100
AcDbLine
 10
-37.51114622753179
 20
-2.69999985085576
 30
0.0
 11
-27.71462241985188
 21
-2.699999850855873
 31
0.0
  0
LINE
  5
2A40
330
1F
100
AcDbEntity
  8
AM_11
 48
0.5
100
AcDbLine
 10
-27.714623706178
 20
-2.699999850855937
 30
0.0
 11
-18.98386885388437
 21
-2.700383434855971
 31
0.0
  0
LINE
  5
2A41
330
1F
100
AcDbEntity
  8
AM_11
 48
0.5
100
AcDbLine
 10
-11.21485519408846
 20
-2.699999850856113
 30
0.0
 11
-2.484100341793721
 21
-2.699999850856237
 31
0.0
  0
ELLIPSE
  5
2A42
330
1F
100
AcDbEntity
  8
AM_0
 48
0.5
100
AcDbEllipse
 10
-44.08317947387393
 20
-1.799999850855717
 30
0.0
 11
-0.91686385099651
 21
0.0056997355632676
 31
0.0
210
0.0
220
0.0
230
1.0
 40
0.9815873693866324
 41
0.0175798561664722
 42
1.576898030161334
  0
SPLINE
  5
2A43
330
1F
100
AcDbEntity
  8
AM_0
 48
0.5
100
AcDbSpline
210
0.0
220
0.0
230
1.0
 70
     8
 71
     3
 72
    26
 73
    22
 74
     0
 42
0.0000000001
 43
0.0000000001
 40
0.0
 40
0.0
 40
0.0
 40
0.0
 40
0.4632575220609015
 40
0.9271320558815228
 40
1.392223688852627
 40
1.859097508126575
 40
2.328267793346685
 40
2.800187610316366
 40
3.275232272894703
 40
3.753695215510249
 40
4.235780552632416
 40
4.721598429862242
 40
5.211170673809951
 40
5.70440888197023
 40
6.20117450816439
 40
6.701203715991866
 40
7.204183272409761
 40
7.709727705098289
 40
8.217394601127418
 40
8.726694734710479
 40
9.22133928350434
 40
9.22133928350434
 40
9.22133928350434
 40
9.22133928350434
 10
-36.21371936797788
 20
-2.699999850855816
 30
0.0
 10
-36.36814708842329
 20
-2.698393416337314
 30
0.0
 10
-36.67720821128369
 20
-2.695178407693417
 30
0.0
 10
-37.14068742200534
 20
-2.66926182654143
 30
0.0
 10
-37.60414684989243
 20
-2.628061238366305
 30
0.0
 10
-38.06757758911795
 20
-2.570317026334252
 30
0.0
 10
-38.53097503952119
 20
-2.496811826015404
 30
0.0
 10
-38.99432996842727
 20
-2.407872161142064
 30
0.0
 10
-39.45764206758681
 20
-2.304098942598959
 30
0.0
 10
-39.92090817722147
 20
-2.186122436651115
 30
0.0
 10
-40.38412720212533
 20
-2.054674667806299
 30
0.0
 10
-40.84730295460825
 20
-1.910573777911173
 30
0.0
 10
-41.31043351542118
 20
-1.754709543512243
 30
0.0
 10
-41.77352413196385
 20
-1.58803807447352
 30
0.0
 10
-42.23658099607694
 20
-1.411603715015885
 30
0.0
 10
-42.69960510825234
 20
-1.226476761431533
 30
0.0
 10
-43.16259992009148
 20
-1.0338073651068
 30
0.0
 10
-43.62557393394938
 20
-0.834784254619411
 30
0.0
 10
-44.08851949866647
 20
-0.6306060290387996
 30
0.0
 10
-44.54670960662888
 20
-0.4247736115731881
 30
0.0
 10
-44.85027779205884
 20
-0.2864939496902681
 30
0.0
 10
-45.00000000000004
 20
-0.2183634220226444
 30
0.0
  0
SPLINE
  5
2A44
330
1F
100
AcDbEntity
  8
AM_0
100
AcDbSpline
210
0.0
220
0.0
230
1.0
 70
     8
 71
     3
 72
    11
 73
     7
 74
     0
 42
0.0000000001
 43
0.0000000001
 40
11.27226913003534
 40
11.27226913003534
 40
11.27226913003534
 40
11.2722691300354
 40
12.28301561507924
 40
13.29510212255852
 40
14.30984805882082
 40
15.18258238371378
 40
15.18258238371378
 40
15.18258238371378
 40
15.18258238371378
 10
-27.71462370617909
 20
-2.699999850855937
 30
0.0
 10
-27.86846421435682
 20
-2.686785266241058
 30
0.0
 10
-28.17585505826004
 20
-2.654793332010644
 30
0.0
 10
-28.63535401510286
 20
-2.590257687481729
 30
0.0
 10
-29.07142662737498
 20
-2.513176936149392
 30
0.0
 10
-29.35345279604378
 20
-2.453922668529902
 30
0.0
 10
-29.48341848525417
 20
-2.424652696987724
 30
0.0
  0
SPLINE
  5
2A45
330
1F
100
AcDbEntity
  8
AM_0
100
AcDbSpline
210
0.0
220
0.0
230
1.0
 70
     8
 71
     3
 72
    17
 73
    13
 74
     0
 42
0.0000000001
 43
0.0000000001
 40
1.580019955310467
 40
1.580019955310467
 40
1.580019955310467
 40
1.580019955310467
 40
2.030549285115227
 40
3.082371838836284
 40
4.126290986361125
 40
5.162752068350215
 40
6.192395305374981
 40
7.216039564037012
 40
8.234688489606833
 40
9.249433870634691
 40
10.26152376260694
 40
11.27226744710342
 40
11.27226744710342
 40
11.27226744710342
 40
11.27226744710352
 10
-23.34890569590078
 20
-1.99267935664997
 30
0.0
 10
-23.41448026808616
 20
-2.013202300165267
 30
0.0
 10
-23.63352136976257
 20
-2.080468988767596
 30
0.0
 10
-24.00747885024421
 20
-2.185979196684229
 30
0.0
 10
-24.47068051102804
 20
-2.304136632664339
 30
0.0
 10
-24.93400969079542
 20
-2.407863173497704
 30
0.0
 10
-25.39736010014407
 20
-2.496810482147335
 30
0.0
 10
-25.86076099068939
 20
-2.570331551594594
 30
0.0
 10
-26.32419389627249
 20
-2.628006829514453
 30
0.0
 10
-26.78765565889805
 20
-2.669462560807607
 30
0.0
 10
-27.25113486006843
 20
-2.69443189011739
 30
0.0
 10
-27.56019598778958
 20
-2.699999866305479
 30
0.0
 10
-27.71462370617907
 20
-2.699999850855937
 30
0.0
  0
SPLINE
  5
2A46
330
1F
100
AcDbEntity
  8
AM_0
100
AcDbSpline
210
0.0
220
0.0
230
1.0
 70
     8
 71
     3
 72
    22
 73
    18
 74
     0
 42
0.0000000001
 43
0.0000000001
 40
17.17441611292
 40
17.17441611292
 40
17.17441611292
 40
17.17441611292
 40
17.38177636558528
 40
18.41823744757437
 40
19.46215659509824
 40
20.51397914882054
 40
21.57394542641293
 40
22.64209583141747
 40
23.71826625065247
 40
24.80210429862395
 40
25.8930771157021
 40
26.99048705697709
 40
28.09349309193389
 40
29.20112995599786
 40
30.31233024745139
 40
31.42594771747373
 40
32.5407895042663
 40
32.54078950426994
 40
32.54078950426994
 40
32.54078950426994
 10
-29.48362118068815
 20
-2.42461939250837
 30
0.0
 10
-29.51465640873184
 20
-2.418369157329148
 30
0.0
 10
-29.70069565152853
 20
-2.380298291684963
 30
0.0
 10
-30.04150906106249
 20
-2.303961251034888
 30
0.0
 10
-30.50477520743396
 20
-2.185985249011045
 30
0.0
 10
-30.96799414795756
 20
-2.054537137091917
 30
0.0
 10
-31.43116915293305
 20
-1.910437446985069
 30
0.0
 10
-31.89429961053844
 20
-1.754569722844922
 30
0.0
 10
-32.35739122137264
 20
-1.587904001544436
 30
0.0
 10
-32.82044612968
 20
-1.411464556981909
 30
0.0
 10
-33.28346861981952
 20
-1.226339481544197
 30
0.0
 10
-33.74646384030773
 20
-1.03367087968657
 30
0.0
 10
-34.2094358096638
 20
-0.8346434764682937
 30
0.0
 10
-34.67238918844912
 20
-0.6304817221055578
 30
0.0
 10
-35.13532808034244
 20
-0.4224409802898761
 30
0.0
 10
-35.59825934338084
 20
-0.2118049748459358
 30
0.0
 10
-35.90681960683104
 20
-0.0705358740323249
 30
0.0
 10
-36.06118450228201
 20
0.0001374782460907
 30
0.0
  0
SPLINE
  5
2A47
330
1F
100
AcDbEntity
  8
AM_0
 48
0.5
100
AcDbSpline
210
0.0
220
0.0
230
1.0
 70
     8
 71
     3
 72
    22
 73
    18
 74
     0
 42
0.0000000001
 43
0.0000000001
 40
0.0
 40
0.0
 40
0.0
 40
0.0
 40
1.010743684496582
 40
2.022833993863546
 40
3.037578683882831
 40
4.056212471389632
 40
5.079857945358201
 40
6.109499720892564
 40
7.145961650132166
 40
8.189873411961459
 40
9.241710626092514
 40
10.30166235592959
 40
11.36982472628033
 40
12.44598212828784
 40
13.52983440361964
 40
14.62080578343036
 40
14.90544694398022
 40
14.90544694398022
 40
14.90544694398022
 40
14.90544694398022
 10
-37.51114622751575
 20
-2.699999850855798
 30
0.0
 10
-37.66557397745111
 20
-2.698393896192882
 30
0.0
 10
-37.97463522310279
 20
-2.695179847236108
 30
0.0
 10
-38.43811394846466
 20
-2.669256047775103
 30
0.0
 10
-38.90157387679781
 20
-2.628062391849628
 30
0.0
 10
-39.3650048664528
 20
-2.570318141684433
 30
0.0
 10
-39.82840103964729
 20
-2.496806026867837
 30
0.0
 10
-40.29175756209371
 20
-2.407874051894321
 30
0.0
 10
-40.75506764397444
 20
-2.304097062339123
 30
0.0
 10
-41.2183344711713
 20
-2.186118848333348
 30
0.0
 10
-41.68155387128467
 20
-2.054676046121965
 30
0.0
 10
-42.14472826505366
 20
-1.910568631405403
 30
0.0
 10
-42.60786063825118
 20
-1.754713625550216
 30
0.0
 10
-43.07095064301061
 20
-1.588037579968371
 30
0.0
 10
-43.53400695477761
 20
-1.411602296533363
 30
0.0
 10
-43.88202613349562
 20
-1.272463985953237
 30
0.0
 10
-44.07595456448365
 20
-1.192937000106316
 30
0.0
 10
-44.11605251540072
 20
-1.176412000320486
 30
0.0
  0
SPLINE
  5
2A48
330
1F
100
AcDbEntity
  8
AM_0
100
AcDbSpline
210
0.0
220
0.0
230
1.0
 70
     8
 71
     3
 72
    11
 73
     7
 74
     0
 42
0.0000000001
 43
0.0000000001
 40
11.27226913003534
 40
11.27226913003534
 40
11.27226913003534
 40
11.2722691300354
 40
12.28301561507924
 40
13.29510212255852
 40
14.30984805882082
 40
15.18258238371378
 40
15.18258238371378
 40
15.18258238371378
 40
15.18258238371378
 10
-11.21485519408845
 20
-2.699999850856113
 30
0.0
 10
-11.36869570226617
 20
-2.686785266241234
 30
0.0
 10
-11.6760865461694
 20
-2.65479333201082
 30
0.0
 10
-12.13558550301222
 20
-2.590257687481906
 30
0.0
 10
-12.57165811528434
 20
-2.513176936149569
 30
0.0
 10
-12.85368428395314
 20
-2.453922668530082
 30
0.0
 10
-12.98364997316353
 20
-2.4246526969879
 30
0.0
  0
SPLINE
  5
2A49
330
1F
100
AcDbEntity
  8
AM_0
100
AcDbSpline
210
0.0
220
0.0
230
1.0
 70
     8
 71
     3
 72
    22
 73
    18
 74
     0
 42
0.0000000001
 43
0.0000000001
 40
17.17441611292
 40
17.17441611292
 40
17.17441611292
 40
17.17441611292
 40
17.38177636558528
 40
18.41823744757437
 40
19.46215659509824
 40
20.51397914882054
 40
21.57394542641293
 40
22.64209583141747
 40
23.71826625065247
 40
24.80210429862395
 40
25.8930771157021
 40
26.99048705697709
 40
28.09349309193389
 40
29.20112995599786
 40
30.31233024745139
 40
31.42594771747373
 40
32.5407895042663
 40
32.54078950426994
 40
32.54078950426994
 40
32.54078950426994
 10
-12.9838526685975
 20
-2.424619392508545
 30
0.0
 10
-13.01488789664119
 20
-2.418369157329324
 30
0.0
 10
-13.2009271394379
 20
-2.380298291685139
 30
0.0
 10
-13.54174054897185
 20
-2.303961251035067
 30
0.0
 10
-14.00500669534331
 20
-2.185985249011224
 30
0.0
 10
-14.4682256358669
 20
-2.054537137092096
 30
0.0
 10
-14.93140064084239
 20
-1.910437446985247
 30
0.0
 10
-15.3945310984478
 20
-1.754569722845101
 30
0.0
 10
-15.85762270928201
 20
-1.587904001544614
 30
0.0
 10
-16.32067761758936
 20
-1.411464556982088
 30
0.0
 10
-16.78370010772889
 20
-1.226339481544375
 30
0.0
 10
-17.2466953282171
 20
-1.033670879686747
 30
0.0
 10
-17.70966729757314
 20
-0.8346434764684714
 30
0.0
 10
-18.17262067635846
 20
-0.6304817221057357
 30
0.0
 10
-18.63555956825178
 20
-0.4224409802900535
 30
0.0
 10
-19.09849083129019
 20
-0.2118049748461134
 30
0.0
 10
-19.40705109474039
 20
-0.0705358740325025
 30
0.0
 10
-19.56141599019136
 20
0.0001374782459131
 30
0.0
  0
SPLINE
  5
2A4A
330
1F
100
AcDbEntity
  8
AM_0
100
AcDbSpline
210
0.0
220
0.0
230
1.0
 70
     8
 71
     3
 72
    17
 73
    13
 74
     0
 42
0.0000000001
 43
0.0000000001
 40
1.580019955310467
 40
1.580019955310467
 40
1.580019955310467
 40
1.580019955310467
 40
2.030549285115227
 40
3.082371838836284
 40
4.126290986361125
 40
5.162752068350215
 40
6.192395305374981
 40
7.216039564037012
 40
8.234688489606833
 40
9.249433870634691
 40
10.26152376260694
 40
11.27226744710342
 40
11.27226744710342
 40
11.27226744710342
 40
11.27226744710352
 10
-6.849137183810134
 20
-1.992679356650147
 30
0.0
 10
-6.914711755995512
 20
-2.013202300165443
 30
0.0
 10
-7.133752857671927
 20
-2.080468988767772
 30
0.0
 10
-7.507710338153569
 20
-2.185979196684407
 30
0.0
 10
-7.970911998937407
 20
-2.30413663266452
 30
0.0
 10
-8.434241178704786
 20
-2.407863173497883
 30
0.0
 10
-8.897591588053431
 20
-2.496810482147511
 30
0.0
 10
-9.360992478598751
 20
-2.570331551594771
 30
0.0
 10
-9.824425384181859
 20
-2.628006829514629
 30
0.0
 10
-10.28788714680741
 20
-2.669462560807783
 30
0.0
 10
-10.75136634797779
 20
-2.694431890117566
 30
0.0
 10
-11.06042747569893
 20
-2.699999866305659
 30
0.0
 10
-11.21485519408842
 20
-2.699999850856113
 30
0.0
  0
SPLINE
  5
2A4B
330
1F
100
AcDbEntity
  8
AM_0
100
AcDbSpline
210
0.0
220
0.0
230
1.0
 70
     8
 71
     3
 72
    13
 73
     9
 74
     0
 42
0.0000000001
 43
0.0000000001
 40
16.03460056234195
 40
16.03460056234195
 40
16.03460056234195
 40
16.03460056234195
 40
16.35212717791071
 40
17.38177067057215
 40
18.41822498539278
 40
19.46214186516937
 40
20.5139635832251
 40
21.34083983469381
 40
21.34083983469381
 40
21.34083983469381
 40
21.34083983469381
 10
-44.08317976163246
 20
-2.699999850855672
 30
0.0
 10
-43.95219228489159
 20
-2.691130947862078
 30
0.0
 10
-43.75037122560443
 20
-2.651439976946943
 30
0.0
 10
-43.39486174417699
 20
-2.573668535282619
 30
0.0
 10
-42.93447572615789
 20
-2.458024922850959
 30
0.0
 10
-42.47451740990171
 20
-2.328175975050846
 30
0.0
 10
-42.04890465520885
 20
-2.195458696111637
 30
0.0
 10
-41.77737121271479
 20
-2.104073404563459
 30
0.0
 10
-41.65825111890674
 20
-2.062766420080754
 30
0.0
  0
LINE
  5
2A4C
330
1F
100
AcDbEntity
  8
AM_0
100
AcDbLine
 10
-48.48038449940334
 20
-2.699999850855569
 30
0.0
 11
-44.08317947387397
 21
-2.699999850855672
 31
0.0
1001
GENIUS_GENODEF_13
1002
{
1000
HIER
1070
     0
1002
}
1002
{
1000
MANEDIT
1070
     0
1002
}
1002
{
1000
NOSEL
1070
     0
1002
}
1002
{
1000
BEHIND
1070
     0
1002
}
1002
{
1000
REACTOR
1002
}
1001
GENIUS_GENOBJ-N-CEN_13
1002
{
1000
OWNER
1000
GEN
1002
}
  0
LINE
  5
2A4D
330
1F
100
AcDbEntity
  8
AM_0
 48
0.5
100
AcDbLine
 10
-2.484100341793648
 20
2.700000149143764
 30
0.0
 11
-1.000013987220015
 21
2.700000149143741
 31
0.0
  0
LINE
  5
2A4E
330
1F
100
AcDbEntity
  8
AM_0
 48
0.5
100
AcDbLine
 10
-21.01131057738907
 20
2.700000149144025
 30
0.0
 11
-11.21485519408839
 21
2.700000149143889
 31
0.0
  0
LINE
  5
2A4F
330
1F
100
AcDbEntity
  8
AM_11
 48
0.5
100
AcDbLine
 10
-43.08276823419544
 20
2.700383733144201
 30
0.0
 11
-37.5111427307096
 21
2.700000149144204
 31
0.0
  0
LINE
  5
2A50
330
1F
100
AcDbEntity
  8
AM_0
100
AcDbLine
 10
-37.5111427307096
 20
2.700000149144204
 30
0.0
 11
-26.58293608087491
 21
2.700383733144022
 31
0.0
  0
LINE
  5
2A51
330
1F
100
AcDbEntity
  8
AM_11
 48
0.5
100
AcDbLine
 10
-26.58293608087491
 20
2.700383733144022
 30
0.0
 11
-21.01130305764127
 21
2.700000149144025
 31
0.0
  0
LINE
  5
2A52
330
1F
100
AcDbEntity
  8
AM_11
 48
0.5
100
AcDbLine
 10
-11.21485519408839
 20
2.700000149143889
 30
0.0
 11
-2.484100341793648
 21
2.700000149143764
 31
0.0
  0
SPLINE
  5
2A53
330
1F
100
AcDbEntity
  8
AM_0
100
AcDbSpline
210
0.0
220
0.0
230
1.0
 70
     8
 71
     3
 72
    23
 73
    19
 74
     0
 42
0.0000000001
 43
0.0000000001
 40
16.03460024169435
 40
16.03460024169435
 40
16.03460024169435
 40
16.03460024169435
 40
16.35212704903564
 40
17.38177054169784
 40
18.41822485651776
 40
19.46214173629503
 40
20.51396345435107
 40
21.57393551351153
 40
22.64208202342361
 40
23.7182574881101
 40
24.80209208578934
 40
25.89306333925047
 40
26.99048218457928
 40
28.09348763352352
 40
29.20111863782268
 40
30.31232390128032
 40
31.42594612798585
 40
32.5407912310448
 40
32.5407912310486
 40
32.5407912310486
 40
32.5407912310486
 10
-26.58293608087491
 20
2.700383733144023
 30
0.0
 10
-26.53531928788003
 20
2.691269008612984
 30
0.0
 10
-26.33349839559551
 20
2.651576948675698
 30
0.0
 10
-25.97798872037428
 20
2.573806415000607
 30
0.0
 10
-25.51760276029265
 20
2.458162481916014
 30
0.0
 10
-25.05764442834584
 20
2.328313620954135
 30
0.0
 10
-24.59808654522918
 20
2.185011331092397
 30
0.0
 10
-24.13891280041901
 20
2.029054525804891
 30
0.0
 10
-23.68009665477335
 20
1.861334719959675
 30
0.0
 10
-23.2216061580797
 20
1.68282800075664
 30
0.0
 10
-22.76341525726131
 20
1.494545241339033
 30
0.0
 10
-22.30548721749224
 20
1.297582015213038
 30
0.0
 10
-21.84778492882569
 20
1.093083157746534
 30
0.0
 10
-21.39027789586364
 20
0.8822244516385415
 30
0.0
 10
-20.93292783954824
 20
0.6662320113891504
 30
0.0
 10
-20.4756923995783
 20
0.4463670743850329
 30
0.0
 10
-20.01853434408185
 20
0.2239036983988022
 30
0.0
 10
-19.71384416874706
 20
0.0747541689717102
 30
0.0
 10
-19.56141599018931
 20
0.000137478244943
 30
0.0
  0
SPLINE
  5
2A54
330
1F
100
AcDbEntity
  8
AM_0
100
AcDbSpline
210
0.0
220
0.0
230
1.0
 70
     8
 71
     3
 72
    46
 73
    42
 74
     0
 42
0.0000000001
 43
0.0000000001
 40
0.0
 40
0.0
 40
0.0
 40
0.0
 40
0.9269782822765129
 40
1.392069915247614
 40
1.858943734521565
 40
2.328114019741209
 40
2.800033836711347
 40
3.275078499289677
 40
3.753541441904786
 40
4.235633498381826
 40
4.721451375611676
 40
5.211020311238912
 40
5.704265086722058
 40
6.201024192041711
 40
6.701053399869214
 40
7.204032956287514
 40
7.709577388975612
 40
8.217244285004754
 40
8.726544418588229
 40
9.236953160217939
 40
9.747921574214178
 40
10.25888998821083
 40
10.76929872984054
 40
11.2785988634236
 40
11.78626575945273
 40
12.29181019214125
 40
12.79478974855896
 40
13.29481895638662
 40
13.79158132214193
 40
14.28482609762508
 40
14.77439503325231
 40
15.26021291048202
 40
15.74229824760474
 40
16.22076119021984
 40
16.69580585279818
 40
17.16772533483959
 40
17.63689589856451
 40
18.10377665611729
 40
18.56886813072882
 40
19.0327428558558
 40
19.49600034591619
 40
19.49600034591619
 40
19.49600034591619
 40
19.49600034591619
 10
-17.68644199434649
 20
-2.699999850856077
 30
0.0
 10
-17.99551821740347
 20
-2.693849042143604
 30
0.0
 10
-18.45966686021671
 20
-2.684612196009465
 30
0.0
 10
-19.07686555126947
 20
-2.62774263126051
 30
0.0
 10
-19.54030127358461
 20
-2.570402982018734
 30
0.0
 10
-20.00369738317778
 20
-2.496788612442466
 30
0.0
 10
-20.46705265930496
 20
-2.407878399467743
 30
0.0
 10
-20.93036472161923
 20
-2.304097409657031
 30
0.0
 10
-21.39363279414248
 20
-2.186121710279167
 30
0.0
 10
-21.85685481516816
 20
-2.054675689592473
 30
0.0
 10
-22.32003171056603
 20
-1.91057462456316
 30
0.0
 10
-22.78316223453104
 20
-1.754707092956285
 30
0.0
 10
-23.24625382750285
 20
-1.588041319737213
 30
0.0
 10
-23.70930874019917
 20
-1.411601888285231
 30
0.0
 10
-24.1723312308418
 20
-1.226476812881902
 30
0.0
 10
-24.63532644482878
 20
-1.033808197529241
 30
0.0
 10
-25.0982984398736
 20
-0.8347808486609149
 30
0.0
 10
-25.56125172186193
 20
-0.6306188892405105
 30
0.0
 10
-26.02419119941826
 20
-0.4225788164976438
 30
0.0
 10
-26.48712110152502
 20
-0.2119399306403225
 30
0.0
 10
-26.95004711216125
 20
0.0000001491011711
 30
0.0
 10
-27.41297312269578
 20
0.2119402291002134
 30
0.0
 10
-27.87590302510757
 20
0.4225791141852607
 30
0.0
 10
-28.33884250154893
 20
0.6306191897504461
 30
0.0
 10
-28.80179578767169
 20
0.834781138703906
 30
0.0
 10
-29.26476776738639
 20
1.033808526382592
 30
0.0
 10
-29.72776303814599
 20
1.226476998006851
 30
0.0
 10
-30.19078632537866
 20
1.411603007516867
 30
0.0
 10
-30.65384303728299
 20
1.588040835927172
 30
0.0
 10
-31.11693545633924
 20
1.754707463751248
 30
0.0
 10
-31.58006596952125
 20
1.91057504173701
 30
0.0
 10
-32.04324096224103
 20
2.054674782600681
 30
0.0
 10
-32.50645989691363
 20
2.186122836645968
 30
0.0
 10
-32.96972607840771
 20
2.30409901796748
 30
0.0
 10
-33.43303787258127
 20
2.407873217880993
 30
0.0
 10
-33.89639348841217
 20
2.496809218321086
 30
0.0
 10
-34.35979255543508
 20
2.570318465633664
 30
0.0
 10
-34.82322588978342
 20
2.628061775324208
 30
0.0
 10
-35.28668789652665
 20
2.669258586249769
 30
0.0
 10
-35.75016672659598
 20
2.69518215996395
 30
0.0
 10
-36.0592279788506
 20
2.698394865700018
 30
0.0
 10
-36.21365572674788
 20
2.700000149144186
 30
0.0
  0
SPLINE
  5
2A55
330
1F
100
AcDbEntity
  8
AM_0
100
AcDbSpline
210
0.0
220
0.0
230
1.0
 70
     8
 71
     3
 72
    55
 73
    51
 74
     0
 42
0.0000000001
 43
0.0000000001
 40
0.0
 40
0.0
 40
0.0
 40
0.0
 40
1.010743684496582
 40
2.022833576467832
 40
3.037578957496688
 40
4.056212745003489
 40
5.079857003664532
 40
6.109500240690281
 40
7.145961322679372
 40
8.189895241603872
 40
9.241717795325891
 40
10.30168407291828
 40
11.36983447792315
 40
12.44600489715814
 40
13.52984294512926
 40
14.62081576220742
 40
15.7182257034828
 40
16.82123173843959
 40
17.92886860250316
 40
19.0400688939571
 40
20.15368796660465
 40
21.26852814259644
 40
22.38336992938901
 40
23.49698739941135
 40
24.6081876908653
 40
25.71582455492886
 40
26.81883757994213
 40
27.91624752121713
 40
29.00722033829659
 40
30.09105838626677
 40
31.16722880550176
 40
32.23537921050758
 40
33.29534548809967
 40
34.347168041821
 40
35.39108718934584
 40
36.42754827133493
 40
37.45720575381954
 40
38.48085062012849
 40
39.49948440763516
 40
40.51422944315121
 40
41.52631975251916
 40
42.53706336719636
 40
43.54780698187354
 40
44.55989729124051
 40
45.57464232675757
 40
46.59327611426424
 40
47.6169209805722
 40
48.64656348684535
 40
49.68302456883444
 40
50.58557219878025
 40
50.58557219878025
 40
50.58557219878025
 40
50.58557219878025
 10
-18.98386885388437
 20
-2.699999850856062
 30
0.0
 10
-19.13829657431122
 20
-2.698393416267556
 30
0.0
 10
-19.44735769713429
 20
-2.695178407483567
 30
0.0
 10
-19.91083690813532
 20
-2.669261827384258
 30
0.0
 10
-20.37429633495636
 20
-2.628061235192399
 30
0.0
 10
-20.83772707818899
 20
-2.570317038259004
 30
0.0
 10
-21.30112451352392
 20
-2.496811781163096
 30
0.0
 10
-21.76447949916582
 20
-2.407872330069122
 30
0.0
 10
-22.22779358501658
 20
-2.304097812820354
 30
0.0
 10
-22.6910626624166
 20
-2.18612369490813
 30
0.0
 10
-23.15428357565914
 20
-2.054674330259652
 30
0.0
 10
-23.61745863364439
 20
-1.910574812948724
 30
0.0
 10
-24.0805890768475
 20
-1.754707041900104
 30
0.0
 10
-24.54368069171241
 20
-1.588041333581682
 30
0.0
 10
-25.00673559844502
 20
-1.411601884480258
 30
0.0
 10
-25.46975809083211
 20
-1.226476814128638
 30
0.0
 10
-25.93275330385578
 20
-1.033808196372753
 30
0.0
 10
-26.39572530100918
 20
-0.8347808520535778
 30
0.0
 10
-26.85867857548836
 20
-0.6306188767622219
 30
0.0
 10
-27.32161808109005
 20
-0.4225788632009506
 30
0.0
 10
-27.7845478782344
 20
-0.2119397558761845
 30
0.0
 10
-28.2474745042072
 20
-0.0000004017540067
 30
0.0
 10
-28.71039905202679
 20
0.2119427674086273
 30
0.0
 10
-29.17333040081091
 20
0.4225785945253393
 30
0.0
 10
-29.63626933490758
 20
0.6306192378118876
 30
0.0
 10
-30.09922343482731
 20
0.8347819908693701
 30
0.0
 10
-30.56219735261064
 20
1.033807636654241
 30
0.0
 10
-31.02519329636309
 20
1.226477231508094
 30
0.0
 10
-31.48821585559523
 20
1.411602151742366
 30
0.0
 10
-31.95127074547877
 20
1.588041637948342
 30
0.0
 10
-32.41436236152948
 20
1.754707346510564
 30
0.0
 10
-32.87749281652884
 20
1.91057508028885
 30
0.0
 10
-33.34066782670936
 20
2.05467474473864
 30
0.0
 10
-33.80388674919859
 20
2.186122948690915
 30
0.0
 10
-34.26715296181444
 20
2.304098611769743
 30
0.0
 10
-34.73046687579973
 20
2.407875215793501
 30
0.0
 10
-35.19382516995152
 20
2.496804508767553
 30
0.0
 10
-35.65722413622062
 20
2.570332517294409
 30
0.0
 10
-36.12065501683486
 20
2.628008265935534
 30
0.0
 10
-36.5841147656816
 20
2.66945905431509
 30
0.0
 10
-37.04759358370749
 20
2.694436218392165
 30
0.0
 10
-37.51108258639935
 20
2.702780262439659
 30
0.0
 10
-37.97457158840922
 20
2.694436218379093
 30
0.0
 10
-38.43805040848497
 20
2.669459054367592
 30
0.0
 10
-38.90151014978474
 20
2.628008265737766
 30
0.0
 10
-39.36494105869437
 20
2.570332518037698
 30
0.0
 10
-39.8283376594321
 20
2.496804864433642
 30
0.0
 10
-40.29169412812858
 20
2.407876125047514
 30
0.0
 10
-40.73394216391594
 20
2.308809412578795
 30
0.0
 10
-41.02087772599858
 20
2.236360989206061
 30
0.0
 10
-41.15399910299082
 20
2.201053338249601
 30
0.0
  0
SPLINE
  5
2A56
330
1F
100
AcDbEntity
  8
AM_0
100
AcDbSpline
210
0.0
220
0.0
230
1.0
 70
     8
 71
     3
 72
    23
 73
    19
 74
     0
 42
0.0000000001
 43
0.0000000001
 40
16.03460024169435
 40
16.03460024169435
 40
16.03460024169435
 40
16.03460024169435
 40
16.35212704903564
 40
17.38177054169784
 40
18.41822485651776
 40
19.46214173629503
 40
20.51396345435107
 40
21.57393551351153
 40
22.64208202342361
 40
23.7182574881101
 40
24.80209208578934
 40
25.89306333925047
 40
26.99048218457928
 40
28.09348763352352
 40
29.20111863782268
 40
30.31232390128032
 40
31.42594612798585
 40
32.5407912310448
 40
32.5407912310486
 40
32.5407912310486
 40
32.5407912310486
 10
-43.08276823419545
 20
2.700383733144201
 30
0.0
 10
-43.03515144120055
 20
2.691269008613159
 30
0.0
 10
-42.83333054891603
 20
2.651576948675874
 30
0.0
 10
-42.4778208736948
 20
2.573806415000781
 30
0.0
 10
-42.01743491361318
 20
2.458162481916191
 30
0.0
 10
-41.55747658166636
 20
2.328313620954313
 30
0.0
 10
-41.0979186985497
 20
2.185011331092575
 30
0.0
 10
-40.63874495373953
 20
2.029054525805067
 30
0.0
 10
-40.1799288080939
 20
1.861334719959849
 30
0.0
 10
-39.72143831140027
 20
1.682828000756815
 30
0.0
 10
-39.26324741058189
 20
1.494545241339209
 30
0.0
 10
-38.80531937081282
 20
1.297582015213214
 30
0.0
 10
-38.34761708214626
 20
1.093083157746711
 30
0.0
 10
-37.8901100491842
 20
0.882224451638717
 30
0.0
 10
-37.43275999286879
 20
0.6662320113893264
 30
0.0
 10
-36.97552455289884
 20
0.4463670743852088
 30
0.0
 10
-36.5183664974024
 20
0.2239036983989781
 30
0.0
 10
-36.21367632206761
 20
0.0747541689718861
 30
0.0
 10
-36.06124814350986
 20
0.0001374782451189
 30
0.0
  0
SPLINE
  5
2A57
330
1F
100
AcDbEntity
  8
AM_0
 48
0.5
100
AcDbSpline
210
0.0
220
0.0
230
1.0
 70
     8
 71
     3
 72
    17
 73
    13
 74
     0
 42
0.0000000001
 43
0.0000000001
 40
0.0
 40
0.0
 40
0.0
 40
0.0
 40
1.010743614677189
 40
2.022833924044153
 40
3.037578959561199
 40
4.056212747067873
 40
5.079857613375832
 40
6.109500119648989
 40
7.14596120163808
 40
8.18989512056258
 40
9.241717674284874
 40
9.693948937866434
 40
9.693948937866434
 40
9.693948937866434
 40
9.693948937866434
 10
-2.484100341793648
 20
2.700000149143764
 30
0.0
 10
-2.638528090324503
 20
2.698394872230144
 30
0.0
 10
-2.947589343847002
 20
2.695182179563893
 30
0.0
 10
-3.411068164388096
 20
2.669258507640331
 30
0.0
 10
-3.874527903775176
 20
2.628062276211755
 30
0.0
 10
-4.337958819910644
 20
2.570317965952333
 30
0.0
 10
-4.801355393466559
 20
2.496808722253121
 30
0.0
 10
-5.264711964511848
 20
2.407875360275788
 30
0.0
 10
-5.72802231402258
 20
2.304090373482684
 30
0.0
 10
-6.191304420300098
 20
2.186152469133694
 30
0.0
 10
-6.565277817160048
 20
2.079908244990917
 30
0.0
 10
-6.784896922260259
 20
2.013490326313728
 30
0.0
 10
-6.85081479490069
 20
1.993160246027705
 30
0.0
  0
SPLINE
  5
2A58
330
1F
100
AcDbEntity
  8
AM_0
 48
0.5
100
AcDbSpline
210
0.0
220
0.0
230
1.0
 70
     8
 71
     3
 72
    25
 73
    21
 74
     0
 42
0.0000000001
 43
0.0000000001
 40
6.846175049578289
 40
6.846175049578289
 40
6.846175049578289
 40
6.846175049578289
 40
7.604337694224321
 40
8.711974558287883
 40
9.814980593243754
 40
10.91239053451967
 40
12.0033633515982
 40
13.08720139956839
 40
14.16337181880432
 40
15.23152222380919
 40
16.29148850140128
 40
17.34331105512262
 40
18.38723020264746
 40
19.42369128463655
 40
20.45333379090873
 40
21.47697865721768
 40
22.49561244472435
 40
23.5103574802404
 40
24.52244778960836
 40
25.53320666051913
 40
25.53320666051913
 40
25.53320666051913
 40
25.53320666051913
 10
-3.024633756897769
 20
0.4887178256410353
 30
0.0
 10
-3.129920368228628
 20
0.5361250237087154
 30
0.0
 10
-3.389246916617736
 20
0.6523173227387101
 30
0.0
 10
-3.802998788893613
 20
0.8347810594386203
 30
0.0
 10
-4.265970732947846
 20
1.033808518896479
 30
0.0
 10
-4.728965960161827
 20
1.226477105778424
 30
0.0
 10
-5.191988448527435
 20
1.411602185262334
 30
0.0
 10
-5.655043357257843
 20
1.58804162850149
 30
0.0
 10
-6.118134968156469
 20
1.754707351073395
 30
0.0
 10
-6.581265425093582
 20
1.91057507147852
 30
0.0
 10
-7.044440432648298
 20
2.054674775114334
 30
0.0
 10
-7.507659363626376
 20
2.186122837184108
 30
0.0
 10
-7.970925545232204
 20
2.304099023156819
 30
0.0
 10
-8.434237342578105
 20
2.407873196811367
 30
0.0
 10
-8.897592945734063
 20
2.496809296710194
 30
0.0
 10
-9.360989776343918
 20
2.57031781313129
 30
0.0
 10
-9.824420624139056
 20
2.628062317247112
 30
0.0
 10
-10.2878803816412
 20
2.669258495424804
 30
0.0
 10
-10.75136152550192
 20
2.695182317752575
 30
0.0
 10
-11.06042511306621
 20
2.698394910189107
 30
0.0
 10
-11.21485519408839
 20
2.700000149143888
 30
0.0
  0
SPLINE
  5
2A59
330
1F
100
AcDbEntity
  8
AM_0
100
AcDbSpline
210
0.0
220
0.0
230
1.0
 70
     8
 71
     3
 72
    46
 73
    42
 74
     0
 42
0.0000000001
 43
0.0000000001
 40
0.0
 40
0.0
 40
0.0
 40
0.0
 40
0.9269782822765142
 40
1.392069915247616
 40
1.858943734521566
 40
2.32811401974121
 40
2.800033836711342
 40
3.275078499289676
 40
3.753541441904785
 40
4.23563349838183
 40
4.721451375611675
 40
5.211020311238911
 40
5.704265086722057
 40
6.201024192041715
 40
6.701053399869211
 40
7.204032956287519
 40
7.709577388975613
 40
8.217244285004758
 40
8.726544418588229
 40
9.236953160217939
 40
9.747921574214178
 40
10.25888998821083
 40
10.76929872984054
 40
11.27859886342359
 40
11.78626575945272
 40
12.29181019214125
 40
12.79478974855896
 40
13.29481895638662
 40
13.79158132214193
 40
14.28482609762507
 40
14.77439503325231
 40
15.26021291048201
 40
15.74229824760473
 40
16.22076119021984
 40
16.69580585279817
 40
17.16772533483958
 40
17.63689589856451
 40
18.10377665611729
 40
18.56886813072882
 40
19.03274285585579
 40
19.49600034591619
 40
19.49600034591619
 40
19.49600034591619
 40
19.49600034591619
 10
-1.186673482255844
 20
-2.699999850856256
 30
0.0
 10
-1.495749705312831
 20
-2.693849042143781
 30
0.0
 10
-1.959898348126071
 20
-2.684612196009643
 30
0.0
 10
-2.577097039178831
 20
-2.627742631260688
 30
0.0
 10
-3.040532761493972
 20
-2.570402982018915
 30
0.0
 10
-3.503928871087141
 20
-2.496788612442642
 30
0.0
 10
-3.967284147214317
 20
-2.407878399467921
 30
0.0
 10
-4.430596209528579
 20
-2.304097409657208
 30
0.0
 10
-4.893864282051834
 20
-2.186121710279342
 30
0.0
 10
-5.357086303077526
 20
-2.054675689592651
 30
0.0
 10
-5.820263198475386
 20
-1.910574624563335
 30
0.0
 10
-6.283393722440391
 20
-1.754707092956463
 30
0.0
 10
-6.746485315412195
 20
-1.58804131973739
 30
0.0
 10
-7.209540228108519
 20
-1.411601888285413
 30
0.0
 10
-7.672562718751148
 20
-1.226476812882076
 30
0.0
 10
-8.135557932738127
 20
-1.033808197529423
 30
0.0
 10
-8.598529927782969
 20
-0.8347808486610901
 30
0.0
 10
-9.061483209771296
 20
-0.6306188892406906
 30
0.0
 10
-9.524422687327625
 20
-0.42257881649782
 30
0.0
 10
-9.987352589434365
 20
-0.2119399306405
 30
0.0
 10
-10.4502786000706
 20
0.000000149100993
 30
0.0
 10
-10.91320461060513
 20
0.2119402291000365
 30
0.0
 10
-11.37613451301691
 20
0.4225791141850831
 30
0.0
 10
-11.83907398945826
 20
0.6306191897502683
 30
0.0
 10
-12.30202727558102
 20
0.8347811387037303
 30
0.0
 10
-12.76499925529575
 20
1.033808526382412
 30
0.0
 10
-13.22799452605536
 20
1.226476998006675
 30
0.0
 10
-13.69101781328803
 20
1.411603007516689
 30
0.0
 10
-14.15407452519235
 20
1.588040835926991
 30
0.0
 10
-14.61716694424858
 20
1.754707463751073
 30
0.0
 10
-15.08029745743059
 20
1.91057504173683
 30
0.0
 10
-15.5434724501504
 20
2.054674782600504
 30
0.0
 10
-16.00669138482301
 20
2.18612283664579
 30
0.0
 10
-16.46995756631707
 20
2.304099017967298
 30
0.0
 10
-16.93326936049064
 20
2.407873217880814
 30
0.0
 10
-17.39662497632155
 20
2.496809218320906
 30
0.0
 10
-17.86002404334445
 20
2.570318465633484
 30
0.0
 10
-18.3234573776928
 20
2.628061775324029
 30
0.0
 10
-18.78691938443602
 20
2.669258586249592
 30
0.0
 10
-19.25039821450534
 20
2.695182159963775
 30
0.0
 10
-19.55945946675996
 20
2.698394865699842
 30
0.0
 10
-19.71388721465724
 20
2.700000149144008
 30
0.0
  0
SPLINE
  5
2A5A
330
1F
100
AcDbEntity
  8
AM_0
100
AcDbSpline
210
0.0
220
0.0
230
1.0
 70
     8
 71
     3
 72
    55
 73
    51
 74
     0
 42
0.0000000001
 43
0.0000000001
 40
0.0
 40
0.0
 40
0.0
 40
0.0
 40
1.010743684496582
 40
2.022833576467832
 40
3.037578957496688
 40
4.056212745003489
 40
5.079857003664532
 40
6.109500240690281
 40
7.145961322679372
 40
8.189895241603872
 40
9.241717795325891
 40
10.30168407291828
 40
11.36983447792315
 40
12.44600489715814
 40
13.52984294512926
 40
14.62081576220742
 40
15.7182257034828
 40
16.82123173843959
 40
17.92886860250316
 40
19.0400688939571
 40
20.15368796660465
 40
21.26852814259644
 40
22.38336992938901
 40
23.49698739941135
 40
24.6081876908653
 40
25.71582455492886
 40
26.81883757994213
 40
27.91624752121713
 40
29.00722033829659
 40
30.09105838626677
 40
31.16722880550176
 40
32.23537921050758
 40
33.29534548809967
 40
34.347168041821
 40
35.39108718934584
 40
36.42754827133493
 40
37.45720575381954
 40
38.48085062012849
 40
39.49948440763516
 40
40.51422944315121
 40
41.52631975251916
 40
42.53706336719636
 40
43.54780698187354
 40
44.55989729124051
 40
45.57464232675757
 40
46.59327611426424
 40
47.6169209805722
 40
48.64656348684535
 40
49.68302456883444
 40
50.58557219878025
 40
50.58557219878025
 40
50.58557219878025
 40
50.58557219878025
 10
-2.484100341793721
 20
-2.699999850856237
 30
0.0
 10
-2.638528062220577
 20
-2.698393416267732
 30
0.0
 10
-2.947589185043641
 20
-2.695178407483746
 30
0.0
 10
-3.411068396044675
 20
-2.669261827384438
 30
0.0
 10
-3.87452782286572
 20
-2.628061235192579
 30
0.0
 10
-4.337958566098356
 20
-2.570317038259184
 30
0.0
 10
-4.801356001433278
 20
-2.496811781163276
 30
0.0
 10
-5.264710987075178
 20
-2.407872330069301
 30
0.0
 10
-5.728025072925936
 20
-2.304097812820534
 30
0.0
 10
-6.191294150325953
 20
-2.186123694908308
 30
0.0
 10
-6.654515063568497
 20
-2.054674330259828
 30
0.0
 10
-7.117690121553738
 20
-1.910574812948902
 30
0.0
 10
-7.580820564756852
 20
-1.754707041900282
 30
0.0
 10
-8.043912179621759
 20
-1.588041333581859
 30
0.0
 10
-8.506967086354368
 20
-1.411601884480435
 30
0.0
 10
-8.969989578741449
 20
-1.226476814128817
 30
0.0
 10
-9.432984791765115
 20
-1.03380819637293
 30
0.0
 10
-9.895956788918548
 20
-0.8347808520537551
 30
0.0
 10
-10.35891006339772
 20
-0.6306188767623996
 30
0.0
 10
-10.8218495689994
 20
-0.4225788632011282
 30
0.0
 10
-11.28477936614375
 20
-0.2119397558763621
 30
0.0
 10
-11.74770599211654
 20
-0.0000004017541843
 30
0.0
 10
-12.21063053993613
 20
0.2119427674084497
 30
0.0
 10
-12.67356188872026
 20
0.4225785945251618
 30
0.0
 10
-13.13650082281691
 20
0.6306192378117103
 30
0.0
 10
-13.59945492273665
 20
0.8347819908691926
 30
0.0
 10
-14.06242884052001
 20
1.033807636654063
 30
0.0
 10
-14.52542478427245
 20
1.226477231507916
 30
0.0
 10
-14.98844734350458
 20
1.411602151742189
 30
0.0
 10
-15.4515022333881
 20
1.588041637948164
 30
0.0
 10
-15.91459384943879
 20
1.754707346510387
 30
0.0
 10
-16.37772430443821
 20
1.910575080288674
 30
0.0
 10
-16.84089931461873
 20
2.054674744738464
 30
0.0
 10
-17.30411823710795
 20
2.186122948690738
 30
0.0
 10
-17.76738444972381
 20
2.304098611769567
 30
0.0
 10
-18.23069836370909
 20
2.407875215793325
 30
0.0
 10
-18.69405665786089
 20
2.496804508767374
 30
0.0
 10
-19.15745562412999
 20
2.570332517294229
 30
0.0
 10
-19.62088650474423
 20
2.628008265935355
 30
0.0
 10
-20.08434625359096
 20
2.66945905431491
 30
0.0
 10
-20.54782507161686
 20
2.694436218391985
 30
0.0
 10
-21.0113140743087
 20
2.702780262439478
 30
0.0
 10
-21.47480307631858
 20
2.694436218378916
 30
0.0
 10
-21.93828189639433
 20
2.669459054367415
 30
0.0
 10
-22.40174163769411
 20
2.62800826573759
 30
0.0
 10
-22.86517254660374
 20
2.570332518037522
 30
0.0
 10
-23.32856914734147
 20
2.496804864433465
 30
0.0
 10
-23.79192561603794
 20
2.407876125047339
 30
0.0
 10
-24.23417365182531
 20
2.308809412578617
 30
0.0
 10
-24.52110921390796
 20
2.236360989205883
 30
0.0
 10
-24.65423059090019
 20
2.201053338249425
 30
0.0
  0
LINE
  5
2A5B
330
1F
100
AcDbEntity
  8
AM_0
100
AcDbLine
 10
-48.48038501605501
 20
2.700000149144431
 30
0.0
 11
-43.08076509923838
 21
2.700000149144316
 31
0.0
1001
GENIUS_GENODEF_13
1002
{
1000
HIER
1070
     0
1002
}
1002
{
1000
MANEDIT
1070
     0
1002
}
1002
{
1000
NOSEL
1070
     0
1002
}
1002
{
1000
BEHIND
1070
     0
1002
}
1002
{
1000
REACTOR
1002
}
1001
GENIUS_GENOBJ-N-CEN_13
1002
{
1000
OWNER
1000
GEN
1002
}
  0
VIEWPORT
  5
110
330
101
100
AcDbEntity
 67
     1
  8
0
100
AcDbViewport
 10
420.5
 20
297.0
 30
0.0
 40
948.9782706766916
 41
628.452
 68
     1
 69
     1
1001
ACAD
1000
MVIEW
1002
{
1070
    16
1010
0.0
1020
0.0
1030
0.0
1010
0.0
1020
0.0
1030
1.0
1040
0.0
1040
628.452
1040
420.5
1040
297.0
1040
50.0
1040
0.0
1040
0.0
1070
     0
1070
   100
1070
     1
1070
     1
1070
     0
1070
     0
1070
     0
1070
     0
1040
0.0
1040
0.0
1040
0.0
1040
10.0
1040
10.0
1040
10.0
1040
10.0
1070
     0
1002
{
1002
}
1002
}
  0
ENDSEC
  0
SECTION
  2
OBJECTS
  0
DICTIONARY
  5
C
330
0
100
AcDbDictionary
  3
ACAD_GROUP
350
D
  3
ACAD_LAYOUT
350
1A
  3
ACAD_MLINESTYLE
350
17
  3
ACAD_PLOTSETTINGS
350
19
  3
ACAD_PLOTSTYLENAME
350
E
  3
ACDBVARIABLEDICTIONARY
350
34
  3
ACMDICTIONARY
350
43
  3
AMG
350
2B
  3
AMGSNAPSETTINGS
350
6E
  3
DWGPROPS
350
2AAE
  3
ACDBHEADERROUNDTRIPXREC
350
2ABB
  0
DICTIONARY
  5
74
330
1F
100
AcDbDictionary
280
     1
  3
ACAD_INDEX
360
2AB0
  3
ACAD_LAYOUTSELFREF
360
2ADE
  0
DICTIONARY
  5
2AE3
330
101
100
AcDbDictionary
280
     1
  3
ACAD_LAYOUTSELFREF
360
2AE4
  0
DICTIONARY
  5
D
102
{ACAD_REACTORS
330
C
102
}
330
C
100
AcDbDictionary
  0
DICTIONARY
  5
1A
102
{ACAD_REACTORS
330
C
102
}
330
C
100
AcDbDictionary
  0
DICTIONARY
  5
17
102
{ACAD_REACTORS
330
C
102
}
330
C
100
AcDbDictionary
  3
STANDARD
350
18
  0
DICTIONARY
  5
19
102
{ACAD_REACTORS
330
C
102
}
330
C
100
AcDbDictionary
  0
ACDBDICTIONARYWDFLT
  5
E
102
{ACAD_REACTORS
330
C
102
}
330
C
100
AcDbDictionary
281
     1
  3
Normal
350
F
100
AcDbDictionaryWithDefault
340
F
  0
DICTIONARY
  5
34
102
{ACAD_REACTORS
330
C
102
}
330
C
100
AcDbDictionary
  3
INDEXCTL
350
35
  3
SORTENTS
350
B5E
  0
DICTIONARY
  5
43
102
{ACAD_REACTORS
330
C
102
}
330
C
100
AcDbDictionary
  3
ACMSTDDICTIONARY
350
260
  0
DICTIONARY
  5
2B
102
{ACAD_REACTORS
330
C
102
}
330
C
100
AcDbDictionary
  3
ACMGSETTINGS
350
2C
  0
DICTIONARY
  5
6E
102
{ACAD_REACTORS
330
C
102
}
330
C
100
AcDbDictionary
  0
XRECORD
  5
2AAE
102
{ACAD_REACTORS
330
C
102
}
330
C
100
AcDbXrecord
  1
DWGPROPS COOKIE
  2

  3

  4

  6

  7

  8

  9

300
AmdtFileType=82
301
=
302
=
303
=
304
=
305
=
306
=
307
=
308
=
309
=
 40
0.0771663657407408
 41
2452800.443498622
 42
2452946.699201018
  1

 90
        1
  0
DICTIONARY
  5
2ABB
102
{ACAD_REACTORS
330
C
102
}
330
C
100
AcDbDictionary
  3
TSTACKALIGN
350
2ABC
  3
TSTACKSIZE
350
2ABD
  3
HYPERLINKBASE
350
2ABE
  3
STYLESHEET
350
2ABF
  3
LAYOUTDICT
350
2AC0
  3
PLOTSETDICT
350
2AC1
  3
PLOTSTYLNAMDICT
350
2AC2
  3
LWETCUNION
350
2AC3
  3
INSUNITS
350
2AC4
  3
CEPSNTYPE
350
2AC5
  3
FINGERPRINTGUID
350
2AC6
  3
VERSIONGUID
350
2AC7
  3
PSVPSCALE
350
2AC8
  3
DIMSTYLEDATA
350
2AC9
  3
PUCSORTHOREF
350
2ACA
  3
PUCSORTHOVIEW
350
2ACB
  3
PUCSBASE
350
2ACC
  3
PUCSORGTOP
350
2ACD
  3
PUCSORGBOTTOM
350
2ACE
  3
PUCSORGLEFT
350
2ACF
  3
PUCSORGRIGHT
350
2AD0
  3
PUCSORGFRONT
350
2AD1
  3
PUCSORGBACK
350
2AD2
  3
UCSORTHOREF
350
2AD3
  3
UCSORTHOVIEW
350
2AD4
  3
UCSBASE
350
2AD5
  3
UCSORGTOP
350
2AD6
  3
UCSORGBOTTOM
350
2AD7
  3
UCSORGLEFT
350
2AD8
  3
UCSORGRIGHT
350
2AD9
  3
UCSORGFRONT
350
2ADA
  3
UCSORGBACK
350
2ADB
  0
DICTIONARY
  5
2AB0
102
{ACAD_REACTORS
330
74
102
}
330
74
100
AcDbDictionary
  3
*A1
350
2AB1
  0
XRECORD
  5
2ADE
102
{ACAD_REACTORS
330
74
102
}
330
74
100
AcDbXrecord
340
1F
  0
XRECORD
  5
2AE4
102
{ACAD_REACTORS
330
2AE3
102
}
330
2AE3
100
AcDbXrecord
340
101
  0
MLINESTYLE
  5
18
102
{ACAD_REACTORS
330
17
102
}
330
17
100
AcDbMlineStyle
  2
STANDARD
 70
     0
  3

 62
   256
 51
90.0
 52
90.0
 71
     2
 49
0.5
 62
   256
  6
BYLAYER
 49
-0.5
 62
   256
  6
BYLAYER
  0
ACDBPLACEHOLDER
  5
F
102
{ACAD_REACTORS
330
E
102
}
330
E
100
AcDbPlaceHolder
280
     0
  0
DICTIONARYVAR
  5
35
102
{ACAD_REACTORS
330
34
102
}
330
34
100
DictionaryVariables
280
     0
  1
1
  0
DICTIONARYVAR
  5
B5E
102
{ACAD_REACTORS
330
34
102
}
330
34
100
DictionaryVariables
280
     0
  1
96
  0
DICTIONARY
  5
260
102
{ACAD_REACTORS
330
43
102
}
330
43
100
AcDbDictionary
  0
DICTIONARY
  5
2C
102
{ACAD_REACTORS
330
2B
102
}
330
2B
100
AcDbDictionary
  3
DWGSETTINGS
350
2D
  0
XRECORD
  5
2ABC
102
{ACAD_REACTORS
330
2ABB
102
}
330
2ABB
100
AcDbXrecord
 90
        1
  0
XRECORD
  5
2ABD
102
{ACAD_REACTORS
330
2ABB
102
}
330
2ABB
100
AcDbXrecord
 90
       70
  0
XRECORD
  5
2ABE
102
{ACAD_REACTORS
330
2ABB
102
}
330
2ABB
100
AcDbXrecord
  1

  0
XRECORD
  5
2ABF
102
{ACAD_REACTORS
330
2ABB
102
}
330
2ABB
100
AcDbXrecord
  1
ASAMI.ctb
  0
XRECORD
  5
2AC0
102
{ACAD_REACTORS
330
2ABB
102
}
330
2ABB
100
AcDbXrecord
340
1A
  0
XRECORD
  5
2AC1
102
{ACAD_REACTORS
330
2ABB
102
}
330
2ABB
100
AcDbXrecord
340
19
  0
XRECORD
  5
2AC2
102
{ACAD_REACTORS
330
2ABB
102
}
330
2ABB
100
AcDbXrecord
340
E
  0
XRECORD
  5
2AC3
102
{ACAD_REACTORS
330
2ABB
102
}
330
2ABB
100
AcDbXrecord
 90
    10781
  0
XRECORD
  5
2AC4
102
{ACAD_REACTORS
330
2ABB
102
}
330
2ABB
100
AcDbXrecord
 90
        4
  0
XRECORD
  5
2AC5
102
{ACAD_REACTORS
330
2ABB
102
}
330
2ABB
100
AcDbXrecord
 90
        0
  0
XRECORD
  5
2AC6
102
{ACAD_REACTORS
330
2ABB
102
}
330
2ABB
100
AcDbXrecord
  1
{AFB28963-8C59-40AE-9337-C84526B81ACE}
  0
XRECORD
  5
2AC7
102
{ACAD_REACTORS
330
2ABB
102
}
330
2ABB
100
AcDbXrecord
  1
{7DDAF7D4-616A-4F11-820D-D8CC7EA34CC3}
  0
XRECORD
  5
2AC8
102
{ACAD_REACTORS
330
2ABB
102
}
330
2ABB
100
AcDbXrecord
 40
0.0
  0
XRECORD
  5
2AC9
102
{ACAD_REACTORS
330
2ABB
102
}
330
2ABB
100
AcDbXrecord
1000
DSTYLE
1002
{
1070
    79
 70
     2
1070
   341
340
59
1070
   342
340
59
1070
   371
 70
    -1
1070
   372
 70
    -1
1002
}
  0
XRECORD
  5
2ACA
102
{ACAD_REACTORS
330
2ABB
102
}
330
2ABB
100
AcDbXrecord
340
0
  0
XRECORD
  5
2ACB
102
{ACAD_REACTORS
330
2ABB
102
}
330
2ABB
100
AcDbXrecord
 70
     0
  0
XRECORD
  5
2ACC
102
{ACAD_REACTORS
330
2ABB
102
}
330
2ABB
100
AcDbXrecord
340
0
  0
XRECORD
  5
2ACD
102
{ACAD_REACTORS
330
2ABB
102
}
330
2ABB
100
AcDbXrecord
 10
0.0
 20
0.0
 30
0.0
  0
XRECORD
  5
2ACE
102
{ACAD_REACTORS
330
2ABB
102
}
330
2ABB
100
AcDbXrecord
 10
0.0
 20
0.0
 30
0.0
  0
XRECORD
  5
2ACF
102
{ACAD_REACTORS
330
2ABB
102
}
330
2ABB
100
AcDbXrecord
 10
0.0
 20
0.0
 30
0.0
  0
XRECORD
  5
2AD0
102
{ACAD_REACTORS
330
2ABB
102
}
330
2ABB
100
AcDbXrecord
 10
0.0
 20
0.0
 30
0.0
  0
XRECORD
  5
2AD1
102
{ACAD_REACTORS
330
2ABB
102
}
330
2ABB
100
AcDbXrecord
 10
0.0
 20
0.0
 30
0.0
  0
XRECORD
  5
2AD2
102
{ACAD_REACTORS
330
2ABB
102
}
330
2ABB
100
AcDbXrecord
 10
0.0
 20
0.0
 30
0.0
  0
XRECORD
  5
2AD3
102
{ACAD_REACTORS
330
2ABB
102
}
330
2ABB
100
AcDbXrecord
340
0
  0
XRECORD
  5
2AD4
102
{ACAD_REACTORS
330
2ABB
102
}
330
2ABB
100
AcDbXrecord
 70
     0
  0
XRECORD
  5
2AD5
102
{ACAD_REACTORS
330
2ABB
102
}
330
2ABB
100
AcDbXrecord
340
0
  0
XRECORD
  5
2AD6
102
{ACAD_REACTORS
330
2ABB
102
}
330
2ABB
100
AcDbXrecord
 10
0.0
 20
0.0
 30
0.0
  0
XRECORD
  5
2AD7
102
{ACAD_REACTORS
330
2ABB
102
}
330
2ABB
100
AcDbXrecord
 10
0.0
 20
0.0
 30
0.0
  0
XRECORD
  5
2AD8
102
{ACAD_REACTORS
330
2ABB
102
}
330
2ABB
100
AcDbXrecord
 10
0.0
 20
0.0
 30
0.0
  0
XRECORD
  5
2AD9
102
{ACAD_REACTORS
330
2ABB
102
}
330
2ABB
100
AcDbXrecord
 10
0.0
 20
0.0
 30
0.0
  0
XRECORD
  5
2ADA
102
{ACAD_REACTORS
330
2ABB
102
}
330
2ABB
100
AcDbXrecord
 10
0.0
 20
0.0
 30
0.0
  0
XRECORD
  5
2ADB
102
{ACAD_REACTORS
330
2ABB
102
}
330
2ABB
100
AcDbXrecord
 10
0.0
 20
0.0
 30
0.0
  0
LAYER_INDEX
  5
2AB1
102
{ACAD_REACTORS
330
2AB0
102
}
330
2AB0
100
AcDbIndex
 40
2453151.693166759
100
AcDbLayerIndex
  8
0
360
2AB2
 90
        0
  8
AM_0
360
2AB3
 90
       52
  8
AM_7
360
2AB4
 90
        1
  8
AM_11
360
2AB5
 90
       25
  8
AM_5
360
2AB6
 90
        5
  8
Defpoints
360
2AB7
 90
        0
  8
AM_6
360
2AB8
 90
        1
  8
AM_CL
360
2AB9
 90
        0
  0
XRECORD
  5
2D
102
{ACAD_REACTORS
330
2C
102
}
330
2C
100
AcDbXrecord
  1
VERSION
140
15.0
  1
PRODUCT
  2
AutoCAD Mechanical 2000
  0
IDBUFFER
  5
2AB2
330
0
100
AcDbIdBuffer
  0
IDBUFFER
  5
2AB3
330
0
100
AcDbIdBuffer
330
2A58
330
2A59
330
2A5A
330
2A5B
330
1F19
330
1F1A
330
1F1B
330
1F1C
330
1F2F
330
1F31
330
1F32
330
1F5B
330
1F5C
330
2434
330
2437
330
2442
330
245F
330
2460
330
2651
330
2652
330
2A31
330
2A32
330
2A34
330
2A35
330
2A36
330
2A37
330
2A38
330
2A39
330
2A3A
330
2A3B
330
2A3C
330
2A3D
330
2A3F
330
2A42
330
2A43
330
2A44
330
2A45
330
2A46
330
2A47
330
2A48
330
2A49
330
2A4A
330
2A4B
330
2A4C
330
2A4D
330
2A4E
330
2A50
330
2A53
330
2A54
330
2A55
330
2A56
330
2A57
  0
IDBUFFER
  5
2AB4
330
0
100
AcDbIdBuffer
330
C9F
  0
IDBUFFER
  5
2AB5
330
0
100
AcDbIdBuffer
330
1F0B
330
1F0C
330
2A33
330
2A3E
330
2A40
330
2A41
330
2A4F
330
2A51
330
2A52
330
144A
330
144B
330
144E
330
144F
330
1450
330
1451
330
1452
330
1453
330
1DAB
330
1DAC
330
1DAD
330
1DAE
330
1DAF
330
1DB0
330
1F05
330
1F06
  0
IDBUFFER
  5
2AB6
330
0
100
AcDbIdBuffer
330
CC6
330
DF5
330
254C
330
2736
330
29BB
  0
IDBUFFER
  5
2AB7
330
0
100
AcDbIdBuffer
  0
IDBUFFER
  5
2AB8
330
0
100
AcDbIdBuffer
330
19BD
  0
IDBUFFER
  5
2AB9
330
0
100
AcDbIdBuffer
  0
ENDSEC
  0
EOF
