  0
SECTION
  2
HEADER
  9
$ACADVER
  1
AC1014
  9
$ACADMAINTVER
 70
     9
  9
$DWGCODEPAGE
  3
ANSI_932
  9
$INSBASE
 10
0.0
 20
0.0
 30
0.0
  9
$EXTMIN
 10
-112.4954967444331
 20
-26.25000831713253
 30
-0.00000001
  9
$EXTMAX
 10
16.42632448718272
 20
16.23019470205775
 30
0.00000001
  9
$LIMMIN
 10
-116.67759818173
 20
-39.10821448707546
  9
$LIMMAX
 10
21.5671852593818
 20
26.6417098386006
  9
$ORTHOMODE
 70
     0
  9
$REGENMODE
 70
     1
  9
$FILLMODE
 70
     1
  9
$QTEXTMODE
 70
     0
  9
$MIRRTEXT
 70
     0
  9
$DRAGMODE
 70
     2
  9
$LTSCALE
 40
1.0
  9
$OSMODE
 70
    55
  9
$ATTMODE
 70
     1
  9
$TEXTSIZE
 40
2.5
  9
$TRACEWID
 40
1.0
  9
$TEXTSTYLE
  7
STANDARD
  9
$CLAYER
  8
AM_0
  9
$CELTYPE
  6
BYLAYER
  9
$CECOLOR
 62
   256
  9
$CELTSCALE
 40
1.0
  9
$DELOBJ
 70
     1
  9
$DISPSILH
 70
     0
  9
$DIMSCALE
 40
0.5
  9
$DIMASZ
 40
2.5
  9
$DIMEXO
 40
1.0
  9
$DIMDLI
 40
12.0
  9
$DIMRND
 40
0.0
  9
$DIMDLE
 40
0.0
  9
$DIMEXE
 40
1.0
  9
$DIMTP
 40
0.1
  9
$DIMTM
 40
0.1
  9
$DIMTXT
 40
3.2
  9
$DIMCEN
 40
0.0
  9
$DIMTSZ
 40
0.0
  9
$DIMTOL
 70
     0
  9
$DIMLIM
 70
     0
  9
$DIMTIH
 70
     0
  9
$DIMTOH
 70
     0
  9
$DIMSE1
 70
     0
  9
$DIMSE2
 70
     0
  9
$DIMTAD
 70
     3
  9
$DIMZIN
 70
     8
  9
$DIMBLK
  1
OPEN30
  9
$DIMASO
 70
     1
  9
$DIMSHO
 70
     1
  9
$DIMPOST
  1

  9
$DIMAPOST
  1
"
  9
$DIMALT
 70
     0
  9
$DIMALTD
 70
     2
  9
$DIMALTF
 40
0.0393701
  9
$DIMLFAC
 40
1.0
  9
$DIMTOFL
 70
     1
  9
$DIMTVP
 40
0.0
  9
$DIMTIX
 70
     0
  9
$DIMSOXD
 70
     0
  9
$DIMSAH
 70
     0
  9
$DIMBLK1
  1

  9
$DIMBLK2
  1

  9
$DIMSTYLE
  2
AM_JIS
  9
$DIMCLRD
 70
   256
  9
$DIMCLRE
 70
   256
  9
$DIMCLRT
 70
     2
  9
$DIMTFAC
 40
0.71
  9
$DIMGAP
 40
1.5
  9
$DIMJUST
 70
     0
  9
$DIMSD1
 70
     0
  9
$DIMSD2
 70
     0
  9
$DIMTOLJ
 70
     0
  9
$DIMTZIN
 70
     0
  9
$DIMALTZ
 70
     0
  9
$DIMALTTZ
 70
     0
  9
$DIMFIT
 70
     3
  9
$DIMUPT
 70
     0
  9
$DIMUNIT
 70
     2
  9
$DIMDEC
 70
     3
  9
$DIMTDEC
 70
     3
  9
$DIMALTU
 70
     2
  9
$DIMALTTD
 70
     2
  9
$DIMTXSTY
  7
ASAMI
  9
$DIMAUNIT
 70
     0
  9
$LUNITS
 70
     2
  9
$LUPREC
 70
     2
  9
$SKETCHINC
 40
1.0
  9
$FILLETRAD
 40
2.5
  9
$AUNITS
 70
     0
  9
$AUPREC
 70
     0
  9
$MENU
  1
.
  9
$ELEVATION
 40
0.0
  9
$PELEVATION
 40
0.0
  9
$THICKNESS
 40
0.0
  9
$LIMCHECK
 70
     0
  9
$BLIPMODE
 70
     0
  9
$CHAMFERA
 40
0.25
  9
$CHAMFERB
 40
0.25
  9
$CHAMFERC
 40
20.0
  9
$CHAMFERD
 40
0.0
  9
$SKPOLY
 70
     0
  9
$TDCREATE
 40
2452800.443498622
  9
$TDUPDATE
 40
2453151.693561366
  9
$TDINDWG
 40
0.0661792940
  9
$TDUSRTIMER
 40
0.0661792940
  9
$USRTIMER
 70
     1
  9
$ANGBASE
 50
0.0
  9
$ANGDIR
 70
     0
  9
$PDMODE
 70
     3
  9
$PDSIZE
 40
0.0
  9
$PLINEWID
 40
0.0
  9
$COORDS
 70
     1
  9
$SPLFRAME
 70
     0
  9
$SPLINETYPE
 70
     6
  9
$SPLINESEGS
 70
     8
  9
$ATTDIA
 70
     1
  9
$ATTREQ
 70
     1
  9
$HANDLING
 70
 12289
  9
$HANDSEED
  5
264D
  9
$SURFTAB1
 70
     6
  9
$SURFTAB2
 70
     6
  9
$SURFTYPE
 70
     6
  9
$SURFU
 70
     6
  9
$SURFV
 70
     6
  9
$UCSNAME
  2

  9
$UCSORG
 10
0.0
 20
0.0
 30
0.0
  9
$UCSXDIR
 10
1.0
 20
0.000000000000002
 30
0.0
  9
$UCSYDIR
 10
-0.000000000000002
 20
1.0
 30
0.0
  9
$PUCSNAME
  2

  9
$PUCSORG
 10
0.0
 20
0.0
 30
0.0
  9
$PUCSXDIR
 10
1.0
 20
0.0
 30
0.0
  9
$PUCSYDIR
 10
0.0
 20
1.0
 30
0.0
  9
$USERI1
 70
     0
  9
$USERI2
 70
     0
  9
$USERI3
 70
     0
  9
$USERI4
 70
     0
  9
$USERI5
 70
     0
  9
$USERR1
 40
0.0
  9
$USERR2
 40
0.0
  9
$USERR3
 40
0.0
  9
$USERR4
 40
0.0
  9
$USERR5
 40
0.0
  9
$WORLDVIEW
 70
     1
  9
$SHADEDGE
 70
     3
  9
$SHADEDIF
 70
    70
  9
$TILEMODE
 70
     1
  9
$MAXACTVP
 70
    64
  9
$PINSBASE
 10
0.0
 20
0.0
 30
0.0
  9
$PLIMCHECK
 70
     0
  9
$PEXTMIN
 10
1.000000000000000E+20
 20
1.000000000000000E+20
 30
1.000000000000000E+20
  9
$PEXTMAX
 10
-1.000000000000000E+20
 20
-1.000000000000000E+20
 30
-1.000000000000000E+20
  9
$PLIMMIN
 10
0.0
 20
0.0
  9
$PLIMMAX
 10
841.0
 20
594.0
  9
$UNITMODE
 70
     0
  9
$VISRETAIN
 70
     1
  9
$PLINEGEN
 70
     0
  9
$PSLTSCALE
 70
     0
  9
$TREEDEPTH
 70
  3020
  9
$PICKSTYLE
 70
     0
  9
$CMLSTYLE
  2
STANDARD
  9
$CMLJUST
 70
     0
  9
$CMLSCALE
 40
20.0
  9
$PROXYGRAPHICS
 70
     1
  9
$MEASUREMENT
 70
     1
  0
ENDSEC
  0
SECTION
  2
CLASSES
  0
CLASS
  1
ACDBDICTIONARYWDFLT
  2
AcDbDictionaryWithDefault
  3
AutoCAD 2000
 90
        0
280
     0
281
     0
  0
CLASS
  1
ACDBPLACEHOLDER
  2
AcDbPlaceHolder
  3
AutoCAD 2000
 90
        0
280
     0
281
     0
  0
CLASS
  1
LAYOUT
  2
AcDbLayout
  3
AutoCAD 2000
 90
        0
280
     0
281
     0
  0
CLASS
  1
AMGSETTINGSOBJ
  2
AmgSettingsObj
  3
"AcadM|Product Description: AutoCAD Mechanical 2000|Company: Autodesk"
 90
        0
280
     0
281
     0
  0
CLASS
  1
ACME_DOCUMENT
  2
AcMeDbDoc
  3
AcMeServices
 90
        0
280
     0
281
     0
  0
CLASS
  1
ACMESCOPE
  2
AcMeScope
  3
AcMeServices
 90
        0
280
     0
281
     0
  0
CLASS
  1
ACMECOMMANDHISTORY
  2
AcMeCommandHistory
  3
AcMeServices
 90
        0
280
     0
281
     0
  0
CLASS
  1
DICTIONARYVAR
  2
AcDbDictionaryVar
  3
AutoCAD 2000
 90
        0
280
     0
281
     0
  0
CLASS
  1
ACIMSYSVARMAN
  2
AcImSysVarManager
  3
AcMeServices
 90
        0
280
     0
281
     0
  0
CLASS
  1
ACIMREALSYSVAR
  2
AcImRealSysVar
  3
AcMeServices
 90
        0
280
     0
281
     0
  0
CLASS
  1
ACIMINTSYSVAR
  2
AcImIntSysVar
  3
AcMeServices
 90
        0
280
     0
281
     0
  0
CLASS
  1
ACMEDRAWINGMAN
  2
AcMeDrawingMan
  3
AcMeServices
 90
        0
280
     0
281
     0
  0
CLASS
  1
ACMEVIEW
  2
AcMeView
  3
AcMeServices
 90
        0
280
     0
281
     0
  0
CLASS
  1
ACDBENTITYCACHE
  2
AcMeEntityCache
  3
AcMeServices
 90
        0
280
     0
281
     0
  0
CLASS
  1
GSMANAGER
  2
AcMeGSManager
  3
AcMeServices
 90
        0
280
     0
281
     0
  0
CLASS
  1
AmdtInternalReactor
  2
AmdtInternalReactor
  3
AcMeServices
 90
        0
280
     0
281
     0
  0
CLASS
  1
ACMESTATEMGR
  2
AcMeStateMgr
  3
AcMeServices
 90
        0
280
     0
281
     0
  0
CLASS
  1
ACME_DATABASE
  2
AcMeDbDatabase
  3
AcMeServices
 90
        0
280
     0
281
     0
  0
CLASS
  1
ACRFINSADJUSTERMGR
  2
AcRfInsAdjusterMgr
  3
AcMeServices
 90
        0
280
     0
281
     0
  0
CLASS
  1
ACMDATADICTIONARY
  2
AcmDataDictionary
  3
"AcmSymBB|Product Description: AutoCAD Mechanical 2000|Company: Autodesk"
 90
        0
280
     0
281
     0
  0
CLASS
  1
ACMDATAENTRYBLOCK
  2
AcmDataEntryBlock
  3
"AcmSymBB|Product Description: AutoCAD Mechanical 2000|Company: Autodesk"
 90
        0
280
     0
281
     0
  0
CLASS
  1
AMGOBJPROPCFG
  2
AmgObjPropCfg
  3
"AmgLay|Product Description: AutoCAD Mechanical 2000|Company: Autodesk"
 90
        1
280
     0
281
     0
  0
CLASS
  1
ACAMGFILTERDAT
  2
AcAmgFilterDat
  3
"AcadM|Product Description: AutoCAD Mechanical 2000|Company: Autodesk"
 90
        0
280
     0
281
     0
  0
CLASS
  1
LAYER_INDEX
  2
AcDbLayerIndex
  3
AutoCAD 2000
 90
        0
280
     0
281
     0
  0
CLASS
  1
IDBUFFER
  2
AcDbIdBuffer
  3
AutoCAD 2000
 90
        0
280
     0
281
     0
  0
CLASS
  1
ACIMSTRSYSVAR
  2
AcImStrSysVar
  3
AcMeServices
 90
        0
280
     0
281
     0
  0
CLASS
  1
ACMSTANDARDJIS
  2
AcmStandardJIS
  3
"AcmSymBB|Product Description: AutoCAD Mechanical 2000|Company: Autodesk"
 90
        0
280
     0
281
     0
  0
CLASS
  1
ACMSURFSTANDARDJIS
  2
AcmSurfTextStdJIS
  3
"AcmSymBB|Product Description: AutoCAD Mechanical 2000|Company: Autodesk"
 90
        0
280
     0
281
     0
  0
CLASS
  1
ACMFCFSTANDARDJIS
  2
AcmFCFStdJIS
  3
"AcmSymBB|Product Description: AutoCAD Mechanical 2000|Company: Autodesk"
 90
        0
280
     0
281
     0
  0
CLASS
  1
ACMWELDSTANDARDJIS
  2
AcmWeldingStdJIS
  3
"AcmSymBB|Product Description: AutoCAD Mechanical 2000|Company: Autodesk"
 90
        0
280
     0
281
     0
  0
CLASS
  1
ACMIDSTANDARDJIS
  2
AcmIdStdJIS
  3
"AcmSymBB|Product Description: AutoCAD Mechanical 2000|Company: Autodesk"
 90
        0
280
     0
281
     0
  0
CLASS
  1
ACMDATUMSTANDARDJIS
  2
AcmDatumStdJIS
  3
"AcmSymBB|Product Description: AutoCAD Mechanical 2000|Company: Autodesk"
 90
        0
280
     0
281
     0
  0
CLASS
  1
ACMBOMSTANDARDJIS
  2
AcmBOMStdJIS
  3
"AcmSymBB|Product Description: AutoCAD Mechanical 2000|Company: Autodesk"
 90
        0
280
     0
281
     0
  0
CLASS
  1
ACMSTANDARDANSI
  2
AcmStandardANSI
  3
"AcmSymBB|Product Description: AutoCAD Mechanical 2000|Company: Autodesk"
 90
        0
280
     0
281
     0
  0
CLASS
  1
ACMSURFSTANDARDANSI
  2
AcmSurfTextStdANSI
  3
"AcmSymBB|Product Description: AutoCAD Mechanical 2000|Company: Autodesk"
 90
        0
280
     0
281
     0
  0
CLASS
  1
ACMFCFSTANDARDANSI
  2
AcmFCFStdANSI
  3
"AcmSymBB|Product Description: AutoCAD Mechanical 2000|Company: Autodesk"
 90
        0
280
     0
281
     0
  0
CLASS
  1
ACMWELDSTANDARDANSI
  2
AcmWeldingStdANSI
  3
"AcmSymBB|Product Description: AutoCAD Mechanical 2000|Company: Autodesk"
 90
        0
280
     0
281
     0
  0
CLASS
  1
ACMIDSTANDARDANSI
  2
AcmIdStdANSI
  3
"AcmSymBB|Product Description: AutoCAD Mechanical 2000|Company: Autodesk"
 90
        0
280
     0
281
     0
  0
CLASS
  1
ACMDATUMSTANDARDANSI
  2
AcmDatumStdANSI
  3
"AcmSymBB|Product Description: AutoCAD Mechanical 2000|Company: Autodesk"
 90
        0
280
     0
281
     0
  0
CLASS
  1
ACMBOMSTANDARDANSI
  2
AcmBOMStdANSI
  3
"AcmSymBB|Product Description: AutoCAD Mechanical 2000|Company: Autodesk"
 90
        0
280
     0
281
     0
  0
CLASS
  1
ACMSTANDARDBSI
  2
AcmStandardBSI
  3
"AcmSymBB|Product Description: AutoCAD Mechanical 2000|Company: Autodesk"
 90
        0
280
     0
281
     0
  0
CLASS
  1
ACMSURFSTANDARDBSI
  2
AcmSurfTextStdBSI
  3
"AcmSymBB|Product Description: AutoCAD Mechanical 2000|Company: Autodesk"
 90
        0
280
     0
281
     0
  0
CLASS
  1
ACMFCFSTANDARDBSI
  2
AcmFCFStdBSI
  3
"AcmSymBB|Product Description: AutoCAD Mechanical 2000|Company: Autodesk"
 90
        0
280
     0
281
     0
  0
CLASS
  1
ACMWELDSTANDARDBSI
  2
AcmWeldingStdBSI
  3
"AcmSymBB|Product Description: AutoCAD Mechanical 2000|Company: Autodesk"
 90
        0
280
     0
281
     0
  0
CLASS
  1
ACMIDSTANDARDBSI
  2
AcmIdStdBSI
  3
"AcmSymBB|Product Description: AutoCAD Mechanical 2000|Company: Autodesk"
 90
        0
280
     0
281
     0
  0
CLASS
  1
ACMDATUMSTANDARDBSI
  2
AcmDatumStdBSI
  3
"AcmSymBB|Product Description: AutoCAD Mechanical 2000|Company: Autodesk"
 90
        0
280
     0
281
     0
  0
CLASS
  1
ACMBOMSTANDARDBSI
  2
AcmBOMStdBSI
  3
"AcmSymBB|Product Description: AutoCAD Mechanical 2000|Company: Autodesk"
 90
        0
280
     0
281
     0
  0
CLASS
  1
LONG_TRANSACTION
  2
AcDbLongTransaction
  3
AutoCAD 2000
 90
        0
280
     0
281
     0
  0
CLASS
  1
LWPOLYLINE
  2
AcDbPolyline
  3
AutoCAD 2000
 90
        0
280
     0
281
     1
  0
CLASS
  1
HATCH
  2
AcDbHatch
  3
AutoCAD 2000
 90
        0
280
     0
281
     1
  0
CLASS
  1
XRECORD
  2
AcDbXrecord
  3
AutoCAD 2000
 90
        0
280
     0
281
     0
  0
ENDSEC
  0
SECTION
  2
TABLES
  0
TABLE
  2
VPORT
  5
8
330
0
100
AcDbSymbolTable
 70
     3
  0
VPORT
  5
2617
330
8
100
AcDbSymbolTableRecord
100
AcDbViewportTableRecord
  2
*ACTIVE
 70
     0
 10
0.0
 20
0.0
 11
1.0
 21
1.0
 12
-45.64590091578721
 22
-5.009269813810348
 13
0.0
 23
0.0
 14
2.5
 24
2.5
 15
10.0
 25
10.0
 16
0.0
 26
0.0
 36
1.0
 17
0.0
 27
0.0
 37
0.0
 40
85.81395961917211
 41
1.56570841889117
 42
50.0
 43
0.0
 44
0.0
 50
0.0
 51
0.0
 71
     0
 72
   100
 73
     1
 74
     1
 75
     0
 76
     0
 77
     0
 78
     0
  0
ENDTAB
  0
TABLE
  2
LTYPE
  5
5
330
0
100
AcDbSymbolTable
 70
    10
  0
LTYPE
  5
14
330
5
100
AcDbSymbolTableRecord
100
AcDbLinetypeTableRecord
  2
BYBLOCK
 70
     0
  3

 72
    65
 73
     0
 40
0.0
  0
LTYPE
  5
15
330
5
100
AcDbSymbolTableRecord
100
AcDbLinetypeTableRecord
  2
BYLAYER
 70
     0
  3

 72
    65
 73
     0
 40
0.0
  0
LTYPE
  5
16
330
5
100
AcDbSymbolTableRecord
100
AcDbLinetypeTableRecord
  2
CONTINUOUS
 70
     0
  3
Solid line
 72
    65
 73
     0
 40
0.0
  0
LTYPE
  5
4B
330
5
100
AcDbSymbolTableRecord
100
AcDbLinetypeTableRecord
  2
AM_ISO02W050
 70
     0
  3
__ __ __ __ __ __ __ __ __ __ __ __ __ __ __
 72
    65
 73
     2
 40
7.5
 49
6.0
 74
     0
 49
-1.5
 74
     0
  0
LTYPE
  5
4C
330
5
100
AcDbSymbolTableRecord
100
AcDbLinetypeTableRecord
  2
AM_ISO08W050
 70
     0
  3
____ . ____ . ____ . ____ . ____ . ____ . ____
 72
    65
 73
     4
 40
18.0
 49
12.0
 74
     0
 49
-1.5
 74
     0
 49
3.0
 74
     0
 49
-1.5
 74
     0
  0
LTYPE
  5
4D
330
5
100
AcDbSymbolTableRecord
100
AcDbLinetypeTableRecord
  2
AM_ISO09W050
 70
     0
  3
_____ . . _____ . . _____ . . ____ .. ____
 72
    65
 73
     6
 40
22.5
 49
12.0
 74
     0
 49
-1.5
 74
     0
 49
3.0
 74
     0
 49
-1.5
 74
     0
 49
3.0
 74
     0
 49
-1.5
 74
     0
  0
LTYPE
  5
4E
330
5
100
AcDbSymbolTableRecord
100
AcDbLinetypeTableRecord
  2
AMCONSTR
 70
     0
  3
_______________________
 72
    65
 73
     2
 40
9999.0
 49
9999.0
 74
     0
 49
0.0
 74
     0
  0
LTYPE
  5
4F
330
5
100
AcDbSymbolTableRecord
100
AcDbLinetypeTableRecord
  2
AM_ISO02W050X2
 70
     0
  3
 _ _ _ _ _ _ _ _ _ _ _ _
 72
    65
 73
     2
 40
3.75
 49
3.0
 74
     0
 49
-0.75
 74
     0
  0
LTYPE
  5
50
330
5
100
AcDbSymbolTableRecord
100
AcDbLinetypeTableRecord
  2
AM_ISO08W050X2
 70
     0
  3
__ . __ . __ . __ . __ . __
 72
    65
 73
     4
 40
9.0
 49
6.0
 74
     0
 49
-0.75
 74
     0
 49
1.5
 74
     0
 49
-0.75
 74
     0
  0
LTYPE
  5
53
330
5
100
AcDbSymbolTableRecord
100
AcDbLinetypeTableRecord
  2
AMZIGZAG
 70
     0
  3
/\/-/\/-/\/-/\/-/\/-/\/
 72
    65
 73
     2
 40
11.00009999999999
 49
0.0001
 74
     4
 75
   135
340
52
 46
0.04
 50
0.0
 44
0.0
 45
0.0
 49
-11.0
 74
     0
  0
LTYPE
  5
166
330
5
100
AcDbSymbolTableRecord
100
AcDbLinetypeTableRecord
  2
ACJISTGL
 70
     0
  3
_ _ _ _ _
 72
    65
 73
     2
 40
3.0
 49
2.0
 74
     0
 49
-1.0
 74
     0
  0
LTYPE
  5
26A
330
5
100
AcDbSymbolTableRecord
100
AcDbLinetypeTableRecord
  2
ACJISTGB
 70
     0
  3
__ . . __ . .
 72
    65
 73
     6
 40
9.0
 49
4.0
 74
     0
 49
-1.0
 74
     0
 49
1.0
 74
     0
 49
-1.0
 74
     0
 49
1.0
 74
     0
 49
-1.0
 74
     0
  0
ENDTAB
  0
TABLE
  2
LAYER
  5
2
330
0
100
AcDbSymbolTable
 70
     8
  0
LAYER
  5
10
330
2
100
AcDbSymbolTableRecord
100
AcDbLayerTableRecord
  2
0
 70
     0
 62
     7
  6
CONTINUOUS
  0
LAYER
  5
3F9
330
2
100
AcDbSymbolTableRecord
100
AcDbLayerTableRecord
  2
AM_0
 70
     0
 62
     7
  6
CONTINUOUS
  0
LAYER
  5
C7C
330
2
100
AcDbSymbolTableRecord
100
AcDbLayerTableRecord
  2
AM_7
 70
     0
 62
     4
  6
AM_ISO08W050
  0
LAYER
  5
C97
330
2
100
AcDbSymbolTableRecord
100
AcDbLayerTableRecord
  2
AM_11
 70
     0
 62
     3
  6
AM_ISO09W050
  0
LAYER
  5
CC5
330
2
100
AcDbSymbolTableRecord
100
AcDbLayerTableRecord
  2
AM_5
 70
     0
 62
     3
  6
CONTINUOUS
  0
LAYER
  5
CC7
330
2
100
AcDbSymbolTableRecord
100
AcDbLayerTableRecord
  2
DEFPOINTS
 70
     0
 62
     7
  6
CONTINUOUS
  0
LAYER
  5
19BC
330
2
100
AcDbSymbolTableRecord
100
AcDbLayerTableRecord
  2
AM_6
 70
     0
 62
     2
  6
CONTINUOUS
  0
LAYER
  5
2459
330
2
100
AcDbSymbolTableRecord
100
AcDbLayerTableRecord
  2
AM_CL
 70
     0
 62
     1
  6
AMCONSTR
  0
ENDTAB
  0
TABLE
  2
STYLE
  5
3
330
0
100
AcDbSymbolTable
 70
     5
  0
STYLE
  5
11
330
3
100
AcDbSymbolTableRecord
100
AcDbTextStyleTableRecord
  2
STANDARD
 70
     0
 40
0.0
 41
1.0
 50
0.0
 71
     0
 42
2.5
  3
simplex.shx
  4
EXTFONT.SHX
  0
STYLE
  5
52
330
3
100
AcDbSymbolTableRecord
100
AcDbTextStyleTableRecord
  2

 70
     1
 40
0.0
 41
1.0
 50
0.0
 71
     0
 42
2.5
  3
ltypeshp.shx
  4

  0
STYLE
  5
6B
330
3
100
AcDbSymbolTableRecord
100
AcDbTextStyleTableRecord
  2
ASAMI
 70
     0
 40
0.0
 41
1.0
 50
0.0
 71
     0
 42
2.5
  3
simplex.shx
  4
EXTFONT.SHX
  0
STYLE
  5
262
330
3
100
AcDbSymbolTableRecord
100
AcDbTextStyleTableRecord
  2
ACJISTS
 70
     0
 40
1.0
 41
1.0
 50
0.0
 71
     0
 42
2.5
  3
simplex.shx
  4
bigfont.shx
  0
STYLE
  5
269
330
3
100
AcDbSymbolTableRecord
100
AcDbTextStyleTableRecord
  2
ACJISGDT
 70
     0
 40
0.0
 41
1.0
 50
0.0
 71
     0
 42
2.5
  3
amgdtans.shx
  4

  0
ENDTAB
  0
TABLE
  2
VIEW
  5
6
330
0
100
AcDbSymbolTable
 70
     0
  0
ENDTAB
  0
TABLE
  2
UCS
  5
7
330
0
100
AcDbSymbolTable
 70
     0
  0
ENDTAB
  0
TABLE
  2
APPID
  5
9
330
0
100
AcDbSymbolTable
 70
    16
  0
APPID
  5
12
330
9
100
AcDbSymbolTableRecord
100
AcDbRegAppTableRecord
  2
ACAD
 70
     0
  0
APPID
  5
30
330
9
100
AcDbSymbolTableRecord
100
AcDbRegAppTableRecord
  2
MCAD_NO_VIS
 70
     0
  0
APPID
  5
31
330
9
100
AcDbSymbolTableRecord
100
AcDbRegAppTableRecord
  2
ACAD_TEMP_GRAPHIC
 70
     0
  0
APPID
  5
2C2
330
9
100
AcDbSymbolTableRecord
100
AcDbRegAppTableRecord
  2
GENIUS_GENDTOL_13
 70
     0
  0
APPID
  5
339
330
9
100
AcDbSymbolTableRecord
100
AcDbRegAppTableRecord
  2
GENIUS_GENODEF_13
 70
     0
  0
APPID
  5
33A
330
9
100
AcDbSymbolTableRecord
100
AcDbRegAppTableRecord
  2
GENIUS_GENOBJ-N-RSBK_13
 70
     0
  0
APPID
  5
33B
330
9
100
AcDbSymbolTableRecord
100
AcDbRegAppTableRecord
  2
GENIUS_GENOBJ-N-LIB_13
 70
     0
  0
APPID
  5
33C
330
9
100
AcDbSymbolTableRecord
100
AcDbRegAppTableRecord
  2
GENIUS_GENSCALE_13
 70
     0
  0
APPID
  5
378
330
9
100
AcDbSymbolTableRecord
100
AcDbRegAppTableRecord
  2
GENIUS_GENDIMSH_14
 70
     0
  0
APPID
  5
C82
330
9
100
AcDbSymbolTableRecord
100
AcDbRegAppTableRecord
  2
GENIUS_GENOBJ-N-CRS_13
 70
     0
  0
APPID
  5
C83
330
9
100
AcDbSymbolTableRecord
100
AcDbRegAppTableRecord
  2
GENIUS_GENOENT_13
 70
     0
  0
APPID
  5
C84
330
9
100
AcDbSymbolTableRecord
100
AcDbRegAppTableRecord
  2
GENIUS_GENOREF_13
 70
     0
  0
APPID
  5
C85
330
9
100
AcDbSymbolTableRecord
100
AcDbRegAppTableRecord
  2
GENIUS_GENOLIS_13
 70
     0
  0
APPID
  5
CA0
330
9
100
AcDbSymbolTableRecord
100
AcDbRegAppTableRecord
  2
GENIUS_GENOBJ-N-CEN_13
 70
     0
  0
APPID
  5
1CFA
330
9
100
AcDbSymbolTableRecord
100
AcDbRegAppTableRecord
  2
GENIUS_GENFIL_13
 70
     0
  0
APPID
  5
1CFB
330
9
100
AcDbSymbolTableRecord
100
AcDbRegAppTableRecord
  2
GENIUS_GENOBJ-N-CHA_13
 70
     0
  0
ENDTAB
  0
TABLE
  2
DIMSTYLE
  5
A
330
0
100
AcDbSymbolTable
 70
     9
  0
DIMSTYLE
105
58
330
A
100
AcDbSymbolTableRecord
100
AcDbDimStyleTableRecord
  2
AM_JIS
 70
     0
  3

  4
"
  5
OPEN30
  6

  7

 40
0.5
 41
2.5
 42
1.0
 43
12.0
 44
1.0
 45
0.0
 46
0.0
 47
0.1
 48
0.1
140
3.2
141
0.0
142
0.0
143
0.0393701
144
1.0
145
0.0
146
0.71
147
1.5
 71
     0
 72
     0
 73
     0
 74
     0
 75
     0
 76
     0
 77
     3
 78
     8
170
     0
171
     2
172
     1
173
     0
174
     0
175
     0
176
   256
177
   256
178
     2
270
     2
271
     3
272
     3
273
     2
274
     2
340
6B
275
     0
280
     0
281
     0
282
     0
283
     0
284
     0
285
     0
286
     0
287
     3
288
     0
  0
DIMSTYLE
105
5F
330
A
100
AcDbSymbolTableRecord
100
AcDbDimStyleTableRecord
  2
AM_JIS$3
 70
     0
  3

  4
"
  5
OPEN30
  6

  7

 40
0.5
 41
2.5
 42
1.0
 43
10.0
 44
1.0
 45
0.0
 46
0.0
 47
0.1
 48
0.1
140
3.2
141
0.0
142
0.0
143
0.0393701
144
1.0
145
0.0
146
0.71
147
1.5
 71
     0
 72
     0
 73
     0
 74
     1
 75
     0
 76
     0
 77
     3
 78
     8
170
     0
171
     2
172
     0
173
     0
174
     0
175
     0
176
   256
177
   256
178
     2
270
     2
271
     2
272
     3
273
     2
274
     2
340
6B
275
     0
280
     0
281
     0
282
     0
283
     0
284
     0
285
     0
286
     0
287
     0
288
     1
  0
DIMSTYLE
105
60
330
A
100
AcDbSymbolTableRecord
100
AcDbDimStyleTableRecord
  2
AM_JIS$4
 70
     0
  3

  4
"
  5
OPEN30
  6

  7

 40
0.5
 41
2.5
 42
1.0
 43
10.0
 44
1.0
 45
0.0
 46
0.0
 47
0.1
 48
0.1
140
3.2
141
0.0
142
0.0
143
0.0393701
144
1.0
145
0.0
146
0.71
147
1.5
 71
     0
 72
     0
 73
     0
 74
     1
 75
     0
 76
     0
 77
     3
 78
     8
170
     0
171
     2
172
     0
173
     0
174
     0
175
     0
176
   256
177
   256
178
     2
270
     2
271
     2
272
     3
273
     2
274
     2
340
6B
275
     0
280
     0
281
     0
282
     0
283
     0
284
     0
285
     0
286
     0
287
     0
288
     1
  0
DIMSTYLE
105
61
330
A
100
AcDbSymbolTableRecord
100
AcDbDimStyleTableRecord
  2
AM_JIS$6
 70
     0
  3

  4
"
  5
OPEN30
  6

  7

 40
0.5
 41
2.5
 42
1.0
 43
10.0
 44
1.0
 45
0.0
 46
0.0
 47
0.1
 48
0.1
140
3.2
141
0.0
142
0.0
143
0.0393701
144
1.0
145
0.0
146
0.71
147
1.5
 71
     0
 72
     0
 73
     0
 74
     0
 75
     0
 76
     0
 77
     0
 78
     8
170
     0
171
     2
172
     1
173
     0
174
     0
175
     0
176
   256
177
   256
178
     2
270
     2
271
     2
272
     2
273
     2
274
     2
340
6B
275
     0
280
     0
281
     0
282
     0
283
     0
284
     0
285
     0
286
     0
287
     3
288
     0
  0
DIMSTYLE
105
62
330
A
100
AcDbSymbolTableRecord
100
AcDbDimStyleTableRecord
  2
AM_JIS$7
 70
     0
  3

  4
"
  5
OPEN30
  6

  7

 40
0.5
 41
2.5
 42
1.0
 43
10.0
 44
1.0
 45
0.0
 46
0.0
 47
0.1
 48
0.1
140
3.2
141
0.0
142
0.0
143
0.0393701
144
1.0
145
0.0
146
0.71
147
1.5
 71
     0
 72
     0
 73
     0
 74
     0
 75
     0
 76
     0
 77
     3
 78
     8
170
     0
171
     2
172
     1
173
     0
174
     0
175
     0
176
   256
177
   256
178
     2
270
     2
271
     2
272
     3
273
     2
274
     2
340
6B
275
     0
280
     0
281
     0
282
     0
283
     0
284
     0
285
     0
286
     0
287
     3
288
     0
  0
DIMSTYLE
105
63
330
A
100
AcDbSymbolTableRecord
100
AcDbDimStyleTableRecord
  2
AM_JIS$SF
 70
     0
  3

  4
"
  5
OPEN30
  6

  7

 40
0.5
 41
2.5
 42
1.0
 43
10.0
 44
1.0
 45
0.0
 46
0.0
 47
0.1
 48
0.1
140
3.2
141
0.0
142
0.0
143
0.0393701
144
1.0
145
0.0
146
0.71
147
1.5
 71
     0
 72
     0
 73
     0
 74
     0
 75
     1
 76
     1
 77
     3
 78
     8
170
     0
171
     2
172
     1
173
     0
174
     0
175
     0
176
   256
177
   256
178
     2
270
     2
271
     2
272
     2
273
     2
274
     2
340
6B
275
     0
280
     0
281
     0
282
     0
283
     0
284
     0
285
     0
286
     0
287
     3
288
     0
  0
DIMSTYLE
105
68
330
A
100
AcDbSymbolTableRecord
100
AcDbDimStyleTableRecord
  2
AM_JIS$SH
 70
     0
  3

  4
"
  5

  6
GENAXEH
  7
OPEN30
 40
0.5
 41
2.5
 42
1.0
 43
10.0
 44
1.0
 45
0.0
 46
0.0
 47
0.1
 48
0.1
140
3.2
141
0.0
142
0.0
143
0.0393701
144
2.0
145
0.0
146
0.71
147
1.5
 71
     0
 72
     0
 73
     0
 74
     0
 75
     1
 76
     1
 77
     3
 78
     8
170
     0
171
     2
172
     1
173
     1
174
     0
175
     0
176
   256
177
   256
178
     2
270
     2
271
     2
272
     2
273
     2
274
     2
340
6B
275
     0
280
     0
281
     0
282
     0
283
     0
284
     0
285
     0
286
     0
287
     3
288
     0
  0
DIMSTYLE
105
B34
102
{ACAD_REACTORS
330
24C0
102
}
330
A
100
AcDbSymbolTableRecord
100
AcDbDimStyleTableRecord
  2
AM_JIS$2
 70
     0
  3

  4
"
  5
OPEN30
  6

  7

 40
0.5
 41
2.5
 42
1.0
 43
12.0
 44
1.0
 45
0.0
 46
0.0
 47
0.1
 48
0.1
140
3.2
141
0.0
142
0.0
143
0.0393701
144
1.0
145
0.0
146
0.71
147
1.5
 71
     0
 72
     0
 73
     0
 74
     0
 75
     0
 76
     0
 77
     3
 78
     8
170
     0
171
     2
172
     1
173
     0
174
     0
175
     0
176
   256
177
   256
178
     2
270
     2
271
     3
272
     3
273
     2
274
     2
340
6B
275
     0
280
     0
281
     0
282
     0
283
     0
284
     0
285
     0
286
     0
287
     3
288
     0
  0
DIMSTYLE
105
BA5
102
{ACAD_REACTORS
330
CC6
330
DF5
330
215F
330
2358
102
}
330
A
100
AcDbSymbolTableRecord
100
AcDbDimStyleTableRecord
  2
AM_JIS$0
 70
     0
  3

  4
"
  5
OPEN30
  6

  7

 40
0.5
 41
2.5
 42
0.0
 43
10.0
 44
1.0
 45
0.0
 46
0.0
 47
0.1
 48
0.1000000001
140
3.799999999999999
141
0.0
142
0.0
143
0.0393701
144
1.0
145
0.0
146
0.71
147
1.5
 71
     0
 72
     0
 73
     0
 74
     0
 75
     0
 76
     0
 77
     3
 78
     1
170
     0
171
     2
172
     1
173
     0
174
     0
175
     0
176
     3
177
     3
178
     2
270
     2
271
     2
272
     2
273
     2
274
     2
340
11
275
     1
280
     0
281
     0
282
     0
283
     0
284
     8
285
     0
286
     0
287
     0
288
     0
  0
ENDTAB
  0
TABLE
  2
BLOCK_RECORD
  5
1
330
0
100
AcDbSymbolTable
 70
    10
  0
BLOCK_RECORD
  5
1F
102
{ACAD_XDICTIONARY
360
74
102
}
330
1
100
AcDbSymbolTableRecord
100
AcDbBlockTableRecord
  2
*MODEL_SPACE
  0
BLOCK_RECORD
  5
101
102
{ACAD_XDICTIONARY
360
2640
102
}
330
1
100
AcDbSymbolTableRecord
100
AcDbBlockTableRecord
  2
*PAPER_SPACE
  0
BLOCK_RECORD
  5
59
330
1
100
AcDbSymbolTableRecord
100
AcDbBlockTableRecord
  2
_OPEN30
  0
BLOCK_RECORD
  5
64
330
1
100
AcDbSymbolTableRecord
100
AcDbBlockTableRecord
  2
GENAXEH
  0
BLOCK_RECORD
  5
CC8
330
1
100
AcDbSymbolTableRecord
100
AcDbBlockTableRecord
  2
*D5
  0
BLOCK_RECORD
  5
DF6
330
1
100
AcDbSymbolTableRecord
100
AcDbBlockTableRecord
  2
*D6
  0
BLOCK_RECORD
  5
2160
330
1
100
AcDbSymbolTableRecord
100
AcDbBlockTableRecord
  2
*D7
  0
BLOCK_RECORD
  5
2359
330
1
100
AcDbSymbolTableRecord
100
AcDbBlockTableRecord
  2
*D8
  0
BLOCK_RECORD
  5
24C1
330
1
100
AcDbSymbolTableRecord
100
AcDbBlockTableRecord
  2
*D9
  0
ENDTAB
  0
ENDSEC
  0
SECTION
  2
BLOCKS
  0
BLOCK
  5
20
330
1F
100
AcDbEntity
  8
0
100
AcDbBlockBegin
  2
*MODEL_SPACE
 70
     0
 10
0.0
 20
0.0
 30
0.0
  3
*MODEL_SPACE
  1

  0
ENDBLK
  5
21
330
1F
100
AcDbEntity
  8
0
100
AcDbBlockEnd
  0
BLOCK
  5
103
330
101
100
AcDbEntity
 67
     1
  8
0
100
AcDbBlockBegin
  2
*PAPER_SPACE
 70
     0
 10
0.0
 20
0.0
 30
0.0
  3
*PAPER_SPACE
  1

  0
ENDBLK
  5
104
330
101
100
AcDbEntity
 67
     1
  8
0
100
AcDbBlockEnd
  0
BLOCK
  5
5D
330
59
100
AcDbEntity
  8
0
100
AcDbBlockBegin
  2
_OPEN30
 70
     0
 10
0.0
 20
0.0
 30
0.0
  3
_OPEN30
  1

  0
LINE
  5
5A
330
59
100
AcDbEntity
  8
0
 62
     0
100
AcDbLine
 10
-1.0
 20
0.26794919
 30
0.0
 11
0.0
 21
0.0
 31
0.0
  0
LINE
  5
5B
330
59
100
AcDbEntity
  8
0
 62
     0
100
AcDbLine
 10
0.0
 20
0.0
 30
0.0
 11
-1.0
 21
-0.26794919
 31
0.0
  0
LINE
  5
5C
330
59
100
AcDbEntity
  8
0
 62
     0
100
AcDbLine
 10
0.0
 20
0.0
 30
0.0
 11
-1.0
 21
0.0
 31
0.0
  0
ENDBLK
  5
5E
330
59
100
AcDbEntity
  8
0
100
AcDbBlockEnd
  0
BLOCK
  5
66
330
64
100
AcDbEntity
  8
0
100
AcDbBlockBegin
  2
GENAXEH
 70
     0
 10
0.0
 20
0.0
 30
0.0
  3
GENAXEH
  1

  0
LINE
  5
65
330
64
100
AcDbEntity
  8
0
100
AcDbLine
 10
-1.0
 20
0.0
 30
0.0
 11
1.0
 21
0.0
 31
0.0
  0
ENDBLK
  5
67
330
64
100
AcDbEntity
  8
0
100
AcDbBlockEnd
  0
BLOCK
  5
CD2
330
CC8
100
AcDbEntity
  8
0
100
AcDbBlockBegin
  2
*D5
 70
     1
 10
0.0
 20
0.0
 30
0.0
  3
*D5
  1

  0
LINE
  5
25C7
330
CC8
100
AcDbEntity
  8
AM_5
 62
     3
100
AcDbLine
 10
-101.3454957444331
 20
-2.750007317132646
 30
0.0
 11
-101.3454957444331
 21
-15.5000083171325
 31
0.0
  0
LINE
  5
25C8
330
CC8
100
AcDbEntity
  8
AM_5
 62
     3
100
AcDbLine
 10
-1.345495744433122
 20
-2.800005897360108
 30
0.0
 11
-1.345495744433123
 21
-15.5000083171325
 31
0.0
  0
LINE
  5
25C9
330
CC8
100
AcDbEntity
  8
AM_5
 62
     3
100
AcDbLine
 10
-100.0954957444331
 20
-15.0000083171325
 30
0.0
 11
-2.595495744433123
 21
-15.0000083171325
 31
0.0
  0
INSERT
  5
25CA
330
CC8
100
AcDbEntity
  8
AM_5
 62
     3
100
AcDbBlockReference
  2
_OPEN30
 10
-101.3454957444331
 20
-15.0000083171325
 30
0.0
 41
1.25
 42
1.25
 43
1.25
 50
180.0
  0
INSERT
  5
25CB
330
CC8
100
AcDbEntity
  8
AM_5
 62
     3
100
AcDbBlockReference
  2
_OPEN30
 10
-1.345495744433123
 20
-15.0000083171325
 30
0.0
 41
1.25
 42
1.25
 43
1.25
  0
MTEXT
  5
25CC
330
CC8
100
AcDbEntity
  8
AM_5
 62
     2
100
AcDbMText
 10
-51.34549574443313
 20
-13.3000083171325
 30
0.0
 40
1.9
 41
0.0
 71
     5
 72
     1
  1
100
1001
ACAD
1000
MTEXTBEGIN
1070
    73
1070
     1
1070
    44
1040
1.0
1070
    74
1070
     0
1000
MTEXTEND
  0
POINT
  5
25CD
330
CC8
100
AcDbEntity
  8
DEFPOINTS
 62
     0
100
AcDbPoint
 10
-101.3454957444331
 20
-2.750007317132646
 30
0.0
  0
POINT
  5
25CE
330
CC8
100
AcDbEntity
  8
DEFPOINTS
 62
     0
100
AcDbPoint
 10
-1.345495744433122
 20
-2.800005897360108
 30
0.0
  0
POINT
  5
25CF
330
CC8
100
AcDbEntity
  8
DEFPOINTS
 62
     0
100
AcDbPoint
 10
-1.345495744433123
 20
-15.0000083171325
 30
0.0
  0
ENDBLK
  5
CD3
330
CC8
100
AcDbEntity
  8
0
100
AcDbBlockEnd
  0
BLOCK
  5
E00
330
DF6
100
AcDbEntity
  8
0
100
AcDbBlockBegin
  2
*D6
 70
     1
 10
0.0
 20
0.0
 30
0.0
  3
*D6
  1

  0
LINE
  5
25D0
330
DF6
100
AcDbEntity
  8
AM_5
 62
     3
100
AcDbLine
 10
-49.34549574443312
 20
-3.000007317132607
 30
0.0
 11
-49.34549574443312
 21
-10.50000831713247
 31
0.0
  0
LINE
  5
25D1
330
DF6
100
AcDbEntity
  8
AM_5
 62
     3
100
AcDbLine
 10
-1.345495744433122
 20
-2.800005897360108
 30
0.0
 11
-1.345495744433123
 21
-10.50000831713247
 31
0.0
  0
LINE
  5
25D2
330
DF6
100
AcDbEntity
  8
AM_5
 62
     3
100
AcDbLine
 10
-48.09549574443312
 20
-10.00000831713247
 30
0.0
 11
-2.595495744433123
 21
-10.00000831713247
 31
0.0
  0
INSERT
  5
25D3
330
DF6
100
AcDbEntity
  8
AM_5
 62
     3
100
AcDbBlockReference
  2
_OPEN30
 10
-49.34549574443312
 20
-10.00000831713247
 30
0.0
 41
1.25
 42
1.25
 43
1.25
 50
180.0
  0
INSERT
  5
25D4
330
DF6
100
AcDbEntity
  8
AM_5
 62
     3
100
AcDbBlockReference
  2
_OPEN30
 10
-1.345495744433123
 20
-10.00000831713247
 30
0.0
 41
1.25
 42
1.25
 43
1.25
  0
MTEXT
  5
25D5
330
DF6
100
AcDbEntity
  8
AM_5
 62
     2
100
AcDbMText
 10
-25.34549574443312
 20
-8.300008317132473
 30
0.0
 40
1.9
 41
0.0
 71
     5
 72
     1
  1
48
1001
ACAD
1000
MTEXTBEGIN
1070
    73
1070
     1
1070
    44
1040
1.0
1070
    74
1070
     0
1000
MTEXTEND
  0
POINT
  5
25D6
330
DF6
100
AcDbEntity
  8
DEFPOINTS
 62
     0
100
AcDbPoint
 10
-49.34549574443312
 20
-3.000007317132607
 30
0.0
  0
POINT
  5
25D7
330
DF6
100
AcDbEntity
  8
DEFPOINTS
 62
     0
100
AcDbPoint
 10
-1.345495744433122
 20
-2.800005897360108
 30
0.0
  0
POINT
  5
25D8
330
DF6
100
AcDbEntity
  8
DEFPOINTS
 62
     0
100
AcDbPoint
 10
-1.345495744433123
 20
-10.00000831713247
 30
0.0
  0
ENDBLK
  5
E01
330
DF6
100
AcDbEntity
  8
0
100
AcDbBlockEnd
  0
BLOCK
  5
216C
330
2160
100
AcDbEntity
  8
0
100
AcDbBlockBegin
  2
*D7
 70
     1
 10
0.0
 20
0.0
 30
0.0
  3
*D7
  1

  0
LINE
  5
25A6
330
2160
100
AcDbEntity
  8
AM_5
 62
     3
100
AcDbLine
 10
-1.345495744433122
 20
-2.800006956713072
 30
0.0
 11
8.800009073387325
 21
-2.800006956713075
 31
0.0
  0
LINE
  5
25A7
330
2160
100
AcDbEntity
  8
AM_5
 62
     3
100
AcDbLine
 10
-1.345495744433122
 20
2.799993043286927
 30
0.0
 11
8.800009073387325
 21
2.799993043286924
 31
0.0
  0
LINE
  5
25A8
330
2160
100
AcDbEntity
  8
AM_5
 62
     3
100
AcDbLine
 10
8.300009073387323
 20
-4.050006956713074
 30
0.0
 11
8.300009073387323
 21
-5.300006956713074
 31
0.0
  0
LINE
  5
25A9
330
2160
100
AcDbEntity
  8
AM_5
 62
     3
100
AcDbLine
 10
8.300009073387327
 20
4.049993043286924
 30
0.0
 11
8.300009073387329
 21
12.40951685281073
 31
0.0
  0
LINE
  5
25AA
330
2160
100
AcDbEntity
  8
AM_5
 62
     3
100
AcDbLine
 10
8.300009073387325
 20
-2.800006956713075
 30
0.0
 11
8.300009073387325
 21
2.799993043286924
 31
0.0
  0
INSERT
  5
25AB
330
2160
100
AcDbEntity
  8
AM_5
 62
     3
100
AcDbBlockReference
  2
_OPEN30
 10
8.300009073387325
 20
-2.800006956713075
 30
0.0
 41
1.25
 42
1.25
 43
1.25
 50
90.0
  0
INSERT
  5
25AC
330
2160
100
AcDbEntity
  8
AM_5
 62
     3
100
AcDbBlockReference
  2
_OPEN30
 10
8.300009073387325
 20
2.799993043286924
 30
0.0
 41
1.25
 42
1.25
 43
1.25
 50
270.0
  0
MTEXT
  5
25AD
330
2160
100
AcDbEntity
  8
AM_5
 62
     2
100
AcDbMText
 10
6.600009073387326
 20
8.85475494804883
 30
0.0
 40
1.9
 41
0.0
 71
     5
 72
     1
  1
%%c5.6
 11
0.0000000000000001
 21
1.0
 31
0.0
1001
ACAD
1000
MTEXTBEGIN
1070
    73
1070
     1
1070
    44
1040
1.0
1070
    74
1070
     0
1000
MTEXTEND
  0
POINT
  5
25AE
330
2160
100
AcDbEntity
  8
DEFPOINTS
 62
     0
100
AcDbPoint
 10
-1.345495744433122
 20
-2.800006956713072
 30
0.0
  0
POINT
  5
25AF
330
2160
100
AcDbEntity
  8
DEFPOINTS
 62
     0
100
AcDbPoint
 10
-1.345495744433122
 20
2.799993043286927
 30
0.0
  0
POINT
  5
25B0
330
2160
100
AcDbEntity
  8
DEFPOINTS
 62
     0
100
AcDbPoint
 10
8.300009073387325
 20
2.799993043286924
 30
0.0
  0
ENDBLK
  5
216D
330
2160
100
AcDbEntity
  8
0
100
AcDbBlockEnd
  0
BLOCK
  5
2363
330
2359
100
AcDbEntity
  8
0
100
AcDbBlockBegin
  2
*D8
 70
     1
 10
0.0
 20
0.0
 30
0.0
  3
*D8
  1

  0
LINE
  5
2404
330
2359
100
AcDbEntity
  8
AM_5
 62
     3
100
AcDbLine
 10
-101.0954957444331
 20
-3.000007317132646
 30
0.0
 11
-110.3454967444331
 21
-3.000007317132664
 31
0.0
  0
LINE
  5
2405
330
2359
100
AcDbEntity
  8
AM_5
 62
     3
100
AcDbLine
 10
-101.0954957444331
 20
2.999992682867353
 30
0.0
 11
-110.3454967444331
 21
2.999992682867334
 31
0.0
  0
LINE
  5
2406
330
2359
100
AcDbEntity
  8
AM_5
 62
     3
100
AcDbLine
 10
-109.8454967444331
 20
-1.750007317132663
 30
0.0
 11
-109.8454967444331
 21
1.749992682867335
 31
0.0
  0
INSERT
  5
2407
330
2359
100
AcDbEntity
  8
AM_5
 62
     3
100
AcDbBlockReference
  2
_OPEN30
 10
-109.8454967444331
 20
-3.000007317132662
 30
0.0
 41
1.25
 42
1.25
 43
1.25
 50
270.0000000000001
  0
INSERT
  5
2408
330
2359
100
AcDbEntity
  8
AM_5
 62
     3
100
AcDbBlockReference
  2
_OPEN30
 10
-109.8454967444331
 20
2.999992682867336
 30
0.0
 41
1.25
 42
1.25
 43
1.25
 50
90.0000000000001
  0
MTEXT
  5
2409
330
2359
100
AcDbEntity
  8
AM_5
 62
     2
100
AcDbMText
 10
-111.5454967444331
 20
-0.0000073171326625
 30
0.0
 40
1.9
 41
0.0
 71
     5
 72
     1
  1
%%c6
 11
-0.000000000000002
 21
1.0
 31
0.0
1001
ACAD
1000
MTEXTBEGIN
1070
    73
1070
     1
1070
    44
1040
1.0
1070
    74
1070
     0
1000
MTEXTEND
  0
POINT
  5
240A
330
2359
100
AcDbEntity
  8
DEFPOINTS
 62
     0
100
AcDbPoint
 10
-101.0954957444331
 20
-3.000007317132421
 30
0.0
  0
POINT
  5
240B
330
2359
100
AcDbEntity
  8
DEFPOINTS
 62
     0
100
AcDbPoint
 10
-101.0954957444331
 20
2.999992682867577
 30
0.0
  0
POINT
  5
240C
330
2359
100
AcDbEntity
  8
DEFPOINTS
 62
     0
100
AcDbPoint
 10
-109.8454967444331
 20
2.99999268286758
 30
0.0
  0
ENDBLK
  5
2364
330
2359
100
AcDbEntity
  8
0
100
AcDbBlockEnd
  0
BLOCK
  5
24D1
330
24C1
100
AcDbEntity
  8
0
100
AcDbBlockBegin
  2
*D9
 70
     1
 10
0.0
 20
0.0
 30
0.0
  3
*D9
  1

  0
LINE
  5
2642
330
24C1
100
AcDbEntity
  8
AM_5
100
AcDbLine
 10
-0.1744856727702535
 20
-0.469853627525538
 30
0.0
 11
5.561814686679505
 21
-16.23020933632265
 31
0.0
  0
LINE
  5
2643
330
24C1
100
AcDbEntity
  8
AM_5
100
AcDbLine
 10
-0.1744856727702755
 20
0.4698389932603747
 30
0.0
 11
5.561814686678746
 21
16.23019470205775
 31
0.0
  0
ARC
  5
2644
330
24C1
100
AcDbEntity
  8
AM_5
100
AcDbCircle
 10
-0.345495744433093
 20
-0.0000073171325856
 30
0.0
 40
16.7718202316158
100
AcDbArc
 50
294.2712305413755
 51
65.72876945862709
  0
INSERT
  5
2645
330
24C1
100
AcDbEntity
  8
AM_5
100
AcDbBlockReference
  2
_OPEN30
 10
5.390804615016665
 20
-15.7603630259297
 30
0.0
 41
1.25
 42
1.25
 43
1.25
 50
202.135615270688
  0
INSERT
  5
2646
330
24C1
100
AcDbEntity
  8
AM_5
100
AcDbBlockReference
  2
_OPEN30
 10
5.390804615015929
 20
15.76034839166479
 30
0.0
 41
1.25
 42
1.25
 43
1.25
 50
157.8643847293145
  0
MTEXT
  5
2647
330
24C1
100
AcDbEntity
  8
AM_5
 62
     2
100
AcDbMText
 10
14.87632448718271
 20
-0.0000073171322013
 30
0.0
 40
1.6
 41
0.0
 71
     5
 72
     1
  1
140°
  7
ASAMI
 11
-0.000000000000002
 21
1.0
 31
0.0
  0
POINT
  5
2648
330
24C1
100
AcDbEntity
  8
DEFPOINTS
 62
     0
100
AcDbPoint
 10
15.05465973393709
 20
-6.642985950521514
 30
0.0
  0
POINT
  5
2649
330
24C1
100
AcDbEntity
  8
DEFPOINTS
 62
     0
100
AcDbPoint
 10
-0.6630579457979238
 20
-0.8725022946548524
 30
0.0
  0
POINT
  5
264A
330
24C1
100
AcDbEntity
  8
DEFPOINTS
 62
     0
100
AcDbPoint
 10
-0.6630579457979629
 20
0.8724876603896731
 30
0.0
  0
POINT
  5
264B
330
24C1
100
AcDbEntity
  8
DEFPOINTS
 62
     0
100
AcDbPoint
 10
-0.3454957444331015
 20
-0.0000073171325612
 30
0.0
  0
POINT
  5
264C
330
24C1
100
AcDbEntity
  8
DEFPOINTS
 62
     0
100
AcDbPoint
 10
-0.3454957444331015
 20
-0.0000073171326083
 30
0.0
  0
ENDBLK
  5
24D2
330
24C1
100
AcDbEntity
  8
0
100
AcDbBlockEnd
  0
ENDSEC
  0
SECTION
  2
ENTITIES
  0
LINE
  5
C30
330
1F
100
AcDbEntity
  8
AM_0
 48
0.5
100
AcDbLine
 10
-101.3454957444331
 20
-2.750007317132646
 30
0.0
 11
-101.3454957444331
 21
2.749992682867353
 31
0.0
  0
LINE
  5
C9F
330
1F
100
AcDbEntity
  8
AM_7
100
AcDbLine
 10
-102.8454957444331
 20
-0.0000073171326473
 30
0.0
 11
1.300008073387331
 21
-0.0000073171325576
 31
0.0
1001
GENIUS_GENODEF_13
1002
{
1000
HIER
1070
     0
1002
}
1002
{
1000
MANEDIT
1070
     0
1002
}
1002
{
1000
NOSEL
1070
     0
1002
}
1002
{
1000
BEHIND
1070
     0
1002
}
1002
{
1000
REACTOR
1002
}
1001
GENIUS_GENOBJ-N-CEN_13
1002
{
1000
OWNER
1000
GEN
1002
}
  0
DIMENSION
  5
CC6
330
1F
100
AcDbEntity
  8
AM_5
100
AcDbDimension
  2
*D5
 10
-1.345495744433123
 20
-15.0000083171325
 30
0.0
 11
-51.34549574443313
 21
-13.3000083171325
 31
0.0
 70
    32
  1
<>
  3
AM_JIS$0
100
AcDbAlignedDimension
 13
-101.3454957444331
 23
-2.750007317132646
 33
0.0
 14
-1.345495744433122
 24
-2.800005897360108
 34
0.0
 50
0.0000000000001132
100
AcDbRotatedDimension
1001
GENIUS_GENDTOL_13
1000

1000
h7
1000

1040
0.0
1001
ACAD
1000
DSTYLE
1002
{
1070
   271
1070
     0
1002
}
  0
DIMENSION
  5
DF5
330
1F
100
AcDbEntity
  8
AM_5
100
AcDbDimension
  2
*D6
 10
-1.345495744433123
 20
-10.00000831713247
 30
0.0
 11
-25.34549574443312
 21
-8.300008317132473
 31
0.0
 70
    32
  1
<>
  3
AM_JIS$0
100
AcDbAlignedDimension
 13
-49.34549574443312
 23
-3.000007317132607
 33
0.0
 14
-1.345495744433122
 24
-2.800005897360108
 34
0.0
 50
0.0000000000001527
100
AcDbRotatedDimension
1001
GENIUS_GENDTOL_13
1000

1000
h7
1000

1040
0.0
1001
ACAD
1000
DSTYLE
1002
{
1070
   271
1070
     0
1002
}
  0
ARC
  5
144A
330
1F
100
AcDbEntity
  8
AM_11
 48
0.5
100
AcDbCircle
 10
-48.58484510966757
 20
-13.25090117907367
 30
0.0
 40
14.65089607238749
100
AcDbArc
 50
64.74833051131179
 51
115.2516644797366
  0
ARC
  5
144B
330
1F
100
AcDbEntity
  8
AM_11
 48
0.5
100
AcDbCircle
 10
-48.58484510966755
 20
13.25089554333832
 30
0.0
 40
14.65089607238749
100
AcDbArc
 50
244.7482808787518
 51
295.2516148471758
  0
ARC
  5
144E
330
1F
100
AcDbEntity
  8
AM_11
 48
0.5
100
AcDbCircle
 10
-36.08484510966757
 20
-13.25090117907367
 30
0.0
 40
14.65089607238749
100
AcDbArc
 50
64.74833051131179
 51
115.2516644797366
  0
ARC
  5
144F
330
1F
100
AcDbEntity
  8
AM_11
 48
0.5
100
AcDbCircle
 10
-36.08484510966757
 20
13.25089554333832
 30
0.0
 40
14.65089607238749
100
AcDbArc
 50
244.7482808787518
 51
295.2516148471758
  0
ARC
  5
1450
330
1F
100
AcDbEntity
  8
AM_11
 48
0.5
100
AcDbCircle
 10
-23.58484510967107
 20
13.25089554333832
 30
0.0
 40
14.65089607238749
100
AcDbArc
 50
244.7482808787518
 51
295.2516148471758
  0
ARC
  5
1451
330
1F
100
AcDbEntity
  8
AM_11
 48
0.5
100
AcDbCircle
 10
-23.58484510967107
 20
-13.25090117907367
 30
0.0
 40
14.65089607238749
100
AcDbArc
 50
64.74833051131179
 51
115.2516644797366
  0
ARC
  5
1452
330
1F
100
AcDbEntity
  8
AM_11
 48
0.5
100
AcDbCircle
 10
-11.08484510967107
 20
-13.25090117907367
 30
0.0
 40
14.65089607238749
100
AcDbArc
 50
64.74833051131179
 51
115.2516644797366
  0
ARC
  5
1453
330
1F
100
AcDbEntity
  8
AM_11
 48
0.5
100
AcDbCircle
 10
-11.08484510967107
 20
13.25089554333832
 30
0.0
 40
14.65089607238749
100
AcDbArc
 50
244.7482808787518
 51
295.2516148471758
  0
ARC
  5
1454
330
1F
100
AcDbEntity
  8
AM_11
 48
0.5
100
AcDbCircle
 10
1.41515489032894
 20
13.25089554333832
 30
0.0
 40
14.65089607238749
100
AcDbArc
 50
244.7482808787518
 51
254.0147302238188
  0
TEXT
  5
19BD
330
1F
100
AcDbEntity
  8
AM_6
100
AcDbText
 10
-62.1788214483737
 20
-26.25000831713253
 30
0.0
 40
2.5
  1
MDW056LHK
 50
0.0000000000001527
 72
     4
 11
-51.34548811504036
 21
-25.0000083171325
 31
0.0
100
AcDbText
  0
LINE
  5
1CF0
330
1F
100
AcDbEntity
  8
AM_0
100
AcDbLine
 10
-101.0954957444331
 20
2.999992682867354
 30
0.0
 11
-49.34549574443312
 21
2.999992682867398
 31
0.0
1001
GENIUS_GENODEF_13
1002
{
1000
HIER
1070
     0
1002
}
1002
{
1000
MANEDIT
1070
     0
1002
}
1002
{
1000
NOSEL
1070
     0
1002
}
1002
{
1000
BEHIND
1070
     0
1002
}
1002
{
1000
REACTOR
1002
}
1001
GENIUS_GENOBJ-N-CEN_13
1002
{
1000
OWNER
1000
GEN
1002
}
  0
LINE
  5
1CF4
330
1F
100
AcDbEntity
  8
AM_0
100
AcDbLine
 10
-101.0954957444331
 20
-3.000007317132646
 30
0.0
 11
-49.34549574443312
 21
-3.000007317132607
 31
0.0
1001
GENIUS_GENODEF_13
1002
{
1000
HIER
1070
     0
1002
}
1002
{
1000
MANEDIT
1070
     0
1002
}
1002
{
1000
NOSEL
1070
     0
1002
}
1002
{
1000
BEHIND
1070
     0
1002
}
1002
{
1000
REACTOR
1002
}
1001
GENIUS_GENOBJ-N-CEN_13
1002
{
1000
OWNER
1000
GEN
1002
}
  0
LINE
  5
1CFE
330
1F
100
AcDbEntity
  8
AM_0
100
AcDbLine
 10
-101.0954957444331
 20
-3.000007317132421
 30
0.0
 11
-101.0954957444331
 21
2.999992682867577
 31
0.0
  0
ARC
  5
1DAB
330
1F
100
AcDbEntity
  8
AM_11
 48
0.5
100
AcDbCircle
 10
-61.08481776663966
 20
-13.2509011790737
 30
0.0
 40
14.65089607238749
100
AcDbArc
 50
64.74833051131179
 51
115.2516644797366
  0
ARC
  5
1DAC
330
1F
100
AcDbEntity
  8
AM_11
 48
0.5
100
AcDbCircle
 10
-61.08481776663964
 20
13.25089554333829
 30
0.0
 40
14.65089607238749
100
AcDbArc
 50
244.7482808787518
 51
295.2516148471758
  0
ARC
  5
1DAD
330
1F
100
AcDbEntity
  8
AM_11
 48
0.5
100
AcDbCircle
 10
-73.58479042361175
 20
-13.25090117907374
 30
0.0
 40
14.65089607238749
100
AcDbArc
 50
64.74833051131179
 51
115.2516644797366
  0
ARC
  5
1DAE
330
1F
100
AcDbEntity
  8
AM_11
 48
0.5
100
AcDbCircle
 10
-73.58479042361174
 20
13.25089554333825
 30
0.0
 40
14.65089607238749
100
AcDbArc
 50
244.7482808787518
 51
295.2516148471758
  0
ARC
  5
1DAF
330
1F
100
AcDbEntity
  8
AM_11
 48
0.5
100
AcDbCircle
 10
-86.08476308058383
 20
-13.25090117907377
 30
0.0
 40
14.65089607238749
100
AcDbArc
 50
64.74833051131179
 51
115.2516644797366
  0
ARC
  5
1DB0
330
1F
100
AcDbEntity
  8
AM_11
 48
0.5
100
AcDbCircle
 10
-86.08476308058383
 20
13.25089554333822
 30
0.0
 40
14.65089607238749
100
AcDbArc
 50
244.7482808787518
 51
295.2516148471758
  0
ARC
  5
1DB1
330
1F
100
AcDbEntity
  8
AM_11
 48
0.5
100
AcDbCircle
 10
-98.58473573755594
 20
-13.25090117907381
 30
0.0
 40
14.65089607238749
100
AcDbArc
 50
64.74833051131179
 51
100.8615399523048
  0
ARC
  5
1DB2
330
1F
100
AcDbEntity
  8
AM_11
 48
0.5
100
AcDbCircle
 10
-98.58473573755592
 20
13.25089554333819
 30
0.0
 40
14.65089607238749
100
AcDbArc
 50
259.1384600476949
 51
295.2516148471758
  0
LINE
  5
1E4D
330
1F
100
AcDbEntity
  8
AM_0
100
AcDbLine
 10
-49.34549574443311
 20
-3.0000073171326
 30
0.0
 11
-49.34549574443312
 21
2.999992682867398
 31
0.0
  0
LINE
  5
1E4F
330
1F
100
AcDbEntity
  8
AM_0
100
AcDbLine
 10
-49.34549574443312
 20
2.999992682867398
 30
0.0
 11
-48.99977520108669
 21
2.800390834101951
 31
0.0
  0
LINE
  5
1E50
330
1F
100
AcDbEntity
  8
AM_0
100
AcDbLine
 10
-49.34549574443311
 20
-3.000007317132599
 30
0.0
 11
-48.99908495865388
 21
-2.800006956712773
 31
0.0
  0
LINE
  5
1FC4
330
1F
100
AcDbEntity
  8
AM_0
100
AcDbLine
 10
-101.3454957444331
 20
2.749992682867353
 30
0.0
 11
-101.0954957444331
 21
2.999992682867354
 31
0.0
1001
GENIUS_GENFIL_13
1070
     0
1040
0.25
1040
0.25
1040
20.0
1040
0.0
1002
{
1002
}
1001
GENIUS_GENODEF_13
1002
{
1000
HIER
1070
     0
1002
}
1002
{
1000
MANEDIT
1070
     0
1002
}
1002
{
1000
NOSEL
1070
     0
1002
}
1002
{
1000
BEHIND
1070
     0
1002
}
1002
{
1000
REACTOR
1002
}
1001
GENIUS_GENOBJ-N-CHA_13
1002
{
1000
OWNER
1000
GEN
1002
}
  0
LINE
  5
1FC7
330
1F
100
AcDbEntity
  8
AM_0
100
AcDbLine
 10
-101.3454957444331
 20
-2.750007317132646
 30
0.0
 11
-101.0954957444331
 21
-3.000007317132646
 31
0.0
1001
GENIUS_GENFIL_13
1070
     0
1040
0.25
1040
0.25
1040
20.0
1040
0.0
1002
{
1002
}
1001
GENIUS_GENODEF_13
1002
{
1000
HIER
1070
     0
1002
}
1002
{
1000
MANEDIT
1070
     0
1002
}
1002
{
1000
NOSEL
1070
     0
1002
}
1002
{
1000
BEHIND
1070
     0
1002
}
1002
{
1000
REACTOR
1002
}
1001
GENIUS_GENOBJ-N-CHA_13
1002
{
1000
OWNER
1000
GEN
1002
}
  0
ELLIPSE
  5
2159
330
1F
100
AcDbEntity
  8
AM_0
 48
0.5
100
AcDbEllipse
 10
-5.63233967109841
 20
5.325901212853242
 30
0.0
 11
-4.877709961295145
 21
5.76423264354645
 31
0.0
210
0.0
220
0.0
230
1.0
 40
0.5791871139651949
 41
3.088905374912118
 42
3.278169803332516
  0
LINE
  5
215A
330
1F
100
AcDbEntity
  8
AM_0
 48
0.5
100
AcDbLine
 10
-0.345495744433093
 20
-0.0000073171325846
 30
0.0
 11
-1.727936311453138
 21
1.075107992831001
 31
0.0
  0
LINE
  5
215B
330
1F
100
AcDbEntity
  8
AM_0
 48
0.5
100
AcDbLine
 10
-42.76691679546212
 20
1.418701081617047
 30
0.0
 11
-49.34528593608712
 21
-0.2264562873606331
 31
0.0
  0
SPLINE
  5
215C
330
1F
100
AcDbEntity
  8
AM_0
 48
0.5
100
AcDbSpline
210
0.0
220
0.0
230
1.0
 70
     8
 71
     3
 72
    26
 73
    22
 74
     0
 42
0.0000000001
 43
0.0000000001
 40
0.0
 40
0.0
 40
0.0
 40
0.0
 40
0.5053718422482555
 40
1.011416788234384
 40
1.51878947874832
 40
2.028106372501714
 40
2.53992850183274
 40
3.054750120345123
 40
3.572980661339668
 40
4.094940235102087
 40
4.620851511962628
 40
5.150834650758807
 40
5.684913462338119
 40
6.22299150760388
 40
6.764917645270235
 40
7.310404053809304
 40
7.859109024447004
 40
8.410612041925402
 40
8.964430473957175
 40
9.520030619684154
 40
10.059642854732
 40
10.059642854732
 40
10.059642854732
 40
10.059642854732
 10
-39.76042418071618
 20
-2.80000695671284
 30
0.0
 10
-39.92889078483847
 20
-2.798341024619581
 30
0.0
 10
-40.26604837341344
 20
-2.795006941581467
 30
0.0
 10
-40.77166205783705
 20
-2.768130487053483
 30
0.0
 10
-41.27725416098659
 20
-2.725403951168169
 30
0.0
 10
-41.78281496741445
 20
-2.665521064616415
 30
0.0
 10
-42.28833945876343
 20
-2.589293449470943
 30
0.0
 10
-42.79381756302462
 20
-2.497059722935636
 30
0.0
 10
-43.29924894392592
 20
-2.389443051853895
 30
0.0
 10
-43.80463015443646
 20
-2.26709704568577
 30
0.0
 10
-44.30995999978613
 20
-2.130780840957811
 30
0.0
 10
-44.81524263885841
 20
-1.981342881066575
 30
0.0
 10
-45.32047597792711
 20
-1.819705897245462
 30
0.0
 10
-45.82566574142815
 20
-1.64686141083494
 30
0.0
 10
-46.33081868409703
 20
-1.463892445471469
 30
0.0
 10
-46.83593589737924
 20
-1.271908938050665
 30
0.0
 10
-47.34102114665832
 20
-1.072103638158349
 30
0.0
 10
-47.84608370723058
 20
-0.8657093013566189
 30
0.0
 10
-48.35111523237647
 20
-0.6539689192730195
 30
0.0
 10
-48.85095898651731
 20
-0.4405130789383189
 30
0.0
 10
-49.18212427971361
 20
-0.2971119480967729
 30
0.0
 10
-49.34528975078462
 20
-0.2264580675525711
 30
0.0
  0
ELLIPSE
  5
215D
330
1F
100
AcDbEntity
  8
AM_0
 48
0.5
100
AcDbEllipse
 10
-48.59547285625317
 20
-1.89511041130259
 30
0.0
 11
0.7494307148812993
 21
0.0391389467006515
 31
0.0
210
0.0
220
0.0
230
1.0
 40
0.9366673813871974
 41
1.232246177586895
 42
3.064249603067125
  0
ELLIPSE
  5
215E
330
1F
100
AcDbEntity
  8
AM_0
 48
0.5
100
AcDbEllipse
 10
-48.34528975078464
 20
-1.866673623379455
 30
0.0
 11
-1.000308615726697
 21
0.0022085584390213
 31
0.0
210
0.0
220
0.0
230
1.0
 40
0.9330428124390943
 41
0.0165316621318597
 42
1.572856053877239
  0
DIMENSION
  5
215F
330
1F
100
AcDbEntity
  8
AM_5
100
AcDbDimension
  2
*D7
 10
8.300009073387325
 20
2.799993043286924
 30
0.0
 11
8.300009073387325
 21
8.85475494804883
 31
0.0
 70
   160
  1
%%c<>
  3
AM_JIS$0
100
AcDbAlignedDimension
 13
-1.345495744433122
 23
-2.800006956713072
 33
0.0
 14
-1.345495744433122
 24
2.799993043286927
 34
0.0
 50
89.99999999999969
100
AcDbRotatedDimension
1001
ACAD
1000
DSTYLE
1002
{
1070
   271
1070
     1
1002
}
1001
GENIUS_GENDTOL_13
1000

1000
h7
1000

1040
0.0
  0
LINE
  5
216E
330
1F
100
AcDbEntity
  8
AM_0
 48
0.5
100
AcDbLine
 10
-1.153537932518779
 20
2.54885010977467
 30
0.0
 11
-1.345495744433122
 21
2.799993043286927
 31
0.0
  0
LINE
  5
2170
330
1F
100
AcDbEntity
  8
AM_11
 48
0.5
100
AcDbLine
 10
-12.48893599101861
 20
2.799993043287011
 30
0.0
 11
-2.964476152151622
 21
2.799993043286938
 31
0.0
  0
LINE
  5
2171
330
1F
100
AcDbEntity
  8
AM_11
 48
0.5
100
AcDbLine
 10
-12.48893599101865
 20
-2.800006956712988
 30
0.0
 11
-2.964476152151668
 21
-2.800006956713061
 31
0.0
  0
LINE
  5
2172
330
1F
100
AcDbEntity
  8
AM_0
 48
0.5
100
AcDbLine
 10
-2.964476152151622
 20
2.799993043286938
 30
0.0
 11
-1.345495744433122
 21
2.799993043286927
 31
0.0
  0
LINE
  5
2173
330
1F
100
AcDbEntity
  8
AM_0
 48
0.5
100
AcDbLine
 10
-2.964476152151668
 20
-2.800006956713061
 30
0.0
 11
-1.34547285625316
 21
-2.800006956713072
 31
0.0
  0
LINE
  5
2174
330
1F
100
AcDbEntity
  8
AM_11
 48
0.5
100
AcDbLine
 10
-29.25411514024026
 20
2.800390834101867
 30
0.0
 11
-23.17597002398538
 21
2.799993043287091
 31
0.0
  0
LINE
  5
2175
330
1F
100
AcDbEntity
  8
AM_11
 48
0.5
100
AcDbLine
 10
-30.4886834587527
 20
-2.800006956712909
 30
0.0
 11
-20.96422361988693
 21
-2.800404747527705
 31
0.0
  0
LINE
  5
2176
330
1F
100
AcDbEntity
  8
AM_0
100
AcDbLine
 10
-47.25393203477175
 20
2.800390834101945
 30
0.0
 11
-48.99977520108667
 21
2.800390834101951
 31
0.0
  0
LINE
  5
2177
330
1F
100
AcDbEntity
  8
AM_0
100
AcDbLine
 10
-48.25456862041367
 20
-2.800006956712775
 30
0.0
 11
-48.99908495865386
 21
-2.800006956712765
 31
0.0
  0
LINE
  5
2178
330
1F
100
AcDbEntity
  8
AM_11
 48
0.5
100
AcDbLine
 10
-48.25456862041367
 20
-2.800006956712775
 30
0.0
 11
-41.17579512187817
 21
-2.800006956712829
 31
0.0
  0
LINE
  5
2179
330
1F
100
AcDbEntity
  8
AM_11
 48
0.5
100
AcDbLine
 10
-47.25393203477175
 20
2.800390834101945
 30
0.0
 11
-41.17579512187812
 21
2.79999304328717
 31
0.0
  0
LINE
  5
217A
330
1F
100
AcDbEntity
  8
AM_0
100
AcDbLine
 10
-41.17579512187812
 20
2.79999304328717
 30
0.0
 11
-29.25411514024026
 21
2.800390834101867
 31
0.0
  0
LINE
  5
217B
330
1F
100
AcDbEntity
  8
AM_0
 48
0.5
100
AcDbLine
 10
-41.17579893659317
 20
-2.800006956712791
 30
0.0
 11
-30.48868346036892
 21
-2.800006956712842
 31
0.0
  0
LINE
  5
217C
330
1F
100
AcDbEntity
  8
AM_0
 48
0.5
100
AcDbLine
 10
-23.17597822734661
 20
2.799993043287091
 30
0.0
 11
-12.48893599101861
 21
2.799993043287011
 31
0.0
  0
LINE
  5
217D
330
1F
100
AcDbEntity
  8
AM_0
 48
0.5
100
AcDbLine
 10
-20.96422361988692
 20
-2.800006956712982
 30
0.0
 11
-12.48893599101865
 21
-2.800006956712988
 31
0.0
  0
ELLIPSE
  5
217E
330
1F
100
AcDbEntity
  8
AM_0
 48
0.5
100
AcDbEllipse
 10
2.849336103707859
 20
-0.6224083849355883
 30
0.0
 11
-4.800009590401227
 21
0.0007438944893886
 31
0.0
210
0.0
220
0.0
230
0.9999999999999998
 40
0.9333752350795316
 41
0.1273425459540338
 42
0.5077283419886185
  0
ELLIPSE
  5
217F
330
1F
100
AcDbEntity
  8
AM_0
 48
0.5
100
AcDbEllipse
 10
-5.446714921682595
 20
4.69940812303935
 30
0.0
 11
7.23331785202041
 21
0.0000000000035403
 31
0.0
210
0.0
220
0.0
230
1.0
 40
0.9333333333332983
 41
-1.060213001566989
 42
-0.9717182238875002
  0
ELLIPSE
  5
2180
330
1F
100
AcDbEntity
  8
AM_0
 48
0.5
100
AcDbEllipse
 10
1.661538557321401
 20
3.361565308911891
 30
0.0
 11
-6.046334266662507
 21
0.0000000000001574
 31
0.0
210
0.0
220
0.0
230
1.0
 40
0.9333333333333332
 41
0.5303675532341155
 42
0.9384884834290069
  0
SPLINE
  5
2181
330
1F
100
AcDbEntity
  8
AM_0
100
AcDbSpline
210
0.0
220
0.0
230
1.0
 70
     8
 71
     3
 72
    23
 73
    19
 74
     0
 42
0.0000000001
 43
0.0000000001
 40
16.03460024169435
 40
16.03460024169435
 40
16.03460024169435
 40
16.03460024169435
 40
16.35212704903564
 40
17.38177054169784
 40
18.41822485651776
 40
19.46214173629503
 40
20.51396345435107
 40
21.57393551351153
 40
22.64208202342361
 40
23.7182574881101
 40
24.80209208578934
 40
25.89306333925047
 40
26.99048218457928
 40
28.09348763352352
 40
29.20111863782268
 40
30.31232390128032
 40
31.42594612798585
 40
32.5407912310448
 40
32.5407912310486
 40
32.5407912310486
 40
32.5407912310486
 10
-29.25411514024026
 20
2.800390834101868
 30
0.0
 10
-29.20216954788219
 20
2.790938527180791
 30
0.0
 10
-28.98200130175363
 20
2.749776390949533
 30
0.0
 10
-28.59417256514865
 20
2.669125467138326
 30
0.0
 10
-28.09193333596871
 20
2.549198425420976
 30
0.0
 10
-27.59016061020854
 20
2.41454034738644
 30
0.0
 10
-27.08882473771765
 20
2.265930565307604
 30
0.0
 10
-26.58790792519746
 20
2.104197582046487
 30
0.0
 10
-26.08738122085674
 20
1.930265931540339
 30
0.0
 10
-25.58720976991821
 20
1.745147852366826
 30
0.0
 10
-25.08736515084361
 20
1.549891657415237
 30
0.0
 10
-24.58780728927735
 20
1.345633496988282
 30
0.0
 10
-24.08849570164111
 20
1.133560607763762
 30
0.0
 10
-23.58939712022794
 20
0.9148923199480691
 30
0.0
 10
-23.0904697860657
 20
0.6909001596894447
 30
0.0
 10
-22.59166748791667
 20
0.4628920768703623
 30
0.0
 10
-22.09294960919328
 20
0.2321893165883482
 30
0.0
 10
-21.76056032700987
 20
0.0775157305158104
 30
0.0
 10
-21.5942750413105
 20
0.0001354586510158
 30
0.0
  0
SPLINE
  5
2182
330
1F
100
AcDbEntity
  8
AM_0
100
AcDbSpline
210
0.0
220
0.0
230
1.0
 70
     8
 71
     3
 72
    11
 73
     7
 74
     0
 42
0.0000000001
 43
0.0000000001
 40
11.27226913003534
 40
11.27226913003534
 40
11.27226913003534
 40
11.2722691300354
 40
12.28301561507924
 40
13.29510212255852
 40
14.30984805882082
 40
15.18258238371378
 40
15.18258238371378
 40
15.18258238371378
 40
15.18258238371378
 10
-30.4886834587539
 20
-2.800006956712909
 30
0.0
 10
-30.65650946767505
 20
-2.786302943038224
 30
0.0
 10
-30.9918449337513
 20
-2.753126122354832
 30
0.0
 10
-31.49311652303437
 20
-2.686200268769293
 30
0.0
 10
-31.9688321000585
 20
-2.606264674795021
 30
0.0
 10
-32.27649701133356
 20
-2.544815804671109
 30
0.0
 10
-32.41827776319944
 20
-2.514461760108849
 30
0.0
  0
SPLINE
  5
2183
330
1F
100
AcDbEntity
  8
AM_0
100
AcDbSpline
210
0.0
220
0.0
230
1.0
 70
     8
 71
     3
 72
    17
 73
    13
 74
     0
 42
0.0000000001
 43
0.0000000001
 40
1.580019955310467
 40
1.580019955310467
 40
1.580019955310467
 40
1.580019955310467
 40
2.030549285115227
 40
3.082371838836284
 40
4.126290986361125
 40
5.162752068350215
 40
6.192395305374981
 40
7.216039564037012
 40
8.234688489606833
 40
9.249433870634691
 40
10.26152376260694
 40
11.27226744710342
 40
11.27226744710342
 40
11.27226744710342
 40
11.27226744710352
 10
-25.72608199299573
 20
-2.066489407165956
 30
0.0
 10
-25.79761788992524
 20
-2.087772459700336
 30
0.0
 10
-26.03657181902677
 20
-2.15753050713979
 30
0.0
 10
-26.44452543409766
 20
-2.266948500534819
 30
0.0
 10
-26.94983633677093
 20
-2.389482137847531
 30
0.0
 10
-27.45528635106261
 20
-2.497050402415467
 30
0.0
 10
-27.96075952489751
 20
-2.589292055829902
 30
0.0
 10
-28.46628776912877
 20
-2.665536127849284
 30
0.0
 10
-28.97185093885579
 20
-2.725347527173585
 30
0.0
 10
-29.47744558899276
 20
-2.768338655922045
 30
0.0
 10
-29.98305926299682
 20
-2.794232775206267
 30
0.0
 10
-30.32021685687443
 20
-2.800006972734659
 30
0.0
 10
-30.48868345875387
 20
-2.800006956712909
 30
0.0
  0
SPLINE
  5
2184
330
1F
100
AcDbEntity
  8
AM_0
100
AcDbSpline
210
0.0
220
0.0
230
1.0
 70
     8
 71
     3
 72
    22
 73
    18
 74
     0
 42
0.0000000001
 43
0.0000000001
 40
17.17441611292
 40
17.17441611292
 40
17.17441611292
 40
17.17441611292
 40
17.38177636558528
 40
18.41823744757437
 40
19.46215659509824
 40
20.51397914882054
 40
21.57394542641293
 40
22.64209583141747
 40
23.71826625065247
 40
24.80210429862395
 40
25.8930771157021
 40
26.99048705697709
 40
28.09349309193389
 40
29.20112995599786
 40
30.31233024745139
 40
31.42594771747373
 40
32.5407895042663
 40
32.54078950426994
 40
32.54078950426994
 40
32.54078950426994
 10
-32.41849888549105
 20
-2.51442722213026
 30
0.0
 10
-32.45235549790235
 20
-2.507945496759215
 30
0.0
 10
-32.65530739913511
 20
-2.468464599054137
 30
0.0
 10
-33.02710384589943
 20
-2.389300260602209
 30
0.0
 10
-33.53248509648649
 20
-2.266954777021931
 30
0.0
 10
-34.03781484978495
 20
-2.130638216513209
 30
0.0
 10
-34.54309667339458
 20
-1.98120150084685
 30
0.0
 10
-35.0483298998732
 20
-1.819560898034849
 30
0.0
 10
-35.55352074805595
 20
-1.646722372241756
 30
0.0
 10
-36.05867155711852
 20
-1.463748133436175
 30
0.0
 10
-36.56378700090709
 20
-1.271766573722995
 30
0.0
 10
-37.06887269598514
 20
-1.071962097722495
 30
0.0
 10
-37.57393302619176
 20
-0.8655633091998415
 30
0.0
 10
-38.07897307577574
 20
-0.6538400083792295
 30
0.0
 10
-38.58399732147754
 20
-0.4380940539037111
 30
0.0
 10
-39.08901324479217
 20
-0.219656714924813
 30
0.0
 10
-39.42562444128329
 20
-0.0731554251921816
 30
0.0
 10
-39.59402250904799
 20
0.0001354586521003
 30
0.0
  0
SPLINE
  5
2185
330
1F
100
AcDbEntity
  8
AM_0
100
AcDbSpline
210
0.0
220
0.0
230
1.0
 70
     8
 71
     3
 72
    46
 73
    42
 74
     0
 42
0.0000000001
 43
0.0000000001
 40
0.0
 40
0.0
 40
0.0
 40
0.0
 40
1.011249035210742
 40
1.518621725724671
 40
2.027938619478073
 40
2.539760748808594
 40
3.054582367321468
 40
3.57281290831601
 40
4.094772482077948
 40
4.620691089143811
 40
5.15067422794001
 40
5.684749430442449
 40
6.222834640060426
 40
6.764753664045501
 40
7.310240072584596
 40
7.858945043222741
 40
8.410448060700666
 40
8.964266492732456
 40
9.519866638459884
 40
10.0766761747832
 40
10.6340962627791
 40
11.19151635077544
 40
11.74832588709876
 40
12.30392603282573
 40
12.85774446485751
 40
13.4092474823359
 40
13.9579524529734
 40
14.50343886151267
 40
15.04536144233665
 40
15.58344665195462
 40
16.11752185445706
 40
16.6475049932531
 40
17.17341627011425
 40
17.69537584387618
 40
18.21360638487073
 40
18.72842763800682
 40
19.24025007116128
 40
19.74957453394613
 40
20.25694705170416
 40
20.76299220638815
 40
21.26836401372675
 40
21.26836401372675
 40
21.26836401372675
 40
21.26836401372675
 10
-19.54884886402742
 20
-2.800006956712993
 30
0.0
 10
-19.88602292554413
 20
-2.79362834027043
 30
0.0
 10
-20.39236689952221
 20
-2.784049388723917
 30
0.0
 10
-21.06567456248886
 20
-2.725073543799079
 30
0.0
 10
-21.57124080501447
 20
-2.66561020384465
 30
0.0
 10
-22.07676383366156
 20
-2.589269376135929
 30
0.0
 10
-22.58224231670938
 20
-2.497066192310295
 30
0.0
 10
-23.08767365741585
 20
-2.389441462136224
 30
0.0
 10
-23.59305700925939
 20
-2.267096292411034
 30
0.0
 10
-24.09839012310561
 20
-2.130781900587799
 30
0.0
 10
-24.60367400899419
 20
-1.981343759075923
 30
0.0
 10
-25.10890730786511
 20
-1.819703355928056
 30
0.0
 10
-25.61409813656162
 20
-1.646864776293467
 30
0.0
 10
-26.11924895041216
 20
-1.463890551084005
 30
0.0
 10
-26.62436439474958
 20
-1.271908991406484
 30
0.0
 10
-27.12945008273538
 20
-1.072104501411133
 30
0.0
 10
-27.6345104409661
 20
-0.8657057692513912
 30
0.0
 10
-28.13955038495336
 20
-0.6539822557783804
 30
0.0
 10
-28.64457526956028
 20
-0.4382369951561535
 30
0.0
 10
-29.14958970822217
 20
-0.2197966690818958
 30
0.0
 10
-29.65459990164353
 20
-0.0000069567573884
 30
0.0
 10
-30.15961009495392
 20
0.2197827558342095
 30
0.0
 10
-30.6646245339486
 20
0.4382230811075882
 30
0.0
 10
-31.16964941733917
 20
0.6539683446566666
 30
0.0
 10
-31.67468936583673
 20
0.8656918472750671
 30
0.0
 10
-32.1797497073437
 20
1.072090619682587
 30
0.0
 10
-32.68483545726329
 20
1.271894960626264
 30
0.0
 10
-33.189951770608
 20
1.463877489007014
 30
0.0
 10
-33.69510454723092
 20
1.646850051802885
 30
0.0
 10
-34.20029627711042
 20
1.819689517694517
 30
0.0
 10
-34.70552956421806
 20
1.981329968939005
 30
0.0
 10
-35.21081137445786
 20
2.130766737242072
 30
0.0
 10
-35.71614112137343
 20
2.267083237733476
 30
0.0
 10
-36.22152241027604
 20
2.389428907252073
 30
0.0
 10
-36.72695345846539
 20
2.497046596051274
 30
0.0
 10
-37.23243231209911
 20
2.589276522433588
 30
0.0
 10
-37.73795856703318
 20
2.665508334461446
 30
0.0
 10
-38.2435222045041
 20
2.725390285251634
 30
0.0
 10
-38.74911712095126
 20
2.768112903989252
 30
0.0
 10
-39.25473039011778
 20
2.794996610063216
 30
0.0
 10
-39.59188811985011
 20
2.798328304900617
 30
0.0
 10
-39.76035475391987
 20
2.799993043287159
 30
0.0
  0
SPLINE
  5
2186
330
1F
100
AcDbEntity
  8
AM_0
100
AcDbSpline
210
0.0
220
0.0
230
1.0
 70
     8
 71
     3
 72
    55
 73
    51
 74
     0
 42
0.0000000001
 43
0.0000000001
 40
0.0
 40
0.0
 40
0.0
 40
0.0
 40
1.010743684496582
 40
2.022833576467832
 40
3.037578957496688
 40
4.056212745003489
 40
5.079857003664532
 40
6.109500240690281
 40
7.145961322679372
 40
8.189895241603872
 40
9.241717795325891
 40
10.30168407291828
 40
11.36983447792315
 40
12.44600489715814
 40
13.52984294512926
 40
14.62081576220742
 40
15.7182257034828
 40
16.82123173843959
 40
17.92886860250316
 40
19.0400688939571
 40
20.15368796660465
 40
21.26852814259644
 40
22.38336992938901
 40
23.49698739941135
 40
24.6081876908653
 40
25.71582455492886
 40
26.81883757994213
 40
27.91624752121713
 40
29.00722033829659
 40
30.09105838626677
 40
31.16722880550176
 40
32.23537921050758
 40
33.29534548809967
 40
34.347168041821
 40
35.39108718934584
 40
36.42754827133493
 40
37.45720575381954
 40
38.48085062012849
 40
39.49948440763516
 40
40.51422944315121
 40
41.52631975251916
 40
42.53706336719636
 40
43.54780698187354
 40
44.55989729124051
 40
45.57464232675757
 40
46.59327611426424
 40
47.6169209805722
 40
48.64656348684535
 40
49.68302456883444
 40
50.58557219878025
 40
50.58557219878025
 40
50.58557219878025
 40
50.58557219878025
 10
-20.96422361988693
 20
-2.800006956712982
 30
0.0
 10
-21.13269022398895
 20
-2.798341024547127
 30
0.0
 10
-21.4698478125232
 20
-2.795006941363733
 30
0.0
 10
-21.9754614972516
 20
-2.768130487927417
 30
0.0
 10
-22.4810535992382
 20
-2.725403947876604
 30
0.0
 10
-22.98661441003743
 20
-2.665521076982716
 30
0.0
 10
-23.49213888494825
 20
-2.589293402957332
 30
0.0
 10
-23.99761705110305
 20
-2.49705989811914
 30
0.0
 10
-24.50305059930387
 20
-2.389441880231532
 30
0.0
 10
-25.00843504737662
 20
-2.267098350544783
 30
0.0
 10
-25.51376695273213
 20
-2.130780490909328
 30
0.0
 10
-26.01904883417057
 20
-1.981343954438738
 30
0.0
 10
-26.52428204493761
 20
-1.819703302980913
 30
0.0
 10
-27.02947289751751
 20
-1.6468647906507
 30
0.0
 10
-27.53462370486217
 20
-1.463890547138115
 30
0.0
 10
-28.03973915110264
 20
-1.271908992699404
 30
0.0
 10
-28.54482483803754
 20
-1.072104500211821
 30
0.0
 10
-29.04988519856855
 20
-0.8657057727697155
 30
0.0
 10
-29.55492513436401
 20
-0.6539822428379422
 30
0.0
 10
-30.05995004956585
 20
-0.4382370435892197
 30
0.0
 10
-30.56496437372333
 20
-0.219796487845021
 30
0.0
 10
-31.06997523842093
 20
-0.0000075280146174
 30
0.0
 10
-31.57498383604229
 20
0.2197853881540372
 30
0.0
 10
-32.0799998528977
 20
0.4382225422009946
 30
0.0
 10
-32.58502414463952
 20
0.6539683944981532
 30
0.0
 10
-33.0900649809156
 20
0.8656927310022059
 30
0.0
 10
-33.59512743667926
 20
1.072089697001328
 30
0.0
 10
-34.10021392077283
 20
1.27189520277569
 30
0.0
 10
-34.60532943993516
 20
1.463876601537155
 30
0.0
 10
-35.110480228899
 20
1.646850883528535
 30
0.0
 10
-35.61567108277247
 20
1.819689396111577
 30
0.0
 10
-36.12090430640819
 20
1.981330008918686
 30
0.0
 10
-36.62618613569604
 20
2.130766697977725
 30
0.0
 10
-37.13151586932064
 20
2.267083353928228
 30
0.0
 10
-37.63689719217431
 20
2.389428486009974
 30
0.0
 10
-38.14233055288552
 20
2.497048667960536
 30
0.0
 10
-38.64781232832384
 20
2.589271638452138
 30
0.0
 10
-39.15333847334468
 20
2.665522906554059
 30
0.0
 10
-39.65889943401475
 20
2.725334794033742
 30
0.0
 10
-40.16449188730211
 20
2.768320796797724
 30
0.0
 10
-40.67010514333036
 20
2.794223041025799
 30
0.0
 10
-41.17572950990329
 20
2.802876123741715
 30
0.0
 10
-41.68135387573225
 20
2.794223041012237
 30
0.0
 10
-42.18696713399669
 20
2.768320796852159
 30
0.0
 10
-42.692559579051
 20
2.725334793828633
 30
0.0
 10
-43.19812057058878
 20
2.665522907324856
 30
0.0
 10
-43.70364413502993
 20
2.589272007291016
 30
0.0
 10
-44.20912391906244
 20
2.497049610890586
 30
0.0
 10
-44.69157632173958
 20
2.394313760923021
 30
0.0
 10
-45.00459693492063
 20
2.319182062610556
 30
0.0
 10
-45.1498202552758
 20
2.282566720877929
 30
0.0
  0
SPLINE
  5
2187
330
1F
100
AcDbEntity
  8
AM_0
 48
0.5
100
AcDbSpline
210
0.0
220
0.0
230
1.0
 70
     8
 71
     3
 72
    22
 73
    18
 74
     0
 42
0.0000000001
 43
0.0000000001
 40
0.0
 40
0.0
 40
0.0
 40
0.0
 40
1.010743684496582
 40
2.022833993863546
 40
3.037578683882831
 40
4.056212471389632
 40
5.079857945358201
 40
6.109499720892564
 40
7.145961650132166
 40
8.189873411961459
 40
9.241710626092514
 40
10.30166235592959
 40
11.36982472628033
 40
12.44598212828784
 40
13.52983440361964
 40
14.62080578343036
 40
14.90544694398022
 40
14.90544694398022
 40
14.90544694398022
 40
14.90544694398022
 10
-41.17579893657567
 20
-2.800006956712829
 30
0.0
 10
-41.34426557286879
 20
-2.798341522247587
 30
0.0
 10
-41.6814232953979
 20
-2.795008434440563
 30
0.0
 10
-42.18703645033811
 20
-2.768124494258781
 30
0.0
 10
-42.69262909942884
 20
-2.725405147373107
 30
0.0
 10
-43.19819017905245
 20
-2.665522221275871
 30
0.0
 10
-43.7037132770828
 20
-2.589287435540145
 30
0.0
 10
-44.20919311975162
 20
-2.497061683715759
 30
0.0
 10
-44.71462229998516
 20
-2.389441101954816
 30
0.0
 10
-45.22000429329081
 20
-2.267093324467349
 30
0.0
 10
-45.72533454795996
 20
-2.130782270322216
 30
0.0
 10
-46.23061570479884
 20
-1.981337543949486
 30
0.0
 10
-46.73585102101438
 20
-1.819710130470036
 30
0.0
 10
-47.24104011711555
 20
-1.646860898014793
 30
0.0
 10
-47.746192457225
 20
-1.463890974452565
 30
0.0
 10
-48.1258497430992
 20
-1.319599393110215
 30
0.0
 10
-48.33740803144977
 20
-1.237126963343039
 30
0.0
 10
-48.38115125063204
 20
-1.219989926528104
 30
0.0
  0
SPLINE
  5
2188
330
1F
100
AcDbEntity
  8
AM_0
100
AcDbSpline
210
0.0
220
0.0
230
1.0
 70
     8
 71
     3
 72
    13
 73
     9
 74
     0
 42
0.0000000001
 43
0.0000000001
 40
16.03460056234195
 40
16.03460056234195
 40
16.03460056234195
 40
16.03460056234195
 40
16.35212717791071
 40
17.38177067057215
 40
18.41822498539278
 40
19.46214186516937
 40
20.5139635832251
 40
21.34083983469381
 40
21.34083983469381
 40
21.34083983469381
 40
21.34083983469381
 10
-48.25434024893976
 20
-2.800261604372515
 30
0.0
 10
-48.20239463553114
 20
-2.790809575830496
 30
0.0
 10
-47.98222620721786
 20
-2.74964856895554
 30
0.0
 10
-47.5943976820243
 20
-2.668996703525866
 30
0.0
 10
-47.09215838963983
 20
-2.549069994337477
 30
0.0
 10
-46.59038568099672
 20
-2.414411826248468
 30
0.0
 10
-46.12608085769542
 20
-2.276779092533729
 30
0.0
 10
-45.82986255679282
 20
-2.182009160557839
 30
0.0
 10
-45.69991336354767
 20
-2.139172287760958
 30
0.0
  0
SPLINE
  5
2189
330
1F
100
AcDbEntity
  8
AM_0
100
AcDbSpline
210
0.0
220
0.0
230
1.0
 70
     8
 71
     3
 72
    23
 73
    19
 74
     0
 42
0.0000000001
 43
0.0000000001
 40
16.03460024169435
 40
16.03460024169435
 40
16.03460024169435
 40
16.03460024169435
 40
16.35212704903564
 40
17.38177054169784
 40
18.41822485651776
 40
19.46214173629503
 40
20.51396345435107
 40
21.57393551351153
 40
22.64208202342361
 40
23.7182574881101
 40
24.80209208578934
 40
25.89306333925047
 40
26.99048218457928
 40
28.09348763352352
 40
29.20111863782268
 40
30.31232390128032
 40
31.42594612798585
 40
32.5407912310448
 40
32.5407912310486
 40
32.5407912310486
 40
32.5407912310486
 10
-47.25393203477175
 20
2.800390834101945
 30
0.0
 10
-47.20198644241369
 20
2.790938527180867
 30
0.0
 10
-46.98181819628513
 20
2.749776390949609
 30
0.0
 10
-46.59398945968014
 20
2.669125467138403
 30
0.0
 10
-46.0917502305002
 20
2.549198425421053
 30
0.0
 10
-45.58997750474003
 20
2.414540347386516
 30
0.0
 10
-45.08864163224912
 20
2.26593056530768
 30
0.0
 10
-44.58772481972894
 20
2.104197582046564
 30
0.0
 10
-44.08719811538823
 20
1.930265931540416
 30
0.0
 10
-43.5870266644497
 20
1.745147852366902
 30
0.0
 10
-43.08718204537512
 20
1.549891657415313
 30
0.0
 10
-42.58762418380887
 20
1.345633496988358
 30
0.0
 10
-42.08831259617262
 20
1.133560607763839
 30
0.0
 10
-41.58921401475946
 20
0.9148923199481458
 30
0.0
 10
-41.0902866805972
 20
0.6909001596895213
 30
0.0
 10
-40.59148438244817
 20
0.4628920768704391
 30
0.0
 10
-40.09276650372478
 20
0.232189316588425
 30
0.0
 10
-39.76037722154137
 20
0.0775157305158871
 30
0.0
 10
-39.594091935842
 20
0.0001354586510925
 30
0.0
  0
ELLIPSE
  5
218A
330
1F
100
AcDbEntity
  8
AM_0
 48
0.5
100
AcDbEllipse
 10
-1.147390886038143
 20
-0.7297272631097444
 30
0.0
 11
-0.0911414823667479
 21
0.4587920225804386
 31
0.0
210
0.0
220
0.0
230
1.0
 40
0.5332146818830785
 41
1.78826425242229
 42
4.923606142134265
  0
ELLIPSE
  5
218B
330
1F
100
AcDbEntity
  8
AM_0
 48
0.5
100
AcDbEllipse
 10
-1.147390886038143
 20
-0.7297272631097444
 30
0.0
 11
-0.4374002858841595
 21
0.2255848476891228
 31
0.0
210
0.0
220
0.0
230
1.0
 40
0.4816826529425152
 41
4.446296305492991
 42
7.589736646822499
  0
SPLINE
  5
218C
330
1F
100
AcDbEntity
  8
AM_0
 48
0.5
100
AcDbSpline
210
0.0
220
0.0
230
1.0
 70
     8
 71
     3
 72
    17
 73
    13
 74
     0
 42
0.0000000001
 43
0.0000000001
 40
0.0
 40
0.0
 40
0.0
 40
0.0
 40
1.010743614677189
 40
2.022833924044153
 40
3.037578959561199
 40
4.056212747067873
 40
5.079857613375832
 40
6.109500119648989
 40
7.14596120163808
 40
8.18989512056258
 40
9.241717674284874
 40
9.693948937866434
 40
9.693948937866434
 40
9.693948937866434
 40
9.693948937866434
 10
-2.964476152151622
 20
2.799993043286938
 30
0.0
 10
-3.132942786912555
 20
2.798328311672812
 30
0.0
 10
-3.470100518028008
 20
2.79499663038929
 30
0.0
 10
-3.97571377680011
 20
2.768112822468558
 30
0.0
 10
-4.481306219767835
 20
2.725390804690773
 30
0.0
 10
-4.986867219188347
 20
2.665507816273591
 30
0.0
 10
-5.492390753976614
 20
2.589276007992924
 30
0.0
 10
-5.997870649662381
 20
2.497048817794206
 30
0.0
 10
-6.503300121855909
 20
2.389419942601355
 30
0.0
 10
-7.008698783249567
 20
2.267113967720917
 30
0.0
 10
-7.416669761642237
 20
2.15693477231359
 30
0.0
 10
-7.656254239933373
 20
2.088056930722431
 30
0.0
 10
-7.728164646450206
 20
2.066973884499886
 30
0.0
  0
SPLINE
  5
218D
330
1F
100
AcDbEntity
  8
AM_0
 48
0.5
100
AcDbSpline
210
0.0
220
0.0
230
1.0
 70
     8
 71
     3
 72
    16
 73
    12
 74
     0
 42
0.0000000001
 43
0.0000000001
 40
0.0
 40
0.0
 40
0.0
 40
0.0
 40
1.010743614677189
 40
2.022833924044153
 40
3.037578959561199
 40
4.056212747067873
 40
5.079857613375832
 40
6.109500119648989
 40
7.14596120163808
 40
8.18989512056258
 40
8.545190612624931
 40
8.545190612624931
 40
8.545190612624931
 40
8.545190612624931
 10
-2.964476152151622
 20
2.799993043286938
 30
0.0
 10
-3.132933421264471
 20
2.799976217668998
 30
0.0
 10
-3.470104871461405
 20
2.794230862678183
 30
0.0
 10
-3.975712602258174
 20
2.768318684594701
 30
0.0
 10
-4.481306551649501
 20
2.725335398135582
 30
0.0
 10
-4.986867071334151
 20
2.665522611391347
 30
0.0
 10
-5.492391013263166
 20
2.589272587105784
 30
0.0
 10
-5.997869753429363
 20
2.497047571430595
 30
0.0
 10
-6.503303479134425
 20
2.389428468344786
 30
0.0
 10
-6.896301626978369
 20
2.294287840193573
 30
0.0
 10
-7.120931333067314
 20
2.235773998208166
 30
0.0
 10
-7.177896171998494
 20
2.220674076590216
 30
0.0
  0
SPLINE
  5
218E
330
1F
100
AcDbEntity
  8
AM_0
 48
0.5
100
AcDbSpline
210
0.0
220
0.0
230
1.0
 70
     8
 71
     3
 72
    25
 73
    21
 74
     0
 42
0.0000000001
 43
0.0000000001
 40
6.846175049578289
 40
6.846175049578289
 40
6.846175049578289
 40
6.846175049578289
 40
7.604337694224321
 40
8.711974558287883
 40
9.814980593243754
 40
10.91239053451967
 40
12.0033633515982
 40
13.08720139956839
 40
14.16337181880432
 40
15.23152222380919
 40
16.29148850140128
 40
17.34331105512262
 40
18.38723020264746
 40
19.42369128463655
 40
20.45333379090873
 40
21.47697865721768
 40
22.49561244472435
 40
23.5103574802404
 40
24.52244778960836
 40
25.53320666051913
 40
25.53320666051913
 40
25.53320666051913
 40
25.53320666051913
 10
-3.554148968628831
 20
0.5068113744692912
 30
0.0
 10
-3.669007090080675
 20
0.5559743946876253
 30
0.0
 10
-3.951908779232433
 20
0.676470112200211
 30
0.0
 10
-4.403274458078845
 20
0.8656917650741892
 30
0.0
 10
-4.908334760683462
 20
1.072090611919373
 30
0.0
 10
-5.41342046309872
 20
1.271895072389535
 30
0.0
 10
-5.918535904952111
 20
1.463876636298772
 30
0.0
 10
-6.42368671447619
 20
1.646850873731968
 30
0.0
 10
-6.92887756272924
 20
1.81968940084357
 30
0.0
 10
-7.434110788478815
 20
1.981329999782214
 30
0.0
 10
-7.939392614902143
 20
2.130766729478612
 30
0.0
 10
-8.44472235778732
 20
2.267083238291709
 30
0.0
 10
-8.950103646811859
 20
2.389428912633777
 30
0.0
 10
-9.455534698461939
 20
2.497046574201452
 30
0.0
 10
-9.961013538268437
 20
2.589276603726156
 30
0.0
 10
-10.46653735347919
 20
2.665507657792476
 30
0.0
 10
-10.97209827834661
 20
2.725390847245917
 30
0.0
 10
-11.47769074107622
 20
2.768112809800559
 30
0.0
 10
-11.98330653437883
 20
2.794996773696021
 30
0.0
 10
-12.32046681172169
 20
2.79832835103761
 30
0.0
 10
-12.48893599101861
 20
2.799993043287011
 30
0.0
  0
SPLINE
  5
218F
330
1F
100
AcDbEntity
  8
AM_0
 48
0.5
100
AcDbSpline
210
0.0
220
0.0
230
1.0
 70
     8
 71
     3
 72
    10
 73
     6
 74
     0
 42
0.0000000001
 43
0.0000000001
 40
0.0
 40
0.0
 40
0.0
 40
0.0
 40
2.69986029516136
 40
4.147722969032201
 40
6.285750005020438
 40
6.285750005020438
 40
6.285750005020438
 40
6.285750005020438
 10
-3.554068132132138
 20
0.5067781181566826
 30
0.0
 10
-3.1942126646295
 20
0.2466387692846303
 30
0.0
 10
-2.641376360185361
 20
-0.1530063362045077
 30
0.0
 10
-1.333992764012377
 20
0.0404688605543809
 30
0.0
 10
-1.580211122768197
 20
0.6921189238173876
 30
0.0
 10
-1.74289648269843
 20
1.089319707657936
 30
0.0
  0
SPLINE
  5
2190
330
1F
100
AcDbEntity
  8
AM_0
100
AcDbSpline
210
0.0
220
0.0
230
1.0
 70
     8
 71
     3
 72
    46
 73
    42
 74
     0
 42
0.0000000001
 43
0.0000000001
 40
0.0
 40
0.0
 40
0.0
 40
0.0
 40
1.011249035210742
 40
1.518621725724671
 40
2.027938619478072
 40
2.539760748808593
 40
3.054582367321464
 40
3.57281290831601
 40
4.094772482077948
 40
4.620691089143816
 40
5.150674227940008
 40
5.684749430442447
 40
6.222834640060424
 40
6.764753664045506
 40
7.310240072584592
 40
7.858945043222745
 40
8.410448060700666
 40
8.964266492732461
 40
9.519866638459884
 40
10.0766761747832
 40
10.6340962627791
 40
11.19151635077544
 40
11.74832588709876
 40
12.30392603282573
 40
12.85774446485751
 40
13.40924748233591
 40
13.95795245297341
 40
14.50343886151267
 40
15.04536144233665
 40
15.58344665195462
 40
16.11752185445706
 40
16.6475049932531
 40
17.17341627011425
 40
17.69537584387618
 40
18.21360638487073
 40
18.72842763800681
 40
19.24025007116129
 40
19.74957453394614
 40
20.25694705170417
 40
20.76299220638814
 40
21.26836401372675
 40
21.26836401372675
 40
21.26836401372675
 40
21.26836401372675
 10
-1.549101396292166
 20
-2.800006956713071
 30
0.0
 10
-1.886275457808878
 20
-2.793628340270509
 30
0.0
 10
-2.392619431786958
 20
-2.784049388723997
 30
0.0
 10
-3.065927094753608
 20
-2.725073543799158
 30
0.0
 10
-3.571493337279213
 20
-2.665610203844728
 30
0.0
 10
-4.07701636592631
 20
-2.589269376136009
 30
0.0
 10
-4.582494848974139
 20
-2.497066192310372
 30
0.0
 10
-5.087926189680608
 20
-2.389441462136304
 30
0.0
 10
-5.593309541524156
 20
-2.267096292411112
 30
0.0
 10
-6.098642655370371
 20
-2.13078190058788
 30
0.0
 10
-6.603926541258942
 20
-1.981343759076
 30
0.0
 10
-7.109159840129857
 20
-1.819703355928136
 30
0.0
 10
-7.614350668826373
 20
-1.646864776293543
 30
0.0
 10
-8.119501482676913
 20
-1.463890551084088
 30
0.0
 10
-8.62461692701432
 20
-1.271908991406557
 30
0.0
 10
-9.129702615000118
 20
-1.072104501411216
 30
0.0
 10
-9.634762973230854
 20
-0.8657057692514666
 30
0.0
 10
-10.13980291721812
 20
-0.6539822557784626
 30
0.0
 10
-10.64482780182503
 20
-0.43823699515623
 30
0.0
 10
-11.14984224048692
 20
-0.2197966690819746
 30
0.0
 10
-11.65485243390827
 20
-0.0000069567574668
 30
0.0
 10
-12.15986262721867
 20
0.2197827558341308
 30
0.0
 10
-12.66487706621334
 20
0.4382230811075099
 30
0.0
 10
-13.16990194960391
 20
0.6539683446565875
 30
0.0
 10
-13.67494189810147
 20
0.8656918472749893
 30
0.0
 10
-14.18000223960844
 20
1.072090619682508
 30
0.0
 10
-14.68508798952803
 20
1.271894960626186
 30
0.0
 10
-15.19020430287274
 20
1.463877489006936
 30
0.0
 10
-15.69535707949565
 20
1.646850051802804
 30
0.0
 10
-16.20054880937517
 20
1.81968951769444
 30
0.0
 10
-16.70578209648283
 20
1.981329968938927
 30
0.0
 10
-17.2110639067226
 20
2.130766737241994
 30
0.0
 10
-17.71639365363819
 20
2.267083237733398
 30
0.0
 10
-18.2217749425408
 20
2.389428907251996
 30
0.0
 10
-18.72720599073015
 20
2.497046596051195
 30
0.0
 10
-19.23268484436387
 20
2.589276522433511
 30
0.0
 10
-19.73821109929793
 20
2.665508334461365
 30
0.0
 10
-20.24377473676885
 20
2.725390285251556
 30
0.0
 10
-20.74936965321601
 20
2.768112903989172
 30
0.0
 10
-21.25498292238254
 20
2.794996610063139
 30
0.0
 10
-21.59214065211486
 20
2.798328304900539
 30
0.0
 10
-21.76060728618462
 20
2.79999304328708
 30
0.0
  0
SPLINE
  5
2191
330
1F
100
AcDbEntity
  8
AM_0
100
AcDbSpline
210
0.0
220
0.0
230
1.0
 70
     8
 71
     3
 72
    55
 73
    51
 74
     0
 42
0.0000000001
 43
0.0000000001
 40
0.0
 40
0.0
 40
0.0
 40
0.0
 40
1.010743684496582
 40
2.022833576467832
 40
3.037578957496688
 40
4.056212745003489
 40
5.079857003664532
 40
6.109500240690281
 40
7.145961322679372
 40
8.189895241603872
 40
9.241717795325891
 40
10.30168407291828
 40
11.36983447792315
 40
12.44600489715814
 40
13.52984294512926
 40
14.62081576220742
 40
15.7182257034828
 40
16.82123173843959
 40
17.92886860250316
 40
19.0400688939571
 40
20.15368796660465
 40
21.26852814259644
 40
22.38336992938901
 40
23.49698739941135
 40
24.6081876908653
 40
25.71582455492886
 40
26.81883757994213
 40
27.91624752121713
 40
29.00722033829659
 40
30.09105838626677
 40
31.16722880550176
 40
32.23537921050758
 40
33.29534548809967
 40
34.347168041821
 40
35.39108718934584
 40
36.42754827133493
 40
37.45720575381954
 40
38.48085062012849
 40
39.49948440763516
 40
40.51422944315121
 40
41.52631975251916
 40
42.53706336719636
 40
43.54780698187354
 40
44.55989729124051
 40
45.57464232675757
 40
46.59327611426424
 40
47.6169209805722
 40
48.64656348684535
 40
49.68302456883444
 40
50.58557219878025
 40
50.58557219878025
 40
50.58557219878025
 40
50.58557219878025
 10
-2.964476152151668
 20
-2.800006956713061
 30
0.0
 10
-3.132942756253692
 20
-2.798341024547206
 30
0.0
 10
-3.470100344787943
 20
-2.795006941363814
 30
0.0
 10
-3.975714029516345
 20
-2.768130487927496
 30
0.0
 10
-4.481306131502938
 20
-2.725403947876683
 30
0.0
 10
-4.986866942302176
 20
-2.665521076982795
 30
0.0
 10
-5.492391417213005
 20
-2.589293402957412
 30
0.0
 10
-5.997869583367807
 20
-2.497059898119217
 30
0.0
 10
-6.503303131568634
 20
-2.389441880231609
 30
0.0
 10
-7.008687579641376
 20
-2.267098350544862
 30
0.0
 10
-7.514019484996882
 20
-2.130780490909406
 30
0.0
 10
-8.019301366435325
 20
-1.981343954438817
 30
0.0
 10
-8.524534577202359
 20
-1.819703302980992
 30
0.0
 10
-9.029725429782256
 20
-1.646864790650779
 30
0.0
 10
-9.534876237126923
 20
-1.463890547138194
 30
0.0
 10
-10.03999168336738
 20
-1.271908992699482
 30
0.0
 10
-10.54507737030228
 20
-1.0721045002119
 30
0.0
 10
-11.0501377308333
 20
-0.8657057727697935
 30
0.0
 10
-11.55517766662877
 20
-0.6539822428380207
 30
0.0
 10
-12.06020258183061
 20
-0.4382370435892984
 30
0.0
 10
-12.56521690598807
 20
-0.2197964878450994
 30
0.0
 10
-13.07022777068567
 20
-0.0000075280146959
 30
0.0
 10
-13.57523636830704
 20
0.2197853881539587
 30
0.0
 10
-14.08025238516244
 20
0.438222542200916
 30
0.0
 10
-14.58527667690426
 20
0.6539683944980748
 30
0.0
 10
-15.09031751318034
 20
0.8656927310021275
 30
0.0
 10
-15.595379968944
 20
1.072089697001249
 30
0.0
 10
-16.10046645303756
 20
1.271895202775612
 30
0.0
 10
-16.6055819721999
 20
1.463876601537077
 30
0.0
 10
-17.11073276116374
 20
1.646850883528457
 30
0.0
 10
-17.61592361503723
 20
1.819689396111499
 30
0.0
 10
-18.12115683867295
 20
1.981330008918607
 30
0.0
 10
-18.62643866796079
 20
2.130766697977647
 30
0.0
 10
-19.1317684015854
 20
2.26708335392815
 30
0.0
 10
-19.63714972443907
 20
2.389428486009895
 30
0.0
 10
-20.14258308515028
 20
2.497048667960457
 30
0.0
 10
-20.64806486058859
 20
2.58927163845206
 30
0.0
 10
-21.15359100560942
 20
2.66552290655398
 30
0.0
 10
-21.6591519662795
 20
2.725334794033664
 30
0.0
 10
-22.16474441956685
 20
2.768320796797646
 30
0.0
 10
-22.6703576755951
 20
2.794223041025721
 30
0.0
 10
-23.17598204216803
 20
2.802876123741636
 30
0.0
 10
-23.68160640799699
 20
2.794223041012159
 30
0.0
 10
-24.18721966626144
 20
2.768320796852081
 30
0.0
 10
-24.69281211131574
 20
2.725334793828555
 30
0.0
 10
-25.19837310285352
 20
2.665522907324778
 30
0.0
 10
-25.70389666729468
 20
2.589272007290937
 30
0.0
 10
-26.20937645132721
 20
2.497049610890508
 30
0.0
 10
-26.69182885400434
 20
2.394313760922943
 30
0.0
 10
-27.00484946718541
 20
2.319182062610478
 30
0.0
 10
-27.15007278754056
 20
2.282566720877851
 30
0.0
  0
SPLINE
  5
2192
330
1F
100
AcDbEntity
  8
AM_0
100
AcDbSpline
210
0.0
220
0.0
230
1.0
 70
     8
 71
     3
 72
    11
 73
     7
 74
     0
 42
0.0000000001
 43
0.0000000001
 40
11.27226913003534
 40
11.27226913003534
 40
11.27226913003534
 40
11.2722691300354
 40
12.28301561507924
 40
13.29510212255852
 40
14.30984805882082
 40
15.18258238371378
 40
15.18258238371378
 40
15.18258238371378
 40
15.18258238371378
 10
-12.48893599101864
 20
-2.800006956712988
 30
0.0
 10
-12.65676199993979
 20
-2.786302943038302
 30
0.0
 10
-12.99209746601603
 20
-2.753126122354909
 30
0.0
 10
-13.49336905529911
 20
-2.686200268769372
 30
0.0
 10
-13.96908463232325
 20
-2.6062646747951
 30
0.0
 10
-14.2767495435983
 20
-2.544815804671187
 30
0.0
 10
-14.41853029546418
 20
-2.514461760108928
 30
0.0
  0
SPLINE
  5
2193
330
1F
100
AcDbEntity
  8
AM_0
100
AcDbSpline
210
0.0
220
0.0
230
1.0
 70
     8
 71
     3
 72
    22
 73
    18
 74
     0
 42
0.0000000001
 43
0.0000000001
 40
17.17441611292
 40
17.17441611292
 40
17.17441611292
 40
17.17441611292
 40
17.38177636558528
 40
18.41823744757437
 40
19.46215659509824
 40
20.51397914882054
 40
21.57394542641293
 40
22.64209583141747
 40
23.71826625065247
 40
24.80210429862395
 40
25.8930771157021
 40
26.99048705697709
 40
28.09349309193389
 40
29.20112995599786
 40
30.31233024745139
 40
31.42594771747373
 40
32.5407895042663
 40
32.54078950426994
 40
32.54078950426994
 40
32.54078950426994
 10
-14.41875141775579
 20
-2.514427222130338
 30
0.0
 10
-14.45260803016709
 20
-2.507945496759294
 30
0.0
 10
-14.65555993139985
 20
-2.468464599054216
 30
0.0
 10
-15.02735637816417
 20
-2.389300260602288
 30
0.0
 10
-15.53273762875122
 20
-2.266954777022009
 30
0.0
 10
-16.03806738204968
 20
-2.130638216513287
 30
0.0
 10
-16.54334920565931
 20
-1.981201500846928
 30
0.0
 10
-17.04858243213793
 20
-1.819560898034928
 30
0.0
 10
-17.55377328032071
 20
-1.646722372241834
 30
0.0
 10
-18.05892408938328
 20
-1.463748133436254
 30
0.0
 10
-18.56403953317185
 20
-1.271766573723073
 30
0.0
 10
-19.0691252282499
 20
-1.071962097722573
 30
0.0
 10
-19.57418555845651
 20
-0.8655633091999204
 30
0.0
 10
-20.07922560804048
 20
-0.6538400083793082
 30
0.0
 10
-20.58424985374229
 20
-0.4380940539037894
 30
0.0
 10
-21.08926577705692
 20
-0.2196567149248914
 30
0.0
 10
-21.42587697354805
 20
-0.07315542519226
 30
0.0
 10
-21.59427504131274
 20
0.0001354586520218
 30
0.0
  0
SPLINE
  5
2194
330
1F
100
AcDbEntity
  8
AM_0
100
AcDbSpline
210
0.0
220
0.0
230
1.0
 70
     8
 71
     3
 72
    17
 73
    13
 74
     0
 42
0.0000000001
 43
0.0000000001
 40
1.580019955310467
 40
1.580019955310467
 40
1.580019955310467
 40
1.580019955310467
 40
2.030549285115227
 40
3.082371838836284
 40
4.126290986361125
 40
5.162752068350215
 40
6.192395305374981
 40
7.216039564037012
 40
8.234688489606833
 40
9.249433870634691
 40
10.26152376260694
 40
11.27226744710342
 40
11.27226744710342
 40
11.27226744710342
 40
11.27226744710352
 10
-7.726334525260488
 20
-2.066489407166034
 30
0.0
 10
-7.797870422189991
 20
-2.087772459700414
 30
0.0
 10
-8.036824351291532
 20
-2.157530507139868
 30
0.0
 10
-8.444777966362414
 20
-2.266948500534898
 30
0.0
 10
-8.950088869035688
 20
-2.389482137847609
 30
0.0
 10
-9.455538883327369
 20
-2.497050402415546
 30
0.0
 10
-9.961012057162255
 20
-2.589292055829981
 30
0.0
 10
-10.46654030139351
 20
-2.665536127849362
 30
0.0
 10
-10.97210347112054
 20
-2.725347527173663
 30
0.0
 10
-11.47769812125751
 20
-2.768338655922123
 30
0.0
 10
-11.98331179526156
 20
-2.794232775206345
 30
0.0
 10
-12.32046938913916
 20
-2.800006972734737
 30
0.0
 10
-12.48893599101861
 20
-2.800006956712988
 30
0.0
  0
ELLIPSE
  5
2196
330
1F
100
AcDbEntity
  8
AM_0
 48
0.5
100
AcDbEllipse
 10
4.027688839331727
 20
3.630097205697969
 30
0.0
 11
0.8512848445242394
 21
5.756478471581338
 31
0.0
210
0.0
220
0.0
230
0.9999999999999998
 40
0.8991184301885631
 41
1.890270824098471
 42
2.197796108596753
  0
LINE
  5
21A5
330
1F
100
AcDbEntity
  8
AM_0
100
AcDbLine
 10
-48.99908495865386
 20
-2.800006956712774
 30
0.0
 11
-48.99911294977696
 21
-2.572896282954888
 31
0.0
  0
LINE
  5
21A6
330
1F
100
AcDbEntity
  8
AM_0
100
AcDbLine
 10
-48.99926919037312
 20
-1.305211991220945
 30
0.0
 11
-48.99938370451236
 21
-0.3760823088286722
 31
0.0
  0
LINE
  5
21A7
330
1F
100
AcDbEntity
  8
AM_0
100
AcDbLine
 10
-48.99941280722453
 20
-0.1399525705315865
 30
0.0
 11
-48.99977520108667
 21
2.800390834101951
 31
0.0
  0
DIMENSION
  5
2358
330
1F
100
AcDbEntity
  8
AM_5
100
AcDbDimension
  2
*D8
 10
-109.8454967444331
 20
2.99999268286758
 30
0.0
 11
-111.5454967444331
 21
-0.000007317132437
 31
0.0
 70
    32
  1
%%c<>
 51
359.9999999999998
  3
AM_JIS$0
100
AcDbAlignedDimension
 13
-101.0954957444331
 23
-3.000007317132421
 33
0.0
 14
-101.0954957444331
 24
2.999992682867577
 34
0.0
 50
270.0000000000001
100
AcDbRotatedDimension
1001
ACAD
1000
DSTYLE
1002
{
1070
   271
1070
     0
1002
}
1001
GENIUS_GENDTOL_13
1000

1000
h7
1000

1040
0.0
  0
LINE
  5
249D
330
1F
100
AcDbEntity
  8
AM_0
100
AcDbLine
 10
-0.6630579457979629
 20
0.8724876603896731
 30
0.0
 11
-0.3454957444331015
 21
-0.0000073171325612
 31
0.0
  0
LINE
  5
249E
330
1F
100
AcDbEntity
  8
AM_0
100
AcDbLine
 10
-0.6630579457979238
 20
-0.8725022946548524
 30
0.0
 11
-0.3454957444331015
 21
-0.0000073171326083
 31
0.0
  0
LINE
  5
24A6
330
1F
100
AcDbEntity
  8
AM_0
 48
0.5
100
AcDbLine
 10
-1.153537932518774
 20
-2.548864744039789
 30
0.0
 11
-1.345495744433122
 21
-2.800005897360108
 31
0.0
  0
ELLIPSE
  5
24A7
330
1F
100
AcDbEntity
  8
AM_0
 48
0.5
100
AcDbEllipse
 10
4.027688839331733
 20
-3.630111839963079
 30
0.0
 11
0.8512848445242491
 21
-5.756478471581337
 31
0.0
210
0.0
220
0.0
230
-1.0
 40
0.8991184301885631
 41
1.890270824098471
 42
2.197796108596753
  0
DIMENSION
  5
24C0
330
1F
100
AcDbEntity
  8
AM_5
100
AcDbDimension
  2
*D9
 10
-0.3454957444331015
 20
-0.0000073171326083
 30
0.0
 11
14.87632448718271
 21
-0.0000073171322337
 31
0.0
 70
    34
  1
<>
 51
359.9999999999998
  3
AM_JIS$2
100
AcDb2LineAngularDimension
 13
-0.6630579457979629
 23
0.8724876603896731
 33
0.0
 14
-0.3454957444331015
 24
-0.0000073171325612
 34
0.0
 15
-0.6630579457979238
 25
-0.8725022946548524
 35
0.0
 16
15.05465973393709
 26
-6.642985950521514
 36
0.0
1001
GENIUS_GENDTOL_13
1000

1000
h7
1000

1040
0.0
1001
ACAD
1000
DSTYLE
1002
{
1070
   271
1070
     0
1002
}
  0
VIEWPORT
  5
110
330
101
100
AcDbEntity
 67
     1
  8
0
100
AcDbViewport
 10
420.5
 20
297.0
 30
0.0
 40
948.9782706766916
 41
628.452
 68
     1
 69
     1
1001
ACAD
1000
MVIEW
1002
{
1070
    16
1010
0.0
1020
0.0
1030
0.0
1010
0.0
1020
0.0
1030
1.0
1040
0.0
1040
628.452
1040
420.5
1040
297.0
1040
50.0
1040
0.0
1040
0.0
1070
     0
1070
   100
1070
     1
1070
     1
1070
     0
1070
     0
1070
     0
1070
     0
1040
0.0
1040
0.0
1040
0.0
1040
10.0
1040
10.0
1040
10.0
1040
10.0
1070
     0
1002
{
1002
}
1002
}
  0
ENDSEC
  0
SECTION
  2
OBJECTS
  0
DICTIONARY
  5
C
330
0
100
AcDbDictionary
  3
ACAD_GROUP
350
D
  3
ACAD_LAYOUT
350
1A
  3
ACAD_MLINESTYLE
350
17
  3
ACAD_PLOTSETTINGS
350
19
  3
ACAD_PLOTSTYLENAME
350
E
  3
ACDBVARIABLEDICTIONARY
350
34
  3
ACMDICTIONARY
350
43
  3
AMG
350
2B
  3
AMGSNAPSETTINGS
350
6E
  3
DWGPROPS
350
260B
  3
ACDBHEADERROUNDTRIPXREC
350
2618
  0
DICTIONARY
  5
74
330
1F
100
AcDbDictionary
280
     1
  3
ACAD_INDEX
360
260D
  3
ACAD_LAYOUTSELFREF
360
263B
  0
DICTIONARY
  5
2640
330
101
100
AcDbDictionary
280
     1
  3
ACAD_LAYOUTSELFREF
360
2641
  0
DICTIONARY
  5
D
102
{ACAD_REACTORS
330
C
102
}
330
C
100
AcDbDictionary
  0
DICTIONARY
  5
1A
102
{ACAD_REACTORS
330
C
102
}
330
C
100
AcDbDictionary
  0
DICTIONARY
  5
17
102
{ACAD_REACTORS
330
C
102
}
330
C
100
AcDbDictionary
  3
STANDARD
350
18
  0
DICTIONARY
  5
19
102
{ACAD_REACTORS
330
C
102
}
330
C
100
AcDbDictionary
  0
ACDBDICTIONARYWDFLT
  5
E
102
{ACAD_REACTORS
330
C
102
}
330
C
100
AcDbDictionary
281
     1
  3
Normal
350
F
100
AcDbDictionaryWithDefault
340
F
  0
DICTIONARY
  5
34
102
{ACAD_REACTORS
330
C
102
}
330
C
100
AcDbDictionary
  3
INDEXCTL
350
35
  3
SORTENTS
350
B5E
  0
DICTIONARY
  5
43
102
{ACAD_REACTORS
330
C
102
}
330
C
100
AcDbDictionary
  3
ACMSTDDICTIONARY
350
260
  0
DICTIONARY
  5
2B
102
{ACAD_REACTORS
330
C
102
}
330
C
100
AcDbDictionary
  3
ACMGSETTINGS
350
2C
  0
DICTIONARY
  5
6E
102
{ACAD_REACTORS
330
C
102
}
330
C
100
AcDbDictionary
  0
XRECORD
  5
260B
102
{ACAD_REACTORS
330
C
102
}
330
C
100
AcDbXrecord
  1
DWGPROPS COOKIE
  2

  3

  4

  6

  7

  8

  9

300
AmdtFileType=82
301
=
302
=
303
=
304
=
305
=
306
=
307
=
308
=
309
=
 40
0.0660141782407408
 41
2452800.443498622
 42
2452946.704840485
  1

 90
        1
  0
DICTIONARY
  5
2618
102
{ACAD_REACTORS
330
C
102
}
330
C
100
AcDbDictionary
  3
TSTACKALIGN
350
2619
  3
TSTACKSIZE
350
261A
  3
HYPERLINKBASE
350
261B
  3
STYLESHEET
350
261C
  3
LAYOUTDICT
350
261D
  3
PLOTSETDICT
350
261E
  3
PLOTSTYLNAMDICT
350
261F
  3
LWETCUNION
350
2620
  3
INSUNITS
350
2621
  3
CEPSNTYPE
350
2622
  3
FINGERPRINTGUID
350
2623
  3
VERSIONGUID
350
2624
  3
PSVPSCALE
350
2625
  3
DIMSTYLEDATA
350
2626
  3
PUCSORTHOREF
350
2627
  3
PUCSORTHOVIEW
350
2628
  3
PUCSBASE
350
2629
  3
PUCSORGTOP
350
262A
  3
PUCSORGBOTTOM
350
262B
  3
PUCSORGLEFT
350
262C
  3
PUCSORGRIGHT
350
262D
  3
PUCSORGFRONT
350
262E
  3
PUCSORGBACK
350
262F
  3
UCSORTHOREF
350
2630
  3
UCSORTHOVIEW
350
2631
  3
UCSBASE
350
2632
  3
UCSORGTOP
350
2633
  3
UCSORGBOTTOM
350
2634
  3
UCSORGLEFT
350
2635
  3
UCSORGRIGHT
350
2636
  3
UCSORGFRONT
350
2637
  3
UCSORGBACK
350
2638
  0
DICTIONARY
  5
260D
102
{ACAD_REACTORS
330
74
102
}
330
74
100
AcDbDictionary
  3
*A1
350
260E
  0
XRECORD
  5
263B
102
{ACAD_REACTORS
330
74
102
}
330
74
100
AcDbXrecord
340
1F
  0
XRECORD
  5
2641
102
{ACAD_REACTORS
330
2640
102
}
330
2640
100
AcDbXrecord
340
101
  0
MLINESTYLE
  5
18
102
{ACAD_REACTORS
330
17
102
}
330
17
100
AcDbMlineStyle
  2
STANDARD
 70
     0
  3

 62
   256
 51
90.0
 52
90.0
 71
     2
 49
0.5
 62
   256
  6
BYLAYER
 49
-0.5
 62
   256
  6
BYLAYER
  0
ACDBPLACEHOLDER
  5
F
102
{ACAD_REACTORS
330
E
102
}
330
E
100
AcDbPlaceHolder
280
     0
  0
DICTIONARYVAR
  5
35
102
{ACAD_REACTORS
330
34
102
}
330
34
100
DictionaryVariables
280
     0
  1
1
  0
DICTIONARYVAR
  5
B5E
102
{ACAD_REACTORS
330
34
102
}
330
34
100
DictionaryVariables
280
     0
  1
96
  0
DICTIONARY
  5
260
102
{ACAD_REACTORS
330
43
102
}
330
43
100
AcDbDictionary
  0
DICTIONARY
  5
2C
102
{ACAD_REACTORS
330
2B
102
}
330
2B
100
AcDbDictionary
  3
DWGSETTINGS
350
2D
  0
XRECORD
  5
2619
102
{ACAD_REACTORS
330
2618
102
}
330
2618
100
AcDbXrecord
 90
        1
  0
XRECORD
  5
261A
102
{ACAD_REACTORS
330
2618
102
}
330
2618
100
AcDbXrecord
 90
       70
  0
XRECORD
  5
261B
102
{ACAD_REACTORS
330
2618
102
}
330
2618
100
AcDbXrecord
  1

  0
XRECORD
  5
261C
102
{ACAD_REACTORS
330
2618
102
}
330
2618
100
AcDbXrecord
  1
ASAMI.ctb
  0
XRECORD
  5
261D
102
{ACAD_REACTORS
330
2618
102
}
330
2618
100
AcDbXrecord
340
1A
  0
XRECORD
  5
261E
102
{ACAD_REACTORS
330
2618
102
}
330
2618
100
AcDbXrecord
340
19
  0
XRECORD
  5
261F
102
{ACAD_REACTORS
330
2618
102
}
330
2618
100
AcDbXrecord
340
E
  0
XRECORD
  5
2620
102
{ACAD_REACTORS
330
2618
102
}
330
2618
100
AcDbXrecord
 90
    10781
  0
XRECORD
  5
2621
102
{ACAD_REACTORS
330
2618
102
}
330
2618
100
AcDbXrecord
 90
        4
  0
XRECORD
  5
2622
102
{ACAD_REACTORS
330
2618
102
}
330
2618
100
AcDbXrecord
 90
        0
  0
XRECORD
  5
2623
102
{ACAD_REACTORS
330
2618
102
}
330
2618
100
AcDbXrecord
  1
{AFB28963-8C59-40AE-9337-C84526B81ACE}
  0
XRECORD
  5
2624
102
{ACAD_REACTORS
330
2618
102
}
330
2618
100
AcDbXrecord
  1
{90C193AB-B6FF-40B3-903F-2C498658D12E}
  0
XRECORD
  5
2625
102
{ACAD_REACTORS
330
2618
102
}
330
2618
100
AcDbXrecord
 40
0.0
  0
XRECORD
  5
2626
102
{ACAD_REACTORS
330
2618
102
}
330
2618
100
AcDbXrecord
1000
DSTYLE
1002
{
1070
    79
 70
     2
1070
   341
340
59
1070
   342
340
59
1070
   371
 70
    -1
1070
   372
 70
    -1
1002
}
  0
XRECORD
  5
2627
102
{ACAD_REACTORS
330
2618
102
}
330
2618
100
AcDbXrecord
340
0
  0
XRECORD
  5
2628
102
{ACAD_REACTORS
330
2618
102
}
330
2618
100
AcDbXrecord
 70
     0
  0
XRECORD
  5
2629
102
{ACAD_REACTORS
330
2618
102
}
330
2618
100
AcDbXrecord
340
0
  0
XRECORD
  5
262A
102
{ACAD_REACTORS
330
2618
102
}
330
2618
100
AcDbXrecord
 10
0.0
 20
0.0
 30
0.0
  0
XRECORD
  5
262B
102
{ACAD_REACTORS
330
2618
102
}
330
2618
100
AcDbXrecord
 10
0.0
 20
0.0
 30
0.0
  0
XRECORD
  5
262C
102
{ACAD_REACTORS
330
2618
102
}
330
2618
100
AcDbXrecord
 10
0.0
 20
0.0
 30
0.0
  0
XRECORD
  5
262D
102
{ACAD_REACTORS
330
2618
102
}
330
2618
100
AcDbXrecord
 10
0.0
 20
0.0
 30
0.0
  0
XRECORD
  5
262E
102
{ACAD_REACTORS
330
2618
102
}
330
2618
100
AcDbXrecord
 10
0.0
 20
0.0
 30
0.0
  0
XRECORD
  5
262F
102
{ACAD_REACTORS
330
2618
102
}
330
2618
100
AcDbXrecord
 10
0.0
 20
0.0
 30
0.0
  0
XRECORD
  5
2630
102
{ACAD_REACTORS
330
2618
102
}
330
2618
100
AcDbXrecord
340
0
  0
XRECORD
  5
2631
102
{ACAD_REACTORS
330
2618
102
}
330
2618
100
AcDbXrecord
 70
     0
  0
XRECORD
  5
2632
102
{ACAD_REACTORS
330
2618
102
}
330
2618
100
AcDbXrecord
340
0
  0
XRECORD
  5
2633
102
{ACAD_REACTORS
330
2618
102
}
330
2618
100
AcDbXrecord
 10
0.0
 20
0.0
 30
0.0
  0
XRECORD
  5
2634
102
{ACAD_REACTORS
330
2618
102
}
330
2618
100
AcDbXrecord
 10
0.0
 20
0.0
 30
0.0
  0
XRECORD
  5
2635
102
{ACAD_REACTORS
330
2618
102
}
330
2618
100
AcDbXrecord
 10
0.0
 20
0.0
 30
0.0
  0
XRECORD
  5
2636
102
{ACAD_REACTORS
330
2618
102
}
330
2618
100
AcDbXrecord
 10
0.0
 20
0.0
 30
0.0
  0
XRECORD
  5
2637
102
{ACAD_REACTORS
330
2618
102
}
330
2618
100
AcDbXrecord
 10
0.0
 20
0.0
 30
0.0
  0
XRECORD
  5
2638
102
{ACAD_REACTORS
330
2618
102
}
330
2618
100
AcDbXrecord
 10
0.0
 20
0.0
 30
0.0
  0
LAYER_INDEX
  5
260E
102
{ACAD_REACTORS
330
260D
102
}
330
260D
100
AcDbIndex
 40
2453151.693561366
100
AcDbLayerIndex
  8
0
360
260F
 90
        0
  8
AM_0
360
2610
 90
       55
  8
AM_7
360
2611
 90
        1
  8
AM_11
360
2612
 90
       23
  8
AM_5
360
2613
 90
        5
  8
Defpoints
360
2614
 90
        0
  8
AM_6
360
2615
 90
        1
  8
AM_CL
360
2616
 90
        0
  0
XRECORD
  5
2D
102
{ACAD_REACTORS
330
2C
102
}
330
2C
100
AcDbXrecord
  1
VERSION
140
15.0
  1
PRODUCT
  2
AutoCAD Mechanical 2000
  0
IDBUFFER
  5
260F
330
0
100
AcDbIdBuffer
  0
IDBUFFER
  5
2610
330
0
100
AcDbIdBuffer
330
21A5
330
21A6
330
21A7
330
249D
330
249E
330
24A6
330
24A7
330
C30
330
1CF0
330
1CF4
330
1CFE
330
1E4D
330
1E4F
330
1E50
330
1FC4
330
1FC7
330
2159
330
215A
330
215B
330
215C
330
215D
330
215E
330
216E
330
2172
330
2173
330
2176
330
2177
330
217A
330
217B
330
217C
330
217D
330
217E
330
217F
330
2180
330
2181
330
2182
330
2183
330
2184
330
2185
330
2186
330
2187
330
2188
330
2189
330
218A
330
218B
330
218C
330
218D
330
218E
330
218F
330
2190
330
2191
330
2192
330
2193
330
2194
330
2196
  0
IDBUFFER
  5
2611
330
0
100
AcDbIdBuffer
330
C9F
  0
IDBUFFER
  5
2612
330
0
100
AcDbIdBuffer
330
1DB2
330
2170
330
2171
330
2174
330
2175
330
2178
330
2179
330
144A
330
144B
330
144E
330
144F
330
1450
330
1451
330
1452
330
1453
330
1454
330
1DAB
330
1DAC
330
1DAD
330
1DAE
330
1DAF
330
1DB0
330
1DB1
  0
IDBUFFER
  5
2613
330
0
100
AcDbIdBuffer
330
CC6
330
DF5
330
215F
330
2358
330
24C0
  0
IDBUFFER
  5
2614
330
0
100
AcDbIdBuffer
  0
IDBUFFER
  5
2615
330
0
100
AcDbIdBuffer
330
19BD
  0
IDBUFFER
  5
2616
330
0
100
AcDbIdBuffer
  0
ENDSEC
  0
EOF
