  0
SECTION
  2
HEADER
  9
$ACADVER
  1
AC1014
  9
$ACADMAINTVER
 70
     9
  9
$DWGCODEPAGE
  3
ANSI_932
  9
$INSBASE
 10
0.0
 20
0.0
 30
0.0
  9
$EXTMIN
 10
-94.02502198083167
 20
-26.25000100000007
 30
-0.00000001
  9
$EXTMAX
 10
15.46484148501982
 20
15.03482745971501
 30
0.00000001
  9
$LIMMIN
 10
-98.94168101531841
 20
-36.66226367413097
  9
$LIMMAX
 10
18.48376559323867
 20
25.04533903870165
  9
$ORTHOMODE
 70
     0
  9
$REGENMODE
 70
     1
  9
$FILLMODE
 70
     1
  9
$QTEXTMODE
 70
     0
  9
$MIRRTEXT
 70
     0
  9
$DRAGMODE
 70
     2
  9
$LTSCALE
 40
1.0
  9
$OSMODE
 70
    55
  9
$ATTMODE
 70
     1
  9
$TEXTSIZE
 40
2.5
  9
$TRACEWID
 40
1.0
  9
$TEXTSTYLE
  7
STANDARD
  9
$CLAYER
  8
AM_0
  9
$CELTYPE
  6
BYLAYER
  9
$CECOLOR
 62
   256
  9
$CELTSCALE
 40
1.0
  9
$DELOBJ
 70
     1
  9
$DISPSILH
 70
     0
  9
$DIMSCALE
 40
0.5
  9
$DIMASZ
 40
2.5
  9
$DIMEXO
 40
1.0
  9
$DIMDLI
 40
12.0
  9
$DIMRND
 40
0.0
  9
$DIMDLE
 40
0.0
  9
$DIMEXE
 40
1.0
  9
$DIMTP
 40
0.1
  9
$DIMTM
 40
0.1
  9
$DIMTXT
 40
3.2
  9
$DIMCEN
 40
0.0
  9
$DIMTSZ
 40
0.0
  9
$DIMTOL
 70
     0
  9
$DIMLIM
 70
     0
  9
$DIMTIH
 70
     0
  9
$DIMTOH
 70
     0
  9
$DIMSE1
 70
     0
  9
$DIMSE2
 70
     0
  9
$DIMTAD
 70
     3
  9
$DIMZIN
 70
     8
  9
$DIMBLK
  1
OPEN30
  9
$DIMASO
 70
     1
  9
$DIMSHO
 70
     1
  9
$DIMPOST
  1

  9
$DIMAPOST
  1
"
  9
$DIMALT
 70
     0
  9
$DIMALTD
 70
     2
  9
$DIMALTF
 40
0.0393701
  9
$DIMLFAC
 40
1.0
  9
$DIMTOFL
 70
     1
  9
$DIMTVP
 40
0.0
  9
$DIMTIX
 70
     0
  9
$DIMSOXD
 70
     0
  9
$DIMSAH
 70
     0
  9
$DIMBLK1
  1

  9
$DIMBLK2
  1

  9
$DIMSTYLE
  2
AM_JIS
  9
$DIMCLRD
 70
   256
  9
$DIMCLRE
 70
   256
  9
$DIMCLRT
 70
     2
  9
$DIMTFAC
 40
0.71
  9
$DIMGAP
 40
1.5
  9
$DIMJUST
 70
     0
  9
$DIMSD1
 70
     0
  9
$DIMSD2
 70
     0
  9
$DIMTOLJ
 70
     0
  9
$DIMTZIN
 70
     0
  9
$DIMALTZ
 70
     0
  9
$DIMALTTZ
 70
     0
  9
$DIMFIT
 70
     3
  9
$DIMUPT
 70
     0
  9
$DIMUNIT
 70
     2
  9
$DIMDEC
 70
     3
  9
$DIMTDEC
 70
     3
  9
$DIMALTU
 70
     2
  9
$DIMALTTD
 70
     2
  9
$DIMTXSTY
  7
ASAMI
  9
$DIMAUNIT
 70
     0
  9
$LUNITS
 70
     2
  9
$LUPREC
 70
     2
  9
$SKETCHINC
 40
1.0
  9
$FILLETRAD
 40
2.5
  9
$AUNITS
 70
     0
  9
$AUPREC
 70
     0
  9
$MENU
  1
.
  9
$ELEVATION
 40
0.0
  9
$PELEVATION
 40
0.0
  9
$THICKNESS
 40
0.0
  9
$LIMCHECK
 70
     0
  9
$BLIPMODE
 70
     0
  9
$CHAMFERA
 40
0.25
  9
$CHAMFERB
 40
0.25
  9
$CHAMFERC
 40
20.0
  9
$CHAMFERD
 40
0.0
  9
$SKPOLY
 70
     0
  9
$TDCREATE
 40
2452800.443498622
  9
$TDUPDATE
 40
2453151.579737037
  9
$TDINDWG
 40
0.0894015972
  9
$TDUSRTIMER
 40
0.0894015972
  9
$USRTIMER
 70
     1
  9
$ANGBASE
 50
0.0
  9
$ANGDIR
 70
     0
  9
$PDMODE
 70
     3
  9
$PDSIZE
 40
0.0
  9
$PLINEWID
 40
0.0
  9
$COORDS
 70
     1
  9
$SPLFRAME
 70
     0
  9
$SPLINETYPE
 70
     6
  9
$SPLINESEGS
 70
     8
  9
$ATTDIA
 70
     1
  9
$ATTREQ
 70
     1
  9
$HANDLING
 70
 12289
  9
$HANDSEED
  5
3019
  9
$SURFTAB1
 70
     6
  9
$SURFTAB2
 70
     6
  9
$SURFTYPE
 70
     6
  9
$SURFU
 70
     6
  9
$SURFV
 70
     6
  9
$UCSNAME
  2

  9
$UCSORG
 10
0.0
 20
0.0
 30
0.0
  9
$UCSXDIR
 10
1.0
 20
0.000000000000002
 30
0.0
  9
$UCSYDIR
 10
-0.000000000000002
 20
1.0
 30
0.0
  9
$PUCSNAME
  2

  9
$PUCSORG
 10
0.0
 20
0.0
 30
0.0
  9
$PUCSXDIR
 10
1.0
 20
0.0
 30
0.0
  9
$PUCSYDIR
 10
0.0
 20
1.0
 30
0.0
  9
$USERI1
 70
     0
  9
$USERI2
 70
     0
  9
$USERI3
 70
     0
  9
$USERI4
 70
     0
  9
$USERI5
 70
     0
  9
$USERR1
 40
0.0
  9
$USERR2
 40
0.0
  9
$USERR3
 40
0.0
  9
$USERR4
 40
0.0
  9
$USERR5
 40
0.0
  9
$WORLDVIEW
 70
     1
  9
$SHADEDGE
 70
     3
  9
$SHADEDIF
 70
    70
  9
$TILEMODE
 70
     1
  9
$MAXACTVP
 70
    64
  9
$PINSBASE
 10
0.0
 20
0.0
 30
0.0
  9
$PLIMCHECK
 70
     0
  9
$PEXTMIN
 10
1.000000000000000E+20
 20
1.000000000000000E+20
 30
1.000000000000000E+20
  9
$PEXTMAX
 10
-1.000000000000000E+20
 20
-1.000000000000000E+20
 30
-1.000000000000000E+20
  9
$PLIMMIN
 10
0.0
 20
0.0
  9
$PLIMMAX
 10
841.0
 20
594.0
  9
$UNITMODE
 70
     0
  9
$VISRETAIN
 70
     1
  9
$PLINEGEN
 70
     0
  9
$PSLTSCALE
 70
     0
  9
$TREEDEPTH
 70
  3020
  9
$PICKSTYLE
 70
     0
  9
$CMLSTYLE
  2
STANDARD
  9
$CMLJUST
 70
     0
  9
$CMLSCALE
 40
20.0
  9
$PROXYGRAPHICS
 70
     1
  9
$MEASUREMENT
 70
     1
  0
ENDSEC
  0
SECTION
  2
CLASSES
  0
CLASS
  1
ACDBDICTIONARYWDFLT
  2
AcDbDictionaryWithDefault
  3
AutoCAD 2000
 90
        0
280
     0
281
     0
  0
CLASS
  1
ACDBPLACEHOLDER
  2
AcDbPlaceHolder
  3
AutoCAD 2000
 90
        0
280
     0
281
     0
  0
CLASS
  1
LAYOUT
  2
AcDbLayout
  3
AutoCAD 2000
 90
        0
280
     0
281
     0
  0
CLASS
  1
AMGSETTINGSOBJ
  2
AmgSettingsObj
  3
"AcadM|Product Description: AutoCAD Mechanical 2000|Company: Autodesk"
 90
        0
280
     0
281
     0
  0
CLASS
  1
ACME_DOCUMENT
  2
AcMeDbDoc
  3
AcMeServices
 90
        0
280
     0
281
     0
  0
CLASS
  1
ACMESCOPE
  2
AcMeScope
  3
AcMeServices
 90
        0
280
     0
281
     0
  0
CLASS
  1
ACMECOMMANDHISTORY
  2
AcMeCommandHistory
  3
AcMeServices
 90
        0
280
     0
281
     0
  0
CLASS
  1
DICTIONARYVAR
  2
AcDbDictionaryVar
  3
AutoCAD 2000
 90
        0
280
     0
281
     0
  0
CLASS
  1
ACIMSYSVARMAN
  2
AcImSysVarManager
  3
AcMeServices
 90
        0
280
     0
281
     0
  0
CLASS
  1
ACIMREALSYSVAR
  2
AcImRealSysVar
  3
AcMeServices
 90
        0
280
     0
281
     0
  0
CLASS
  1
ACIMINTSYSVAR
  2
AcImIntSysVar
  3
AcMeServices
 90
        0
280
     0
281
     0
  0
CLASS
  1
ACMEDRAWINGMAN
  2
AcMeDrawingMan
  3
AcMeServices
 90
        0
280
     0
281
     0
  0
CLASS
  1
ACMEVIEW
  2
AcMeView
  3
AcMeServices
 90
        0
280
     0
281
     0
  0
CLASS
  1
ACDBENTITYCACHE
  2
AcMeEntityCache
  3
AcMeServices
 90
        0
280
     0
281
     0
  0
CLASS
  1
GSMANAGER
  2
AcMeGSManager
  3
AcMeServices
 90
        0
280
     0
281
     0
  0
CLASS
  1
AmdtInternalReactor
  2
AmdtInternalReactor
  3
AcMeServices
 90
        0
280
     0
281
     0
  0
CLASS
  1
ACMESTATEMGR
  2
AcMeStateMgr
  3
AcMeServices
 90
        0
280
     0
281
     0
  0
CLASS
  1
ACME_DATABASE
  2
AcMeDbDatabase
  3
AcMeServices
 90
        0
280
     0
281
     0
  0
CLASS
  1
ACRFINSADJUSTERMGR
  2
AcRfInsAdjusterMgr
  3
AcMeServices
 90
        0
280
     0
281
     0
  0
CLASS
  1
ACMDATADICTIONARY
  2
AcmDataDictionary
  3
"AcmSymBB|Product Description: AutoCAD Mechanical 2000|Company: Autodesk"
 90
        0
280
     0
281
     0
  0
CLASS
  1
ACMDATAENTRYBLOCK
  2
AcmDataEntryBlock
  3
"AcmSymBB|Product Description: AutoCAD Mechanical 2000|Company: Autodesk"
 90
        0
280
     0
281
     0
  0
CLASS
  1
AMGOBJPROPCFG
  2
AmgObjPropCfg
  3
"AmgLay|Product Description: AutoCAD Mechanical 2000|Company: Autodesk"
 90
        1
280
     0
281
     0
  0
CLASS
  1
ACAMGFILTERDAT
  2
AcAmgFilterDat
  3
"AcadM|Product Description: AutoCAD Mechanical 2000|Company: Autodesk"
 90
        0
280
     0
281
     0
  0
CLASS
  1
LAYER_INDEX
  2
AcDbLayerIndex
  3
AutoCAD 2000
 90
        0
280
     0
281
     0
  0
CLASS
  1
IDBUFFER
  2
AcDbIdBuffer
  3
AutoCAD 2000
 90
        0
280
     0
281
     0
  0
CLASS
  1
ACIMSTRSYSVAR
  2
AcImStrSysVar
  3
AcMeServices
 90
        0
280
     0
281
     0
  0
CLASS
  1
ACMSTANDARDJIS
  2
AcmStandardJIS
  3
"AcmSymBB|Product Description: AutoCAD Mechanical 2000|Company: Autodesk"
 90
        0
280
     0
281
     0
  0
CLASS
  1
ACMSURFSTANDARDJIS
  2
AcmSurfTextStdJIS
  3
"AcmSymBB|Product Description: AutoCAD Mechanical 2000|Company: Autodesk"
 90
        0
280
     0
281
     0
  0
CLASS
  1
ACMFCFSTANDARDJIS
  2
AcmFCFStdJIS
  3
"AcmSymBB|Product Description: AutoCAD Mechanical 2000|Company: Autodesk"
 90
        0
280
     0
281
     0
  0
CLASS
  1
ACMWELDSTANDARDJIS
  2
AcmWeldingStdJIS
  3
"AcmSymBB|Product Description: AutoCAD Mechanical 2000|Company: Autodesk"
 90
        0
280
     0
281
     0
  0
CLASS
  1
ACMIDSTANDARDJIS
  2
AcmIdStdJIS
  3
"AcmSymBB|Product Description: AutoCAD Mechanical 2000|Company: Autodesk"
 90
        0
280
     0
281
     0
  0
CLASS
  1
ACMDATUMSTANDARDJIS
  2
AcmDatumStdJIS
  3
"AcmSymBB|Product Description: AutoCAD Mechanical 2000|Company: Autodesk"
 90
        0
280
     0
281
     0
  0
CLASS
  1
ACMBOMSTANDARDJIS
  2
AcmBOMStdJIS
  3
"AcmSymBB|Product Description: AutoCAD Mechanical 2000|Company: Autodesk"
 90
        0
280
     0
281
     0
  0
CLASS
  1
ACMSTANDARDANSI
  2
AcmStandardANSI
  3
"AcmSymBB|Product Description: AutoCAD Mechanical 2000|Company: Autodesk"
 90
        0
280
     0
281
     0
  0
CLASS
  1
ACMSURFSTANDARDANSI
  2
AcmSurfTextStdANSI
  3
"AcmSymBB|Product Description: AutoCAD Mechanical 2000|Company: Autodesk"
 90
        0
280
     0
281
     0
  0
CLASS
  1
ACMFCFSTANDARDANSI
  2
AcmFCFStdANSI
  3
"AcmSymBB|Product Description: AutoCAD Mechanical 2000|Company: Autodesk"
 90
        0
280
     0
281
     0
  0
CLASS
  1
ACMWELDSTANDARDANSI
  2
AcmWeldingStdANSI
  3
"AcmSymBB|Product Description: AutoCAD Mechanical 2000|Company: Autodesk"
 90
        0
280
     0
281
     0
  0
CLASS
  1
ACMIDSTANDARDANSI
  2
AcmIdStdANSI
  3
"AcmSymBB|Product Description: AutoCAD Mechanical 2000|Company: Autodesk"
 90
        0
280
     0
281
     0
  0
CLASS
  1
ACMDATUMSTANDARDANSI
  2
AcmDatumStdANSI
  3
"AcmSymBB|Product Description: AutoCAD Mechanical 2000|Company: Autodesk"
 90
        0
280
     0
281
     0
  0
CLASS
  1
ACMBOMSTANDARDANSI
  2
AcmBOMStdANSI
  3
"AcmSymBB|Product Description: AutoCAD Mechanical 2000|Company: Autodesk"
 90
        0
280
     0
281
     0
  0
CLASS
  1
ACMSTANDARDBSI
  2
AcmStandardBSI
  3
"AcmSymBB|Product Description: AutoCAD Mechanical 2000|Company: Autodesk"
 90
        0
280
     0
281
     0
  0
CLASS
  1
ACMSURFSTANDARDBSI
  2
AcmSurfTextStdBSI
  3
"AcmSymBB|Product Description: AutoCAD Mechanical 2000|Company: Autodesk"
 90
        0
280
     0
281
     0
  0
CLASS
  1
ACMFCFSTANDARDBSI
  2
AcmFCFStdBSI
  3
"AcmSymBB|Product Description: AutoCAD Mechanical 2000|Company: Autodesk"
 90
        0
280
     0
281
     0
  0
CLASS
  1
ACMWELDSTANDARDBSI
  2
AcmWeldingStdBSI
  3
"AcmSymBB|Product Description: AutoCAD Mechanical 2000|Company: Autodesk"
 90
        0
280
     0
281
     0
  0
CLASS
  1
ACMIDSTANDARDBSI
  2
AcmIdStdBSI
  3
"AcmSymBB|Product Description: AutoCAD Mechanical 2000|Company: Autodesk"
 90
        0
280
     0
281
     0
  0
CLASS
  1
ACMDATUMSTANDARDBSI
  2
AcmDatumStdBSI
  3
"AcmSymBB|Product Description: AutoCAD Mechanical 2000|Company: Autodesk"
 90
        0
280
     0
281
     0
  0
CLASS
  1
ACMBOMSTANDARDBSI
  2
AcmBOMStdBSI
  3
"AcmSymBB|Product Description: AutoCAD Mechanical 2000|Company: Autodesk"
 90
        0
280
     0
281
     0
  0
CLASS
  1
LONG_TRANSACTION
  2
AcDbLongTransaction
  3
AutoCAD 2000
 90
        0
280
     0
281
     0
  0
CLASS
  1
LWPOLYLINE
  2
AcDbPolyline
  3
AutoCAD 2000
 90
        0
280
     0
281
     1
  0
CLASS
  1
HATCH
  2
AcDbHatch
  3
AutoCAD 2000
 90
        0
280
     0
281
     1
  0
CLASS
  1
XRECORD
  2
AcDbXrecord
  3
AutoCAD 2000
 90
        0
280
     0
281
     0
  0
ENDSEC
  0
SECTION
  2
TABLES
  0
TABLE
  2
VPORT
  5
8
330
0
100
AcDbSymbolTable
 70
     3
  0
VPORT
  5
2FEE
330
8
100
AcDbSymbolTableRecord
100
AcDbViewportTableRecord
  2
*ACTIVE
 70
     0
 10
0.0
 20
0.0
 11
1.0
 21
1.0
 12
-37.23373132745308
 22
-5.606318493905618
 13
0.0
 23
0.0
 14
2.5
 24
2.5
 15
10.0
 25
10.0
 16
0.0
 26
0.0
 36
1.0
 17
0.0
 27
0.0
 37
0.0
 40
72.89744113815666
 41
1.56570841889117
 42
50.0
 43
0.0
 44
0.0
 50
0.0
 51
0.0
 71
     0
 72
   100
 73
     1
 74
     1
 75
     0
 76
     0
 77
     0
 78
     0
  0
ENDTAB
  0
TABLE
  2
LTYPE
  5
5
330
0
100
AcDbSymbolTable
 70
    10
  0
LTYPE
  5
14
330
5
100
AcDbSymbolTableRecord
100
AcDbLinetypeTableRecord
  2
BYBLOCK
 70
     0
  3

 72
    65
 73
     0
 40
0.0
  0
LTYPE
  5
15
330
5
100
AcDbSymbolTableRecord
100
AcDbLinetypeTableRecord
  2
BYLAYER
 70
     0
  3

 72
    65
 73
     0
 40
0.0
  0
LTYPE
  5
16
330
5
100
AcDbSymbolTableRecord
100
AcDbLinetypeTableRecord
  2
CONTINUOUS
 70
     0
  3
Solid line
 72
    65
 73
     0
 40
0.0
  0
LTYPE
  5
4B
330
5
100
AcDbSymbolTableRecord
100
AcDbLinetypeTableRecord
  2
AM_ISO02W050
 70
     0
  3
__ __ __ __ __ __ __ __ __ __ __ __ __ __ __
 72
    65
 73
     2
 40
7.5
 49
6.0
 74
     0
 49
-1.5
 74
     0
  0
LTYPE
  5
4C
330
5
100
AcDbSymbolTableRecord
100
AcDbLinetypeTableRecord
  2
AM_ISO08W050
 70
     0
  3
____ . ____ . ____ . ____ . ____ . ____ . ____
 72
    65
 73
     4
 40
18.0
 49
12.0
 74
     0
 49
-1.5
 74
     0
 49
3.0
 74
     0
 49
-1.5
 74
     0
  0
LTYPE
  5
4D
330
5
100
AcDbSymbolTableRecord
100
AcDbLinetypeTableRecord
  2
AM_ISO09W050
 70
     0
  3
_____ . . _____ . . _____ . . ____ .. ____
 72
    65
 73
     6
 40
22.5
 49
12.0
 74
     0
 49
-1.5
 74
     0
 49
3.0
 74
     0
 49
-1.5
 74
     0
 49
3.0
 74
     0
 49
-1.5
 74
     0
  0
LTYPE
  5
4E
330
5
100
AcDbSymbolTableRecord
100
AcDbLinetypeTableRecord
  2
AMCONSTR
 70
     0
  3
_______________________
 72
    65
 73
     2
 40
9999.0
 49
9999.0
 74
     0
 49
0.0
 74
     0
  0
LTYPE
  5
4F
330
5
100
AcDbSymbolTableRecord
100
AcDbLinetypeTableRecord
  2
AM_ISO02W050X2
 70
     0
  3
 _ _ _ _ _ _ _ _ _ _ _ _
 72
    65
 73
     2
 40
3.75
 49
3.0
 74
     0
 49
-0.75
 74
     0
  0
LTYPE
  5
50
330
5
100
AcDbSymbolTableRecord
100
AcDbLinetypeTableRecord
  2
AM_ISO08W050X2
 70
     0
  3
__ . __ . __ . __ . __ . __
 72
    65
 73
     4
 40
9.0
 49
6.0
 74
     0
 49
-0.75
 74
     0
 49
1.5
 74
     0
 49
-0.75
 74
     0
  0
LTYPE
  5
53
330
5
100
AcDbSymbolTableRecord
100
AcDbLinetypeTableRecord
  2
AMZIGZAG
 70
     0
  3
/\/-/\/-/\/-/\/-/\/-/\/
 72
    65
 73
     2
 40
11.00009999999999
 49
0.0001
 74
     4
 75
   135
340
52
 46
0.04
 50
0.0
 44
0.0
 45
0.0
 49
-11.0
 74
     0
  0
LTYPE
  5
166
330
5
100
AcDbSymbolTableRecord
100
AcDbLinetypeTableRecord
  2
ACJISTGL
 70
     0
  3
_ _ _ _ _
 72
    65
 73
     2
 40
3.0
 49
2.0
 74
     0
 49
-1.0
 74
     0
  0
LTYPE
  5
26A
330
5
100
AcDbSymbolTableRecord
100
AcDbLinetypeTableRecord
  2
ACJISTGB
 70
     0
  3
__ . . __ . .
 72
    65
 73
     6
 40
9.0
 49
4.0
 74
     0
 49
-1.0
 74
     0
 49
1.0
 74
     0
 49
-1.0
 74
     0
 49
1.0
 74
     0
 49
-1.0
 74
     0
  0
ENDTAB
  0
TABLE
  2
LAYER
  5
2
330
0
100
AcDbSymbolTable
 70
     7
  0
LAYER
  5
10
330
2
100
AcDbSymbolTableRecord
100
AcDbLayerTableRecord
  2
0
 70
     0
 62
     7
  6
CONTINUOUS
  0
LAYER
  5
3F9
330
2
100
AcDbSymbolTableRecord
100
AcDbLayerTableRecord
  2
AM_0
 70
     0
 62
     7
  6
CONTINUOUS
  0
LAYER
  5
C7C
330
2
100
AcDbSymbolTableRecord
100
AcDbLayerTableRecord
  2
AM_7
 70
     0
 62
     4
  6
AM_ISO08W050
  0
LAYER
  5
C97
330
2
100
AcDbSymbolTableRecord
100
AcDbLayerTableRecord
  2
AM_11
 70
     0
 62
     3
  6
AM_ISO09W050
  0
LAYER
  5
CC5
330
2
100
AcDbSymbolTableRecord
100
AcDbLayerTableRecord
  2
AM_5
 70
     0
 62
     3
  6
CONTINUOUS
  0
LAYER
  5
CC7
330
2
100
AcDbSymbolTableRecord
100
AcDbLayerTableRecord
  2
DEFPOINTS
 70
     0
 62
     7
  6
CONTINUOUS
  0
LAYER
  5
19BC
330
2
100
AcDbSymbolTableRecord
100
AcDbLayerTableRecord
  2
AM_6
 70
     0
 62
     2
  6
CONTINUOUS
  0
ENDTAB
  0
TABLE
  2
STYLE
  5
3
330
0
100
AcDbSymbolTable
 70
     5
  0
STYLE
  5
11
330
3
100
AcDbSymbolTableRecord
100
AcDbTextStyleTableRecord
  2
STANDARD
 70
     0
 40
0.0
 41
1.0
 50
0.0
 71
     0
 42
2.5
  3
simplex.shx
  4
EXTFONT.SHX
  0
STYLE
  5
52
330
3
100
AcDbSymbolTableRecord
100
AcDbTextStyleTableRecord
  2

 70
     1
 40
0.0
 41
1.0
 50
0.0
 71
     0
 42
2.5
  3
ltypeshp.shx
  4

  0
STYLE
  5
6B
330
3
100
AcDbSymbolTableRecord
100
AcDbTextStyleTableRecord
  2
ASAMI
 70
     0
 40
0.0
 41
1.0
 50
0.0
 71
     0
 42
2.5
  3
simplex.shx
  4
EXTFONT.SHX
  0
STYLE
  5
262
330
3
100
AcDbSymbolTableRecord
100
AcDbTextStyleTableRecord
  2
ACJISTS
 70
     0
 40
1.0
 41
1.0
 50
0.0
 71
     0
 42
2.5
  3
simplex.shx
  4
bigfont.shx
  0
STYLE
  5
269
330
3
100
AcDbSymbolTableRecord
100
AcDbTextStyleTableRecord
  2
ACJISGDT
 70
     0
 40
0.0
 41
1.0
 50
0.0
 71
     0
 42
2.5
  3
amgdtans.shx
  4

  0
ENDTAB
  0
TABLE
  2
VIEW
  5
6
330
0
100
AcDbSymbolTable
 70
     0
  0
ENDTAB
  0
TABLE
  2
UCS
  5
7
330
0
100
AcDbSymbolTable
 70
     0
  0
ENDTAB
  0
TABLE
  2
APPID
  5
9
330
0
100
AcDbSymbolTable
 70
    16
  0
APPID
  5
12
330
9
100
AcDbSymbolTableRecord
100
AcDbRegAppTableRecord
  2
ACAD
 70
     0
  0
APPID
  5
30
330
9
100
AcDbSymbolTableRecord
100
AcDbRegAppTableRecord
  2
MCAD_NO_VIS
 70
     0
  0
APPID
  5
31
330
9
100
AcDbSymbolTableRecord
100
AcDbRegAppTableRecord
  2
ACAD_TEMP_GRAPHIC
 70
     0
  0
APPID
  5
2C2
330
9
100
AcDbSymbolTableRecord
100
AcDbRegAppTableRecord
  2
GENIUS_GENDTOL_13
 70
     0
  0
APPID
  5
339
330
9
100
AcDbSymbolTableRecord
100
AcDbRegAppTableRecord
  2
GENIUS_GENODEF_13
 70
     0
  0
APPID
  5
33A
330
9
100
AcDbSymbolTableRecord
100
AcDbRegAppTableRecord
  2
GENIUS_GENOBJ-N-RSBK_13
 70
     0
  0
APPID
  5
33B
330
9
100
AcDbSymbolTableRecord
100
AcDbRegAppTableRecord
  2
GENIUS_GENOBJ-N-LIB_13
 70
     0
  0
APPID
  5
33C
330
9
100
AcDbSymbolTableRecord
100
AcDbRegAppTableRecord
  2
GENIUS_GENSCALE_13
 70
     0
  0
APPID
  5
378
330
9
100
AcDbSymbolTableRecord
100
AcDbRegAppTableRecord
  2
GENIUS_GENDIMSH_14
 70
     0
  0
APPID
  5
C82
330
9
100
AcDbSymbolTableRecord
100
AcDbRegAppTableRecord
  2
GENIUS_GENOBJ-N-CRS_13
 70
     0
  0
APPID
  5
C83
330
9
100
AcDbSymbolTableRecord
100
AcDbRegAppTableRecord
  2
GENIUS_GENOENT_13
 70
     0
  0
APPID
  5
C84
330
9
100
AcDbSymbolTableRecord
100
AcDbRegAppTableRecord
  2
GENIUS_GENOREF_13
 70
     0
  0
APPID
  5
C85
330
9
100
AcDbSymbolTableRecord
100
AcDbRegAppTableRecord
  2
GENIUS_GENOLIS_13
 70
     0
  0
APPID
  5
CA0
330
9
100
AcDbSymbolTableRecord
100
AcDbRegAppTableRecord
  2
GENIUS_GENOBJ-N-CEN_13
 70
     0
  0
APPID
  5
1CFA
330
9
100
AcDbSymbolTableRecord
100
AcDbRegAppTableRecord
  2
GENIUS_GENFIL_13
 70
     0
  0
APPID
  5
1CFB
330
9
100
AcDbSymbolTableRecord
100
AcDbRegAppTableRecord
  2
GENIUS_GENOBJ-N-CHA_13
 70
     0
  0
ENDTAB
  0
TABLE
  2
DIMSTYLE
  5
A
330
0
100
AcDbSymbolTable
 70
     9
  0
DIMSTYLE
105
58
330
A
100
AcDbSymbolTableRecord
100
AcDbDimStyleTableRecord
  2
AM_JIS
 70
     0
  3

  4
"
  5
OPEN30
  6

  7

 40
0.5
 41
2.5
 42
1.0
 43
12.0
 44
1.0
 45
0.0
 46
0.0
 47
0.1
 48
0.1
140
3.2
141
0.0
142
0.0
143
0.0393701
144
1.0
145
0.0
146
0.71
147
1.5
 71
     0
 72
     0
 73
     0
 74
     0
 75
     0
 76
     0
 77
     3
 78
     8
170
     0
171
     2
172
     1
173
     0
174
     0
175
     0
176
   256
177
   256
178
     2
270
     2
271
     3
272
     3
273
     2
274
     2
340
6B
275
     0
280
     0
281
     0
282
     0
283
     0
284
     0
285
     0
286
     0
287
     3
288
     0
  0
DIMSTYLE
105
5F
330
A
100
AcDbSymbolTableRecord
100
AcDbDimStyleTableRecord
  2
AM_JIS$3
 70
     0
  3

  4
"
  5
OPEN30
  6

  7

 40
0.5
 41
2.5
 42
1.0
 43
10.0
 44
1.0
 45
0.0
 46
0.0
 47
0.1
 48
0.1
140
3.2
141
0.0
142
0.0
143
0.0393701
144
1.0
145
0.0
146
0.71
147
1.5
 71
     0
 72
     0
 73
     0
 74
     1
 75
     0
 76
     0
 77
     3
 78
     8
170
     0
171
     2
172
     0
173
     0
174
     0
175
     0
176
   256
177
   256
178
     2
270
     2
271
     2
272
     3
273
     2
274
     2
340
6B
275
     0
280
     0
281
     0
282
     0
283
     0
284
     0
285
     0
286
     0
287
     0
288
     1
  0
DIMSTYLE
105
60
330
A
100
AcDbSymbolTableRecord
100
AcDbDimStyleTableRecord
  2
AM_JIS$4
 70
     0
  3

  4
"
  5
OPEN30
  6

  7

 40
0.5
 41
2.5
 42
1.0
 43
10.0
 44
1.0
 45
0.0
 46
0.0
 47
0.1
 48
0.1
140
3.2
141
0.0
142
0.0
143
0.0393701
144
1.0
145
0.0
146
0.71
147
1.5
 71
     0
 72
     0
 73
     0
 74
     1
 75
     0
 76
     0
 77
     3
 78
     8
170
     0
171
     2
172
     0
173
     0
174
     0
175
     0
176
   256
177
   256
178
     2
270
     2
271
     2
272
     3
273
     2
274
     2
340
6B
275
     0
280
     0
281
     0
282
     0
283
     0
284
     0
285
     0
286
     0
287
     0
288
     1
  0
DIMSTYLE
105
61
330
A
100
AcDbSymbolTableRecord
100
AcDbDimStyleTableRecord
  2
AM_JIS$6
 70
     0
  3

  4
"
  5
OPEN30
  6

  7

 40
0.5
 41
2.5
 42
1.0
 43
10.0
 44
1.0
 45
0.0
 46
0.0
 47
0.1
 48
0.1
140
3.2
141
0.0
142
0.0
143
0.0393701
144
1.0
145
0.0
146
0.71
147
1.5
 71
     0
 72
     0
 73
     0
 74
     0
 75
     0
 76
     0
 77
     0
 78
     8
170
     0
171
     2
172
     1
173
     0
174
     0
175
     0
176
   256
177
   256
178
     2
270
     2
271
     2
272
     2
273
     2
274
     2
340
6B
275
     0
280
     0
281
     0
282
     0
283
     0
284
     0
285
     0
286
     0
287
     3
288
     0
  0
DIMSTYLE
105
62
330
A
100
AcDbSymbolTableRecord
100
AcDbDimStyleTableRecord
  2
AM_JIS$7
 70
     0
  3

  4
"
  5
OPEN30
  6

  7

 40
0.5
 41
2.5
 42
1.0
 43
10.0
 44
1.0
 45
0.0
 46
0.0
 47
0.1
 48
0.1
140
3.2
141
0.0
142
0.0
143
0.0393701
144
1.0
145
0.0
146
0.71
147
1.5
 71
     0
 72
     0
 73
     0
 74
     0
 75
     0
 76
     0
 77
     3
 78
     8
170
     0
171
     2
172
     1
173
     0
174
     0
175
     0
176
   256
177
   256
178
     2
270
     2
271
     2
272
     3
273
     2
274
     2
340
6B
275
     0
280
     0
281
     0
282
     0
283
     0
284
     0
285
     0
286
     0
287
     3
288
     0
  0
DIMSTYLE
105
63
330
A
100
AcDbSymbolTableRecord
100
AcDbDimStyleTableRecord
  2
AM_JIS$SF
 70
     0
  3

  4
"
  5
OPEN30
  6

  7

 40
0.5
 41
2.5
 42
1.0
 43
10.0
 44
1.0
 45
0.0
 46
0.0
 47
0.1
 48
0.1
140
3.2
141
0.0
142
0.0
143
0.0393701
144
1.0
145
0.0
146
0.71
147
1.5
 71
     0
 72
     0
 73
     0
 74
     0
 75
     1
 76
     1
 77
     3
 78
     8
170
     0
171
     2
172
     1
173
     0
174
     0
175
     0
176
   256
177
   256
178
     2
270
     2
271
     2
272
     2
273
     2
274
     2
340
6B
275
     0
280
     0
281
     0
282
     0
283
     0
284
     0
285
     0
286
     0
287
     3
288
     0
  0
DIMSTYLE
105
68
330
A
100
AcDbSymbolTableRecord
100
AcDbDimStyleTableRecord
  2
AM_JIS$SH
 70
     0
  3

  4
"
  5

  6
GENAXEH
  7
OPEN30
 40
0.5
 41
2.5
 42
1.0
 43
10.0
 44
1.0
 45
0.0
 46
0.0
 47
0.1
 48
0.1
140
3.2
141
0.0
142
0.0
143
0.0393701
144
2.0
145
0.0
146
0.71
147
1.5
 71
     0
 72
     0
 73
     0
 74
     0
 75
     1
 76
     1
 77
     3
 78
     8
170
     0
171
     2
172
     1
173
     1
174
     0
175
     0
176
   256
177
   256
178
     2
270
     2
271
     2
272
     2
273
     2
274
     2
340
6B
275
     0
280
     0
281
     0
282
     0
283
     0
284
     0
285
     0
286
     0
287
     3
288
     0
  0
DIMSTYLE
105
B34
102
{ACAD_REACTORS
330
299F
102
}
330
A
100
AcDbSymbolTableRecord
100
AcDbDimStyleTableRecord
  2
AM_JIS$2
 70
     0
  3

  4
"
  5
OPEN30
  6

  7

 40
0.5
 41
2.5
 42
1.0
 43
12.0
 44
1.0
 45
0.0
 46
0.0
 47
0.1
 48
0.1
140
3.2
141
0.0
142
0.0
143
0.0393701
144
1.0
145
0.0
146
0.71
147
1.5
 71
     0
 72
     0
 73
     0
 74
     0
 75
     0
 76
     0
 77
     3
 78
     8
170
     0
171
     2
172
     1
173
     0
174
     0
175
     0
176
   256
177
   256
178
     2
270
     2
271
     3
272
     3
273
     2
274
     2
340
6B
275
     0
280
     0
281
     0
282
     0
283
     0
284
     0
285
     0
286
     0
287
     3
288
     0
  0
DIMSTYLE
105
BA5
102
{ACAD_REACTORS
330
CC6
330
DF5
330
2424
330
254C
102
}
330
A
100
AcDbSymbolTableRecord
100
AcDbDimStyleTableRecord
  2
AM_JIS$0
 70
     0
  3

  4
"
  5
OPEN30
  6

  7

 40
0.5
 41
2.5
 42
0.0
 43
10.0
 44
1.0
 45
0.0
 46
0.0
 47
0.1
 48
0.1000000001
140
3.799999999999999
141
0.0
142
0.0
143
0.0393701
144
1.0
145
0.0
146
0.71
147
1.5
 71
     0
 72
     0
 73
     0
 74
     0
 75
     0
 76
     0
 77
     3
 78
     1
170
     0
171
     2
172
     1
173
     0
174
     0
175
     0
176
     3
177
     3
178
     2
270
     2
271
     2
272
     2
273
     2
274
     2
340
11
275
     1
280
     0
281
     0
282
     0
283
     0
284
     8
285
     0
286
     0
287
     0
288
     0
  0
ENDTAB
  0
TABLE
  2
BLOCK_RECORD
  5
1
330
0
100
AcDbSymbolTable
 70
    10
  0
BLOCK_RECORD
  5
1F
102
{ACAD_XDICTIONARY
360
74
102
}
330
1
100
AcDbSymbolTableRecord
100
AcDbBlockTableRecord
  2
*MODEL_SPACE
  0
BLOCK_RECORD
  5
101
102
{ACAD_XDICTIONARY
360
3017
102
}
330
1
100
AcDbSymbolTableRecord
100
AcDbBlockTableRecord
  2
*PAPER_SPACE
  0
BLOCK_RECORD
  5
59
330
1
100
AcDbSymbolTableRecord
100
AcDbBlockTableRecord
  2
_OPEN30
  0
BLOCK_RECORD
  5
64
330
1
100
AcDbSymbolTableRecord
100
AcDbBlockTableRecord
  2
GENAXEH
  0
BLOCK_RECORD
  5
CC8
330
1
100
AcDbSymbolTableRecord
100
AcDbBlockTableRecord
  2
*D5
  0
BLOCK_RECORD
  5
DF6
330
1
100
AcDbSymbolTableRecord
100
AcDbBlockTableRecord
  2
*D6
  0
BLOCK_RECORD
  5
2425
330
1
100
AcDbSymbolTableRecord
100
AcDbBlockTableRecord
  2
*D7
  0
BLOCK_RECORD
  5
254D
330
1
100
AcDbSymbolTableRecord
100
AcDbBlockTableRecord
  2
*D8
  0
BLOCK_RECORD
  5
29A0
330
1
100
AcDbSymbolTableRecord
100
AcDbBlockTableRecord
  2
*D9
  0
ENDTAB
  0
ENDSEC
  0
SECTION
  2
BLOCKS
  0
BLOCK
  5
20
330
1F
100
AcDbEntity
  8
0
100
AcDbBlockBegin
  2
*MODEL_SPACE
 70
     0
 10
0.0
 20
0.0
 30
0.0
  3
*MODEL_SPACE
  1

  0
ENDBLK
  5
21
330
1F
100
AcDbEntity
  8
0
100
AcDbBlockEnd
  0
BLOCK
  5
103
330
101
100
AcDbEntity
 67
     1
  8
0
100
AcDbBlockBegin
  2
*PAPER_SPACE
 70
     0
 10
0.0
 20
0.0
 30
0.0
  3
*PAPER_SPACE
  1

  0
ENDBLK
  5
104
330
101
100
AcDbEntity
 67
     1
  8
0
100
AcDbBlockEnd
  0
BLOCK
  5
5D
330
59
100
AcDbEntity
  8
0
100
AcDbBlockBegin
  2
_OPEN30
 70
     0
 10
0.0
 20
0.0
 30
0.0
  3
_OPEN30
  1

  0
LINE
  5
5A
330
59
100
AcDbEntity
  8
0
 62
     0
100
AcDbLine
 10
-1.0
 20
0.26794919
 30
0.0
 11
0.0
 21
0.0
 31
0.0
  0
LINE
  5
5B
330
59
100
AcDbEntity
  8
0
 62
     0
100
AcDbLine
 10
0.0
 20
0.0
 30
0.0
 11
-1.0
 21
-0.26794919
 31
0.0
  0
LINE
  5
5C
330
59
100
AcDbEntity
  8
0
 62
     0
100
AcDbLine
 10
0.0
 20
0.0
 30
0.0
 11
-1.0
 21
0.0
 31
0.0
  0
ENDBLK
  5
5E
330
59
100
AcDbEntity
  8
0
100
AcDbBlockEnd
  0
BLOCK
  5
66
330
64
100
AcDbEntity
  8
0
100
AcDbBlockBegin
  2
GENAXEH
 70
     0
 10
0.0
 20
0.0
 30
0.0
  3
GENAXEH
  1

  0
LINE
  5
65
330
64
100
AcDbEntity
  8
0
100
AcDbLine
 10
-1.0
 20
0.0
 30
0.0
 11
1.0
 21
0.0
 31
0.0
  0
ENDBLK
  5
67
330
64
100
AcDbEntity
  8
0
100
AcDbBlockEnd
  0
BLOCK
  5
CD2
330
CC8
100
AcDbEntity
  8
0
100
AcDbBlockBegin
  2
*D5
 70
     1
 10
0.0
 20
0.0
 30
0.0
  3
*D5
  1

  0
LINE
  5
2FA3
330
CC8
100
AcDbEntity
  8
AM_5
 62
     3
100
AcDbLine
 10
-83.0
 20
-2.75000000000022
 30
0.0
 11
-83.0
 21
-15.50000100000004
 31
0.0
  0
LINE
  5
2FA4
330
CC8
100
AcDbEntity
  8
AM_5
 62
     3
100
AcDbLine
 10
-1.00000000000003
 20
-2.849999842570429
 30
0.0
 11
-1.000000000000031
 21
-15.50000100000004
 31
0.0
  0
LINE
  5
2FA5
330
CC8
100
AcDbEntity
  8
AM_5
 62
     3
100
AcDbLine
 10
-81.75
 20
-15.00000100000004
 30
0.0
 11
-2.250000000000031
 21
-15.00000100000004
 31
0.0
  0
INSERT
  5
2FA6
330
CC8
100
AcDbEntity
  8
AM_5
 62
     3
100
AcDbBlockReference
  2
_OPEN30
 10
-83.0
 20
-15.00000100000004
 30
0.0
 41
1.25
 42
1.25
 43
1.25
 50
180.0
  0
INSERT
  5
2FA7
330
CC8
100
AcDbEntity
  8
AM_5
 62
     3
100
AcDbBlockReference
  2
_OPEN30
 10
-1.000000000000031
 20
-15.00000100000004
 30
0.0
 41
1.25
 42
1.25
 43
1.25
  0
MTEXT
  5
2FA8
330
CC8
100
AcDbEntity
  8
AM_5
 62
     2
100
AcDbMText
 10
-42.00000000000001
 20
-13.30000100000004
 30
0.0
 40
1.9
 41
0.0
 71
     5
 72
     1
  1
82
1001
ACAD
1000
MTEXTBEGIN
1070
    73
1070
     1
1070
    44
1040
1.0
1070
    74
1070
     0
1000
MTEXTEND
  0
POINT
  5
2FA9
330
CC8
100
AcDbEntity
  8
DEFPOINTS
 62
     0
100
AcDbPoint
 10
-83.0
 20
-2.75000000000022
 30
0.0
  0
POINT
  5
2FAA
330
CC8
100
AcDbEntity
  8
DEFPOINTS
 62
     0
100
AcDbPoint
 10
-1.00000000000003
 20
-2.849999842570429
 30
0.0
  0
POINT
  5
2FAB
330
CC8
100
AcDbEntity
  8
DEFPOINTS
 62
     0
100
AcDbPoint
 10
-1.000000000000031
 20
-15.00000100000004
 30
0.0
  0
ENDBLK
  5
CD3
330
CC8
100
AcDbEntity
  8
0
100
AcDbBlockEnd
  0
BLOCK
  5
E00
330
DF6
100
AcDbEntity
  8
0
100
AcDbBlockBegin
  2
*D6
 70
     1
 10
0.0
 20
0.0
 30
0.0
  3
*D6
  1

  0
LINE
  5
2F9A
330
DF6
100
AcDbEntity
  8
AM_5
 62
     3
100
AcDbLine
 10
-31.0
 20
-3.000000000000103
 30
0.0
 11
-31.0
 21
-10.50000100000001
 31
0.0
  0
LINE
  5
2F9B
330
DF6
100
AcDbEntity
  8
AM_5
 62
     3
100
AcDbLine
 10
-1.00000000000003
 20
-2.849999842570429
 30
0.0
 11
-1.000000000000031
 21
-10.50000100000001
 31
0.0
  0
LINE
  5
2F9C
330
DF6
100
AcDbEntity
  8
AM_5
 62
     3
100
AcDbLine
 10
-29.75000000000001
 20
-10.00000100000001
 30
0.0
 11
-2.250000000000031
 21
-10.00000100000001
 31
0.0
  0
INSERT
  5
2F9D
330
DF6
100
AcDbEntity
  8
AM_5
 62
     3
100
AcDbBlockReference
  2
_OPEN30
 10
-31.0
 20
-10.00000100000001
 30
0.0
 41
1.25
 42
1.25
 43
1.25
 50
180.0
  0
INSERT
  5
2F9E
330
DF6
100
AcDbEntity
  8
AM_5
 62
     3
100
AcDbBlockReference
  2
_OPEN30
 10
-1.000000000000031
 20
-10.00000100000001
 30
0.0
 41
1.25
 42
1.25
 43
1.25
  0
MTEXT
  5
2F9F
330
DF6
100
AcDbEntity
  8
AM_5
 62
     2
100
AcDbMText
 10
-16.00000000000001
 20
-8.300001000000012
 30
0.0
 40
1.9
 41
0.0
 71
     5
 72
     1
  1
30
1001
ACAD
1000
MTEXTBEGIN
1070
    73
1070
     1
1070
    44
1040
1.0
1070
    74
1070
     0
1000
MTEXTEND
  0
POINT
  5
2FA0
330
DF6
100
AcDbEntity
  8
DEFPOINTS
 62
     0
100
AcDbPoint
 10
-31.0
 20
-3.000000000000103
 30
0.0
  0
POINT
  5
2FA1
330
DF6
100
AcDbEntity
  8
DEFPOINTS
 62
     0
100
AcDbPoint
 10
-1.00000000000003
 20
-2.849999842570429
 30
0.0
  0
POINT
  5
2FA2
330
DF6
100
AcDbEntity
  8
DEFPOINTS
 62
     0
100
AcDbPoint
 10
-1.000000000000031
 20
-10.00000100000001
 30
0.0
  0
ENDBLK
  5
E01
330
DF6
100
AcDbEntity
  8
0
100
AcDbBlockEnd
  0
BLOCK
  5
2431
330
2425
100
AcDbEntity
  8
0
100
AcDbBlockBegin
  2
*D7
 70
     1
 10
0.0
 20
0.0
 30
0.0
  3
*D7
  1

  0
LINE
  5
2FC0
330
2425
100
AcDbEntity
  8
AM_5
 62
     3
100
AcDbLine
 10
-1.000000000000031
 20
-2.849999842570429
 30
0.0
 11
8.925011198283742
 21
-2.849999842570432
 31
0.0
  0
LINE
  5
2FC1
330
2425
100
AcDbEntity
  8
AM_5
 62
     3
100
AcDbLine
 10
-0.999999999999961
 20
2.850000157429559
 30
0.0
 11
8.925011198283744
 21
2.850000157429557
 31
0.0
  0
LINE
  5
2FC2
330
2425
100
AcDbEntity
  8
AM_5
 62
     3
100
AcDbLine
 10
8.425011198283741
 20
-4.099999842570432
 30
0.0
 11
8.425011198283741
 21
-5.349999842570432
 31
0.0
  0
LINE
  5
2FC3
330
2425
100
AcDbEntity
  8
AM_5
 62
     3
100
AcDbLine
 10
8.425011198283744
 20
4.100000157429557
 30
0.0
 11
8.425011198283746
 21
12.55000015742955
 31
0.0
  0
LINE
  5
2FC4
330
2425
100
AcDbEntity
  8
AM_5
 62
     3
100
AcDbLine
 10
8.425011198283742
 20
-2.849999842570432
 30
0.0
 11
8.425011198283742
 21
2.850000157429557
 31
0.0
  0
INSERT
  5
2FC5
330
2425
100
AcDbEntity
  8
AM_5
 62
     3
100
AcDbBlockReference
  2
_OPEN30
 10
8.425011198283742
 20
-2.849999842570432
 30
0.0
 41
1.25
 42
1.25
 43
1.25
 50
90.0
  0
INSERT
  5
2FC6
330
2425
100
AcDbEntity
  8
AM_5
 62
     3
100
AcDbBlockReference
  2
_OPEN30
 10
8.425011198283742
 20
2.850000157429557
 30
0.0
 41
1.25
 42
1.25
 43
1.25
 50
270.0
  0
MTEXT
  5
2FC7
330
2425
100
AcDbEntity
  8
AM_5
 62
     2
100
AcDbMText
 10
6.725011198283743
 20
8.950000157429558
 30
0.0
 40
1.9
 41
0.0
 71
     5
 72
     1
  1
%%c5.7
 11
0.0000000000000001
 21
1.0
 31
0.0
1001
ACAD
1000
MTEXTBEGIN
1070
    73
1070
     1
1070
    44
1040
1.0
1070
    74
1070
     0
1000
MTEXTEND
  0
POINT
  5
2FC8
330
2425
100
AcDbEntity
  8
DEFPOINTS
 62
     0
100
AcDbPoint
 10
-1.000000000000031
 20
-2.849999842570429
 30
0.0
  0
POINT
  5
2FC9
330
2425
100
AcDbEntity
  8
DEFPOINTS
 62
     0
100
AcDbPoint
 10
-0.999999999999961
 20
2.850000157429559
 30
0.0
  0
POINT
  5
2FCA
330
2425
100
AcDbEntity
  8
DEFPOINTS
 62
     0
100
AcDbPoint
 10
8.425011198283742
 20
2.850000157429557
 30
0.0
  0
ENDBLK
  5
2432
330
2425
100
AcDbEntity
  8
0
100
AcDbBlockEnd
  0
BLOCK
  5
2557
330
254D
100
AcDbEntity
  8
0
100
AcDbBlockBegin
  2
*D8
 70
     1
 10
0.0
 20
0.0
 30
0.0
  3
*D8
  1

  0
LINE
  5
2FAC
330
254D
100
AcDbEntity
  8
AM_5
 62
     3
100
AcDbLine
 10
-82.74999999999977
 20
2.999999999999834
 30
0.0
 11
-91.87502198083166
 21
2.999999999999816
 31
0.0
  0
LINE
  5
2FAD
330
254D
100
AcDbEntity
  8
AM_5
 62
     3
100
AcDbLine
 10
-82.74999999999966
 20
-3.000000000000716
 30
0.0
 11
-91.87502198083166
 21
-3.000000000000734
 31
0.0
  0
LINE
  5
2FAE
330
254D
100
AcDbEntity
  8
AM_5
 62
     3
100
AcDbLine
 10
-91.37502198083167
 20
1.749999999999817
 30
0.0
 11
-91.37502198083167
 21
-1.750000000000733
 31
0.0
  0
INSERT
  5
2FAF
330
254D
100
AcDbEntity
  8
AM_5
 62
     3
100
AcDbBlockReference
  2
_OPEN30
 10
-91.37502198083167
 20
2.999999999999817
 30
0.0
 41
1.25
 42
1.25
 43
1.25
 50
90.0000000000001
  0
INSERT
  5
2FB0
330
254D
100
AcDbEntity
  8
AM_5
 62
     3
100
AcDbBlockReference
  2
_OPEN30
 10
-91.37502198083167
 20
-3.000000000000733
 30
0.0
 41
1.25
 42
1.25
 43
1.25
 50
270.0000000000001
  0
MTEXT
  5
2FB1
330
254D
100
AcDbEntity
  8
AM_5
 62
     2
100
AcDbMText
 10
-93.07502198083167
 20
-0.0000000000004577
 30
0.0
 40
1.9
 41
0.0
 71
     5
 72
     1
  1
%%c6
 11
-0.000000000000002
 21
1.0
 31
0.0
1001
ACAD
1000
MTEXTBEGIN
1070
    73
1070
     1
1070
    44
1040
1.0
1070
    74
1070
     0
1000
MTEXTEND
  0
POINT
  5
2FB2
330
254D
100
AcDbEntity
  8
DEFPOINTS
 62
     0
100
AcDbPoint
 10
-82.74999999999977
 20
3.000000000000017
 30
0.0
  0
POINT
  5
2FB3
330
254D
100
AcDbEntity
  8
DEFPOINTS
 62
     0
100
AcDbPoint
 10
-82.74999999999966
 20
-3.000000000000532
 30
0.0
  0
POINT
  5
2FB4
330
254D
100
AcDbEntity
  8
DEFPOINTS
 62
     0
100
AcDbPoint
 10
-91.37502198083167
 20
-3.00000000000053
 30
0.0
  0
ENDBLK
  5
2558
330
254D
100
AcDbEntity
  8
0
100
AcDbBlockEnd
  0
BLOCK
  5
29AE
330
29A0
100
AcDbEntity
  8
0
100
AcDbBlockBegin
  2
*D9
 70
     1
 10
0.0
 20
0.0
 30
0.0
  3
*D9
  1

  0
LINE
  5
2FB5
330
29A0
100
AcDbEntity
  8
AM_5
100
AcDbLine
 10
0.1710100704080608
 20
-0.4698463108496214
 30
0.0
 11
5.472234143428583
 21
-15.0348398679691
 31
0.0
  0
LINE
  5
2FB6
330
29A0
100
AcDbEntity
  8
AM_5
100
AcDbLine
 10
0.1710111357776514
 20
0.4698459230855144
 30
0.0
 11
5.472268234706789
 21
15.03482745971501
 31
0.0
  0
ARC
  5
2FB7
330
29A0
100
AcDbEntity
  8
AM_5
100
AcDbCircle
 10
-0.0000000000000139
 20
0.0000000000000492
 30
0.0
 40
15.49974238467546
100
AcDbArc
 50
294.6219571253923
 51
65.37791295721693
  0
INSERT
  5
2FB8
330
29A0
100
AcDbEntity
  8
AM_5
100
AcDbBlockReference
  2
_OPEN30
 10
5.301224073020515
 20
-14.56499355711945
 30
0.0
 41
1.25
 42
1.25
 43
1.25
 50
202.3109784861893
  0
INSERT
  5
2FB9
330
29A0
100
AcDbEntity
  8
AM_5
100
AcDbBlockReference
  2
_OPEN30
 10
5.301257098929125
 20
14.56498153662955
 30
0.0
 41
1.25
 42
1.25
 43
1.25
 50
157.6888915964199
  0
MTEXT
  5
2FBA
330
29A0
100
AcDbEntity
  8
AM_5
 62
     2
100
AcDbMText
 10
13.94974238466648
 20
-0.0000158154242915
 30
0.0
 40
1.6
 41
0.0
 71
     5
 72
     1
  1
140°
  7
ASAMI
 11
0.0000011337431117
 21
0.9999999999993573
 31
0.0
1001
ACAD
1000
MTEXTBEGIN
1070
    73
1070
     1
1070
    44
1040
1.0
1070
    74
1070
     0
1000
MTEXTEND
  0
POINT
  5
2FBB
330
29A0
100
AcDbEntity
  8
DEFPOINTS
 62
     0
100
AcDbPoint
 10
14.23210846450056
 20
-6.139145107097188
 30
0.0
  0
POINT
  5
2FBC
330
29A0
100
AcDbEntity
  8
DEFPOINTS
 62
     0
100
AcDbPoint
 10
-0.0000000000000169
 20
0.0000000000000409
 30
0.0
  0
POINT
  5
2FBD
330
29A0
100
AcDbEntity
  8
DEFPOINTS
 62
     0
100
AcDbPoint
 10
-0.0000000000000071
 20
0.0000000000000305
 30
0.0
  0
POINT
  5
2FBE
330
29A0
100
AcDbEntity
  8
DEFPOINTS
 62
     0
100
AcDbPoint
 10
-0.308222001509975
 20
0.8468329963644537
 30
0.0
  0
POINT
  5
2FBF
330
29A0
100
AcDbEntity
  8
DEFPOINTS
 62
     0
100
AcDbPoint
 10
-0.3082275505120216
 20
-0.8468422675056626
 30
0.0
  0
ENDBLK
  5
29AF
330
29A0
100
AcDbEntity
  8
0
100
AcDbBlockEnd
  0
ENDSEC
  0
SECTION
  2
ENTITIES
  0
LINE
  5
C1D
330
1F
100
AcDbEntity
  8
AM_0
 48
0.5
100
AcDbLine
 10
-0.0000000000000071
 20
0.0000000000000305
 30
0.0
 11
-0.308222001509975
 21
0.8468329963644537
 31
0.0
  0
LINE
  5
C20
330
1F
100
AcDbEntity
  8
AM_0
 48
0.5
100
AcDbLine
 10
-0.0000000000000169
 20
0.0000000000000409
 30
0.0
 11
-0.3082275505120217
 21
-0.8468422675056626
 31
0.0
  0
LINE
  5
C9F
330
1F
100
AcDbEntity
  8
AM_7
100
AcDbLine
 10
-84.37502098083166
 20
-0.0000000000000069
 30
0.0
 11
1.425010198283747
 21
0.0000000000000437
 31
0.0
1001
GENIUS_GENODEF_13
1002
{
1000
HIER
1070
     0
1002
}
1002
{
1000
MANEDIT
1070
     0
1002
}
1002
{
1000
NOSEL
1070
     0
1002
}
1002
{
1000
BEHIND
1070
     0
1002
}
1002
{
1000
REACTOR
1002
}
1001
GENIUS_GENOBJ-N-CEN_13
1002
{
1000
OWNER
1000
GEN
1002
}
  0
DIMENSION
  5
CC6
330
1F
100
AcDbEntity
  8
AM_5
100
AcDbDimension
  2
*D5
 10
-1.000000000000031
 20
-15.00000100000004
 30
0.0
 11
-42.00000000000001
 21
-13.30000100000004
 31
0.0
 70
    32
  1
<>
  3
AM_JIS$0
100
AcDbAlignedDimension
 13
-83.0
 23
-2.75000000000022
 33
0.0
 14
-1.00000000000003
 24
-2.849999842570429
 34
0.0
 50
0.0000000000001132
100
AcDbRotatedDimension
1001
GENIUS_GENDTOL_13
1000

1000
h7
1000

1040
0.0
1001
ACAD
1000
DSTYLE
1002
{
1070
   271
1070
     0
1002
}
  0
DIMENSION
  5
DF5
330
1F
100
AcDbEntity
  8
AM_5
100
AcDbDimension
  2
*D6
 10
-1.000000000000031
 20
-10.00000100000001
 30
0.0
 11
-16.00000000000001
 21
-8.300001000000012
 31
0.0
 70
    32
  1
<>
  3
AM_JIS$0
100
AcDbAlignedDimension
 13
-31.0
 23
-3.000000000000103
 33
0.0
 14
-1.00000000000003
 24
-2.849999842570429
 34
0.0
 50
0.0000000000001527
100
AcDbRotatedDimension
1001
GENIUS_GENDTOL_13
1000

1000
h7
1000

1040
0.0
1001
ACAD
1000
DSTYLE
1002
{
1070
   271
1070
     0
1002
}
  0
ARC
  5
144A
330
1F
100
AcDbEntity
  8
AM_11
 48
0.5
100
AcDbCircle
 10
-44.30277188618325
 20
-12.14665270677931
 30
0.0
 40
13.42998806635521
100
AcDbArc
 50
64.74833051131179
 51
115.2516644797366
  0
ARC
  5
144B
330
1F
100
AcDbEntity
  8
AM_11
 48
0.5
100
AcDbCircle
 10
-44.30277188618324
 20
12.14666095543169
 30
0.0
 40
13.42998806635521
100
AcDbArc
 50
244.7482808787518
 51
295.2516148471758
  0
ARC
  5
144E
330
1F
100
AcDbEntity
  8
AM_11
 48
0.5
100
AcDbCircle
 10
-32.84443855284992
 20
-12.14665270677931
 30
0.0
 40
13.42998806635521
100
AcDbArc
 50
64.74833051131179
 51
115.2516644797366
  0
ARC
  5
144F
330
1F
100
AcDbEntity
  8
AM_11
 48
0.5
100
AcDbCircle
 10
-32.84443855284992
 20
12.14666095543169
 30
0.0
 40
13.42998806635521
100
AcDbArc
 50
244.7482808787518
 51
295.2516148471758
  0
ARC
  5
1450
330
1F
100
AcDbEntity
  8
AM_11
 48
0.5
100
AcDbCircle
 10
-21.38610521951979
 20
12.14666095543169
 30
0.0
 40
13.42998806635521
100
AcDbArc
 50
244.7482808787518
 51
295.2516148471758
  0
ARC
  5
1451
330
1F
100
AcDbEntity
  8
AM_11
 48
0.5
100
AcDbCircle
 10
-21.38610521951979
 20
-12.14665270677931
 30
0.0
 40
13.42998806635521
100
AcDbArc
 50
64.74833051131179
 51
115.2516644797366
  0
ARC
  5
1452
330
1F
100
AcDbEntity
  8
AM_11
 48
0.5
100
AcDbCircle
 10
-9.927771886186461
 20
-12.14665270677931
 30
0.0
 40
13.42998806635521
100
AcDbArc
 50
64.74833051131179
 51
115.2516644797366
  0
ARC
  5
1453
330
1F
100
AcDbEntity
  8
AM_11
 48
0.5
100
AcDbCircle
 10
-9.927771886186461
 20
12.14666095543169
 30
0.0
 40
13.42998806635521
100
AcDbArc
 50
244.7482808787518
 51
295.2516148471758
  0
TEXT
  5
19BD
330
1F
100
AcDbEntity
  8
AM_6
100
AcDbText
 10
-53.24999999999997
 20
-26.25000100000007
 30
0.0
 40
2.5
  1
MDW057MHK
 50
0.0000000000001527
 72
     4
 11
-41.99999999999997
 21
-25.00000100000004
 31
0.0
100
AcDbText
  0
ARC
  5
1DAB
330
1F
100
AcDbEntity
  8
AM_11
 48
0.5
100
AcDbCircle
 10
-55.76108015507434
 20
-12.14665270677934
 30
0.0
 40
13.42998806635521
100
AcDbArc
 50
64.74833051131179
 51
115.2516644797366
  0
ARC
  5
1DAC
330
1F
100
AcDbEntity
  8
AM_11
 48
0.5
100
AcDbCircle
 10
-55.76108015507433
 20
12.14666095543166
 30
0.0
 40
13.42998806635521
100
AcDbArc
 50
244.7482808787518
 51
295.2516148471758
  0
ARC
  5
1DAD
330
1F
100
AcDbEntity
  8
AM_11
 48
0.5
100
AcDbCircle
 10
-67.21938842396543
 20
-12.14665270677937
 30
0.0
 40
13.42998806635521
100
AcDbArc
 50
64.74833051131179
 51
115.2516644797366
  0
ARC
  5
1DAE
330
1F
100
AcDbEntity
  8
AM_11
 48
0.5
100
AcDbCircle
 10
-67.21938842396543
 20
12.14666095543162
 30
0.0
 40
13.42998806635521
100
AcDbArc
 50
244.7482808787518
 51
295.2516148471758
  0
ARC
  5
1DAF
330
1F
100
AcDbEntity
  8
AM_11
 48
0.5
100
AcDbCircle
 10
-78.67769669285653
 20
-12.14665270677941
 30
0.0
 40
13.42998806635521
100
AcDbArc
 50
64.74833051131179
 51
108.7742185832982
  0
ARC
  5
1DB0
330
1F
100
AcDbEntity
  8
AM_11
 48
0.5
100
AcDbCircle
 10
-78.6776966928565
 20
12.14666095543159
 30
0.0
 40
13.42998806635521
100
AcDbArc
 50
251.2257814167015
 51
295.2516148471758
  0
LINE
  5
1F19
330
1F
100
AcDbEntity
  8
AM_0
100
AcDbLine
 10
-82.75
 20
-2.999999999999981
 30
0.0
 11
-82.75
 21
3.000000000000017
 31
0.0
  0
LINE
  5
1F1A
330
1F
100
AcDbEntity
  8
AM_0
 48
0.5
100
AcDbLine
 10
-83.0
 20
-2.750000000000206
 30
0.0
 11
-83.0
 21
2.749999999999793
 31
0.0
  0
LINE
  5
1F1B
330
1F
100
AcDbEntity
  8
AM_0
100
AcDbLine
 10
-83.0
 20
-2.750000000000206
 30
0.0
 11
-82.75
 21
-3.000000000000206
 31
0.0
1001
GENIUS_GENFIL_13
1070
     0
1040
0.25
1040
0.25
1040
20.0
1040
0.0
1002
{
1002
}
1001
GENIUS_GENODEF_13
1002
{
1000
HIER
1070
     0
1002
}
1002
{
1000
MANEDIT
1070
     0
1002
}
1002
{
1000
NOSEL
1070
     0
1002
}
1002
{
1000
BEHIND
1070
     0
1002
}
1002
{
1000
REACTOR
1002
}
1001
GENIUS_GENOBJ-N-CHA_13
1002
{
1000
OWNER
1000
GEN
1002
}
  0
LINE
  5
1F1C
330
1F
100
AcDbEntity
  8
AM_0
100
AcDbLine
 10
-83.0
 20
2.749999999999793
 30
0.0
 11
-82.75
 21
2.999999999999793
 31
0.0
1001
GENIUS_GENFIL_13
1070
     0
1040
0.25
1040
0.25
1040
20.0
1040
0.0
1002
{
1002
}
1001
GENIUS_GENODEF_13
1002
{
1000
HIER
1070
     0
1002
}
1002
{
1000
MANEDIT
1070
     0
1002
}
1002
{
1000
NOSEL
1070
     0
1002
}
1002
{
1000
BEHIND
1070
     0
1002
}
1002
{
1000
REACTOR
1002
}
1001
GENIUS_GENOBJ-N-CHA_13
1002
{
1000
OWNER
1000
GEN
1002
}
  0
LINE
  5
1F2F
330
1F
100
AcDbEntity
  8
AM_0
 48
0.5
100
AcDbLine
 10
-31.0
 20
-3.000000000000103
 30
0.0
 11
-30.99999999999999
 21
3.000000000000121
 31
0.0
  0
LINE
  5
1F31
330
1F
100
AcDbEntity
  8
AM_0
100
AcDbLine
 10
-82.75
 20
3.000000000000017
 30
0.0
 11
-30.99999999999999
 21
3.000000000000119
 31
0.0
  0
LINE
  5
1F32
330
1F
100
AcDbEntity
  8
AM_0
100
AcDbLine
 10
-82.75
 20
-3.000000000000206
 30
0.0
 11
-31.0
 21
-3.000000000000103
 31
0.0
  0
LINE
  5
1F5B
330
1F
100
AcDbEntity
  8
AM_0
100
AcDbLine
 10
-30.99999999999999
 20
3.000000000000121
 30
0.0
 11
-30.74019265154133
 21
2.850000157430069
 31
0.0
  0
LINE
  5
1F5C
330
1F
100
AcDbEntity
  8
AM_0
100
AcDbLine
 10
-31.0
 20
-3.000000000000103
 30
0.0
 11
-30.74019264197356
 21
-2.850000151906085
 31
0.0
  0
DIMENSION
  5
2424
330
1F
100
AcDbEntity
  8
AM_5
100
AcDbDimension
  2
*D7
 10
8.425011198283742
 20
2.850000157429557
 30
0.0
 11
8.425011198283742
 21
8.950000157429558
 31
0.0
 70
   160
  1
%%c<>
  3
AM_JIS$0
100
AcDbAlignedDimension
 13
-1.000000000000031
 23
-2.849999842570429
 33
0.0
 14
-0.999999999999961
 24
2.850000157429559
 34
0.0
 50
89.99999999999955
100
AcDbRotatedDimension
1001
ACAD
1000
DSTYLE
1002
{
1070
   271
1070
     1
1002
}
1001
GENIUS_GENDTOL_13
1000

1000
h7
1000

1040
0.0
  0
LINE
  5
2437
330
1F
100
AcDbEntity
  8
AM_0
 48
0.5
100
AcDbLine
 10
-0.823204624305613
 20
-2.308499132519753
 30
0.0
 11
-1.000000000000031
 21
-2.849999842570429
 31
0.0
  0
LINE
  5
2442
330
1F
100
AcDbEntity
  8
AM_0
100
AcDbLine
 10
-30.74019264197356
 20
-2.850000151906087
 30
0.0
 11
-30.74019264197356
 21
-2.350738461591057
 31
0.0
  0
ELLIPSE
  5
245F
330
1F
100
AcDbEntity
  8
AM_0
 48
0.5
100
AcDbEllipse
 10
3.875377709857025
 20
-3.305989277576187
 30
0.0
 11
-4.522585147891904
 21
1.89960735216737
 31
0.0
210
0.0
220
0.0
230
1.0
 40
0.670656747097513
 41
-0.1980062927602497
 42
0.2770693262937132
  0
DIMENSION
  5
254C
330
1F
100
AcDbEntity
  8
AM_5
100
AcDbDimension
  2
*D8
 10
-91.37502198083167
 20
-3.00000000000053
 30
0.0
 11
-93.07502198083167
 21
-0.0000000000002695
 31
0.0
 70
    32
  1
%%c<>
 51
359.9999999999998
  3
AM_JIS$0
100
AcDbAlignedDimension
 13
-82.74999999999977
 23
3.000000000000017
 33
0.0
 14
-82.74999999999966
 24
-3.000000000000532
 34
0.0
 50
270.0000000000002
100
AcDbRotatedDimension
1001
ACAD
1000
DSTYLE
1002
{
1070
   271
1070
     0
1002
}
1001
GENIUS_GENDTOL_13
1000

1000
h7
1000

1040
0.0
  0
ELLIPSE
  5
270B
330
1F
100
AcDbEntity
  8
AM_0
 48
0.5
100
AcDbEllipse
 10
3.875377709857021
 20
3.305989277576277
 30
0.0
 11
-4.522585147891902
 21
-1.899607352167375
 31
0.0
210
0.0
220
0.0
230
-1.0
 40
0.670656747097513
 41
-0.1980062927602497
 42
0.2770693262937132
  0
LINE
  5
270C
330
1F
100
AcDbEntity
  8
AM_0
 48
0.5
100
AcDbLine
 10
-0.8232046243056156
 20
2.308499132519838
 30
0.0
 11
-0.999999999999961
 21
2.850000157429559
 31
0.0
  0
DIMENSION
  5
299F
330
1F
100
AcDbEntity
  8
AM_5
100
AcDbDimension
  2
*D9
 10
-0.3082275505120217
 20
-0.8468422675056626
 30
0.0
 11
13.94974238466648
 21
-0.0000158154243204
 31
0.0
 70
    34
  1
<>
 51
359.9999999999998
  3
AM_JIS$2
100
AcDb2LineAngularDimension
 13
-0.0000000000000071
 23
0.0000000000000305
 33
0.0
 14
-0.308222001509975
 24
0.8468329963644537
 34
0.0
 15
-0.0000000000000169
 25
0.0000000000000409
 35
0.0
 16
14.23210846450056
 26
-6.139145107097188
 36
0.0
1001
ACAD
1000
DSTYLE
1002
{
1070
   179
1070
     3
1002
}
1001
GENIUS_GENDTOL_13
1000

1000
h7
1000

1040
0.0
  0
ELLIPSE
  5
2C01
330
1F
100
AcDbEntity
  8
AM_11
 48
0.5
100
AcDbEllipse
 10
1.530561447146912
 20
12.38025058918999
 30
0.0
 11
-0.0000000000001494
 21
13.68825706763127
 31
0.0
210
0.0
220
0.0
230
1.0
 40
0.9811320754717009
 41
2.700867013135191
 42
2.862597064175881
  0
LINE
  5
2ECF
330
1F
100
AcDbEntity
  8
AM_0
100
AcDbLine
 10
-30.74019264197351
 20
2.269685031781893
 30
0.0
 11
-30.74019264197351
 21
2.85000015743007
 31
0.0
  0
LINE
  5
2ED0
330
1F
100
AcDbEntity
  8
AM_0
100
AcDbLine
 10
-30.74019264197355
 20
-1.331909145541547
 30
0.0
 11
-30.74019264197353
 21
1.587099101676083
 31
0.0
  0
LINE
  5
2ED1
330
1F
100
AcDbEntity
  8
AM_0
100
AcDbLine
 10
-30.74019264197356
 20
-2.077506887430519
 30
0.0
 11
-30.74019264197355
 21
-1.519200945653261
 31
0.0
  0
SPLINE
  5
2F22
330
1F
100
AcDbEntity
  8
AM_0
100
AcDbSpline
210
0.0
220
0.0
230
1.0
 70
     8
 71
     3
 72
    15
 73
    11
 74
     0
 42
0.0000000001
 43
0.0000000001
 40
5.611600361349635
 40
5.611600361349635
 40
5.611600361349635
 40
5.611600361349635
 40
5.954688180526682
 40
6.824620803463244
 40
7.701151815239697
 40
8.58445704656667
 40
9.47458238407075
 40
10.37139106676736
 40
11.27458944007584
 40
12.17321262433756
 40
12.17321262433756
 40
12.17321262433756
 40
12.17321262433756
 10
-26.86968263308211
 20
-0.2217731229152624
 30
0.0
 10
-26.9436860122095
 20
-0.2367630515534812
 30
0.0
 10
-27.20496995372549
 20
-0.2911356651657532
 30
0.0
 10
-27.65279217008953
 20
-0.392919771797211
 30
0.0
 10
-28.21213754261713
 20
-0.5345814686707331
 30
0.0
 10
-28.77142842548328
 20
-0.6898817302282371
 30
0.0
 10
-29.33066331436553
 20
-0.8578629205264707
 30
0.0
 10
-29.88985119367157
 20
-1.037481566428499
 30
0.0
 10
-30.4468233796976
 20
-1.22689501257992
 30
0.0
 10
-30.81627707152462
 20
-1.358695819410102
 30
0.0
 10
-30.99999999999997
 20
-1.425555045601872
 30
0.0
  0
POLYLINE
  5
2F23
330
1F
100
AcDbEntity
  8
AM_0
100
AcDb2dPolyline
 66
     1
 10
0.0
 20
0.0
 30
0.0
 70
     2
  0
VERTEX
  5
2F24
330
2F23
100
AcDbEntity
  8
AM_0
100
AcDbVertex
100
AcDb2dVertex
 10
-30.46869545759679
 20
-2.098339294644476
 30
0.0
 42
0.0351157762658453
  0
VERTEX
  5
2F25
330
2F23
100
AcDbEntity
  8
AM_0
100
AcDbVertex
100
AcDb2dVertex
 10
-30.5793726543901
 20
-2.075559819173089
 30
0.0
 42
0.044786481860755
 70
     1
  0
VERTEX
  5
2F26
330
2F23
100
AcDbEntity
  8
AM_0
100
AcDbVertex
100
AcDb2dVertex
 10
-30.66793466099799
 20
-2.071827962058575
 30
0.0
 42
0.0378244354854128
  0
VERTEX
  5
2F27
330
2F23
100
AcDbEntity
  8
AM_0
100
AcDbVertex
100
AcDb2dVertex
 10
-30.85024864981131
 20
-2.094595736162994
 30
0.0
 42
0.0785304530199817
 70
     1
  0
VERTEX
  5
2F28
330
2F23
100
AcDbEntity
  8
AM_0
100
AcDbVertex
100
AcDb2dVertex
 10
-30.93358693219961
 20
-2.125785653577635
 30
0.0
 42
0.0914341172496281
  0
VERTEX
  5
2F29
330
2F23
100
AcDbEntity
  8
AM_0
100
AcDbVertex
100
AcDb2dVertex
 10
-30.98712801921273
 20
-2.170740867986734
 30
0.0
 42
0.1734786634335468
 70
     1
  0
VERTEX
  5
2F2A
330
2F23
100
AcDbEntity
  8
AM_0
100
AcDbVertex
100
AcDb2dVertex
 10
-31.00000000000001
 20
-2.206254677682582
 30
0.0
 42
0.1707159826348874
  0
VERTEX
  5
2F2B
330
2F23
100
AcDbEntity
  8
AM_0
100
AcDbVertex
100
AcDb2dVertex
 10
-30.98763354031313
 20
-2.242440917921138
 30
0.0
 42
0.0878858945849485
 70
     1
  0
VERTEX
  5
2F2C
330
2F23
100
AcDbEntity
  8
AM_0
100
AcDbVertex
100
AcDb2dVertex
 10
-30.93358693219961
 20
-2.290751437854312
 30
0.0
 42
0.0737173247185441
  0
VERTEX
  5
2F2D
330
2F23
100
AcDbEntity
  8
AM_0
100
AcDbVertex
100
AcDb2dVertex
 10
-30.84838756227914
 20
-2.327369337180265
 30
0.0
 42
0.037064748993984
 70
     1
  0
VERTEX
  5
2F2E
330
2F23
100
AcDbEntity
  8
AM_0
100
AcDbVertex
100
AcDb2dVertex
 10
-30.66793466099799
 20
-2.360820073640491
 30
0.0
 42
0.0449345368811406
  0
VERTEX
  5
2F2F
330
2F23
100
AcDbEntity
  8
AM_0
100
AcDbVertex
100
AcDb2dVertex
 10
-30.58092947728281
 20
-2.362402808032046
 30
0.0
 42
0.0344667769950814
 70
     1
  0
VERTEX
  5
2F30
330
2F23
100
AcDbEntity
  8
AM_0
100
AcDbVertex
100
AcDb2dVertex
 10
-30.46869545759679
 20
-2.34639194925494
 30
0.0
  0
SEQEND
  5
2F31
330
2F23
100
AcDbEntity
  8
AM_0
  0
LINE
  5
2F32
330
1F
100
AcDbEntity
  8
AM_0
100
AcDbLine
 10
-30.7401921061877
 20
-2.849999842569975
 30
0.0
 11
-26.68536171222884
 21
-2.849999842570069
 31
0.0
1001
GENIUS_GENODEF_13
1002
{
1000
HIER
1070
     0
1002
}
1002
{
1000
MANEDIT
1070
     0
1002
}
1002
{
1000
NOSEL
1070
     0
1002
}
1002
{
1000
BEHIND
1070
     0
1002
}
1002
{
1000
REACTOR
1002
}
1001
GENIUS_GENOBJ-N-CEN_13
1002
{
1000
OWNER
1000
GEN
1002
}
  0
SPLINE
  5
2F33
330
1F
100
AcDbEntity
  8
AM_0
100
AcDbSpline
210
0.0
220
0.0
230
1.0
 70
     8
 71
     3
 72
    17
 73
    13
 74
     0
 42
0.0000000001
 43
0.0000000001
 40
3.680640182805057
 40
3.680640182805057
 40
3.680640182805057
 40
3.680640182805057
 40
4.232934581347659
 40
5.09097061220244
 40
5.954688180526682
 40
6.824620803463244
 40
7.701151815239697
 40
8.58445704656667
 40
9.47458238407075
 40
10.37139106676736
 40
11.27458944007584
 40
12.17321262433756
 40
12.17321262433756
 40
12.17321262433756
 40
12.17321262433756
 10
-25.60013744772839
 20
-2.850005260315811
 30
0.0
 10
-25.73182718055169
 20
-2.827060045504136
 30
0.0
 10
-26.0397826570206
 20
-2.7818094767441
 30
0.0
 10
-26.5339370915901
 20
-2.697181417943659
 30
0.0
 10
-27.09339118990322
 20
-2.585334813208134
 30
0.0
 10
-27.65279217008955
 20
-2.458190319396893
 30
0.0
 10
-28.21213754261715
 20
-2.316528622523354
 30
0.0
 10
-28.7714284254833
 20
-2.161228360965834
 30
0.0
 10
-29.33066331436554
 20
-1.993247170667575
 30
0.0
 10
-29.8898511936716
 20
-1.813628524765529
 30
0.0
 10
-30.44682337969764
 20
-1.6242150786141
 30
0.0
 10
-30.81627707152465
 20
-1.492414271783916
 30
0.0
 10
-30.99999999999997
 20
-1.425555045592138
 30
0.0
  0
ELLIPSE
  5
2F34
330
1F
100
AcDbEntity
  8
AM_0
100
AcDbEllipse
 10
-30.26674280011313
 20
-3.061282037000773
 30
0.0
 11
0.7606502312915202
 21
0.7573455964987643
 31
0.0
210
0.0
220
0.0
230
1.0
 40
0.5830096589403832
 41
1.027908288260073
 42
2.030642154197296
  0
LINE
  5
2F35
330
1F
100
AcDbEntity
  8
AM_0
100
AcDbLine
 10
-30.74019265154134
 20
2.85000015743007
 30
0.0
 11
-30.39606337590786
 21
2.850000157430058
 31
0.0
1001
GENIUS_GENODEF_13
1002
{
1000
HIER
1070
     0
1002
}
1002
{
1000
MANEDIT
1070
     0
1002
}
1002
{
1000
NOSEL
1070
     0
1002
}
1002
{
1000
BEHIND
1070
     0
1002
}
1002
{
1000
REACTOR
1002
}
1001
GENIUS_GENOBJ-N-CEN_13
1002
{
1000
OWNER
1000
GEN
1002
}
  0
POLYLINE
  5
2F36
330
1F
100
AcDbEntity
  8
AM_0
100
AcDb2dPolyline
 66
     1
 10
0.0
 20
0.0
 30
0.0
 70
     2
  0
VERTEX
  5
2F37
330
2F36
100
AcDbEntity
  8
AM_0
100
AcDbVertex
100
AcDb2dVertex
 10
-30.00380398299391
 20
2.570218695798284
 30
0.0
 42
0.0276737331564208
  0
VERTEX
  5
2F38
330
2F36
100
AcDbEntity
  8
AM_0
100
AcDbVertex
100
AcDb2dVertex
 10
-30.23119896552747
 20
2.520882834236401
 30
0.0
 42
0.0414024687830266
 70
     1
  0
VERTEX
  5
2F39
330
2F36
100
AcDbEntity
  8
AM_0
100
AcDbVertex
100
AcDb2dVertex
 10
-30.37737748937117
 20
2.467090540701371
 30
0.0
 42
0.0280074108471844
  0
VERTEX
  5
2F3A
330
2F36
100
AcDbEntity
  8
AM_0
100
AcDbVertex
100
AcDb2dVertex
 10
-30.71066991233019
 20
2.288434351492676
 30
0.0
 42
0.0512701366748525
 70
     1
  0
VERTEX
  5
2F3B
330
2F36
100
AcDbEntity
  8
AM_0
100
AcDbVertex
100
AcDb2dVertex
 10
-30.87547549787422
 20
2.162887875827559
 30
0.0
 42
0.0658714570033076
  0
VERTEX
  5
2F3C
330
2F36
100
AcDbEntity
  8
AM_0
100
AcDbVertex
100
AcDb2dVertex
 10
-30.97890936425858
 20
2.036467653424017
 30
0.0
 42
0.1411961588081283
 70
     1
  0
VERTEX
  5
2F3D
330
2F36
100
AcDbEntity
  8
AM_0
100
AcDbVertex
100
AcDb2dVertex
 10
-30.99999999999999
 20
1.961813366050661
 30
0.0
 42
0.1226739033459629
  0
VERTEX
  5
2F3E
330
2F36
100
AcDbEntity
  8
AM_0
100
AcDbVertex
100
AcDb2dVertex
 10
-30.97942472351225
 20
1.879731767214427
 30
0.0
 42
0.0555312784770531
 70
     1
  0
VERTEX
  5
2F3F
330
2F36
100
AcDbEntity
  8
AM_0
100
AcDbVertex
100
AcDb2dVertex
 10
-30.87547549787423
 20
1.727453766196042
 30
0.0
 42
0.0351528005485752
  0
VERTEX
  5
2F40
330
2F36
100
AcDbEntity
  8
AM_0
100
AcDbVertex
100
AcDb2dVertex
 10
-30.70747889592556
 20
1.557614982701043
 30
0.0
 42
0.0197318127063559
 70
     1
  0
VERTEX
  5
2F41
330
2F36
100
AcDbEntity
  8
AM_0
100
AcDbVertex
100
AcDb2dVertex
 10
-30.37737748937121
 20
1.29011074101141
 30
0.0
 42
0.0358460074876439
  0
VERTEX
  5
2F42
330
2F36
100
AcDbEntity
  8
AM_0
100
AcDbVertex
100
AcDb2dVertex
 10
-30.2419865002367
 20
1.203396415013676
 30
0.0
 42
0.021710998496176
 70
     1
  0
VERTEX
  5
2F43
330
2F36
100
AcDbEntity
  8
AM_0
100
AcDbVertex
100
AcDb2dVertex
 10
-30.00380398299395
 20
1.087127315681383
 30
0.0
  0
SEQEND
  5
2F44
330
2F36
100
AcDbEntity
  8
AM_0
  0
LINE
  5
2F45
330
1F
100
AcDbEntity
  8
AM_0
 48
0.5
100
AcDbLine
 10
-2.484100341793596
 20
2.850000157429592
 30
0.0
 11
-0.999999999999961
 21
2.850000157429559
 31
0.0
  0
LINE
  5
2F46
330
1F
100
AcDbEntity
  8
AM_0
 48
0.5
100
AcDbLine
 10
-0.0000000000000169
 20
0.00000000000005
 30
0.0
 11
-1.36431897812819
 21
1.108779083664343
 31
0.0
  0
LINE
  5
2F47
330
1F
100
AcDbEntity
  8
AM_0
 48
0.5
100
AcDbLine
 10
-2.715771530752054
 20
-2.849999842570406
 30
0.0
 11
-1.000000000000024
 21
-2.849999842570441
 31
0.0
  0
LINE
  5
2F48
330
1F
100
AcDbEntity
  8
AM_0
100
AcDbLine
 10
-21.06685469530793
 20
2.849998345457392
 30
0.0
 11
-11.21485519408834
 21
2.850000157429778
 31
0.0
  0
LINE
  5
2F49
330
1F
100
AcDbEntity
  8
AM_0
 48
0.5
100
AcDbLine
 10
-26.68532247637262
 20
-2.850014964310502
 30
0.0
 11
-11.36353184519853
 21
-2.850001654543056
 31
0.0
  0
LINE
  5
2F4A
330
1F
100
AcDbEntity
  8
AM_11
 48
0.5
100
AcDbLine
 10
-30.39606337590786
 20
2.850000157430058
 30
0.0
 11
-21.06685469530793
 21
2.849998345457392
 31
0.0
  0
LINE
  5
2F4B
330
1F
100
AcDbEntity
  8
AM_11
 48
0.5
100
AcDbLine
 10
-11.21485519408834
 20
2.850000157429778
 30
0.0
 11
-2.484100341793596
 21
2.850000157429592
 31
0.0
  0
LINE
  5
2F4C
330
1F
100
AcDbEntity
  8
AM_11
 48
0.5
100
AcDbLine
 10
-11.36353184519853
 20
-2.850001654543056
 30
0.0
 11
-2.715771530752053
 21
-2.850001654543468
 31
0.0
  0
SPLINE
  5
2F4D
330
1F
100
AcDbEntity
  8
AM_0
 48
0.5
100
AcDbSpline
210
0.0
220
0.0
230
1.0
 70
     8
 71
     3
 72
    10
 73
     6
 74
     0
 42
0.0000000001
 43
0.0000000001
 40
0.0
 40
0.0
 40
0.0
 40
0.0
 40
2.69986029516136
 40
4.147722969032201
 40
6.285750005020438
 40
6.285750005020438
 40
6.285750005020438
 40
6.285750005020438
 10
-3.024559656775762
 20
0.5158349657791601
 30
0.0
 10
-2.694692144898346
 20
0.2510502713915315
 30
0.0
 10
-2.187925532491225
 20
-0.1557313538384906
 30
0.0
 10
-0.9894905693326538
 20
0.0411987571482202
 30
0.0
 10
-1.21519073152548
 20
0.7044854286837828
 30
0.0
 10
-1.36431897812819
 20
1.108779083664343
 30
0.0
  0
SPLINE
  5
2F4E
330
1F
100
AcDbEntity
  8
AM_0
 48
0.5
100
AcDbSpline
210
0.0
220
0.0
230
1.0
 70
     8
 71
     3
 72
    25
 73
    21
 74
     0
 42
0.0000000001
 43
0.0000000001
 40
6.846175049578289
 40
6.846175049578289
 40
6.846175049578289
 40
6.846175049578289
 40
7.604337694224321
 40
8.711974558287883
 40
9.814980593243754
 40
10.91239053451967
 40
12.0033633515982
 40
13.08720139956839
 40
14.16337181880432
 40
15.23152222380919
 40
16.29148850140128
 40
17.34331105512262
 40
18.38723020264746
 40
19.42369128463655
 40
20.45333379090873
 40
21.47697865721768
 40
22.49561244472435
 40
23.5103574802404
 40
24.52244778960836
 40
25.53320666051913
 40
25.53320666051913
 40
25.53320666051913
 40
25.53320666051913
 10
-3.024633756897731
 20
0.5158688159544941
 30
0.0
 10
-3.12992036822859
 20
0.5659097472481575
 30
0.0
 10
-3.389246916617697
 20
0.688557174002042
 30
0.0
 10
-3.802998788893572
 20
0.8811577849630603
 30
0.0
 10
-4.265970732947805
 20
1.091242325501915
 30
0.0
 10
-4.728965960161784
 20
1.294614722766193
 30
0.0
 10
-5.191988448527392
 20
1.490024528888101
 30
0.0
 10
-5.655043357257797
 20
1.676266163418324
 30
0.0
 10
-6.118134968156422
 20
1.852191092799781
 30
0.0
 10
-6.581265425093536
 20
2.016718131005192
 30
0.0
 10
-7.044440432648249
 20
2.168823373731889
 30
0.0
 10
-7.507659363626327
 20
2.307574105916653
 30
0.0
 10
-7.970925545232153
 20
2.432104524443406
 30
0.0
 10
-8.434237342578054
 20
2.541643929967653
 30
0.0
 10
-8.897592945734011
 20
2.635520924305309
 30
0.0
 10
-9.360989776343867
 20
2.713113247194246
 30
0.0
 10
-9.824420624139005
 20
2.774065779316505
 30
0.0
 10
-10.28788038164114
 20
2.817550634059628
 30
0.0
 10
-10.75136152550187
 20
2.844914668738944
 30
0.0
 10
-11.06042511306616
 20
2.848305738533063
 30
0.0
 10
-11.21485519408834
 20
2.850000157429778
 30
0.0
  0
SPLINE
  5
2F4F
330
1F
100
AcDbEntity
  8
AM_0
 48
0.5
100
AcDbSpline
210
0.0
220
0.0
230
1.0
 70
     8
 71
     3
 72
    17
 73
    13
 74
     0
 42
0.0000000001
 43
0.0000000001
 40
0.0
 40
0.0
 40
0.0
 40
0.0
 40
1.010743614677189
 40
2.022833924044153
 40
3.037578959561199
 40
4.056212747067873
 40
5.079857613375832
 40
6.109500119648989
 40
7.14596120163808
 40
8.18989512056258
 40
9.241717674284874
 40
9.693948937866434
 40
9.693948937866434
 40
9.693948937866434
 40
9.693948937866434
 10
-2.484100341793596
 20
2.850000157429592
 30
0.0
 10
-2.638528090324451
 20
2.848305698465217
 30
0.0
 10
-2.94758934384695
 20
2.844914522873064
 30
0.0
 10
-3.411068164388044
 20
2.817550646953752
 30
0.0
 10
-3.874527903775123
 20
2.774065736001369
 30
0.0
 10
-4.337958819910593
 20
2.713113408505316
 30
0.0
 10
-4.801355393466508
 20
2.635520317933929
 30
0.0
 10
-5.264711964511798
 20
2.541646213624524
 30
0.0
 10
-5.728022314022531
 20
2.432095394231806
 30
0.0
 10
-6.191304420300049
 20
2.307605384085651
 30
0.0
 10
-6.56527781716
 20
2.195458703046058
 30
0.0
 10
-6.784896922260211
 20
2.125350899997915
 30
0.0
 10
-6.850814794900642
 20
2.103891370807113
 30
0.0
  0
SPLINE
  5
2F50
330
1F
100
AcDbEntity
  8
AM_0
100
AcDbSpline
210
0.0
220
0.0
230
1.0
 70
     8
 71
     3
 72
    17
 73
    13
 74
     0
 42
0.0000000001
 43
0.0000000001
 40
1.580019955310467
 40
1.580019955310467
 40
1.580019955310467
 40
1.580019955310467
 40
2.030549285115227
 40
3.082371838836284
 40
4.126290986361125
 40
5.162752068350215
 40
6.192395305374981
 40
7.216039564037012
 40
8.234688489606833
 40
9.249433870634691
 40
10.26152376260694
 40
11.27226744710342
 40
11.27226744710342
 40
11.27226744710342
 40
11.27226744710352
 10
-7.039314341436377
 20
-2.103385577325788
 30
0.0
 10
-7.104265561872081
 20
-2.125048684369706
 30
0.0
 10
-7.321224459281989
 20
-2.196052411227717
 30
0.0
 10
-7.691627100715631
 20
-2.307424297361924
 30
0.0
 10
-8.150425567455226
 20
-2.432146035340921
 30
0.0
 10
-8.609350340983157
 20
-2.541635161776123
 30
0.0
 10
-9.06829614228403
 20
-2.635523987572938
 30
0.0
 10
-9.527291944907403
 20
-2.713129560878365
 30
0.0
 10
-9.986319458233694
 20
-2.774009020904871
 30
0.0
 10
-10.44537555428744
 20
-2.817767848380963
 30
0.0
 10
-10.90444892311522
 20
-2.844124362652389
 30
0.0
 10
-11.21057211638556
 20
-2.850001670850912
 30
0.0
 10
-11.36353184519848
 20
-2.850001654543056
 30
0.0
  0
SPLINE
  5
2F51
330
1F
100
AcDbEntity
  8
AM_0
100
AcDbSpline
210
0.0
220
0.0
230
1.0
 70
     8
 71
     3
 72
    22
 73
    18
 74
     0
 42
0.0000000001
 43
0.0000000001
 40
17.17441611292
 40
17.17441611292
 40
17.17441611292
 40
17.17441611292
 40
17.38177636558528
 40
18.41823744757437
 40
19.46215659509824
 40
20.51397914882054
 40
21.57394542641293
 40
22.64209583141747
 40
23.71826625065247
 40
24.80210429862395
 40
25.8930771157021
 40
26.99048705697709
 40
28.09349309193389
 40
29.20112995599786
 40
30.31233024745139
 40
31.42594771747373
 40
32.5407895042663
 40
32.54078950426994
 40
32.54078950426994
 40
32.54078950426994
 10
-13.11571323331692
 20
-2.559322281842791
 30
0.0
 10
-13.14645344054602
 20
-2.552724811375836
 30
0.0
 10
-13.3307241946795
 20
-2.512538897640303
 30
0.0
 10
-13.6682978326364
 20
-2.431960910287429
 30
0.0
 10
-14.12716017196376
 20
-2.307430685928919
 30
0.0
 10
-14.58597575418196
 20
-2.168679901125381
 30
0.0
 10
-15.04474781850326
 20
-2.016574672679245
 30
0.0
 10
-15.5034757589217
 20
-1.852047630531304
 30
0.0
 10
-15.96216522184626
 20
-1.676122702491887
 30
0.0
 10
-16.42081833113812
 20
-1.489881066564761
 30
0.0
 10
-16.8794393304292
 20
-1.294471264713828
 30
0.0
 10
-17.33803331929419
 20
-1.091098851641871
 30
0.0
 10
-17.79660427805222
 20
-0.8810143704670101
 30
0.0
 10
-18.25515682296147
 20
-0.665510296417446
 30
0.0
 10
-18.71369501869109
 20
-0.4459117356119841
 30
0.0
 10
-19.17222565808569
 20
-0.2235737298655932
 30
0.0
 10
-19.47785274829984
 20
-0.0744563456734405
 30
0.0
 10
-19.63075025136896
 20
0.0001433039537812
 30
0.0
  0
SPLINE
  5
2F52
330
1F
100
AcDbEntity
  8
AM_0
100
AcDbSpline
210
0.0
220
0.0
230
1.0
 70
     8
 71
     3
 72
    11
 73
     7
 74
     0
 42
0.0000000001
 43
0.0000000001
 40
11.27226913003534
 40
11.27226913003534
 40
11.27226913003534
 40
11.2722691300354
 40
12.28301561507924
 40
13.29510212255852
 40
14.30984805882082
 40
15.18258238371378
 40
15.18258238371378
 40
15.18258238371378
 40
15.18258238371378
 10
-11.36353184519852
 20
-2.850001654543056
 30
0.0
 10
-11.51590994581876
 20
-2.836052926338457
 30
0.0
 10
-11.82037873298573
 20
-2.802283662428565
 30
0.0
 10
-12.27550969368046
 20
-2.734162704314698
 30
0.0
 10
-12.70743700058823
 20
-2.652799689019445
 30
0.0
 10
-12.98678222907192
 20
-2.590253517643305
 30
0.0
 10
-13.11551246470533
 20
-2.559357436570995
 30
0.0
  0
SPLINE
  5
2F53
330
1F
100
AcDbEntity
  8
AM_0
100
AcDbSpline
210
0.0
220
0.0
230
1.0
 70
     8
 71
     3
 72
    46
 73
    42
 74
     0
 42
0.0000000001
 43
0.0000000001
 40
0.0
 40
0.0
 40
0.0
 40
0.0
 40
0.5056245176053715
 40
0.759310862862336
 40
1.013969309739036
 40
1.269880374404297
 40
1.527291183660732
 40
1.786406454158005
 40
2.047386241038974
 40
2.310345544571907
 40
2.575337113970003
 40
2.842374715221223
 40
3.111417320030211
 40
3.382376832022752
 40
3.655120036292296
 40
3.929472521611371
 40
4.205224030350333
 40
4.482133246366229
 40
4.759933319229942
 40
5.038338087391601
 40
5.317048131389549
 40
5.595758175387723
 40
5.874162943549383
 40
6.151963016412869
 40
6.428872232428759
 40
6.704623741167955
 40
6.978976226486705
 40
7.251719430756336
 40
7.522680721168327
 40
7.791723325977311
 40
8.058760927228529
 40
8.32375249662655
 40
8.586708135057122
 40
8.84768792193809
 40
9.106803192435362
 40
9.364213819003406
 40
9.620125035580644
 40
9.87478726697307
 40
10.12847352585208
 40
10.38149610319407
 40
10.63418200686337
 40
10.63418200686337
 40
10.63418200686337
 40
10.63418200686337
 10
-1.430678008299118
 20
-2.850001654543526
 30
0.0
 10
-1.736816153409066
 20
-2.843509134235904
 30
0.0
 10
-2.196552600168838
 20
-2.833759129983189
 30
0.0
 10
-2.807884201721194
 20
-2.773730144970381
 30
0.0
 10
-3.266914505003649
 20
-2.713204959659597
 30
0.0
 10
-3.725905572122598
 20
-2.635500902884639
 30
0.0
 10
-4.1848561939384
 20
-2.541651233633531
 30
0.0
 10
-4.643764012731695
 20
-2.432104633277759
 30
0.0
 10
-5.102628259900859
 20
-2.307574728378885
 30
0.0
 10
-5.561446893337877
 20
-2.16882615098737
 30
0.0
 10
-6.020220830111201
 20
-2.016719471234184
 30
0.0
 10
-6.478948836258442
 20
-1.852192632315812
 30
0.0
 10
-6.937638281490412
 20
-1.67626764947344
 30
0.0
 10
-7.396291395129516
 20
-1.490026027385224
 30
0.0
 10
-7.85491239491888
 20
-1.294616225570581
 30
0.0
 10
-8.31350637734447
 20
-1.09124379825387
 30
0.0
 10
-8.77207736154712
 20
-0.8811593744484012
 30
0.0
 10
-9.230629810579527
 20
-0.6656550839490662
 30
0.0
 10
-9.689168586404843
 20
-0.4460572293871385
 30
0.0
 10
-10.14769787780477
 20
-0.2237161832043939
 30
0.0
 10
-10.60622331472649
 20
-0.0000016545883595
 30
0.0
 10
-11.06474875154751
 20
0.2237128742995236
 30
0.0
 10
-11.52327804324959
 20
0.4460539196671015
 30
0.0
 10
-11.9818168179705
 20
0.665651777208139
 30
0.0
 10
-12.44036927109805
 20
0.881156056659023
 30
0.0
 10
-12.89894024011633
 20
1.091240521430985
 30
0.0
 10
-13.35753427877485
 20
1.294612797034387
 30
0.0
 10
-13.81615606758188
 20
1.490023584850527
 30
0.0
 10
-14.27481096332571
 20
1.676263514839197
 30
0.0
 10
-14.73350122678934
 20
1.852189399764627
 30
0.0
 10
-15.1922292222561
 20
2.0167162876385
 30
0.0
 10
-15.65100127443821
 20
2.16882156966128
 30
0.0
 10
-16.10981685086103
 20
2.307572293375758
 30
0.0
 10
-16.56867922497713
 20
2.43210270699293
 30
0.0
 10
-17.02758677817868
 20
2.541642140234985
 30
0.0
 10
-17.48653773646899
 20
2.635519029588429
 30
0.0
 10
-17.94553173290434
 20
2.71311212397394
 30
0.0
 10
-18.40455967092001
 20
2.774063395313978
 30
0.0
 10
-18.86361600877085
 20
2.817548917957641
 30
0.0
 10
-19.32268901002527
 20
2.844912690211509
 30
0.0
 10
-19.62881232664527
 20
2.848303879599595
 30
0.0
 10
-19.78177208468549
 20
2.849998345457331
 30
0.0
  0
ELLIPSE
  5
2F54
330
1F
100
AcDbEntity
  8
AM_0
 48
0.5
100
AcDbEllipse
 10
16.73805150987508
 20
-22.9081734985927
 30
0.0
 11
0.0000000000709526
 21
29.57608862723626
 31
0.0
210
0.0
220
0.0
230
1.0
 40
0.8947368421053514
 41
0.6847922390477481
 42
0.7157204709624861
  0
ELLIPSE
  5
2F55
330
1F
100
AcDbEntity
  8
AM_0
 48
0.5
100
AcDbEllipse
 10
-4.7594858805303
 20
4.783333363606184
 30
0.0
 11
0.0000000000003816
 21
6.871651959418804
 31
0.0
210
0.0
220
0.0
230
1.0
 40
0.9649122807018095
 41
3.652175978818208
 42
3.7406707564977
  0
ELLIPSE
  5
2F56
330
1F
100
AcDbEntity
  8
AM_0
 48
0.5
100
AcDbEllipse
 10
2.845227559410889
 20
-0.6335155820112616
 30
0.0
 11
0.0013522528746759
 21
4.559788535484128
 31
0.0
210
0.0
220
0.0
230
1.0
 40
0.9649551426601259
 41
1.698270922944444
 42
2.078696655658316
  0
ELLIPSE
  5
2F57
330
1F
100
AcDbEntity
  8
AM_0
 48
0.5
100
AcDbEllipse
 10
1.756413141890015
 20
3.421600499226364
 30
0.0
 11
-0.0000000000003783
 21
5.744017553329378
 31
0.0
210
0.0
220
0.0
230
1.0
 40
0.9649122807017548
 41
2.101163880028907
 42
2.5092848102238
  0
ELLIPSE
  5
2F58
330
1F
100
AcDbEntity
  8
AM_0
 48
0.5
100
AcDbEllipse
 10
-0.81843884785628
 20
-0.7427508687241959
 30
0.0
 11
-0.3944072844491652
 21
0.241813249892978
 31
0.0
210
0.0
220
0.0
230
0.9999999999999998
 40
0.5085934234237039
 41
4.50506890728885
 42
7.648509248618358
  0
ELLIPSE
  5
2F59
330
1F
100
AcDbEntity
  8
AM_0
 48
0.5
100
AcDbEllipse
 10
-0.81843884785628
 20
-0.7427508687241959
 30
0.0
 11
-0.0778451705906418
 21
0.4680869015981013
 31
0.0
210
0.0
220
0.0
230
1.0
 40
0.483437356506781
 41
1.813571195861747
 42
4.948913085573723
  0
SPLINE
  5
2F5A
330
1F
100
AcDbEntity
  8
AM_0
100
AcDbSpline
210
0.0
220
0.0
230
1.0
 70
     8
 71
     3
 72
     9
 73
     5
 74
     0
 42
0.0000000001
 43
0.0000000001
 40
1.580019955310467
 40
1.580019955310467
 40
1.580019955310467
 40
1.580019955310467
 40
2.030549285115227
 40
2.43907978603305
 40
2.43907978603305
 40
2.43907978603305
 40
2.43907978603305
 10
-30.01405069458602
 20
-2.225997676127502
 30
0.0
 10
-30.09323266746838
 20
-2.247867098476597
 30
0.0
 10
-30.24447320555162
 20
-2.288854412312951
 30
0.0
 10
-30.39634601921561
 20
-2.328094925948961
 30
0.0
 10
-30.46869545759677
 20
-2.346391949254925
 30
0.0
  0
SPLINE
  5
2F5B
330
1F
100
AcDbEntity
  8
AM_0
100
AcDbSpline
210
0.0
220
0.0
230
1.0
 70
     8
 71
     3
 72
    13
 73
     9
 74
     0
 42
0.0000000001
 43
0.0000000001
 40
26.13201924531566
 40
26.13201924531566
 40
26.13201924531566
 40
26.13201924531566
 40
26.99048218457928
 40
28.09348763352352
 40
29.20111863782268
 40
30.31232390128032
 40
31.42594612798585
 40
32.5407912310448
 40
32.5407912310486
 40
32.5407912310486
 40
32.5407912310486
 10
-30.00380398361653
 20
1.087127315924208
 30
0.0
 10
-29.85939124244294
 20
1.030799923321488
 30
0.0
 10
-29.5302232773256
 20
0.9005702649791789
 30
0.0
 10
-29.01768439261847
 20
0.692108028980465
 30
0.0
 10
-28.4654294780986
 20
0.4619446561432746
 30
0.0
 10
-27.91331296399913
 20
0.2276547179812056
 30
0.0
 10
-27.3612898924503
 20
-0.0094041387575624
 30
0.0
 10
-26.99337336022073
 20
-0.1683391399565985
 30
0.0
 10
-26.80931476099804
 20
-0.2478513172707351
 30
0.0
  0
SPLINE
  5
2F5C
330
1F
100
AcDbEntity
  8
AM_0
100
AcDbSpline
210
0.0
220
0.0
230
1.0
 70
     8
 71
     3
 72
    22
 73
    18
 74
     0
 42
0.0000000001
 43
0.0000000001
 40
30.51371389116273
 40
30.51371389116273
 40
30.51371389116273
 40
30.51371389116273
 40
31.16722880550176
 40
32.23537921050758
 40
33.29534548809967
 40
34.347168041821
 40
35.39108718934584
 40
36.42754827133493
 40
37.45720575381954
 40
38.48085062012849
 40
39.49948440763516
 40
40.51422944315121
 40
41.52631975251916
 40
42.53706336719636
 40
43.54780698187354
 40
44.55989729124051
 40
45.14939243453665
 40
45.14939243453665
 40
45.14939243453665
 40
45.14939243453665
 10
-19.63045653930983
 20
0.0000000000000702
 30
0.0
 10
-21.35202133503898
 20
0.9786341074736698
 30
0.0
 10
-22.18890316790067
 20
1.347951167360801
 30
0.0
 10
-22.67390150356161
 20
1.574304963806005
 30
0.0
 10
-23.52426278960176
 20
1.941480986812794
 30
0.0
 10
-24.08360442061459
 20
2.081553305733376
 30
0.0
 10
-24.64300315494356
 20
2.207269171045954
 30
0.0
 10
-25.20245948916854
 20
2.31785439882578
 30
0.0
 10
-25.76196941290276
 20
2.412618206259507
 30
0.0
 10
-26.32152844863853
 20
2.490970274605067
 30
0.0
 10
-26.88112602127551
 20
2.552430040617363
 30
0.0
 10
-27.44075845260121
 20
2.596600351620759
 30
0.0
 10
-28.00041391015766
 20
2.623216229108193
 30
0.0
 10
-28.56008166580339
 20
2.63210771308263
 30
0.0
 10
-29.11974942062562
 20
2.623216229094281
 30
0.0
 10
-29.60105517280519
 20
2.600326476710484
 30
0.0
 10
-29.89552388631975
 20
2.579026975731939
 30
0.0
 10
-30.00380398299391
 20
2.570218695798284
 30
0.0
  0
SPLINE
  5
2F5D
330
1F
100
AcDbEntity
  8
AM_0
100
AcDbSpline
210
0.0
220
0.0
230
1.0
 70
     8
 71
     3
 72
    55
 73
    51
 74
     0
 42
0.0000000001
 43
0.0000000001
 40
0.0
 40
0.0
 40
0.0
 40
0.0
 40
1.010743684496582
 40
2.022833576467832
 40
3.037578957496688
 40
4.056212745003489
 40
5.079857003664532
 40
6.109500240690281
 40
7.145961322679372
 40
8.189895241603872
 40
9.241717795325891
 40
10.30168407291828
 40
11.36983447792315
 40
12.44600489715814
 40
13.52984294512926
 40
14.62081576220742
 40
15.7182257034828
 40
16.82123173843959
 40
17.92886860250316
 40
19.0400688939571
 40
20.15368796660465
 40
21.26852814259644
 40
22.38336992938901
 40
23.49698739941135
 40
24.6081876908653
 40
25.71582455492886
 40
26.81883757994213
 40
27.91624752121713
 40
29.00722033829659
 40
30.09105838626677
 40
31.16722880550176
 40
32.23537921050758
 40
33.29534548809967
 40
34.347168041821
 40
35.39108718934584
 40
36.42754827133493
 40
37.45720575381954
 40
38.48085062012849
 40
39.49948440763516
 40
40.51422944315121
 40
41.52631975251916
 40
42.53706336719636
 40
43.54780698187354
 40
44.55989729124051
 40
45.57464232675757
 40
46.59327611426424
 40
47.6169209805722
 40
48.64656348684535
 40
49.68302456883444
 40
50.58557219878025
 40
50.58557219878025
 40
50.58557219878025
 40
50.58557219878025
 10
-2.715771530752053
 20
-2.850001654543462
 30
0.0
 10
-2.868731261582973
 20
-2.848305973588923
 30
0.0
 10
-3.174854450001798
 20
-2.844912353205819
 30
0.0
 10
-3.633927828566799
 20
-2.817555963100976
 30
0.0
 10
-4.09298161102019
 20
-2.774066449120665
 30
0.0
 10
-4.552006982551289
 20
-2.713114241246517
 30
0.0
 10
-5.010999362809497
 20
-2.635525358756377
 30
0.0
 10
-5.469949696901378
 20
-2.541644827046047
 30
0.0
 10
-5.928859519995441
 20
-2.432105058839002
 30
0.0
 10
-6.387724762488993
 20
-2.307576823264979
 30
0.0
 10
-6.84654229867347
 20
-2.168824716136007
 30
0.0
 10
-7.305314415500621
 20
-2.016719670085569
 30
0.0
 10
-7.764042341653661
 20
-1.852192578423126
 30
0.0
 10
-8.222731808570628
 20
-1.676267664087006
 30
0.0
 10
-8.681384916302704
 20
-1.490026023368822
 30
0.0
 10
-9.14000591781996
 20
-1.294616226886542
 30
0.0
 10
-9.598599899291373
 20
-1.091243797033097
 30
0.0
 10
-10.05717088558256
 20
-0.8811593780295051
 30
0.0
 10
-10.51572332717722
 20
-0.6656550707775044
 30
0.0
 10
-10.97426213078126
 20
-0.4460572786850282
 30
0.0
 10
-11.43279131821657
 20
-0.2237159987310978
 30
0.0
 10
-11.8913173646255
 20
-0.0000022360465618
 30
0.0
 10
-12.34984135263612
 20
0.223715553625111
 30
0.0
 10
-12.80837207696132
 20
0.446053371137224
 30
0.0
 10
-13.26691031449309
 20
0.6656518279397071
 30
0.0
 10
-13.72546357368167
 20
0.8811569561670619
 30
0.0
 10
-14.18403646234528
 20
1.091239582273321
 30
0.0
 10
-14.64263116759916
 20
1.294613043507962
 30
0.0
 10
-15.10125223532603
 20
1.490022681533038
 30
0.0
 10
-15.55990532636919
 20
1.676264361417138
 30
0.0
 10
-16.01859479446065
 20
1.85218927601061
 30
0.0
 10
-16.47732273229789
 20
2.01671632833215
 30
0.0
 10
-16.93609480177475
 20
2.168821529695842
 30
0.0
 10
-17.39491036612999
 20
2.307572411645466
 30
0.0
 10
-17.85377277107204
 20
2.43210227822869
 30
0.0
 10
-18.31268242393438
 20
2.541644249142673
 30
0.0
 10
-18.77163603508545
 20
2.63551405839307
 30
0.0
 10
-19.23062993172478
 20
2.713126956282545
 30
0.0
 10
-19.68965543933155
 20
2.774006913181525
 30
0.0
 10
-20.14870954074943
 20
2.817760523137742
 30
0.0
 10
-20.60778253007491
 20
2.844125307441336
 30
0.0
 10
-21.06686560725092
 20
2.852932909491478
 30
0.0
 10
-21.52594868375147
 20
2.844125307427566
 30
0.0
 10
-21.98502167510731
 20
2.817760523193219
 30
0.0
 10
-22.44407576905
 20
2.77400691297286
 30
0.0
 10
-22.90310130468318
 20
2.713126957067248
 30
0.0
 10
-23.36209285827785
 20
2.635514433818541
 30
0.0
 10
-23.82104466132642
 20
2.541645208910977
 30
0.0
 10
-24.2590886881861
 20
2.437074790194005
 30
0.0
 10
-24.54329664139984
 20
2.360601454411688
 30
0.0
 10
-24.81600834198179
 20
2.240556949037863
 30
0.0
  0
SPLINE
  5
2F5E
330
1F
100
AcDbEntity
  8
AM_0
100
AcDbSpline
210
0.0
220
0.0
230
1.0
 70
     8
 71
     3
 72
    21
 73
    17
 74
     0
 42
0.0000000001
 43
0.0000000001
 40
18.0152809420419
 40
18.0152809420419
 40
18.0152809420419
 40
18.0152809420419
 40
18.41823744757437
 40
19.46215659509824
 40
20.51397914882054
 40
21.57394542641293
 40
22.64209583141747
 40
23.71826625065247
 40
24.80210429862395
 40
25.8930771157021
 40
26.99048705697709
 40
28.09349309193389
 40
29.20112995599786
 40
30.31233024745139
 40
31.42594771747373
 40
32.5407895042663
 40
32.54078950426994
 40
32.54078950426994
 40
32.54078950426994
 10
-19.05862650672261
 20
-2.850012195856984
 30
0.0
 10
-19.18782842282168
 20
-2.812956304329986
 30
0.0
 10
-19.65363585676561
 20
-2.677691657174835
 30
0.0
 10
-20.09989317508182
 20
-2.57740220229407
 30
0.0
 10
-20.65923482787135
 20
-2.437329981444789
 30
0.0
 10
-21.21852342803298
 20
-2.283776131775365
 30
0.0
 10
-21.77775823678533
 20
-2.117682165416493
 30
0.0
 10
-22.33694613766042
 20
-1.940081761871942
 30
0.0
 10
-22.89608971985543
 20
-1.752066396078854
 30
0.0
 10
-23.45519415677809
 20
-1.554795548496007
 30
0.0
 10
-24.01426566531524
 20
-1.349486255299576
 30
0.0
 10
-24.57330909787036
 20
-1.1374009695421
 30
0.0
 10
-25.13233008211935
 20
-0.9198444757396826
 30
0.0
 10
-25.69133357329671
 20
-0.6981545000694195
 30
0.0
 10
-26.250327852553
 20
-0.4736989895064042
 30
0.0
 10
-26.62291755613534
 20
-0.3231614397505147
 30
0.0
 10
-26.80931476100055
 20
-0.2478513172697081
 30
0.0
  0
SPLINE
  5
2F5F
330
1F
100
AcDbEntity
  8
AM_0
100
AcDbSpline
210
0.0
220
0.0
230
1.0
 70
     8
 71
     3
 72
    15
 73
    11
 74
     0
 42
0.0000000001
 43
0.0000000001
 40
3.980857627225244
 40
3.980857627225244
 40
3.980857627225244
 40
3.980857627225244
 40
4.056212745003489
 40
5.079857003664532
 40
6.109500240690281
 40
7.145961322679372
 40
8.189895241603872
 40
9.241717795325891
 40
10.30168407291828
 40
10.55450228288433
 40
10.55450228288433
 40
10.55450228288433
 40
10.55450228288433
 10
-26.68532247637262
 20
-2.850002930817444
 30
0.0
 10
-26.94584506870013
 20
-2.829497229728998
 30
0.0
 10
-27.15335055392223
 20
-2.817072817395569
 30
0.0
 10
-27.54108746622017
 20
-2.762796705118791
 30
0.0
 10
-28.10059339489455
 20
-2.668022073106484
 30
0.0
 10
-28.66004993664885
 20
-2.557439069011756
 30
0.0
 10
-29.21945213023422
 20
-2.431724850241796
 30
0.0
 10
-29.77879616510223
 20
-2.291651294473509
 30
0.0
 10
-30.19468395890136
 20
-2.177468584755257
 30
0.0
 10
-30.42448099572905
 20
-2.111204328246247
 30
0.0
 10
-30.46869545759659
 20
-2.098339294643775
 30
0.0
  0
ELLIPSE
  5
2F60
330
1F
100
AcDbEntity
  8
AM_0
100
AcDbEllipse
 10
-29.77495446396025
 20
10.20922278978478
 30
0.0
 11
-1.163642864688628
 21
7.552404906597772
 31
0.0
210
0.0
220
0.0
230
1.0
 40
0.6623629467672211
 41
2.791812357194707
 42
3.028309491761642
  0
VIEWPORT
  5
110
330
101
100
AcDbEntity
 67
     1
  8
0
100
AcDbViewport
 10
420.5
 20
297.0
 30
0.0
 40
948.9782706766916
 41
628.452
 68
     1
 69
     1
1001
ACAD
1000
MVIEW
1002
{
1070
    16
1010
0.0
1020
0.0
1030
0.0
1010
0.0
1020
0.0
1030
1.0
1040
0.0
1040
628.452
1040
420.5
1040
297.0
1040
50.0
1040
0.0
1040
0.0
1070
     0
1070
   100
1070
     1
1070
     1
1070
     0
1070
     0
1070
     0
1070
     0
1040
0.0
1040
0.0
1040
0.0
1040
10.0
1040
10.0
1040
10.0
1040
10.0
1070
     0
1002
{
1002
}
1002
}
  0
ENDSEC
  0
SECTION
  2
OBJECTS
  0
DICTIONARY
  5
C
330
0
100
AcDbDictionary
  3
ACAD_GROUP
350
D
  3
ACAD_LAYOUT
350
1A
  3
ACAD_MLINESTYLE
350
17
  3
ACAD_PLOTSETTINGS
350
19
  3
ACAD_PLOTSTYLENAME
350
E
  3
ACDBVARIABLEDICTIONARY
350
34
  3
ACMDICTIONARY
350
43
  3
AMG
350
2B
  3
AMGSNAPSETTINGS
350
6E
  3
DWGPROPS
350
2FE3
  3
ACDBHEADERROUNDTRIPXREC
350
2FEF
  0
DICTIONARY
  5
74
330
1F
100
AcDbDictionary
280
     1
  3
ACAD_INDEX
360
2FE5
  3
ACAD_LAYOUTSELFREF
360
3012
  0
DICTIONARY
  5
3017
330
101
100
AcDbDictionary
280
     1
  3
ACAD_LAYOUTSELFREF
360
3018
  0
DICTIONARY
  5
D
102
{ACAD_REACTORS
330
C
102
}
330
C
100
AcDbDictionary
  0
DICTIONARY
  5
1A
102
{ACAD_REACTORS
330
C
102
}
330
C
100
AcDbDictionary
  0
DICTIONARY
  5
17
102
{ACAD_REACTORS
330
C
102
}
330
C
100
AcDbDictionary
  3
STANDARD
350
18
  0
DICTIONARY
  5
19
102
{ACAD_REACTORS
330
C
102
}
330
C
100
AcDbDictionary
  0
ACDBDICTIONARYWDFLT
  5
E
102
{ACAD_REACTORS
330
C
102
}
330
C
100
AcDbDictionary
281
     1
  3
Normal
350
F
100
AcDbDictionaryWithDefault
340
F
  0
DICTIONARY
  5
34
102
{ACAD_REACTORS
330
C
102
}
330
C
100
AcDbDictionary
  3
INDEXCTL
350
35
  3
SORTENTS
350
B5E
  0
DICTIONARY
  5
43
102
{ACAD_REACTORS
330
C
102
}
330
C
100
AcDbDictionary
  3
ACMSTDDICTIONARY
350
260
  0
DICTIONARY
  5
2B
102
{ACAD_REACTORS
330
C
102
}
330
C
100
AcDbDictionary
  3
ACMGSETTINGS
350
2C
  0
DICTIONARY
  5
6E
102
{ACAD_REACTORS
330
C
102
}
330
C
100
AcDbDictionary
  0
XRECORD
  5
2FE3
102
{ACAD_REACTORS
330
C
102
}
330
C
100
AcDbXrecord
  1
DWGPROPS COOKIE
  2

  3

  4

  6

  7

  8

  9

300
AmdtFileType=82
301
=
302
=
303
=
304
=
305
=
306
=
307
=
308
=
309
=
 40
0.0893061111111111
 41
2452800.443498622
 42
2452946.605999525
  1

 90
        1
  0
DICTIONARY
  5
2FEF
102
{ACAD_REACTORS
330
C
102
}
330
C
100
AcDbDictionary
  3
TSTACKALIGN
350
2FF0
  3
TSTACKSIZE
350
2FF1
  3
HYPERLINKBASE
350
2FF2
  3
STYLESHEET
350
2FF3
  3
LAYOUTDICT
350
2FF4
  3
PLOTSETDICT
350
2FF5
  3
PLOTSTYLNAMDICT
350
2FF6
  3
LWETCUNION
350
2FF7
  3
INSUNITS
350
2FF8
  3
CEPSNTYPE
350
2FF9
  3
FINGERPRINTGUID
350
2FFA
  3
VERSIONGUID
350
2FFB
  3
PSVPSCALE
350
2FFC
  3
DIMSTYLEDATA
350
2FFD
  3
PUCSORTHOREF
350
2FFE
  3
PUCSORTHOVIEW
350
2FFF
  3
PUCSBASE
350
3000
  3
PUCSORGTOP
350
3001
  3
PUCSORGBOTTOM
350
3002
  3
PUCSORGLEFT
350
3003
  3
PUCSORGRIGHT
350
3004
  3
PUCSORGFRONT
350
3005
  3
PUCSORGBACK
350
3006
  3
UCSORTHOREF
350
3007
  3
UCSORTHOVIEW
350
3008
  3
UCSBASE
350
3009
  3
UCSORGTOP
350
300A
  3
UCSORGBOTTOM
350
300B
  3
UCSORGLEFT
350
300C
  3
UCSORGRIGHT
350
300D
  3
UCSORGFRONT
350
300E
  3
UCSORGBACK
350
300F
  0
DICTIONARY
  5
2FE5
102
{ACAD_REACTORS
330
74
102
}
330
74
100
AcDbDictionary
  3
*A1
350
2FE6
  0
XRECORD
  5
3012
102
{ACAD_REACTORS
330
74
102
}
330
74
100
AcDbXrecord
340
1F
  0
XRECORD
  5
3018
102
{ACAD_REACTORS
330
3017
102
}
330
3017
100
AcDbXrecord
340
101
  0
MLINESTYLE
  5
18
102
{ACAD_REACTORS
330
17
102
}
330
17
100
AcDbMlineStyle
  2
STANDARD
 70
     0
  3

 62
   256
 51
90.0
 52
90.0
 71
     2
 49
0.5
 62
   256
  6
BYLAYER
 49
-0.5
 62
   256
  6
BYLAYER
  0
ACDBPLACEHOLDER
  5
F
102
{ACAD_REACTORS
330
E
102
}
330
E
100
AcDbPlaceHolder
280
     0
  0
DICTIONARYVAR
  5
35
102
{ACAD_REACTORS
330
34
102
}
330
34
100
DictionaryVariables
280
     0
  1
1
  0
DICTIONARYVAR
  5
B5E
102
{ACAD_REACTORS
330
34
102
}
330
34
100
DictionaryVariables
280
     0
  1
96
  0
DICTIONARY
  5
260
102
{ACAD_REACTORS
330
43
102
}
330
43
100
AcDbDictionary
  0
DICTIONARY
  5
2C
102
{ACAD_REACTORS
330
2B
102
}
330
2B
100
AcDbDictionary
  3
DWGSETTINGS
350
2D
  0
XRECORD
  5
2FF0
102
{ACAD_REACTORS
330
2FEF
102
}
330
2FEF
100
AcDbXrecord
 90
        1
  0
XRECORD
  5
2FF1
102
{ACAD_REACTORS
330
2FEF
102
}
330
2FEF
100
AcDbXrecord
 90
       70
  0
XRECORD
  5
2FF2
102
{ACAD_REACTORS
330
2FEF
102
}
330
2FEF
100
AcDbXrecord
  1

  0
XRECORD
  5
2FF3
102
{ACAD_REACTORS
330
2FEF
102
}
330
2FEF
100
AcDbXrecord
  1
ASAMI.ctb
  0
XRECORD
  5
2FF4
102
{ACAD_REACTORS
330
2FEF
102
}
330
2FEF
100
AcDbXrecord
340
1A
  0
XRECORD
  5
2FF5
102
{ACAD_REACTORS
330
2FEF
102
}
330
2FEF
100
AcDbXrecord
340
19
  0
XRECORD
  5
2FF6
102
{ACAD_REACTORS
330
2FEF
102
}
330
2FEF
100
AcDbXrecord
340
E
  0
XRECORD
  5
2FF7
102
{ACAD_REACTORS
330
2FEF
102
}
330
2FEF
100
AcDbXrecord
 90
    10781
  0
XRECORD
  5
2FF8
102
{ACAD_REACTORS
330
2FEF
102
}
330
2FEF
100
AcDbXrecord
 90
        4
  0
XRECORD
  5
2FF9
102
{ACAD_REACTORS
330
2FEF
102
}
330
2FEF
100
AcDbXrecord
 90
        0
  0
XRECORD
  5
2FFA
102
{ACAD_REACTORS
330
2FEF
102
}
330
2FEF
100
AcDbXrecord
  1
{AFB28963-8C59-40AE-9337-C84526B81ACE}
  0
XRECORD
  5
2FFB
102
{ACAD_REACTORS
330
2FEF
102
}
330
2FEF
100
AcDbXrecord
  1
{19E1A5CC-D2B7-44E7-97A7-5F95AA9A5BFF}
  0
XRECORD
  5
2FFC
102
{ACAD_REACTORS
330
2FEF
102
}
330
2FEF
100
AcDbXrecord
 40
0.0
  0
XRECORD
  5
2FFD
102
{ACAD_REACTORS
330
2FEF
102
}
330
2FEF
100
AcDbXrecord
1000
DSTYLE
1002
{
1070
    79
 70
     2
1070
   341
340
59
1070
   342
340
59
1070
   371
 70
    -1
1070
   372
 70
    -1
1002
}
  0
XRECORD
  5
2FFE
102
{ACAD_REACTORS
330
2FEF
102
}
330
2FEF
100
AcDbXrecord
340
0
  0
XRECORD
  5
2FFF
102
{ACAD_REACTORS
330
2FEF
102
}
330
2FEF
100
AcDbXrecord
 70
     0
  0
XRECORD
  5
3000
102
{ACAD_REACTORS
330
2FEF
102
}
330
2FEF
100
AcDbXrecord
340
0
  0
XRECORD
  5
3001
102
{ACAD_REACTORS
330
2FEF
102
}
330
2FEF
100
AcDbXrecord
 10
0.0
 20
0.0
 30
0.0
  0
XRECORD
  5
3002
102
{ACAD_REACTORS
330
2FEF
102
}
330
2FEF
100
AcDbXrecord
 10
0.0
 20
0.0
 30
0.0
  0
XRECORD
  5
3003
102
{ACAD_REACTORS
330
2FEF
102
}
330
2FEF
100
AcDbXrecord
 10
0.0
 20
0.0
 30
0.0
  0
XRECORD
  5
3004
102
{ACAD_REACTORS
330
2FEF
102
}
330
2FEF
100
AcDbXrecord
 10
0.0
 20
0.0
 30
0.0
  0
XRECORD
  5
3005
102
{ACAD_REACTORS
330
2FEF
102
}
330
2FEF
100
AcDbXrecord
 10
0.0
 20
0.0
 30
0.0
  0
XRECORD
  5
3006
102
{ACAD_REACTORS
330
2FEF
102
}
330
2FEF
100
AcDbXrecord
 10
0.0
 20
0.0
 30
0.0
  0
XRECORD
  5
3007
102
{ACAD_REACTORS
330
2FEF
102
}
330
2FEF
100
AcDbXrecord
340
0
  0
XRECORD
  5
3008
102
{ACAD_REACTORS
330
2FEF
102
}
330
2FEF
100
AcDbXrecord
 70
     0
  0
XRECORD
  5
3009
102
{ACAD_REACTORS
330
2FEF
102
}
330
2FEF
100
AcDbXrecord
340
0
  0
XRECORD
  5
300A
102
{ACAD_REACTORS
330
2FEF
102
}
330
2FEF
100
AcDbXrecord
 10
0.0
 20
0.0
 30
0.0
  0
XRECORD
  5
300B
102
{ACAD_REACTORS
330
2FEF
102
}
330
2FEF
100
AcDbXrecord
 10
0.0
 20
0.0
 30
0.0
  0
XRECORD
  5
300C
102
{ACAD_REACTORS
330
2FEF
102
}
330
2FEF
100
AcDbXrecord
 10
0.0
 20
0.0
 30
0.0
  0
XRECORD
  5
300D
102
{ACAD_REACTORS
330
2FEF
102
}
330
2FEF
100
AcDbXrecord
 10
0.0
 20
0.0
 30
0.0
  0
XRECORD
  5
300E
102
{ACAD_REACTORS
330
2FEF
102
}
330
2FEF
100
AcDbXrecord
 10
0.0
 20
0.0
 30
0.0
  0
XRECORD
  5
300F
102
{ACAD_REACTORS
330
2FEF
102
}
330
2FEF
100
AcDbXrecord
 10
0.0
 20
0.0
 30
0.0
  0
LAYER_INDEX
  5
2FE6
102
{ACAD_REACTORS
330
2FE5
102
}
330
2FE5
100
AcDbIndex
 40
2453151.579737037
100
AcDbLayerIndex
  8
0
360
2FE7
 90
        0
  8
AM_0
360
2FE8
 90
       51
  8
AM_7
360
2FE9
 90
        1
  8
AM_11
360
2FEA
 90
       18
  8
AM_5
360
2FEB
 90
        5
  8
Defpoints
360
2FEC
 90
        0
  8
AM_6
360
2FED
 90
        1
  0
XRECORD
  5
2D
102
{ACAD_REACTORS
330
2C
102
}
330
2C
100
AcDbXrecord
  1
VERSION
140
15.0
  1
PRODUCT
  2
AutoCAD Mechanical 2000
  0
IDBUFFER
  5
2FE7
330
0
100
AcDbIdBuffer
  0
IDBUFFER
  5
2FE8
330
0
100
AcDbIdBuffer
330
2F5E
330
2F5F
330
2F60
330
C1D
330
C20
330
1F19
330
1F1A
330
1F1B
330
1F1C
330
1F2F
330
1F31
330
1F32
330
1F5B
330
1F5C
330
2437
330
2442
330
245F
330
270B
330
270C
330
2ECF
330
2ED0
330
2ED1
330
2F22
330
2F23
330
2F32
330
2F33
330
2F34
330
2F35
330
2F36
330
2F45
330
2F46
330
2F47
330
2F48
330
2F49
330
2F4D
330
2F4E
330
2F4F
330
2F50
330
2F51
330
2F52
330
2F53
330
2F54
330
2F55
330
2F56
330
2F57
330
2F58
330
2F59
330
2F5A
330
2F5B
330
2F5C
330
2F5D
  0
IDBUFFER
  5
2FE9
330
0
100
AcDbIdBuffer
330
C9F
  0
IDBUFFER
  5
2FEA
330
0
100
AcDbIdBuffer
330
2F4B
330
2F4C
330
144A
330
144B
330
144E
330
144F
330
1450
330
1451
330
1452
330
1453
330
1DAB
330
1DAC
330
1DAD
330
1DAE
330
1DAF
330
1DB0
330
2C01
330
2F4A
  0
IDBUFFER
  5
2FEB
330
0
100
AcDbIdBuffer
330
CC6
330
DF5
330
2424
330
254C
330
299F
  0
IDBUFFER
  5
2FEC
330
0
100
AcDbIdBuffer
  0
IDBUFFER
  5
2FED
330
0
100
AcDbIdBuffer
330
19BD
  0
ENDSEC
  0
EOF
