  0
SECTION
  2
HEADER
  9
$ACADVER
  1
AC1014
  9
$ACADMAINTVER
 70
     9
  9
$DWGCODEPAGE
  3
ANSI_932
  9
$INSBASE
 10
0.0
 20
0.0
 30
0.0
  9
$EXTMIN
 10
-94.02502198083162
 20
-26.25000100000001
 30
-0.00000001
  9
$EXTMAX
 10
15.46484148501987
 20
15.03482745971508
 30
0.00000001
  9
$LIMMIN
 10
-98.94168101531841
 20
-36.66226367413097
  9
$LIMMAX
 10
18.48376559323867
 20
25.04533903870165
  9
$ORTHOMODE
 70
     0
  9
$REGENMODE
 70
     1
  9
$FILLMODE
 70
     1
  9
$QTEXTMODE
 70
     0
  9
$MIRRTEXT
 70
     0
  9
$DRAGMODE
 70
     2
  9
$LTSCALE
 40
1.0
  9
$OSMODE
 70
    55
  9
$ATTMODE
 70
     1
  9
$TEXTSIZE
 40
2.5
  9
$TRACEWID
 40
1.0
  9
$TEXTSTYLE
  7
STANDARD
  9
$CLAYER
  8
AM_0
  9
$CELTYPE
  6
BYLAYER
  9
$CECOLOR
 62
   256
  9
$CELTSCALE
 40
1.0
  9
$DELOBJ
 70
     1
  9
$DISPSILH
 70
     0
  9
$DIMSCALE
 40
0.5
  9
$DIMASZ
 40
2.5
  9
$DIMEXO
 40
1.0
  9
$DIMDLI
 40
12.0
  9
$DIMRND
 40
0.0
  9
$DIMDLE
 40
0.0
  9
$DIMEXE
 40
1.0
  9
$DIMTP
 40
0.1
  9
$DIMTM
 40
0.1
  9
$DIMTXT
 40
3.2
  9
$DIMCEN
 40
0.0
  9
$DIMTSZ
 40
0.0
  9
$DIMTOL
 70
     0
  9
$DIMLIM
 70
     0
  9
$DIMTIH
 70
     0
  9
$DIMTOH
 70
     0
  9
$DIMSE1
 70
     0
  9
$DIMSE2
 70
     0
  9
$DIMTAD
 70
     3
  9
$DIMZIN
 70
     8
  9
$DIMBLK
  1
OPEN30
  9
$DIMASO
 70
     1
  9
$DIMSHO
 70
     1
  9
$DIMPOST
  1

  9
$DIMAPOST
  1
"
  9
$DIMALT
 70
     0
  9
$DIMALTD
 70
     2
  9
$DIMALTF
 40
0.0393701
  9
$DIMLFAC
 40
1.0
  9
$DIMTOFL
 70
     1
  9
$DIMTVP
 40
0.0
  9
$DIMTIX
 70
     0
  9
$DIMSOXD
 70
     0
  9
$DIMSAH
 70
     0
  9
$DIMBLK1
  1

  9
$DIMBLK2
  1

  9
$DIMSTYLE
  2
AM_JIS
  9
$DIMCLRD
 70
   256
  9
$DIMCLRE
 70
   256
  9
$DIMCLRT
 70
     2
  9
$DIMTFAC
 40
0.71
  9
$DIMGAP
 40
1.5
  9
$DIMJUST
 70
     0
  9
$DIMSD1
 70
     0
  9
$DIMSD2
 70
     0
  9
$DIMTOLJ
 70
     0
  9
$DIMTZIN
 70
     0
  9
$DIMALTZ
 70
     0
  9
$DIMALTTZ
 70
     0
  9
$DIMFIT
 70
     3
  9
$DIMUPT
 70
     0
  9
$DIMUNIT
 70
     2
  9
$DIMDEC
 70
     3
  9
$DIMTDEC
 70
     3
  9
$DIMALTU
 70
     2
  9
$DIMALTTD
 70
     2
  9
$DIMTXSTY
  7
ASAMI
  9
$DIMAUNIT
 70
     0
  9
$LUNITS
 70
     2
  9
$LUPREC
 70
     2
  9
$SKETCHINC
 40
1.0
  9
$FILLETRAD
 40
2.5
  9
$AUNITS
 70
     0
  9
$AUPREC
 70
     0
  9
$MENU
  1
.
  9
$ELEVATION
 40
0.0
  9
$PELEVATION
 40
0.0
  9
$THICKNESS
 40
0.0
  9
$LIMCHECK
 70
     0
  9
$BLIPMODE
 70
     0
  9
$CHAMFERA
 40
0.25
  9
$CHAMFERB
 40
0.25
  9
$CHAMFERC
 40
20.0
  9
$CHAMFERD
 40
0.0
  9
$SKPOLY
 70
     0
  9
$TDCREATE
 40
2452800.443498622
  9
$TDUPDATE
 40
2453151.579980636
  9
$TDINDWG
 40
0.0918516782
  9
$TDUSRTIMER
 40
0.0918516782
  9
$USRTIMER
 70
     1
  9
$ANGBASE
 50
0.0
  9
$ANGDIR
 70
     0
  9
$PDMODE
 70
     3
  9
$PDSIZE
 40
0.0
  9
$PLINEWID
 40
0.0
  9
$COORDS
 70
     1
  9
$SPLFRAME
 70
     0
  9
$SPLINETYPE
 70
     6
  9
$SPLINESEGS
 70
     8
  9
$ATTDIA
 70
     1
  9
$ATTREQ
 70
     1
  9
$HANDLING
 70
 12289
  9
$HANDSEED
  5
319C
  9
$SURFTAB1
 70
     6
  9
$SURFTAB2
 70
     6
  9
$SURFTYPE
 70
     6
  9
$SURFU
 70
     6
  9
$SURFV
 70
     6
  9
$UCSNAME
  2

  9
$UCSORG
 10
0.0
 20
0.0
 30
0.0
  9
$UCSXDIR
 10
1.0
 20
0.000000000000002
 30
0.0
  9
$UCSYDIR
 10
-0.000000000000002
 20
1.0
 30
0.0
  9
$PUCSNAME
  2

  9
$PUCSORG
 10
0.0
 20
0.0
 30
0.0
  9
$PUCSXDIR
 10
1.0
 20
0.0
 30
0.0
  9
$PUCSYDIR
 10
0.0
 20
1.0
 30
0.0
  9
$USERI1
 70
     0
  9
$USERI2
 70
     0
  9
$USERI3
 70
     0
  9
$USERI4
 70
     0
  9
$USERI5
 70
     0
  9
$USERR1
 40
0.0
  9
$USERR2
 40
0.0
  9
$USERR3
 40
0.0
  9
$USERR4
 40
0.0
  9
$USERR5
 40
0.0
  9
$WORLDVIEW
 70
     1
  9
$SHADEDGE
 70
     3
  9
$SHADEDIF
 70
    70
  9
$TILEMODE
 70
     1
  9
$MAXACTVP
 70
    64
  9
$PINSBASE
 10
0.0
 20
0.0
 30
0.0
  9
$PLIMCHECK
 70
     0
  9
$PEXTMIN
 10
1.000000000000000E+20
 20
1.000000000000000E+20
 30
1.000000000000000E+20
  9
$PEXTMAX
 10
-1.000000000000000E+20
 20
-1.000000000000000E+20
 30
-1.000000000000000E+20
  9
$PLIMMIN
 10
0.0
 20
0.0
  9
$PLIMMAX
 10
841.0
 20
594.0
  9
$UNITMODE
 70
     0
  9
$VISRETAIN
 70
     1
  9
$PLINEGEN
 70
     0
  9
$PSLTSCALE
 70
     0
  9
$TREEDEPTH
 70
  3020
  9
$PICKSTYLE
 70
     0
  9
$CMLSTYLE
  2
STANDARD
  9
$CMLJUST
 70
     0
  9
$CMLSCALE
 40
20.0
  9
$PROXYGRAPHICS
 70
     1
  9
$MEASUREMENT
 70
     1
  0
ENDSEC
  0
SECTION
  2
CLASSES
  0
CLASS
  1
ACDBDICTIONARYWDFLT
  2
AcDbDictionaryWithDefault
  3
AutoCAD 2000
 90
        0
280
     0
281
     0
  0
CLASS
  1
ACDBPLACEHOLDER
  2
AcDbPlaceHolder
  3
AutoCAD 2000
 90
        0
280
     0
281
     0
  0
CLASS
  1
LAYOUT
  2
AcDbLayout
  3
AutoCAD 2000
 90
        0
280
     0
281
     0
  0
CLASS
  1
AMGSETTINGSOBJ
  2
AmgSettingsObj
  3
"AcadM|Product Description: AutoCAD Mechanical 2000|Company: Autodesk"
 90
        0
280
     0
281
     0
  0
CLASS
  1
ACME_DOCUMENT
  2
AcMeDbDoc
  3
AcMeServices
 90
        0
280
     0
281
     0
  0
CLASS
  1
ACMESCOPE
  2
AcMeScope
  3
AcMeServices
 90
        0
280
     0
281
     0
  0
CLASS
  1
ACMECOMMANDHISTORY
  2
AcMeCommandHistory
  3
AcMeServices
 90
        0
280
     0
281
     0
  0
CLASS
  1
DICTIONARYVAR
  2
AcDbDictionaryVar
  3
AutoCAD 2000
 90
        0
280
     0
281
     0
  0
CLASS
  1
ACIMSYSVARMAN
  2
AcImSysVarManager
  3
AcMeServices
 90
        0
280
     0
281
     0
  0
CLASS
  1
ACIMREALSYSVAR
  2
AcImRealSysVar
  3
AcMeServices
 90
        0
280
     0
281
     0
  0
CLASS
  1
ACIMINTSYSVAR
  2
AcImIntSysVar
  3
AcMeServices
 90
        0
280
     0
281
     0
  0
CLASS
  1
ACMEDRAWINGMAN
  2
AcMeDrawingMan
  3
AcMeServices
 90
        0
280
     0
281
     0
  0
CLASS
  1
ACMEVIEW
  2
AcMeView
  3
AcMeServices
 90
        0
280
     0
281
     0
  0
CLASS
  1
ACDBENTITYCACHE
  2
AcMeEntityCache
  3
AcMeServices
 90
        0
280
     0
281
     0
  0
CLASS
  1
GSMANAGER
  2
AcMeGSManager
  3
AcMeServices
 90
        0
280
     0
281
     0
  0
CLASS
  1
AmdtInternalReactor
  2
AmdtInternalReactor
  3
AcMeServices
 90
        0
280
     0
281
     0
  0
CLASS
  1
ACMESTATEMGR
  2
AcMeStateMgr
  3
AcMeServices
 90
        0
280
     0
281
     0
  0
CLASS
  1
ACME_DATABASE
  2
AcMeDbDatabase
  3
AcMeServices
 90
        0
280
     0
281
     0
  0
CLASS
  1
ACRFINSADJUSTERMGR
  2
AcRfInsAdjusterMgr
  3
AcMeServices
 90
        0
280
     0
281
     0
  0
CLASS
  1
ACMDATADICTIONARY
  2
AcmDataDictionary
  3
"AcmSymBB|Product Description: AutoCAD Mechanical 2000|Company: Autodesk"
 90
        0
280
     0
281
     0
  0
CLASS
  1
ACMDATAENTRYBLOCK
  2
AcmDataEntryBlock
  3
"AcmSymBB|Product Description: AutoCAD Mechanical 2000|Company: Autodesk"
 90
        0
280
     0
281
     0
  0
CLASS
  1
AMGOBJPROPCFG
  2
AmgObjPropCfg
  3
"AmgLay|Product Description: AutoCAD Mechanical 2000|Company: Autodesk"
 90
        1
280
     0
281
     0
  0
CLASS
  1
ACAMGFILTERDAT
  2
AcAmgFilterDat
  3
"AcadM|Product Description: AutoCAD Mechanical 2000|Company: Autodesk"
 90
        0
280
     0
281
     0
  0
CLASS
  1
LAYER_INDEX
  2
AcDbLayerIndex
  3
AutoCAD 2000
 90
        0
280
     0
281
     0
  0
CLASS
  1
IDBUFFER
  2
AcDbIdBuffer
  3
AutoCAD 2000
 90
        0
280
     0
281
     0
  0
CLASS
  1
ACIMSTRSYSVAR
  2
AcImStrSysVar
  3
AcMeServices
 90
        0
280
     0
281
     0
  0
CLASS
  1
ACMSTANDARDJIS
  2
AcmStandardJIS
  3
"AcmSymBB|Product Description: AutoCAD Mechanical 2000|Company: Autodesk"
 90
        0
280
     0
281
     0
  0
CLASS
  1
ACMSURFSTANDARDJIS
  2
AcmSurfTextStdJIS
  3
"AcmSymBB|Product Description: AutoCAD Mechanical 2000|Company: Autodesk"
 90
        0
280
     0
281
     0
  0
CLASS
  1
ACMFCFSTANDARDJIS
  2
AcmFCFStdJIS
  3
"AcmSymBB|Product Description: AutoCAD Mechanical 2000|Company: Autodesk"
 90
        0
280
     0
281
     0
  0
CLASS
  1
ACMWELDSTANDARDJIS
  2
AcmWeldingStdJIS
  3
"AcmSymBB|Product Description: AutoCAD Mechanical 2000|Company: Autodesk"
 90
        0
280
     0
281
     0
  0
CLASS
  1
ACMIDSTANDARDJIS
  2
AcmIdStdJIS
  3
"AcmSymBB|Product Description: AutoCAD Mechanical 2000|Company: Autodesk"
 90
        0
280
     0
281
     0
  0
CLASS
  1
ACMDATUMSTANDARDJIS
  2
AcmDatumStdJIS
  3
"AcmSymBB|Product Description: AutoCAD Mechanical 2000|Company: Autodesk"
 90
        0
280
     0
281
     0
  0
CLASS
  1
ACMBOMSTANDARDJIS
  2
AcmBOMStdJIS
  3
"AcmSymBB|Product Description: AutoCAD Mechanical 2000|Company: Autodesk"
 90
        0
280
     0
281
     0
  0
CLASS
  1
ACMSTANDARDANSI
  2
AcmStandardANSI
  3
"AcmSymBB|Product Description: AutoCAD Mechanical 2000|Company: Autodesk"
 90
        0
280
     0
281
     0
  0
CLASS
  1
ACMSURFSTANDARDANSI
  2
AcmSurfTextStdANSI
  3
"AcmSymBB|Product Description: AutoCAD Mechanical 2000|Company: Autodesk"
 90
        0
280
     0
281
     0
  0
CLASS
  1
ACMFCFSTANDARDANSI
  2
AcmFCFStdANSI
  3
"AcmSymBB|Product Description: AutoCAD Mechanical 2000|Company: Autodesk"
 90
        0
280
     0
281
     0
  0
CLASS
  1
ACMWELDSTANDARDANSI
  2
AcmWeldingStdANSI
  3
"AcmSymBB|Product Description: AutoCAD Mechanical 2000|Company: Autodesk"
 90
        0
280
     0
281
     0
  0
CLASS
  1
ACMIDSTANDARDANSI
  2
AcmIdStdANSI
  3
"AcmSymBB|Product Description: AutoCAD Mechanical 2000|Company: Autodesk"
 90
        0
280
     0
281
     0
  0
CLASS
  1
ACMDATUMSTANDARDANSI
  2
AcmDatumStdANSI
  3
"AcmSymBB|Product Description: AutoCAD Mechanical 2000|Company: Autodesk"
 90
        0
280
     0
281
     0
  0
CLASS
  1
ACMBOMSTANDARDANSI
  2
AcmBOMStdANSI
  3
"AcmSymBB|Product Description: AutoCAD Mechanical 2000|Company: Autodesk"
 90
        0
280
     0
281
     0
  0
CLASS
  1
ACMSTANDARDBSI
  2
AcmStandardBSI
  3
"AcmSymBB|Product Description: AutoCAD Mechanical 2000|Company: Autodesk"
 90
        0
280
     0
281
     0
  0
CLASS
  1
ACMSURFSTANDARDBSI
  2
AcmSurfTextStdBSI
  3
"AcmSymBB|Product Description: AutoCAD Mechanical 2000|Company: Autodesk"
 90
        0
280
     0
281
     0
  0
CLASS
  1
ACMFCFSTANDARDBSI
  2
AcmFCFStdBSI
  3
"AcmSymBB|Product Description: AutoCAD Mechanical 2000|Company: Autodesk"
 90
        0
280
     0
281
     0
  0
CLASS
  1
ACMWELDSTANDARDBSI
  2
AcmWeldingStdBSI
  3
"AcmSymBB|Product Description: AutoCAD Mechanical 2000|Company: Autodesk"
 90
        0
280
     0
281
     0
  0
CLASS
  1
ACMIDSTANDARDBSI
  2
AcmIdStdBSI
  3
"AcmSymBB|Product Description: AutoCAD Mechanical 2000|Company: Autodesk"
 90
        0
280
     0
281
     0
  0
CLASS
  1
ACMDATUMSTANDARDBSI
  2
AcmDatumStdBSI
  3
"AcmSymBB|Product Description: AutoCAD Mechanical 2000|Company: Autodesk"
 90
        0
280
     0
281
     0
  0
CLASS
  1
ACMBOMSTANDARDBSI
  2
AcmBOMStdBSI
  3
"AcmSymBB|Product Description: AutoCAD Mechanical 2000|Company: Autodesk"
 90
        0
280
     0
281
     0
  0
CLASS
  1
LONG_TRANSACTION
  2
AcDbLongTransaction
  3
AutoCAD 2000
 90
        0
280
     0
281
     0
  0
CLASS
  1
LWPOLYLINE
  2
AcDbPolyline
  3
AutoCAD 2000
 90
        0
280
     0
281
     1
  0
CLASS
  1
HATCH
  2
AcDbHatch
  3
AutoCAD 2000
 90
        0
280
     0
281
     1
  0
CLASS
  1
XRECORD
  2
AcDbXrecord
  3
AutoCAD 2000
 90
        0
280
     0
281
     0
  0
ENDSEC
  0
SECTION
  2
TABLES
  0
TABLE
  2
VPORT
  5
8
330
0
100
AcDbSymbolTable
 70
     3
  0
VPORT
  5
3171
330
8
100
AcDbSymbolTableRecord
100
AcDbViewportTableRecord
  2
*ACTIVE
 70
     0
 10
0.0
 20
0.0
 11
1.0
 21
1.0
 12
-37.23373132745308
 22
-5.606318493905618
 13
0.0
 23
0.0
 14
2.5
 24
2.5
 15
10.0
 25
10.0
 16
0.0
 26
0.0
 36
1.0
 17
0.0
 27
0.0
 37
0.0
 40
72.89744113815666
 41
1.56570841889117
 42
50.0
 43
0.0
 44
0.0
 50
0.0
 51
0.0
 71
     0
 72
   100
 73
     1
 74
     1
 75
     0
 76
     0
 77
     0
 78
     0
  0
ENDTAB
  0
TABLE
  2
LTYPE
  5
5
330
0
100
AcDbSymbolTable
 70
    10
  0
LTYPE
  5
14
330
5
100
AcDbSymbolTableRecord
100
AcDbLinetypeTableRecord
  2
BYBLOCK
 70
     0
  3

 72
    65
 73
     0
 40
0.0
  0
LTYPE
  5
15
330
5
100
AcDbSymbolTableRecord
100
AcDbLinetypeTableRecord
  2
BYLAYER
 70
     0
  3

 72
    65
 73
     0
 40
0.0
  0
LTYPE
  5
16
330
5
100
AcDbSymbolTableRecord
100
AcDbLinetypeTableRecord
  2
CONTINUOUS
 70
     0
  3
Solid line
 72
    65
 73
     0
 40
0.0
  0
LTYPE
  5
4B
330
5
100
AcDbSymbolTableRecord
100
AcDbLinetypeTableRecord
  2
AM_ISO02W050
 70
     0
  3
__ __ __ __ __ __ __ __ __ __ __ __ __ __ __
 72
    65
 73
     2
 40
7.5
 49
6.0
 74
     0
 49
-1.5
 74
     0
  0
LTYPE
  5
4C
330
5
100
AcDbSymbolTableRecord
100
AcDbLinetypeTableRecord
  2
AM_ISO08W050
 70
     0
  3
____ . ____ . ____ . ____ . ____ . ____ . ____
 72
    65
 73
     4
 40
18.0
 49
12.0
 74
     0
 49
-1.5
 74
     0
 49
3.0
 74
     0
 49
-1.5
 74
     0
  0
LTYPE
  5
4D
330
5
100
AcDbSymbolTableRecord
100
AcDbLinetypeTableRecord
  2
AM_ISO09W050
 70
     0
  3
_____ . . _____ . . _____ . . ____ .. ____
 72
    65
 73
     6
 40
22.5
 49
12.0
 74
     0
 49
-1.5
 74
     0
 49
3.0
 74
     0
 49
-1.5
 74
     0
 49
3.0
 74
     0
 49
-1.5
 74
     0
  0
LTYPE
  5
4E
330
5
100
AcDbSymbolTableRecord
100
AcDbLinetypeTableRecord
  2
AMCONSTR
 70
     0
  3
_______________________
 72
    65
 73
     2
 40
9999.0
 49
9999.0
 74
     0
 49
0.0
 74
     0
  0
LTYPE
  5
4F
330
5
100
AcDbSymbolTableRecord
100
AcDbLinetypeTableRecord
  2
AM_ISO02W050X2
 70
     0
  3
 _ _ _ _ _ _ _ _ _ _ _ _
 72
    65
 73
     2
 40
3.75
 49
3.0
 74
     0
 49
-0.75
 74
     0
  0
LTYPE
  5
50
330
5
100
AcDbSymbolTableRecord
100
AcDbLinetypeTableRecord
  2
AM_ISO08W050X2
 70
     0
  3
__ . __ . __ . __ . __ . __
 72
    65
 73
     4
 40
9.0
 49
6.0
 74
     0
 49
-0.75
 74
     0
 49
1.5
 74
     0
 49
-0.75
 74
     0
  0
LTYPE
  5
53
330
5
100
AcDbSymbolTableRecord
100
AcDbLinetypeTableRecord
  2
AMZIGZAG
 70
     0
  3
/\/-/\/-/\/-/\/-/\/-/\/
 72
    65
 73
     2
 40
11.00009999999999
 49
0.0001
 74
     4
 75
   135
340
52
 46
0.04
 50
0.0
 44
0.0
 45
0.0
 49
-11.0
 74
     0
  0
LTYPE
  5
166
330
5
100
AcDbSymbolTableRecord
100
AcDbLinetypeTableRecord
  2
ACJISTGL
 70
     0
  3
_ _ _ _ _
 72
    65
 73
     2
 40
3.0
 49
2.0
 74
     0
 49
-1.0
 74
     0
  0
LTYPE
  5
26A
330
5
100
AcDbSymbolTableRecord
100
AcDbLinetypeTableRecord
  2
ACJISTGB
 70
     0
  3
__ . . __ . .
 72
    65
 73
     6
 40
9.0
 49
4.0
 74
     0
 49
-1.0
 74
     0
 49
1.0
 74
     0
 49
-1.0
 74
     0
 49
1.0
 74
     0
 49
-1.0
 74
     0
  0
ENDTAB
  0
TABLE
  2
LAYER
  5
2
330
0
100
AcDbSymbolTable
 70
     7
  0
LAYER
  5
10
330
2
100
AcDbSymbolTableRecord
100
AcDbLayerTableRecord
  2
0
 70
     0
 62
     7
  6
CONTINUOUS
  0
LAYER
  5
3F9
330
2
100
AcDbSymbolTableRecord
100
AcDbLayerTableRecord
  2
AM_0
 70
     0
 62
     7
  6
CONTINUOUS
  0
LAYER
  5
C7C
330
2
100
AcDbSymbolTableRecord
100
AcDbLayerTableRecord
  2
AM_7
 70
     0
 62
     4
  6
AM_ISO08W050
  0
LAYER
  5
C97
330
2
100
AcDbSymbolTableRecord
100
AcDbLayerTableRecord
  2
AM_11
 70
     0
 62
     3
  6
AM_ISO09W050
  0
LAYER
  5
CC5
330
2
100
AcDbSymbolTableRecord
100
AcDbLayerTableRecord
  2
AM_5
 70
     0
 62
     3
  6
CONTINUOUS
  0
LAYER
  5
CC7
330
2
100
AcDbSymbolTableRecord
100
AcDbLayerTableRecord
  2
DEFPOINTS
 70
     0
 62
     7
  6
CONTINUOUS
  0
LAYER
  5
19BC
330
2
100
AcDbSymbolTableRecord
100
AcDbLayerTableRecord
  2
AM_6
 70
     0
 62
     2
  6
CONTINUOUS
  0
ENDTAB
  0
TABLE
  2
STYLE
  5
3
330
0
100
AcDbSymbolTable
 70
     5
  0
STYLE
  5
11
330
3
100
AcDbSymbolTableRecord
100
AcDbTextStyleTableRecord
  2
STANDARD
 70
     0
 40
0.0
 41
1.0
 50
0.0
 71
     0
 42
2.5
  3
simplex.shx
  4
EXTFONT.SHX
  0
STYLE
  5
52
330
3
100
AcDbSymbolTableRecord
100
AcDbTextStyleTableRecord
  2

 70
     1
 40
0.0
 41
1.0
 50
0.0
 71
     0
 42
2.5
  3
ltypeshp.shx
  4

  0
STYLE
  5
6B
330
3
100
AcDbSymbolTableRecord
100
AcDbTextStyleTableRecord
  2
ASAMI
 70
     0
 40
0.0
 41
1.0
 50
0.0
 71
     0
 42
2.5
  3
simplex.shx
  4
EXTFONT.SHX
  0
STYLE
  5
262
330
3
100
AcDbSymbolTableRecord
100
AcDbTextStyleTableRecord
  2
ACJISTS
 70
     0
 40
1.0
 41
1.0
 50
0.0
 71
     0
 42
2.5
  3
simplex.shx
  4
bigfont.shx
  0
STYLE
  5
269
330
3
100
AcDbSymbolTableRecord
100
AcDbTextStyleTableRecord
  2
ACJISGDT
 70
     0
 40
0.0
 41
1.0
 50
0.0
 71
     0
 42
2.5
  3
amgdtans.shx
  4

  0
ENDTAB
  0
TABLE
  2
VIEW
  5
6
330
0
100
AcDbSymbolTable
 70
     0
  0
ENDTAB
  0
TABLE
  2
UCS
  5
7
330
0
100
AcDbSymbolTable
 70
     0
  0
ENDTAB
  0
TABLE
  2
APPID
  5
9
330
0
100
AcDbSymbolTable
 70
    16
  0
APPID
  5
12
330
9
100
AcDbSymbolTableRecord
100
AcDbRegAppTableRecord
  2
ACAD
 70
     0
  0
APPID
  5
30
330
9
100
AcDbSymbolTableRecord
100
AcDbRegAppTableRecord
  2
MCAD_NO_VIS
 70
     0
  0
APPID
  5
31
330
9
100
AcDbSymbolTableRecord
100
AcDbRegAppTableRecord
  2
ACAD_TEMP_GRAPHIC
 70
     0
  0
APPID
  5
2C2
330
9
100
AcDbSymbolTableRecord
100
AcDbRegAppTableRecord
  2
GENIUS_GENDTOL_13
 70
     0
  0
APPID
  5
339
330
9
100
AcDbSymbolTableRecord
100
AcDbRegAppTableRecord
  2
GENIUS_GENODEF_13
 70
     0
  0
APPID
  5
33A
330
9
100
AcDbSymbolTableRecord
100
AcDbRegAppTableRecord
  2
GENIUS_GENOBJ-N-RSBK_13
 70
     0
  0
APPID
  5
33B
330
9
100
AcDbSymbolTableRecord
100
AcDbRegAppTableRecord
  2
GENIUS_GENOBJ-N-LIB_13
 70
     0
  0
APPID
  5
33C
330
9
100
AcDbSymbolTableRecord
100
AcDbRegAppTableRecord
  2
GENIUS_GENSCALE_13
 70
     0
  0
APPID
  5
378
330
9
100
AcDbSymbolTableRecord
100
AcDbRegAppTableRecord
  2
GENIUS_GENDIMSH_14
 70
     0
  0
APPID
  5
C82
330
9
100
AcDbSymbolTableRecord
100
AcDbRegAppTableRecord
  2
GENIUS_GENOBJ-N-CRS_13
 70
     0
  0
APPID
  5
C83
330
9
100
AcDbSymbolTableRecord
100
AcDbRegAppTableRecord
  2
GENIUS_GENOENT_13
 70
     0
  0
APPID
  5
C84
330
9
100
AcDbSymbolTableRecord
100
AcDbRegAppTableRecord
  2
GENIUS_GENOREF_13
 70
     0
  0
APPID
  5
C85
330
9
100
AcDbSymbolTableRecord
100
AcDbRegAppTableRecord
  2
GENIUS_GENOLIS_13
 70
     0
  0
APPID
  5
CA0
330
9
100
AcDbSymbolTableRecord
100
AcDbRegAppTableRecord
  2
GENIUS_GENOBJ-N-CEN_13
 70
     0
  0
APPID
  5
1CFA
330
9
100
AcDbSymbolTableRecord
100
AcDbRegAppTableRecord
  2
GENIUS_GENFIL_13
 70
     0
  0
APPID
  5
1CFB
330
9
100
AcDbSymbolTableRecord
100
AcDbRegAppTableRecord
  2
GENIUS_GENOBJ-N-CHA_13
 70
     0
  0
ENDTAB
  0
TABLE
  2
DIMSTYLE
  5
A
330
0
100
AcDbSymbolTable
 70
     9
  0
DIMSTYLE
105
58
330
A
100
AcDbSymbolTableRecord
100
AcDbDimStyleTableRecord
  2
AM_JIS
 70
     0
  3

  4
"
  5
OPEN30
  6

  7

 40
0.5
 41
2.5
 42
1.0
 43
12.0
 44
1.0
 45
0.0
 46
0.0
 47
0.1
 48
0.1
140
3.2
141
0.0
142
0.0
143
0.0393701
144
1.0
145
0.0
146
0.71
147
1.5
 71
     0
 72
     0
 73
     0
 74
     0
 75
     0
 76
     0
 77
     3
 78
     8
170
     0
171
     2
172
     1
173
     0
174
     0
175
     0
176
   256
177
   256
178
     2
270
     2
271
     3
272
     3
273
     2
274
     2
340
6B
275
     0
280
     0
281
     0
282
     0
283
     0
284
     0
285
     0
286
     0
287
     3
288
     0
  0
DIMSTYLE
105
5F
330
A
100
AcDbSymbolTableRecord
100
AcDbDimStyleTableRecord
  2
AM_JIS$3
 70
     0
  3

  4
"
  5
OPEN30
  6

  7

 40
0.5
 41
2.5
 42
1.0
 43
10.0
 44
1.0
 45
0.0
 46
0.0
 47
0.1
 48
0.1
140
3.2
141
0.0
142
0.0
143
0.0393701
144
1.0
145
0.0
146
0.71
147
1.5
 71
     0
 72
     0
 73
     0
 74
     1
 75
     0
 76
     0
 77
     3
 78
     8
170
     0
171
     2
172
     0
173
     0
174
     0
175
     0
176
   256
177
   256
178
     2
270
     2
271
     2
272
     3
273
     2
274
     2
340
6B
275
     0
280
     0
281
     0
282
     0
283
     0
284
     0
285
     0
286
     0
287
     0
288
     1
  0
DIMSTYLE
105
60
330
A
100
AcDbSymbolTableRecord
100
AcDbDimStyleTableRecord
  2
AM_JIS$4
 70
     0
  3

  4
"
  5
OPEN30
  6

  7

 40
0.5
 41
2.5
 42
1.0
 43
10.0
 44
1.0
 45
0.0
 46
0.0
 47
0.1
 48
0.1
140
3.2
141
0.0
142
0.0
143
0.0393701
144
1.0
145
0.0
146
0.71
147
1.5
 71
     0
 72
     0
 73
     0
 74
     1
 75
     0
 76
     0
 77
     3
 78
     8
170
     0
171
     2
172
     0
173
     0
174
     0
175
     0
176
   256
177
   256
178
     2
270
     2
271
     2
272
     3
273
     2
274
     2
340
6B
275
     0
280
     0
281
     0
282
     0
283
     0
284
     0
285
     0
286
     0
287
     0
288
     1
  0
DIMSTYLE
105
61
330
A
100
AcDbSymbolTableRecord
100
AcDbDimStyleTableRecord
  2
AM_JIS$6
 70
     0
  3

  4
"
  5
OPEN30
  6

  7

 40
0.5
 41
2.5
 42
1.0
 43
10.0
 44
1.0
 45
0.0
 46
0.0
 47
0.1
 48
0.1
140
3.2
141
0.0
142
0.0
143
0.0393701
144
1.0
145
0.0
146
0.71
147
1.5
 71
     0
 72
     0
 73
     0
 74
     0
 75
     0
 76
     0
 77
     0
 78
     8
170
     0
171
     2
172
     1
173
     0
174
     0
175
     0
176
   256
177
   256
178
     2
270
     2
271
     2
272
     2
273
     2
274
     2
340
6B
275
     0
280
     0
281
     0
282
     0
283
     0
284
     0
285
     0
286
     0
287
     3
288
     0
  0
DIMSTYLE
105
62
330
A
100
AcDbSymbolTableRecord
100
AcDbDimStyleTableRecord
  2
AM_JIS$7
 70
     0
  3

  4
"
  5
OPEN30
  6

  7

 40
0.5
 41
2.5
 42
1.0
 43
10.0
 44
1.0
 45
0.0
 46
0.0
 47
0.1
 48
0.1
140
3.2
141
0.0
142
0.0
143
0.0393701
144
1.0
145
0.0
146
0.71
147
1.5
 71
     0
 72
     0
 73
     0
 74
     0
 75
     0
 76
     0
 77
     3
 78
     8
170
     0
171
     2
172
     1
173
     0
174
     0
175
     0
176
   256
177
   256
178
     2
270
     2
271
     2
272
     3
273
     2
274
     2
340
6B
275
     0
280
     0
281
     0
282
     0
283
     0
284
     0
285
     0
286
     0
287
     3
288
     0
  0
DIMSTYLE
105
63
330
A
100
AcDbSymbolTableRecord
100
AcDbDimStyleTableRecord
  2
AM_JIS$SF
 70
     0
  3

  4
"
  5
OPEN30
  6

  7

 40
0.5
 41
2.5
 42
1.0
 43
10.0
 44
1.0
 45
0.0
 46
0.0
 47
0.1
 48
0.1
140
3.2
141
0.0
142
0.0
143
0.0393701
144
1.0
145
0.0
146
0.71
147
1.5
 71
     0
 72
     0
 73
     0
 74
     0
 75
     1
 76
     1
 77
     3
 78
     8
170
     0
171
     2
172
     1
173
     0
174
     0
175
     0
176
   256
177
   256
178
     2
270
     2
271
     2
272
     2
273
     2
274
     2
340
6B
275
     0
280
     0
281
     0
282
     0
283
     0
284
     0
285
     0
286
     0
287
     3
288
     0
  0
DIMSTYLE
105
68
330
A
100
AcDbSymbolTableRecord
100
AcDbDimStyleTableRecord
  2
AM_JIS$SH
 70
     0
  3

  4
"
  5

  6
GENAXEH
  7
OPEN30
 40
0.5
 41
2.5
 42
1.0
 43
10.0
 44
1.0
 45
0.0
 46
0.0
 47
0.1
 48
0.1
140
3.2
141
0.0
142
0.0
143
0.0393701
144
2.0
145
0.0
146
0.71
147
1.5
 71
     0
 72
     0
 73
     0
 74
     0
 75
     1
 76
     1
 77
     3
 78
     8
170
     0
171
     2
172
     1
173
     1
174
     0
175
     0
176
   256
177
   256
178
     2
270
     2
271
     2
272
     2
273
     2
274
     2
340
6B
275
     0
280
     0
281
     0
282
     0
283
     0
284
     0
285
     0
286
     0
287
     3
288
     0
  0
DIMSTYLE
105
B34
102
{ACAD_REACTORS
330
299F
102
}
330
A
100
AcDbSymbolTableRecord
100
AcDbDimStyleTableRecord
  2
AM_JIS$2
 70
     0
  3

  4
"
  5
OPEN30
  6

  7

 40
0.5
 41
2.5
 42
1.0
 43
12.0
 44
1.0
 45
0.0
 46
0.0
 47
0.1
 48
0.1
140
3.2
141
0.0
142
0.0
143
0.0393701
144
1.0
145
0.0
146
0.71
147
1.5
 71
     0
 72
     0
 73
     0
 74
     0
 75
     0
 76
     0
 77
     3
 78
     8
170
     0
171
     2
172
     1
173
     0
174
     0
175
     0
176
   256
177
   256
178
     2
270
     2
271
     3
272
     3
273
     2
274
     2
340
6B
275
     0
280
     0
281
     0
282
     0
283
     0
284
     0
285
     0
286
     0
287
     3
288
     0
  0
DIMSTYLE
105
BA5
102
{ACAD_REACTORS
330
CC6
330
DF5
330
2424
330
254C
102
}
330
A
100
AcDbSymbolTableRecord
100
AcDbDimStyleTableRecord
  2
AM_JIS$0
 70
     0
  3

  4
"
  5
OPEN30
  6

  7

 40
0.5
 41
2.5
 42
0.0
 43
10.0
 44
1.0
 45
0.0
 46
0.0
 47
0.1
 48
0.1000000001
140
3.799999999999999
141
0.0
142
0.0
143
0.0393701
144
1.0
145
0.0
146
0.71
147
1.5
 71
     0
 72
     0
 73
     0
 74
     0
 75
     0
 76
     0
 77
     3
 78
     1
170
     0
171
     2
172
     1
173
     0
174
     0
175
     0
176
     3
177
     3
178
     2
270
     2
271
     2
272
     2
273
     2
274
     2
340
11
275
     1
280
     0
281
     0
282
     0
283
     0
284
     8
285
     0
286
     0
287
     0
288
     0
  0
ENDTAB
  0
TABLE
  2
BLOCK_RECORD
  5
1
330
0
100
AcDbSymbolTable
 70
    10
  0
BLOCK_RECORD
  5
1F
102
{ACAD_XDICTIONARY
360
74
102
}
330
1
100
AcDbSymbolTableRecord
100
AcDbBlockTableRecord
  2
*MODEL_SPACE
  0
BLOCK_RECORD
  5
101
102
{ACAD_XDICTIONARY
360
319A
102
}
330
1
100
AcDbSymbolTableRecord
100
AcDbBlockTableRecord
  2
*PAPER_SPACE
  0
BLOCK_RECORD
  5
59
330
1
100
AcDbSymbolTableRecord
100
AcDbBlockTableRecord
  2
_OPEN30
  0
BLOCK_RECORD
  5
64
330
1
100
AcDbSymbolTableRecord
100
AcDbBlockTableRecord
  2
GENAXEH
  0
BLOCK_RECORD
  5
CC8
330
1
100
AcDbSymbolTableRecord
100
AcDbBlockTableRecord
  2
*D5
  0
BLOCK_RECORD
  5
DF6
330
1
100
AcDbSymbolTableRecord
100
AcDbBlockTableRecord
  2
*D6
  0
BLOCK_RECORD
  5
2425
330
1
100
AcDbSymbolTableRecord
100
AcDbBlockTableRecord
  2
*D7
  0
BLOCK_RECORD
  5
254D
330
1
100
AcDbSymbolTableRecord
100
AcDbBlockTableRecord
  2
*D8
  0
BLOCK_RECORD
  5
29A0
330
1
100
AcDbSymbolTableRecord
100
AcDbBlockTableRecord
  2
*D9
  0
ENDTAB
  0
ENDSEC
  0
SECTION
  2
BLOCKS
  0
BLOCK
  5
20
330
1F
100
AcDbEntity
  8
0
100
AcDbBlockBegin
  2
*MODEL_SPACE
 70
     0
 10
0.0
 20
0.0
 30
0.0
  3
*MODEL_SPACE
  1

  0
ENDBLK
  5
21
330
1F
100
AcDbEntity
  8
0
100
AcDbBlockEnd
  0
BLOCK
  5
103
330
101
100
AcDbEntity
 67
     1
  8
0
100
AcDbBlockBegin
  2
*PAPER_SPACE
 70
     0
 10
0.0
 20
0.0
 30
0.0
  3
*PAPER_SPACE
  1

  0
ENDBLK
  5
104
330
101
100
AcDbEntity
 67
     1
  8
0
100
AcDbBlockEnd
  0
BLOCK
  5
5D
330
59
100
AcDbEntity
  8
0
100
AcDbBlockBegin
  2
_OPEN30
 70
     0
 10
0.0
 20
0.0
 30
0.0
  3
_OPEN30
  1

  0
LINE
  5
5A
330
59
100
AcDbEntity
  8
0
 62
     0
100
AcDbLine
 10
-1.0
 20
0.26794919
 30
0.0
 11
0.0
 21
0.0
 31
0.0
  0
LINE
  5
5B
330
59
100
AcDbEntity
  8
0
 62
     0
100
AcDbLine
 10
0.0
 20
0.0
 30
0.0
 11
-1.0
 21
-0.26794919
 31
0.0
  0
LINE
  5
5C
330
59
100
AcDbEntity
  8
0
 62
     0
100
AcDbLine
 10
0.0
 20
0.0
 30
0.0
 11
-1.0
 21
0.0
 31
0.0
  0
ENDBLK
  5
5E
330
59
100
AcDbEntity
  8
0
100
AcDbBlockEnd
  0
BLOCK
  5
66
330
64
100
AcDbEntity
  8
0
100
AcDbBlockBegin
  2
GENAXEH
 70
     0
 10
0.0
 20
0.0
 30
0.0
  3
GENAXEH
  1

  0
LINE
  5
65
330
64
100
AcDbEntity
  8
0
100
AcDbLine
 10
-1.0
 20
0.0
 30
0.0
 11
1.0
 21
0.0
 31
0.0
  0
ENDBLK
  5
67
330
64
100
AcDbEntity
  8
0
100
AcDbBlockEnd
  0
BLOCK
  5
CD2
330
CC8
100
AcDbEntity
  8
0
100
AcDbBlockBegin
  2
*D5
 70
     1
 10
0.0
 20
0.0
 30
0.0
  3
*D5
  1

  0
LINE
  5
3126
330
CC8
100
AcDbEntity
  8
AM_5
 62
     3
100
AcDbLine
 10
-82.99999999999995
 20
-2.750000000000156
 30
0.0
 11
-82.99999999999995
 21
-15.50000099999998
 31
0.0
  0
LINE
  5
3127
330
CC8
100
AcDbEntity
  8
AM_5
 62
     3
100
AcDbLine
 10
-0.9999999999999896
 20
-2.94999983704651
 30
0.0
 11
-0.9999999999999904
 21
-15.50000099999998
 31
0.0
  0
LINE
  5
3128
330
CC8
100
AcDbEntity
  8
AM_5
 62
     3
100
AcDbLine
 10
-81.74999999999995
 20
-15.00000099999998
 30
0.0
 11
-2.24999999999999
 21
-15.00000099999998
 31
0.0
  0
INSERT
  5
3129
330
CC8
100
AcDbEntity
  8
AM_5
 62
     3
100
AcDbBlockReference
  2
_OPEN30
 10
-82.99999999999995
 20
-15.00000099999998
 30
0.0
 41
1.25
 42
1.25
 43
1.25
 50
180.0
  0
INSERT
  5
312A
330
CC8
100
AcDbEntity
  8
AM_5
 62
     3
100
AcDbBlockReference
  2
_OPEN30
 10
-0.9999999999999904
 20
-15.00000099999998
 30
0.0
 41
1.25
 42
1.25
 43
1.25
  0
MTEXT
  5
312B
330
CC8
100
AcDbEntity
  8
AM_5
 62
     2
100
AcDbMText
 10
-41.99999999999996
 20
-13.30000099999998
 30
0.0
 40
1.9
 41
0.0
 71
     5
 72
     1
  1
82
1001
ACAD
1000
MTEXTBEGIN
1070
    73
1070
     1
1070
    44
1040
1.0
1070
    74
1070
     0
1000
MTEXTEND
  0
POINT
  5
312C
330
CC8
100
AcDbEntity
  8
DEFPOINTS
 62
     0
100
AcDbPoint
 10
-82.99999999999995
 20
-2.750000000000156
 30
0.0
  0
POINT
  5
312D
330
CC8
100
AcDbEntity
  8
DEFPOINTS
 62
     0
100
AcDbPoint
 10
-0.9999999999999896
 20
-2.94999983704651
 30
0.0
  0
POINT
  5
312E
330
CC8
100
AcDbEntity
  8
DEFPOINTS
 62
     0
100
AcDbPoint
 10
-0.9999999999999904
 20
-15.00000099999998
 30
0.0
  0
ENDBLK
  5
CD3
330
CC8
100
AcDbEntity
  8
0
100
AcDbBlockEnd
  0
BLOCK
  5
E00
330
DF6
100
AcDbEntity
  8
0
100
AcDbBlockBegin
  2
*D6
 70
     1
 10
0.0
 20
0.0
 30
0.0
  3
*D6
  1

  0
LINE
  5
311D
330
DF6
100
AcDbEntity
  8
AM_5
 62
     3
100
AcDbLine
 10
-30.99999999999995
 20
-3.000000000000038
 30
0.0
 11
-30.99999999999995
 21
-10.50000099999994
 31
0.0
  0
LINE
  5
311E
330
DF6
100
AcDbEntity
  8
AM_5
 62
     3
100
AcDbLine
 10
-0.9999999999999896
 20
-2.94999983704651
 30
0.0
 11
-0.99999999999999
 21
-10.50000099999994
 31
0.0
  0
LINE
  5
311F
330
DF6
100
AcDbEntity
  8
AM_5
 62
     3
100
AcDbLine
 10
-29.74999999999995
 20
-10.00000099999994
 30
0.0
 11
-2.24999999999999
 21
-10.00000099999994
 31
0.0
  0
INSERT
  5
3120
330
DF6
100
AcDbEntity
  8
AM_5
 62
     3
100
AcDbBlockReference
  2
_OPEN30
 10
-30.99999999999995
 20
-10.00000099999994
 30
0.0
 41
1.25
 42
1.25
 43
1.25
 50
180.0
  0
INSERT
  5
3121
330
DF6
100
AcDbEntity
  8
AM_5
 62
     3
100
AcDbBlockReference
  2
_OPEN30
 10
-0.99999999999999
 20
-10.00000099999994
 30
0.0
 41
1.25
 42
1.25
 43
1.25
  0
MTEXT
  5
3122
330
DF6
100
AcDbEntity
  8
AM_5
 62
     2
100
AcDbMText
 10
-15.99999999999996
 20
-8.300000999999948
 30
0.0
 40
1.9
 41
0.0
 71
     5
 72
     1
  1
30
1001
ACAD
1000
MTEXTBEGIN
1070
    73
1070
     1
1070
    44
1040
1.0
1070
    74
1070
     0
1000
MTEXTEND
  0
POINT
  5
3123
330
DF6
100
AcDbEntity
  8
DEFPOINTS
 62
     0
100
AcDbPoint
 10
-30.99999999999995
 20
-3.000000000000038
 30
0.0
  0
POINT
  5
3124
330
DF6
100
AcDbEntity
  8
DEFPOINTS
 62
     0
100
AcDbPoint
 10
-0.9999999999999896
 20
-2.94999983704651
 30
0.0
  0
POINT
  5
3125
330
DF6
100
AcDbEntity
  8
DEFPOINTS
 62
     0
100
AcDbPoint
 10
-0.99999999999999
 20
-10.00000099999994
 30
0.0
  0
ENDBLK
  5
E01
330
DF6
100
AcDbEntity
  8
0
100
AcDbBlockEnd
  0
BLOCK
  5
2431
330
2425
100
AcDbEntity
  8
0
100
AcDbBlockBegin
  2
*D7
 70
     1
 10
0.0
 20
0.0
 30
0.0
  3
*D7
  1

  0
LINE
  5
3143
330
2425
100
AcDbEntity
  8
AM_5
 62
     3
100
AcDbLine
 10
-0.99999999999999
 20
-2.94999983704651
 30
0.0
 11
8.925011198283797
 21
-2.949999837046513
 31
0.0
  0
LINE
  5
3144
330
2425
100
AcDbEntity
  8
AM_5
 62
     3
100
AcDbLine
 10
-0.9999999999998946
 20
2.950000162953471
 30
0.0
 11
8.925011198283797
 21
2.950000162953469
 31
0.0
  0
LINE
  5
3145
330
2425
100
AcDbEntity
  8
AM_5
 62
     3
100
AcDbLine
 10
8.425011198283796
 20
-4.199999837046513
 30
0.0
 11
8.425011198283796
 21
-5.449999837046513
 31
0.0
  0
LINE
  5
3146
330
2425
100
AcDbEntity
  8
AM_5
 62
     3
100
AcDbLine
 10
8.425011198283799
 20
4.200000162953468
 30
0.0
 11
8.425011198283801
 21
12.55952397247727
 31
0.0
  0
LINE
  5
3147
330
2425
100
AcDbEntity
  8
AM_5
 62
     3
100
AcDbLine
 10
8.425011198283797
 20
-2.949999837046513
 30
0.0
 11
8.425011198283797
 21
2.950000162953469
 31
0.0
  0
INSERT
  5
3148
330
2425
100
AcDbEntity
  8
AM_5
 62
     3
100
AcDbBlockReference
  2
_OPEN30
 10
8.425011198283797
 20
-2.949999837046513
 30
0.0
 41
1.25
 42
1.25
 43
1.25
 50
90.0
  0
INSERT
  5
3149
330
2425
100
AcDbEntity
  8
AM_5
 62
     3
100
AcDbBlockReference
  2
_OPEN30
 10
8.425011198283797
 20
2.950000162953469
 30
0.0
 41
1.25
 42
1.25
 43
1.25
 50
270.0
  0
MTEXT
  5
314A
330
2425
100
AcDbEntity
  8
AM_5
 62
     2
100
AcDbMText
 10
6.725011198283798
 20
9.004762067715374
 30
0.0
 40
1.9
 41
0.0
 71
     5
 72
     1
  1
%%c5.9
 11
0.0000000000000001
 21
1.0
 31
0.0
1001
ACAD
1000
MTEXTBEGIN
1070
    73
1070
     1
1070
    44
1040
1.0
1070
    74
1070
     0
1000
MTEXTEND
  0
POINT
  5
314B
330
2425
100
AcDbEntity
  8
DEFPOINTS
 62
     0
100
AcDbPoint
 10
-0.99999999999999
 20
-2.94999983704651
 30
0.0
  0
POINT
  5
314C
330
2425
100
AcDbEntity
  8
DEFPOINTS
 62
     0
100
AcDbPoint
 10
-0.9999999999998946
 20
2.950000162953471
 30
0.0
  0
POINT
  5
314D
330
2425
100
AcDbEntity
  8
DEFPOINTS
 62
     0
100
AcDbPoint
 10
8.425011198283797
 20
2.950000162953469
 30
0.0
  0
ENDBLK
  5
2432
330
2425
100
AcDbEntity
  8
0
100
AcDbBlockEnd
  0
BLOCK
  5
2557
330
254D
100
AcDbEntity
  8
0
100
AcDbBlockBegin
  2
*D8
 70
     1
 10
0.0
 20
0.0
 30
0.0
  3
*D8
  1

  0
LINE
  5
312F
330
254D
100
AcDbEntity
  8
AM_5
 62
     3
100
AcDbLine
 10
-82.74999999999973
 20
2.999999999999898
 30
0.0
 11
-91.87502198083162
 21
2.99999999999988
 31
0.0
  0
LINE
  5
3130
330
254D
100
AcDbEntity
  8
AM_5
 62
     3
100
AcDbLine
 10
-82.74999999999961
 20
-3.000000000000651
 30
0.0
 11
-91.87502198083162
 21
-3.000000000000669
 31
0.0
  0
LINE
  5
3131
330
254D
100
AcDbEntity
  8
AM_5
 62
     3
100
AcDbLine
 10
-91.37502198083161
 20
1.749999999999881
 30
0.0
 11
-91.37502198083161
 21
-1.750000000000668
 31
0.0
  0
INSERT
  5
3132
330
254D
100
AcDbEntity
  8
AM_5
 62
     3
100
AcDbBlockReference
  2
_OPEN30
 10
-91.37502198083161
 20
2.999999999999881
 30
0.0
 41
1.25
 42
1.25
 43
1.25
 50
90.0000000000001
  0
INSERT
  5
3133
330
254D
100
AcDbEntity
  8
AM_5
 62
     3
100
AcDbBlockReference
  2
_OPEN30
 10
-91.37502198083161
 20
-3.000000000000668
 30
0.0
 41
1.25
 42
1.25
 43
1.25
 50
270.0000000000001
  0
MTEXT
  5
3134
330
254D
100
AcDbEntity
  8
AM_5
 62
     2
100
AcDbMText
 10
-93.07502198083161
 20
-0.0000000000003933
 30
0.0
 40
1.9
 41
0.0
 71
     5
 72
     1
  1
%%c6
 11
-0.000000000000002
 21
1.0
 31
0.0
1001
ACAD
1000
MTEXTBEGIN
1070
    73
1070
     1
1070
    44
1040
1.0
1070
    74
1070
     0
1000
MTEXTEND
  0
POINT
  5
3135
330
254D
100
AcDbEntity
  8
DEFPOINTS
 62
     0
100
AcDbPoint
 10
-82.74999999999973
 20
3.000000000000082
 30
0.0
  0
POINT
  5
3136
330
254D
100
AcDbEntity
  8
DEFPOINTS
 62
     0
100
AcDbPoint
 10
-82.74999999999961
 20
-3.000000000000468
 30
0.0
  0
POINT
  5
3137
330
254D
100
AcDbEntity
  8
DEFPOINTS
 62
     0
100
AcDbPoint
 10
-91.37502198083161
 20
-3.000000000000465
 30
0.0
  0
ENDBLK
  5
2558
330
254D
100
AcDbEntity
  8
0
100
AcDbBlockEnd
  0
BLOCK
  5
29AE
330
29A0
100
AcDbEntity
  8
0
100
AcDbBlockBegin
  2
*D9
 70
     1
 10
0.0
 20
0.0
 30
0.0
  3
*D9
  1

  0
LINE
  5
3138
330
29A0
100
AcDbEntity
  8
AM_5
100
AcDbLine
 10
0.171010070408116
 20
-0.4698463108495571
 30
0.0
 11
5.472234143428639
 21
-15.03483986796903
 31
0.0
  0
LINE
  5
3139
330
29A0
100
AcDbEntity
  8
AM_5
100
AcDbLine
 10
0.1710111357777066
 20
0.4698459230855787
 30
0.0
 11
5.472268234706845
 21
15.03482745971508
 31
0.0
  0
ARC
  5
313A
330
29A0
100
AcDbEntity
  8
AM_5
100
AcDbCircle
 10
0.0000000000000413
 20
0.0000000000001135
 30
0.0
 40
15.49974238467546
100
AcDbArc
 50
294.6219571253923
 51
65.37791295721693
  0
INSERT
  5
313B
330
29A0
100
AcDbEntity
  8
AM_5
100
AcDbBlockReference
  2
_OPEN30
 10
5.301224073020571
 20
-14.56499355711938
 30
0.0
 41
1.25
 42
1.25
 43
1.25
 50
202.3109784861893
  0
INSERT
  5
313C
330
29A0
100
AcDbEntity
  8
AM_5
100
AcDbBlockReference
  2
_OPEN30
 10
5.30125709892918
 20
14.56498153662961
 30
0.0
 41
1.25
 42
1.25
 43
1.25
 50
157.6888915964199
  0
MTEXT
  5
313D
330
29A0
100
AcDbEntity
  8
AM_5
 62
     2
100
AcDbMText
 10
13.94974238466653
 20
-0.0000158154242272
 30
0.0
 40
1.6
 41
0.0
 71
     5
 72
     1
  1
140°
  7
ASAMI
 11
0.0000011337431117
 21
0.9999999999993573
 31
0.0
1001
ACAD
1000
MTEXTBEGIN
1070
    73
1070
     1
1070
    44
1040
1.0
1070
    74
1070
     0
1000
MTEXTEND
  0
POINT
  5
313E
330
29A0
100
AcDbEntity
  8
DEFPOINTS
 62
     0
100
AcDbPoint
 10
14.23210846450062
 20
-6.139145107097123
 30
0.0
  0
POINT
  5
313F
330
29A0
100
AcDbEntity
  8
DEFPOINTS
 62
     0
100
AcDbPoint
 10
0.0000000000000383
 20
0.0000000000001052
 30
0.0
  0
POINT
  5
3140
330
29A0
100
AcDbEntity
  8
DEFPOINTS
 62
     0
100
AcDbPoint
 10
0.0000000000000481
 20
0.0000000000000948
 30
0.0
  0
POINT
  5
3141
330
29A0
100
AcDbEntity
  8
DEFPOINTS
 62
     0
100
AcDbPoint
 10
-0.3082220015099198
 20
0.846832996364518
 30
0.0
  0
POINT
  5
3142
330
29A0
100
AcDbEntity
  8
DEFPOINTS
 62
     0
100
AcDbPoint
 10
-0.3082275505119664
 20
-0.8468422675055983
 30
0.0
  0
ENDBLK
  5
29AF
330
29A0
100
AcDbEntity
  8
0
100
AcDbBlockEnd
  0
ENDSEC
  0
SECTION
  2
ENTITIES
  0
LINE
  5
C1D
330
1F
100
AcDbEntity
  8
AM_0
 48
0.5
100
AcDbLine
 10
0.0000000000000481
 20
0.0000000000000948
 30
0.0
 11
-0.3082220015099199
 21
0.846832996364518
 31
0.0
  0
LINE
  5
C20
330
1F
100
AcDbEntity
  8
AM_0
 48
0.5
100
AcDbLine
 10
0.0000000000000383
 20
0.0000000000001052
 30
0.0
 11
-0.3082275505119665
 21
-0.8468422675055983
 31
0.0
  0
LINE
  5
C9F
330
1F
100
AcDbEntity
  8
AM_7
100
AcDbLine
 10
-84.37502098083161
 20
0.0000000000000573
 30
0.0
 11
1.425010198283802
 21
0.000000000000108
 31
0.0
1001
GENIUS_GENODEF_13
1002
{
1000
HIER
1070
     0
1002
}
1002
{
1000
MANEDIT
1070
     0
1002
}
1002
{
1000
NOSEL
1070
     0
1002
}
1002
{
1000
BEHIND
1070
     0
1002
}
1002
{
1000
REACTOR
1002
}
1001
GENIUS_GENOBJ-N-CEN_13
1002
{
1000
OWNER
1000
GEN
1002
}
  0
DIMENSION
  5
CC6
330
1F
100
AcDbEntity
  8
AM_5
100
AcDbDimension
  2
*D5
 10
-0.9999999999999904
 20
-15.00000099999998
 30
0.0
 11
-41.99999999999996
 21
-13.30000099999998
 31
0.0
 70
    32
  1
<>
  3
AM_JIS$0
100
AcDbAlignedDimension
 13
-82.99999999999995
 23
-2.750000000000156
 33
0.0
 14
-0.9999999999999896
 24
-2.94999983704651
 34
0.0
 50
0.0000000000001132
100
AcDbRotatedDimension
1001
GENIUS_GENDTOL_13
1000

1000
h7
1000

1040
0.0
1001
ACAD
1000
DSTYLE
1002
{
1070
   271
1070
     0
1002
}
  0
DIMENSION
  5
DF5
330
1F
100
AcDbEntity
  8
AM_5
100
AcDbDimension
  2
*D6
 10
-0.99999999999999
 20
-10.00000099999994
 30
0.0
 11
-15.99999999999996
 21
-8.300000999999948
 31
0.0
 70
    32
  1
<>
  3
AM_JIS$0
100
AcDbAlignedDimension
 13
-30.99999999999995
 23
-3.000000000000038
 33
0.0
 14
-0.9999999999999896
 24
-2.94999983704651
 34
0.0
 50
0.0000000000001527
100
AcDbRotatedDimension
1001
GENIUS_GENDTOL_13
1000

1000
h7
1000

1040
0.0
1001
ACAD
1000
DSTYLE
1002
{
1070
   271
1070
     0
1002
}
  0
ARC
  5
144A
330
1F
100
AcDbEntity
  8
AM_11
 48
0.5
100
AcDbCircle
 10
-44.3027718861832
 20
-12.14665270677925
 30
0.0
 40
13.42998806635521
100
AcDbArc
 50
64.74833051131179
 51
115.2516644797366
  0
ARC
  5
144B
330
1F
100
AcDbEntity
  8
AM_11
 48
0.5
100
AcDbCircle
 10
-44.30277188618318
 20
12.14666095543175
 30
0.0
 40
13.42998806635521
100
AcDbArc
 50
244.7482808787518
 51
295.2516148471758
  0
ARC
  5
144E
330
1F
100
AcDbEntity
  8
AM_11
 48
0.5
100
AcDbCircle
 10
-32.84443855284986
 20
-12.14665270677925
 30
0.0
 40
13.42998806635521
100
AcDbArc
 50
64.74833051131179
 51
115.2516644797366
  0
ARC
  5
144F
330
1F
100
AcDbEntity
  8
AM_11
 48
0.5
100
AcDbCircle
 10
-32.84443855284986
 20
12.14666095543175
 30
0.0
 40
13.42998806635521
100
AcDbArc
 50
244.7482808787518
 51
295.2516148471758
  0
ARC
  5
1450
330
1F
100
AcDbEntity
  8
AM_11
 48
0.5
100
AcDbCircle
 10
-21.38610521951973
 20
12.14666095543175
 30
0.0
 40
13.42998806635521
100
AcDbArc
 50
244.7482808787518
 51
295.2516148471758
  0
ARC
  5
1451
330
1F
100
AcDbEntity
  8
AM_11
 48
0.5
100
AcDbCircle
 10
-21.38610521951973
 20
-12.14665270677925
 30
0.0
 40
13.42998806635521
100
AcDbArc
 50
64.74833051131179
 51
115.2516644797366
  0
ARC
  5
1452
330
1F
100
AcDbEntity
  8
AM_11
 48
0.5
100
AcDbCircle
 10
-9.927771886186405
 20
-12.14665270677925
 30
0.0
 40
13.42998806635521
100
AcDbArc
 50
64.74833051131179
 51
115.2516644797366
  0
ARC
  5
1453
330
1F
100
AcDbEntity
  8
AM_11
 48
0.5
100
AcDbCircle
 10
-9.927771886186405
 20
12.14666095543175
 30
0.0
 40
13.42998806635521
100
AcDbArc
 50
244.7482808787518
 51
295.2516148471758
  0
TEXT
  5
19BD
330
1F
100
AcDbEntity
  8
AM_6
100
AcDbText
 10
-53.24999999999992
 20
-26.25000100000001
 30
0.0
 40
2.5
  1
MDW059MHK
 50
0.0000000000001527
 72
     4
 11
-41.99999999999991
 21
-25.00000099999998
 31
0.0
100
AcDbText
  0
ARC
  5
1DAB
330
1F
100
AcDbEntity
  8
AM_11
 48
0.5
100
AcDbCircle
 10
-55.76108015507429
 20
-12.14665270677928
 30
0.0
 40
13.42998806635521
100
AcDbArc
 50
64.74833051131179
 51
115.2516644797366
  0
ARC
  5
1DAC
330
1F
100
AcDbEntity
  8
AM_11
 48
0.5
100
AcDbCircle
 10
-55.76108015507427
 20
12.14666095543172
 30
0.0
 40
13.42998806635521
100
AcDbArc
 50
244.7482808787518
 51
295.2516148471758
  0
ARC
  5
1DAD
330
1F
100
AcDbEntity
  8
AM_11
 48
0.5
100
AcDbCircle
 10
-67.21938842396538
 20
-12.14665270677931
 30
0.0
 40
13.42998806635521
100
AcDbArc
 50
64.74833051131179
 51
115.2516644797366
  0
ARC
  5
1DAE
330
1F
100
AcDbEntity
  8
AM_11
 48
0.5
100
AcDbCircle
 10
-67.21938842396537
 20
12.14666095543169
 30
0.0
 40
13.42998806635521
100
AcDbArc
 50
244.7482808787518
 51
295.2516148471758
  0
ARC
  5
1DAF
330
1F
100
AcDbEntity
  8
AM_11
 48
0.5
100
AcDbCircle
 10
-78.67769669285647
 20
-12.14665270677934
 30
0.0
 40
13.42998806635521
100
AcDbArc
 50
64.74833051131179
 51
108.7742185832982
  0
ARC
  5
1DB0
330
1F
100
AcDbEntity
  8
AM_11
 48
0.5
100
AcDbCircle
 10
-78.67769669285646
 20
12.14666095543166
 30
0.0
 40
13.42998806635521
100
AcDbArc
 50
251.2257814167015
 51
295.2516148471758
  0
LINE
  5
1F19
330
1F
100
AcDbEntity
  8
AM_0
100
AcDbLine
 10
-82.74999999999996
 20
-2.999999999999916
 30
0.0
 11
-82.74999999999995
 21
3.000000000000082
 31
0.0
  0
LINE
  5
1F1A
330
1F
100
AcDbEntity
  8
AM_0
 48
0.5
100
AcDbLine
 10
-82.99999999999995
 20
-2.750000000000142
 30
0.0
 11
-82.99999999999995
 21
2.749999999999857
 31
0.0
  0
LINE
  5
1F1B
330
1F
100
AcDbEntity
  8
AM_0
100
AcDbLine
 10
-82.99999999999995
 20
-2.750000000000142
 30
0.0
 11
-82.74999999999996
 21
-3.000000000000141
 31
0.0
1001
GENIUS_GENFIL_13
1070
     0
1040
0.25
1040
0.25
1040
20.0
1040
0.0
1002
{
1002
}
1001
GENIUS_GENODEF_13
1002
{
1000
HIER
1070
     0
1002
}
1002
{
1000
MANEDIT
1070
     0
1002
}
1002
{
1000
NOSEL
1070
     0
1002
}
1002
{
1000
BEHIND
1070
     0
1002
}
1002
{
1000
REACTOR
1002
}
1001
GENIUS_GENOBJ-N-CHA_13
1002
{
1000
OWNER
1000
GEN
1002
}
  0
LINE
  5
1F1C
330
1F
100
AcDbEntity
  8
AM_0
100
AcDbLine
 10
-82.99999999999995
 20
2.749999999999857
 30
0.0
 11
-82.74999999999995
 21
2.999999999999858
 31
0.0
1001
GENIUS_GENFIL_13
1070
     0
1040
0.25
1040
0.25
1040
20.0
1040
0.0
1002
{
1002
}
1001
GENIUS_GENODEF_13
1002
{
1000
HIER
1070
     0
1002
}
1002
{
1000
MANEDIT
1070
     0
1002
}
1002
{
1000
NOSEL
1070
     0
1002
}
1002
{
1000
BEHIND
1070
     0
1002
}
1002
{
1000
REACTOR
1002
}
1001
GENIUS_GENOBJ-N-CHA_13
1002
{
1000
OWNER
1000
GEN
1002
}
  0
LINE
  5
1F2F
330
1F
100
AcDbEntity
  8
AM_0
 48
0.5
100
AcDbLine
 10
-30.99999999999995
 20
-3.000000000000038
 30
0.0
 11
-30.99999999999993
 21
3.000000000000186
 31
0.0
  0
LINE
  5
1F31
330
1F
100
AcDbEntity
  8
AM_0
100
AcDbLine
 10
-82.74999999999995
 20
3.000000000000082
 30
0.0
 11
-30.99999999999993
 21
3.000000000000184
 31
0.0
  0
LINE
  5
1F32
330
1F
100
AcDbEntity
  8
AM_0
100
AcDbLine
 10
-82.74999999999996
 20
-3.000000000000141
 30
0.0
 11
-30.99999999999995
 21
-3.000000000000039
 31
0.0
  0
LINE
  5
1F5B
330
1F
100
AcDbEntity
  8
AM_0
100
AcDbLine
 10
-30.99999999999993
 20
3.000000000000186
 30
0.0
 11
-30.91339718694447
 21
2.949999842570033
 31
0.0
  0
LINE
  5
1F5C
330
1F
100
AcDbEntity
  8
AM_0
100
AcDbLine
 10
-30.99999999999995
 20
-3.000000000000038
 30
0.0
 11
-30.91339717737669
 21
-2.94999983704592
 31
0.0
  0
DIMENSION
  5
2424
330
1F
100
AcDbEntity
  8
AM_5
100
AcDbDimension
  2
*D7
 10
8.425011198283797
 20
2.950000162953469
 30
0.0
 11
8.425011198283797
 21
9.004762067715374
 31
0.0
 70
   160
  1
%%c<>
  3
AM_JIS$0
100
AcDbAlignedDimension
 13
-0.99999999999999
 23
-2.94999983704651
 33
0.0
 14
-0.9999999999998946
 24
2.950000162953471
 34
0.0
 50
89.99999999999955
100
AcDbRotatedDimension
1001
ACAD
1000
DSTYLE
1002
{
1070
   271
1070
     1
1002
}
1001
GENIUS_GENDTOL_13
1000

1000
h7
1000

1040
0.0
  0
LINE
  5
2437
330
1F
100
AcDbEntity
  8
AM_0
 48
0.5
100
AcDbLine
 10
-0.8232046243055577
 20
-2.308499132519689
 30
0.0
 11
-0.99999999999999
 21
-2.94999983704651
 31
0.0
  0
LINE
  5
2442
330
1F
100
AcDbEntity
  8
AM_0
100
AcDbLine
 10
-30.91339718694452
 20
-2.949999842569909
 30
0.0
 11
-30.91339718694452
 21
-2.382930165153962
 31
0.0
  0
ELLIPSE
  5
245F
330
1F
100
AcDbEntity
  8
AM_0
 48
0.5
100
AcDbEllipse
 10
3.87537770985708
 20
-3.305989277576123
 30
0.0
 11
-4.522585147891904
 21
1.89960735216737
 31
0.0
210
0.0
220
0.0
230
1.0
 40
0.670656747097513
 41
-0.1980062927602497
 42
0.2770693262937132
  0
DIMENSION
  5
254C
330
1F
100
AcDbEntity
  8
AM_5
100
AcDbDimension
  2
*D8
 10
-91.37502198083161
 20
-3.000000000000465
 30
0.0
 11
-93.07502198083161
 21
-0.0000000000002051
 31
0.0
 70
    32
  1
%%c<>
 51
359.9999999999998
  3
AM_JIS$0
100
AcDbAlignedDimension
 13
-82.74999999999973
 23
3.000000000000082
 33
0.0
 14
-82.74999999999961
 24
-3.000000000000468
 34
0.0
 50
270.0000000000002
100
AcDbRotatedDimension
1001
ACAD
1000
DSTYLE
1002
{
1070
   271
1070
     0
1002
}
1001
GENIUS_GENDTOL_13
1000

1000
h7
1000

1040
0.0
  0
ELLIPSE
  5
270B
330
1F
100
AcDbEntity
  8
AM_0
 48
0.5
100
AcDbEllipse
 10
3.875377709857076
 20
3.305989277576342
 30
0.0
 11
-4.522585147891902
 21
-1.899607352167375
 31
0.0
210
0.0
220
0.0
230
-1.0
 40
0.670656747097513
 41
-0.1980062927602497
 42
0.2770693262937132
  0
LINE
  5
270C
330
1F
100
AcDbEntity
  8
AM_0
 48
0.5
100
AcDbLine
 10
-0.8232046243055604
 20
2.308499132519902
 30
0.0
 11
-0.9999999999998946
 21
2.950000162953471
 31
0.0
  0
DIMENSION
  5
299F
330
1F
100
AcDbEntity
  8
AM_5
100
AcDbDimension
  2
*D9
 10
-0.3082275505119665
 20
-0.8468422675055983
 30
0.0
 11
13.94974238466653
 21
-0.0000158154242561
 31
0.0
 70
    34
  1
<>
 51
359.9999999999998
  3
AM_JIS$2
100
AcDb2LineAngularDimension
 13
0.0000000000000481
 23
0.0000000000000948
 33
0.0
 14
-0.3082220015099199
 24
0.846832996364518
 34
0.0
 15
0.0000000000000383
 25
0.0000000000001052
 35
0.0
 16
14.23210846450062
 26
-6.139145107097123
 36
0.0
1001
ACAD
1000
DSTYLE
1002
{
1070
   179
1070
     3
1002
}
1001
GENIUS_GENDTOL_13
1000

1000
h7
1000

1040
0.0
  0
ELLIPSE
  5
2C01
330
1F
100
AcDbEntity
  8
AM_11
 48
0.5
100
AcDbEllipse
 10
1.530561447146967
 20
12.38025058919005
 30
0.0
 11
-0.0000000000001494
 21
13.68825706763127
 31
0.0
210
0.0
220
0.0
230
1.0
 40
0.9811320754717009
 41
2.700867013135191
 42
2.862597064175881
  0
LINE
  5
2ECF
330
1F
100
AcDbEntity
  8
AM_0
100
AcDbLine
 10
-30.91339718694448
 20
2.198639451323908
 30
0.0
 11
-30.91339718694447
 21
2.950000162954127
 31
0.0
  0
LINE
  5
2ED0
330
1F
100
AcDbEntity
  8
AM_0
100
AcDbLine
 10
-30.91339718694451
 20
-1.443054847808061
 30
0.0
 11
-30.91339718694449
 21
1.837173317164848
 31
0.0
  0
LINE
  5
2ED1
330
1F
100
AcDbEntity
  8
AM_0
100
AcDbLine
 10
-30.91339718694452
 20
-2.189698165811514
 30
0.0
 11
-30.91339718694452
 21
-1.508094193955001
 31
0.0
  0
ELLIPSE
  5
30A0
330
1F
100
AcDbEntity
  8
AM_0
100
AcDbEllipse
 10
-30.26674280011308
 20
-3.16869544180763
 30
0.0
 11
1.070856335762012
 21
0.9293914834180657
 31
0.0
210
0.0
220
0.0
230
0.9999999999999998
 40
0.4514338160859638
 41
1.184421216509046
 42
1.888697103279899
  0
LINE
  5
30A1
330
1F
100
AcDbEntity
  8
AM_0
100
AcDbLine
 10
-30.913397741866
 20
2.950000162954127
 30
0.0
 11
-30.39606337590778
 21
2.950000162954107
 31
0.0
1001
GENIUS_GENODEF_13
1002
{
1000
HIER
1070
     0
1002
}
1002
{
1000
MANEDIT
1070
     0
1002
}
1002
{
1000
NOSEL
1070
     0
1002
}
1002
{
1000
BEHIND
1070
     0
1002
}
1002
{
1000
REACTOR
1002
}
1001
GENIUS_GENOBJ-N-CEN_13
1002
{
1000
OWNER
1000
GEN
1002
}
  0
POLYLINE
  5
30A2
330
1F
100
AcDbEntity
  8
AM_0
100
AcDb2dPolyline
 66
     1
 10
0.0
 20
0.0
 30
0.0
 70
     2
  0
VERTEX
  5
30A3
330
30A2
100
AcDbEntity
  8
AM_0
100
AcDbVertex
100
AcDb2dVertex
 10
-30.00380398299385
 20
2.660401807931743
 30
0.0
 42
0.0276737331564208
  0
VERTEX
  5
30A4
330
30A2
100
AcDbEntity
  8
AM_0
100
AcDbVertex
100
AcDb2dVertex
 10
-30.2311989655274
 20
2.60933486350804
 30
0.0
 42
0.0414024687830266
 70
     1
  0
VERTEX
  5
30A5
330
30A2
100
AcDbEntity
  8
AM_0
100
AcDbVertex
100
AcDb2dVertex
 10
-30.3773774893711
 20
2.553655121077045
 30
0.0
 42
0.0280074108471844
  0
VERTEX
  5
30A6
330
30A2
100
AcDbEntity
  8
AM_0
100
AcDbVertex
100
AcDb2dVertex
 10
-30.71066991233012
 20
2.368730293650502
 30
0.0
 42
0.0512701366748525
 70
     1
  0
VERTEX
  5
30A7
330
30A2
100
AcDbEntity
  8
AM_0
100
AcDbVertex
100
AcDb2dVertex
 10
-30.87547549787415
 20
2.238778678488364
 30
0.0
 42
0.0658714570033076
  0
VERTEX
  5
30A8
330
30A2
100
AcDbEntity
  8
AM_0
100
AcDbVertex
100
AcDb2dVertex
 10
-30.97890936425852
 20
2.107922658807506
 30
0.0
 42
0.1411961588081283
 70
     1
  0
VERTEX
  5
30A9
330
30A2
100
AcDbEntity
  8
AM_0
100
AcDbVertex
100
AcDb2dVertex
 10
-30.99999999999992
 20
2.030648922754383
 30
0.0
 42
0.1226739033459629
  0
VERTEX
  5
30AA
330
30A2
100
AcDbEntity
  8
AM_0
100
AcDbVertex
100
AcDb2dVertex
 10
-30.97942472351219
 20
1.945687267818631
 30
0.0
 42
0.0555312784770531
 70
     1
  0
VERTEX
  5
30AB
330
30A2
100
AcDbEntity
  8
AM_0
100
AcDbVertex
100
AcDb2dVertex
 10
-30.87547549787417
 20
1.788066179045214
 30
0.0
 42
0.0351528005485752
  0
VERTEX
  5
30AC
330
30A2
100
AcDbEntity
  8
AM_0
100
AcDbVertex
100
AcDb2dVertex
 10
-30.70747889592549
 20
1.612268139988987
 30
0.0
 42
0.0197318127063559
 70
     1
  0
VERTEX
  5
30AD
330
30A2
100
AcDbEntity
  8
AM_0
100
AcDbVertex
100
AcDb2dVertex
 10
-30.37737748937114
 20
1.335377784555857
 30
0.0
 42
0.0358460074876439
  0
VERTEX
  5
30AE
330
30A2
100
AcDbEntity
  8
AM_0
100
AcDbVertex
100
AcDb2dVertex
 10
-30.24198650023664
 20
1.245620850628377
 30
0.0
 42
0.021710998496176
 70
     1
  0
VERTEX
  5
30AF
330
30A2
100
AcDbEntity
  8
AM_0
100
AcDbVertex
100
AcDb2dVertex
 10
-30.00380398299389
 20
1.125272133775653
 30
0.0
  0
SEQEND
  5
30B0
330
30A2
100
AcDbEntity
  8
AM_0
  0
POLYLINE
  5
30B1
330
1F
100
AcDbEntity
  8
AM_0
100
AcDb2dPolyline
 66
     1
 10
0.0
 20
0.0
 30
0.0
 70
     2
  0
VERTEX
  5
30B2
330
30B1
100
AcDbEntity
  8
AM_0
100
AcDbVertex
100
AcDb2dVertex
 10
-30.46869545759674
 20
-2.171965234807253
 30
0.0
 42
0.0351157762658453
  0
VERTEX
  5
30B3
330
30B1
100
AcDbEntity
  8
AM_0
100
AcDbVertex
100
AcDb2dVertex
 10
-30.57937265439005
 20
-2.148386479494764
 30
0.0
 42
0.044786481860755
 70
     1
  0
VERTEX
  5
30B4
330
30B1
100
AcDbEntity
  8
AM_0
100
AcDbVertex
100
AcDb2dVertex
 10
-30.66793466099794
 20
-2.144523680025355
 30
0.0
 42
0.0378244354854128
  0
VERTEX
  5
30B5
330
30B1
100
AcDbEntity
  8
AM_0
100
AcDbVertex
100
AcDb2dVertex
 10
-30.85024864981126
 20
-2.168090323396594
 30
0.0
 42
0.0785304530199817
 70
     1
  0
VERTEX
  5
30B6
330
30B1
100
AcDbEntity
  8
AM_0
100
AcDbVertex
100
AcDb2dVertex
 10
-30.93358693219956
 20
-2.200374623878414
 30
0.0
 42
0.0914341172496281
  0
VERTEX
  5
30B7
330
30B1
100
AcDbEntity
  8
AM_0
100
AcDbVertex
100
AcDb2dVertex
 10
-30.98712801921267
 20
-2.246907214231693
 30
0.0
 42
0.1734786634335468
 70
     1
  0
VERTEX
  5
30B8
330
30B1
100
AcDbEntity
  8
AM_0
100
AcDbVertex
100
AcDb2dVertex
 10
-30.99999999999996
 20
-2.28366712251336
 30
0.0
 42
0.1707159826348874
  0
VERTEX
  5
30B9
330
30B1
100
AcDbEntity
  8
AM_0
100
AcDbVertex
100
AcDb2dVertex
 10
-30.98763354031309
 20
-2.321123055391865
 30
0.0
 42
0.0878858945849485
 70
     1
  0
VERTEX
  5
30BA
330
30B1
100
AcDbEntity
  8
AM_0
100
AcDbVertex
100
AcDb2dVertex
 10
-30.93358693219956
 20
-2.371128681287607
 30
0.0
 42
0.0737173247185441
  0
VERTEX
  5
30BB
330
30B1
100
AcDbEntity
  8
AM_0
100
AcDbVertex
100
AcDb2dVertex
 10
-30.84838756227909
 20
-2.409031419186401
 30
0.0
 42
0.037064748993984
 70
     1
  0
VERTEX
  5
30BC
330
30B1
100
AcDbEntity
  8
AM_0
100
AcDbVertex
100
AcDb2dVertex
 10
-30.66793466099794
 20
-2.443655865697864
 30
0.0
 42
0.0449345368811406
  0
VERTEX
  5
30BD
330
30B1
100
AcDbEntity
  8
AM_0
100
AcDbVertex
100
AcDb2dVertex
 10
-30.58092947728277
 20
-2.445294134629474
 30
0.0
 42
0.0344667769950814
 70
     1
  0
VERTEX
  5
30BE
330
30B1
100
AcDbEntity
  8
AM_0
100
AcDbVertex
100
AcDb2dVertex
 10
-30.46869545759674
 20
-2.428721491333873
 30
0.0
  0
SEQEND
  5
30BF
330
30B1
100
AcDbEntity
  8
AM_0
  0
SPLINE
  5
30C0
330
1F
100
AcDbEntity
  8
AM_0
100
AcDbSpline
210
0.0
220
0.0
230
1.0
 70
     8
 71
     3
 72
     9
 73
     5
 74
     0
 42
0.0000000001
 43
0.0000000001
 40
1.580019955310467
 40
1.580019955310467
 40
1.580019955310467
 40
1.580019955310467
 40
2.030549285115227
 40
2.43907978603305
 40
2.43907978603305
 40
2.43907978603305
 40
2.43907978603305
 10
-30.01405069458597
 20
-2.304102857745826
 30
0.0
 10
-30.09323266746833
 20
-2.326739628247519
 30
0.0
 10
-30.24447320555157
 20
-2.369165093446553
 30
0.0
 10
-30.39634601921556
 20
-2.409782467210141
 30
0.0
 10
-30.46869545759673
 20
-2.428721491333858
 30
0.0
  0
LINE
  5
30C1
330
1F
100
AcDbEntity
  8
AM_0
100
AcDbLine
 10
-30.91339717737669
 20
-2.94999983704592
 30
0.0
 11
-26.6853617122288
 21
-2.949999837046039
 31
0.0
1001
GENIUS_GENODEF_13
1002
{
1000
HIER
1070
     0
1002
}
1002
{
1000
MANEDIT
1070
     0
1002
}
1002
{
1000
NOSEL
1070
     0
1002
}
1002
{
1000
BEHIND
1070
     0
1002
}
1002
{
1000
REACTOR
1002
}
1001
GENIUS_GENOBJ-N-CEN_13
1002
{
1000
OWNER
1000
GEN
1002
}
  0
LINE
  5
30C2
330
1F
100
AcDbEntity
  8
AM_11
 48
0.5
100
AcDbLine
 10
-30.39606337590778
 20
2.950000162954107
 30
0.0
 11
-21.06685469530785
 21
2.949998287403415
 31
0.0
  0
SPLINE
  5
30C3
330
1F
100
AcDbEntity
  8
AM_0
100
AcDbSpline
210
0.0
220
0.0
230
1.0
 70
     8
 71
     3
 72
    15
 73
    11
 74
     0
 42
0.0000000001
 43
0.0000000001
 40
5.611600361349635
 40
5.611600361349635
 40
5.611600361349635
 40
5.611600361349635
 40
5.954688180526682
 40
6.824620803463244
 40
7.701151815239697
 40
8.58445704656667
 40
9.47458238407075
 40
10.37139106676736
 40
11.27458944007584
 40
12.17321262433756
 40
12.17321262433756
 40
12.17321262433756
 40
12.17321262433756
 10
-26.86968263308205
 20
-0.2295546359998354
 30
0.0
 10
-26.94368601220944
 20
-0.2450705270464125
 30
0.0
 10
-27.20496995372544
 20
-0.3013509516626229
 30
0.0
 10
-27.65279217008947
 20
-0.4067064304565861
 30
0.0
 10
-28.21213754261707
 20
-0.5533387131853172
 30
0.0
 10
-28.77142842548323
 20
-0.7140881067272927
 30
0.0
 10
-29.33066331436547
 20
-0.8879633738780936
 30
0.0
 10
-29.88985119367152
 20
-1.073884428408262
 30
0.0
 10
-30.44682337969756
 20
-1.269943960389554
 30
0.0
 10
-30.81627707152457
 20
-1.406369356933075
 30
0.0
 10
-30.99999999999992
 20
-1.475574520885959
 30
0.0
  0
SPLINE
  5
30C4
330
1F
100
AcDbEntity
  8
AM_0
100
AcDbSpline
210
0.0
220
0.0
230
1.0
 70
     8
 71
     3
 72
    17
 73
    13
 74
     0
 42
0.0000000001
 43
0.0000000001
 40
3.680640182805057
 40
3.680640182805057
 40
3.680640182805057
 40
3.680640182805057
 40
4.232934581347659
 40
5.09097061220244
 40
5.954688180526682
 40
6.824620803463244
 40
7.701151815239697
 40
8.58445704656667
 40
9.47458238407075
 40
10.37139106676736
 40
11.27458944007584
 40
12.17321262433756
 40
12.17321262433756
 40
12.17321262433756
 40
12.17321262433756
 10
-25.60013744772835
 20
-2.950005444888128
 30
0.0
 10
-25.73182718055164
 20
-2.926255134819903
 30
0.0
 10
-26.03978265702056
 20
-2.879416826805126
 30
0.0
 10
-26.53393709159006
 20
-2.791819362432738
 30
0.0
 10
-27.09339118990317
 20
-2.67604831542579
 30
0.0
 10
-27.6527921700895
 20
-2.54444261130538
 30
0.0
 10
-28.2121375426171
 20
-2.397810328576627
 30
0.0
 10
-28.77142842548325
 20
-2.237060935034629
 30
0.0
 10
-29.33066331436549
 20
-2.063185667883799
 30
0.0
 10
-29.88985119367155
 20
-1.877264613353608
 30
0.0
 10
-30.44682337969758
 20
-1.681205081372302
 30
0.0
 10
-30.8162770715246
 20
-1.544779684828777
 30
0.0
 10
-30.99999999999992
 20
-1.475574520875883
 30
0.0
  0
SPLINE
  5
30C5
330
1F
100
AcDbEntity
  8
AM_0
100
AcDbSpline
210
0.0
220
0.0
230
1.0
 70
     8
 71
     3
 72
    13
 73
     9
 74
     0
 42
0.0000000001
 43
0.0000000001
 40
26.13201924531566
 40
26.13201924531566
 40
26.13201924531566
 40
26.13201924531566
 40
26.99048218457928
 40
28.09348763352352
 40
29.20111863782268
 40
30.31232390128032
 40
31.42594612798585
 40
32.5407912310448
 40
32.5407912310486
 40
32.5407912310486
 40
32.5407912310486
 10
-30.00380398361647
 20
1.125272134026997
 30
0.0
 10
-29.85939124244287
 20
1.066968341683831
 30
0.0
 10
-29.53022327732554
 20
0.9321692216452987
 30
0.0
 10
-29.01768439261841
 20
0.7163925212255754
 30
0.0
 10
-28.46542947809854
 20
0.4781532405695338
 30
0.0
 10
-27.91331296399908
 20
0.2356426028228286
 30
0.0
 10
-27.36128989245024
 20
-0.0097341085383546
 30
0.0
 10
-26.99337336022067
 20
-0.1742457764461302
 30
0.0
 10
-26.80931476099798
 20
-0.2565478547186583
 30
0.0
  0
SPLINE
  5
30C6
330
1F
100
AcDbEntity
  8
AM_0
100
AcDbSpline
210
0.0
220
0.0
230
1.0
 70
     8
 71
     3
 72
    22
 73
    18
 74
     0
 42
0.0000000001
 43
0.0000000001
 40
30.51371389116273
 40
30.51371389116273
 40
30.51371389116273
 40
30.51371389116273
 40
31.16722880550176
 40
32.23537921050758
 40
33.29534548809967
 40
34.347168041821
 40
35.39108718934584
 40
36.42754827133493
 40
37.45720575381954
 40
38.48085062012849
 40
39.49948440763516
 40
40.51422944315121
 40
41.52631975251916
 40
42.53706336719636
 40
43.54780698187354
 40
44.55989729124051
 40
45.14939243453665
 40
45.14939243453665
 40
45.14939243453665
 40
45.14939243453665
 10
-19.63045653930977
 20
0.0000000000002163
 30
0.0
 10
-21.35202133503892
 20
1.012972146332545
 30
0.0
 10
-22.18890316790061
 20
1.395247699549053
 30
0.0
 10
-22.67390150356154
 20
1.629543734466021
 30
0.0
 10
-23.52426278960169
 20
2.009603126701122
 30
0.0
 10
-24.08360442061452
 20
2.154590263829446
 30
0.0
 10
-24.6430031549435
 20
2.28471721213545
 30
0.0
 10
-25.20245948916848
 20
2.399182623346149
 30
0.0
 10
-25.7619694129027
 20
2.497271476654746
 30
0.0
 10
-26.32152844863846
 20
2.578372740380855
 30
0.0
 10
-26.88112602127544
 20
2.641988989411128
 30
0.0
 10
-27.44075845260115
 20
2.687709135888329
 30
0.0
 10
-28.0004139101576
 20
2.715258903813922
 30
0.0
 10
-28.56008166580333
 20
2.7244623696822
 30
0.0
 10
-29.11974942062556
 20
2.715258903799525
 30
0.0
 10
-29.60105517280512
 20
2.691566002209281
 30
0.0
 10
-29.89552388631969
 20
2.66951915031921
 30
0.0
 10
-30.00380398299385
 20
2.660401807931743
 30
0.0
  0
SPLINE
  5
30C7
330
1F
100
AcDbEntity
  8
AM_0
100
AcDbSpline
210
0.0
220
0.0
230
1.0
 70
     8
 71
     3
 72
    15
 73
    11
 74
     0
 42
0.0000000001
 43
0.0000000001
 40
3.980857627225244
 40
3.980857627225244
 40
3.980857627225244
 40
3.980857627225244
 40
4.056212745003489
 40
5.079857003664532
 40
6.109500240690281
 40
7.145961322679372
 40
8.189895241603872
 40
9.241717795325891
 40
10.30168407291828
 40
10.55450228288433
 40
10.55450228288433
 40
10.55450228288433
 40
10.55450228288433
 10
-26.68532247637257
 20
-2.950003033652971
 30
0.0
 10
-26.94584506870009
 20
-2.928777834280719
 30
0.0
 10
-27.15335055392219
 20
-2.915917477654888
 30
0.0
 10
-27.54108746622013
 20
-2.859736940385942
 30
0.0
 10
-28.1005933948945
 20
-2.761636882688989
 30
0.0
 10
-28.6600499366488
 20
-2.647173773187427
 30
0.0
 10
-29.21945213023418
 20
-2.517048529197465
 30
0.0
 10
-29.77879616510218
 20
-2.372060111823272
 30
0.0
 10
-30.19468395890132
 20
-2.253870991237711
 30
0.0
 10
-30.424480995729
 20
-2.185281673096806
 30
0.0
 10
-30.46869545759654
 20
-2.171965234806528
 30
0.0
  0
ELLIPSE
  5
30C8
330
1F
100
AcDbEntity
  8
AM_0
100
AcDbEllipse
 10
-29.77495446396015
 20
10.56744113328618
 30
0.0
 11
-1.107084020423116
 21
7.825911493504346
 31
0.0
210
0.0
220
0.0
230
0.9999999999999998
 40
0.6408523105992064
 41
2.803104034683391
 42
3.039601169250325
  0
LINE
  5
30C9
330
1F
100
AcDbEntity
  8
AM_0
 48
0.5
100
AcDbLine
 10
-2.48410034179353
 20
2.950000162953512
 30
0.0
 11
-0.9999999999998946
 21
2.950000162953471
 31
0.0
  0
LINE
  5
30CA
330
1F
100
AcDbEntity
  8
AM_0
 48
0.5
100
AcDbLine
 10
0.0000000000000383
 20
0.0000000000001158
 30
0.0
 11
-1.36431897812813
 21
1.147683612915793
 31
0.0
  0
LINE
  5
30CB
330
1F
100
AcDbEntity
  8
AM_0
 48
0.5
100
AcDbLine
 10
-2.71577153075201
 20
-2.949999837046485
 30
0.0
 11
-0.9999999999999808
 21
-2.949999837046529
 31
0.0
  0
LINE
  5
30CC
330
1F
100
AcDbEntity
  8
AM_0
100
AcDbLine
 10
-21.06685469530785
 20
2.949998287403415
 30
0.0
 11
-11.21485519408827
 21
2.950000162953739
 31
0.0
  0
LINE
  5
30CD
330
1F
100
AcDbEntity
  8
AM_0
 48
0.5
100
AcDbLine
 10
-26.68532247637258
 20
-2.950015489373856
 30
0.0
 11
-11.36353184519849
 21
-2.950001712597088
 31
0.0
  0
LINE
  5
30CE
330
1F
100
AcDbEntity
  8
AM_11
 48
0.5
100
AcDbLine
 10
-11.21485519408827
 20
2.95000016295374
 30
0.0
 11
-2.48410034179353
 21
2.950000162953512
 31
0.0
  0
LINE
  5
30CF
330
1F
100
AcDbEntity
  8
AM_11
 48
0.5
100
AcDbLine
 10
-11.36353184519849
 20
-2.950001712597088
 30
0.0
 11
-2.715771530752009
 21
-2.950001712597549
 31
0.0
  0
SPLINE
  5
30D0
330
1F
100
AcDbEntity
  8
AM_0
 48
0.5
100
AcDbSpline
210
0.0
220
0.0
230
1.0
 70
     8
 71
     3
 72
    10
 73
     6
 74
     0
 42
0.0000000001
 43
0.0000000001
 40
0.0
 40
0.0
 40
0.0
 40
0.0
 40
2.69986029516136
 40
4.147722969032201
 40
6.285750005020438
 40
6.285750005020438
 40
6.285750005020438
 40
6.285750005020438
 10
-3.024559656775705
 20
0.5339344382627158
 30
0.0
 10
-2.69469214489829
 20
0.2598590528439408
 30
0.0
 10
-2.187925532491171
 20
-0.1611956118678384
 30
0.0
 10
-0.9894905693325986
 20
0.0426443275745416
 30
0.0
 10
-1.215190731525422
 20
0.7292042156552127
 30
0.0
 10
-1.36431897812813
 20
1.147683612915793
 30
0.0
  0
SPLINE
  5
30D1
330
1F
100
AcDbEntity
  8
AM_0
 48
0.5
100
AcDbSpline
210
0.0
220
0.0
230
1.0
 70
     8
 71
     3
 72
    25
 73
    21
 74
     0
 42
0.0000000001
 43
0.0000000001
 40
6.846175049578289
 40
6.846175049578289
 40
6.846175049578289
 40
6.846175049578289
 40
7.604337694224321
 40
8.711974558287883
 40
9.814980593243754
 40
10.91239053451967
 40
12.0033633515982
 40
13.08720139956839
 40
14.16337181880432
 40
15.23152222380919
 40
16.29148850140128
 40
17.34331105512262
 40
18.38723020264746
 40
19.42369128463655
 40
20.45333379090873
 40
21.47697865721768
 40
22.49561244472435
 40
23.5103574802404
 40
24.52244778960836
 40
25.53320666051913
 40
25.53320666051913
 40
25.53320666051913
 40
25.53320666051913
 10
-3.024633756897674
 20
0.5339694761635001
 30
0.0
 10
-3.129920368228532
 20
0.5857662296078188
 30
0.0
 10
-3.389246916617639
 20
0.7127170748442967
 30
0.0
 10
-3.802998788893513
 20
0.9120756019793875
 30
0.0
 10
-4.265970732947747
 20
1.129531529905572
 30
0.0
 10
-4.728965960161723
 20
1.340039800758073
 30
0.0
 10
-5.191988448527331
 20
1.542306091305312
 30
0.0
 10
-5.655043357257735
 20
1.735082520029579
 30
0.0
 10
-6.11813496815636
 20
1.917180253950739
 30
0.0
 10
-6.581265425093473
 20
2.087480170689676
 30
0.0
 10
-7.044440432648185
 20
2.24492243947696
 30
0.0
 10
-7.507659363626263
 20
2.38854161840505
 30
0.0
 10
-7.970925545232088
 20
2.517441525301165
 30
0.0
 10
-8.434237342577988
 20
2.630824418738546
 30
0.0
 10
-8.897592945733945
 20
2.727995342702087
 30
0.0
 10
-9.360989776343801
 20
2.808310203236251
 30
0.0
 10
-9.824420624138939
 20
2.871401420696135
 30
0.0
 10
-10.28788038164108
 20
2.916412059816212
 30
0.0
 10
-10.7513615255018
 20
2.944736236063226
 30
0.0
 10
-11.06042511306609
 20
2.948246290762401
 30
0.0
 10
-11.21485519408827
 20
2.950000162953739
 30
0.0
  0
SPLINE
  5
30D2
330
1F
100
AcDbEntity
  8
AM_0
 48
0.5
100
AcDbSpline
210
0.0
220
0.0
230
1.0
 70
     8
 71
     3
 72
    17
 73
    13
 74
     0
 42
0.0000000001
 43
0.0000000001
 40
0.0
 40
0.0
 40
0.0
 40
0.0
 40
1.010743614677189
 40
2.022833924044153
 40
3.037578959561199
 40
4.056212747067873
 40
5.079857613375832
 40
6.109500119648989
 40
7.14596120163808
 40
8.18989512056258
 40
9.241717674284874
 40
9.693948937866434
 40
9.693948937866434
 40
9.693948937866434
 40
9.693948937866434
 10
-2.48410034179353
 20
2.950000162953511
 30
0.0
 10
-2.638528090324385
 20
2.948246249288633
 30
0.0
 10
-2.947589343846884
 20
2.944736085079212
 30
0.0
 10
-3.411068164387978
 20
2.916412073162733
 30
0.0
 10
-3.874527903775057
 20
2.871401375861145
 30
0.0
 10
-4.337958819910527
 20
2.808310370207338
 30
0.0
 10
-4.801355393466442
 20
2.7279947150545
 30
0.0
 10
-5.264711964511732
 20
2.630826782523715
 30
0.0
 10
-5.728022314022466
 20
2.517432074731254
 30
0.0
 10
-6.191304420299985
 20
2.388573994053657
 30
0.0
 10
-6.565277817159936
 20
2.272492341749519
 30
0.0
 10
-6.784896922260147
 20
2.199924615787407
 30
0.0
 10
-6.850814794900578
 20
2.177712120660086
 30
0.0
  0
SPLINE
  5
30D3
330
1F
100
AcDbEntity
  8
AM_0
100
AcDbSpline
210
0.0
220
0.0
230
1.0
 70
     8
 71
     3
 72
    17
 73
    13
 74
     0
 42
0.0000000001
 43
0.0000000001
 40
1.580019955310467
 40
1.580019955310467
 40
1.580019955310467
 40
1.580019955310467
 40
2.030549285115227
 40
3.082371838836284
 40
4.126290986361125
 40
5.162752068350215
 40
6.192395305374981
 40
7.216039564037012
 40
8.234688489606833
 40
9.249433870634691
 40
10.26152376260694
 40
11.27226744710342
 40
11.27226744710342
 40
11.27226744710342
 40
11.27226744710352
 10
-7.03931434143633
 20
-2.177188580038881
 30
0.0
 10
-7.104265561872034
 20
-2.199611796101883
 30
0.0
 10
-7.321224459281943
 20
-2.273106881797016
 30
0.0
 10
-7.691627100715585
 20
-2.388386553409615
 30
0.0
 10
-8.150425567455181
 20
-2.517484492721207
 30
0.0
 10
-8.609350340983112
 20
-2.630815342890976
 30
0.0
 10
-9.068296142283985
 20
-2.72799851345259
 30
0.0
 10
-9.527291944907359
 20
-2.808327089330135
 30
0.0
 10
-9.98631945823365
 20
-2.871342670761078
 30
0.0
 10
-10.44537555428739
 20
-2.91663689569247
 30
0.0
 10
-10.90444892311518
 20
-2.94391819993833
 30
0.0
 10
-11.21057211638552
 20
-2.950001729477151
 30
0.0
 10
-11.36353184519844
 20
-2.950001712597088
 30
0.0
  0
SPLINE
  5
30D4
330
1F
100
AcDbEntity
  8
AM_0
100
AcDbSpline
210
0.0
220
0.0
230
1.0
 70
     8
 71
     3
 72
    22
 73
    18
 74
     0
 42
0.0000000001
 43
0.0000000001
 40
17.17441611292
 40
17.17441611292
 40
17.17441611292
 40
17.17441611292
 40
17.38177636558528
 40
18.41823744757437
 40
19.46215659509824
 40
20.51397914882054
 40
21.57394542641293
 40
22.64209583141747
 40
23.71826625065247
 40
24.80210429862395
 40
25.8930771157021
 40
26.99048705697709
 40
28.09349309193389
 40
29.20112995599786
 40
30.31233024745139
 40
31.42594771747373
 40
32.5407895042663
 40
32.54078950426994
 40
32.54078950426994
 40
32.54078950426994
 10
-13.11571323331688
 20
-2.649123063661719
 30
0.0
 10
-13.14645344054597
 20
-2.642294103002941
 30
0.0
 10
-13.33072419467946
 20
-2.600698157206511
 30
0.0
 10
-13.66829783263636
 20
-2.51729287205178
 30
0.0
 10
-14.12716017196371
 20
-2.38839316613683
 30
0.0
 10
-14.58597575418191
 20
-2.244773932743692
 30
0.0
 10
-15.04474781850321
 20
-2.08733167873804
 30
0.0
 10
-15.50347575892165
 20
-1.91703175791824
 30
0.0
 10
-15.96216522184621
 20
-1.73493402538621
 30
0.0
 10
-16.42081833113808
 20
-1.542157595216026
 30
0.0
 10
-16.87943933042915
 20
-1.33989130908962
 30
0.0
 10
-17.33803331929414
 20
-1.129383021874785
 30
0.0
 10
-17.79660427805216
 20
-0.9119271553955409
 30
0.0
 10
-18.25515682296141
 20
-0.6888615348880954
 30
0.0
 10
-18.71369501869103
 20
-0.461557761422791
 30
0.0
 10
-19.17222565808563
 20
-0.2314184221414371
 30
0.0
 10
-19.47785274829978
 20
-0.0770688490302603
 30
0.0
 10
-19.6307502513689
 20
0.0001483321628294
 30
0.0
  0
SPLINE
  5
30D5
330
1F
100
AcDbEntity
  8
AM_0
100
AcDbSpline
210
0.0
220
0.0
230
1.0
 70
     8
 71
     3
 72
    11
 73
     7
 74
     0
 42
0.0000000001
 43
0.0000000001
 40
11.27226913003534
 40
11.27226913003534
 40
11.27226913003534
 40
11.2722691300354
 40
12.28301561507924
 40
13.29510212255852
 40
14.30984805882082
 40
15.18258238371378
 40
15.18258238371378
 40
15.18258238371378
 40
15.18258238371378
 10
-11.36353184519847
 20
-2.950001712597088
 30
0.0
 10
-11.51590994581871
 20
-2.935563555332678
 30
0.0
 10
-11.82037873298569
 20
-2.900609404969806
 30
0.0
 10
-12.27550969368041
 20
-2.83009823779931
 30
0.0
 10
-12.70743700058819
 20
-2.745880379862117
 30
0.0
 10
-12.98678222907188
 20
-2.681139605981549
 30
0.0
 10
-13.11551246470528
 20
-2.649159451889159
 30
0.0
  0
SPLINE
  5
30D6
330
1F
100
AcDbEntity
  8
AM_0
100
AcDbSpline
210
0.0
220
0.0
230
1.0
 70
     8
 71
     3
 72
    46
 73
    42
 74
     0
 42
0.0000000001
 43
0.0000000001
 40
0.0
 40
0.0
 40
0.0
 40
0.0
 40
0.5056245176053715
 40
0.759310862862336
 40
1.013969309739036
 40
1.269880374404297
 40
1.527291183660732
 40
1.786406454158005
 40
2.047386241038974
 40
2.310345544571907
 40
2.575337113970003
 40
2.842374715221223
 40
3.111417320030211
 40
3.382376832022752
 40
3.655120036292296
 40
3.929472521611371
 40
4.205224030350333
 40
4.482133246366229
 40
4.759933319229942
 40
5.038338087391601
 40
5.317048131389549
 40
5.595758175387723
 40
5.874162943549383
 40
6.151963016412869
 40
6.428872232428759
 40
6.704623741167955
 40
6.978976226486705
 40
7.251719430756336
 40
7.522680721168327
 40
7.791723325977311
 40
8.058760927228529
 40
8.32375249662655
 40
8.586708135057122
 40
8.84768792193809
 40
9.106803192435362
 40
9.364213819003406
 40
9.620125035580644
 40
9.87478726697307
 40
10.12847352585208
 40
10.38149610319407
 40
10.63418200686337
 40
10.63418200686337
 40
10.63418200686337
 40
10.63418200686337
 10
-1.430678008299074
 20
-2.950001712597615
 30
0.0
 10
-1.736816153409022
 20
-2.943281384559899
 30
0.0
 10
-2.196552600168795
 20
-2.933189274894806
 30
0.0
 10
-2.807884201721149
 20
-2.871054009706109
 30
0.0
 10
-3.266914505003605
 20
-2.808405133682664
 30
0.0
 10
-3.725905572122554
 20
-2.727974618775248
 30
0.0
 10
-4.184856193938355
 20
-2.630831978673223
 30
0.0
 10
-4.64376401273165
 20
-2.517441637954088
 30
0.0
 10
-5.102628259900813
 20
-2.388542262707884
 30
0.0
 10
-5.561446893337831
 20
-2.244925314179822
 30
0.0
 10
-6.020220830111154
 20
-2.087481557944067
 30
0.0
 10
-6.478948836258394
 20
-1.917181847484697
 30
0.0
 10
-6.937638281490364
 20
-1.735084058226802
 30
0.0
 10
-7.396291395129466
 20
-1.542307642381103
 30
0.0
 10
-7.854912394918828
 20
-1.34004135629226
 30
0.0
 10
-8.313506377344419
 20
-1.129533054332856
 30
0.0
 10
-8.772077361547069
 20
-0.9120772472359647
 30
0.0
 10
-9.230629810579475
 20
-0.6890114026840197
 30
0.0
 10
-9.68916858640479
 20
-0.4617083602427244
 30
0.0
 10
-10.14769787780471
 20
-0.2315658738430395
 30
0.0
 10
-10.60622331472644
 20
-0.0000017126439844
 30
0.0
 10
-11.06474875154745
 20
0.231562448836458
 30
0.0
 10
-11.52327804324953
 20
0.4617049343923737
 30
0.0
 10
-11.98181681797045
 20
0.6890079799173092
 30
0.0
 10
-12.44036927109799
 20
0.9120738130331384
 30
0.0
 10
-12.89894024011627
 20
1.129529662533943
 30
0.0
 10
-13.3575342787748
 20
1.340037807456764
 30
0.0
 10
-13.81615606758182
 20
1.542305114143648
 30
0.0
 10
-14.27481096332565
 20
1.735079778517887
 30
0.0
 10
-14.73350122678928
 20
1.917178501510878
 30
0.0
 10
-15.19222922225604
 20
2.087478262643486
 30
0.0
 10
-15.65100127443815
 20
2.244920572105663
 30
0.0
 10
-16.10981685086097
 20
2.388539742266265
 30
0.0
 10
-16.56867922497706
 20
2.517439644080533
 30
0.0
 10
-17.02758677817862
 20
2.630822566208276
 30
0.0
 10
-17.48653773646892
 20
2.727993381503948
 30
0.0
 10
-17.94553173290427
 20
2.808309040604742
 30
0.0
 10
-18.40455967091994
 20
2.871398953044432
 30
0.0
 10
-18.86361600877078
 20
2.916410283500155
 30
0.0
 10
-19.3226890100252
 20
2.94473418811381
 30
0.0
 10
-19.6288123266452
 20
2.948244366603233
 30
0.0
 10
-19.78177208468542
 20
2.949998287403347
 30
0.0
  0
ELLIPSE
  5
30D7
330
1F
100
AcDbEntity
  8
AM_0
 48
0.5
100
AcDbEllipse
 10
16.73805150987504
 20
-23.71196905994684
 30
0.0
 11
0.0000000001148491
 21
30.61384612293585
 31
0.0
210
0.0
220
0.0
230
1.0
 40
0.8644067796611953
 41
0.6847922390491253
 42
0.7157204709638459
  0
ELLIPSE
  5
30D8
330
1F
100
AcDbEntity
  8
AM_0
 48
0.5
100
AcDbEllipse
 10
-4.759485880530226
 20
4.951169621978414
 30
0.0
 11
-0.0000000000040821
 21
7.112762554485951
 31
0.0
210
0.0
220
0.0
230
1.0
 40
0.9322033898305207
 41
3.65217597881757
 42
3.74067075649707
  0
ELLIPSE
  5
30D9
330
1F
100
AcDbEntity
  8
AM_0
 48
0.5
100
AcDbEllipse
 10
2.845227559410941
 20
-0.6557441989238849
 30
0.0
 11
0.000711262756547
 21
4.719781262355687
 31
0.0
210
0.0
220
0.0
230
1.0
 40
0.9322448017153119
 41
1.698125243090037
 42
2.07855097580391
  0
ELLIPSE
  5
30DA
330
1F
100
AcDbEntity
  8
AM_0
 48
0.5
100
AcDbEllipse
 10
1.756413141890084
 20
3.541656657094013
 30
0.0
 11
-0.0000000000001305
 21
5.945562028884787
 31
0.0
210
0.0
220
0.0
230
1.0
 40
0.9322033898305093
 41
2.101163880028946
 42
2.509284810223839
  0
ELLIPSE
  5
30DB
330
1F
100
AcDbEntity
  8
AM_0
 48
0.5
100
AcDbEllipse
 10
-0.8184388478562279
 20
-0.7688123027144513
 30
0.0
 11
-0.3916539794919419
 21
0.2547317748287466
 31
0.0
210
0.0
220
0.0
230
1.0
 40
0.516188007131727
 41
4.526707237922082
 42
7.670147579251588
  0
ELLIPSE
  5
30DC
330
1F
100
AcDbEntity
  8
AM_0
 48
0.5
100
AcDbEllipse
 10
-0.8184388478562279
 20
-0.7688123027144513
 30
0.0
 11
-0.0763301546707721
 21
0.4847606651368447
 31
0.0
210
0.0
220
0.0
230
0.9999999999999998
 40
0.467872550813202
 41
1.820258552420146
 42
4.955600442132123
  0
SPLINE
  5
30DD
330
1F
100
AcDbEntity
  8
AM_0
100
AcDbSpline
210
0.0
220
0.0
230
1.0
 70
     8
 71
     3
 72
    55
 73
    51
 74
     0
 42
0.0000000001
 43
0.0000000001
 40
0.0
 40
0.0
 40
0.0
 40
0.0
 40
1.010743684496582
 40
2.022833576467832
 40
3.037578957496688
 40
4.056212745003489
 40
5.079857003664532
 40
6.109500240690281
 40
7.145961322679372
 40
8.189895241603872
 40
9.241717795325891
 40
10.30168407291828
 40
11.36983447792315
 40
12.44600489715814
 40
13.52984294512926
 40
14.62081576220742
 40
15.7182257034828
 40
16.82123173843959
 40
17.92886860250316
 40
19.0400688939571
 40
20.15368796660465
 40
21.26852814259644
 40
22.38336992938901
 40
23.49698739941135
 40
24.6081876908653
 40
25.71582455492886
 40
26.81883757994213
 40
27.91624752121713
 40
29.00722033829659
 40
30.09105838626677
 40
31.16722880550176
 40
32.23537921050758
 40
33.29534548809967
 40
34.347168041821
 40
35.39108718934584
 40
36.42754827133493
 40
37.45720575381954
 40
38.48085062012849
 40
39.49948440763516
 40
40.51422944315121
 40
41.52631975251916
 40
42.53706336719636
 40
43.54780698187354
 40
44.55989729124051
 40
45.57464232675757
 40
46.59327611426424
 40
47.6169209805722
 40
48.64656348684535
 40
49.68302456883444
 40
50.58557219878025
 40
50.58557219878025
 40
50.58557219878025
 40
50.58557219878025
 10
-2.715771530752009
 20
-2.950001712597543
 30
0.0
 10
-2.868731261582929
 20
-2.948246534065651
 30
0.0
 10
-3.174854450001754
 20
-2.944733839283139
 30
0.0
 10
-3.633927828566756
 20
-2.916417575841282
 30
0.0
 10
-4.092981611020146
 20
-2.871402114002011
 30
0.0
 10
-4.552006982551245
 20
-2.808311232167366
 30
0.0
 10
-5.010999362809452
 20
-2.727999932747744
 30
0.0
 10
-5.469949696901333
 20
-2.630825347293191
 30
0.0
 10
-5.928859519995396
 20
-2.517442078447301
 30
0.0
 10
-6.387724762488947
 20
-2.388544431098748
 30
0.0
 10
-6.846542298673424
 20
-2.244923828982793
 30
0.0
 10
-7.305314415500574
 20
-2.087481763772689
 30
0.0
 10
-7.764042341653613
 20
-1.917181791701035
 30
0.0
 10
-8.22273180857058
 20
-1.735084073353119
 30
0.0
 10
-8.681384916302656
 20
-1.542307638223769
 30
0.0
 10
-9.140005917819909
 20
-1.34004135765439
 30
0.0
 10
-9.598599899291322
 20
-1.129533053069243
 30
0.0
 10
-10.05717088558251
 20
-0.9120772509427162
 30
0.0
 10
-10.51572332717717
 20
-0.6890113890502924
 30
0.0
 10
-10.9742621307812
 20
-0.4617084112703594
 30
0.0
 10
-11.43279131821652
 20
-0.2315656828969908
 30
0.0
 10
-11.89131736462544
 20
-0.0000023145042237
 30
0.0
 10
-12.34984135263607
 20
0.2315652221734746
 30
0.0
 10
-12.80837207696126
 20
0.461704366615839
 30
0.0
 10
-13.26691031449303
 20
0.6890080324289376
 30
0.0
 10
-13.72546357368161
 20
0.9120747441028679
 30
0.0
 10
-14.18403646234523
 20
1.129528690423383
 30
0.0
 10
-14.6426311675991
 20
1.34003806257854
 30
0.0
 10
-15.10125223532596
 20
1.542304179130814
 30
0.0
 10
-15.55990532636912
 20
1.735080654800322
 30
0.0
 10
-16.01859479446058
 20
1.91717837341462
 30
0.0
 10
-16.47732273229783
 20
2.087478304764988
 30
0.0
 10
-16.93609480177468
 20
2.244920530737934
 30
0.0
 10
-17.39491036612992
 20
2.388539864685792
 30
0.0
 10
-17.85377277107198
 20
2.517439200271938
 30
0.0
 10
-18.31268242393432
 20
2.63082474911273
 30
0.0
 10
-18.77163603508539
 20
2.727988235880686
 30
0.0
 10
-19.23062993172471
 20
2.808324393345233
 30
0.0
 10
-19.68965543933147
 20
2.871340489082775
 30
0.0
 10
-20.14870954074936
 20
2.916629313423423
 30
0.0
 10
-20.60778253007484
 20
2.943919177878023
 30
0.0
 10
-21.06686560725085
 20
2.953035818596592
 30
0.0
 10
-21.5259486837514
 20
2.943919177863773
 30
0.0
 10
-21.98502167510724
 20
2.916629313480854
 30
0.0
 10
-22.44407576904992
 20
2.8713404888668
 30
0.0
 10
-22.90310130468311
 20
2.808324394157484
 30
0.0
 10
-23.36209285827778
 20
2.727988624479
 30
0.0
 10
-23.82104466132636
 20
2.630825742557137
 30
0.0
 10
-24.25908868818604
 20
2.522586186341326
 30
0.0
 10
-24.54329664139978
 20
2.443429575619279
 30
0.0
 10
-24.81600834198173
 20
2.319172982337601
 30
0.0
  0
SPLINE
  5
30DE
330
1F
100
AcDbEntity
  8
AM_0
100
AcDbSpline
210
0.0
220
0.0
230
1.0
 70
     8
 71
     3
 72
    21
 73
    17
 74
     0
 42
0.0000000001
 43
0.0000000001
 40
18.0152809420419
 40
18.0152809420419
 40
18.0152809420419
 40
18.0152809420419
 40
18.41823744757437
 40
19.46215659509824
 40
20.51397914882054
 40
21.57394542641293
 40
22.64209583141747
 40
23.71826625065247
 40
24.80210429862395
 40
25.8930771157021
 40
26.99048705697709
 40
28.09349309193389
 40
29.20112995599786
 40
30.31233024745139
 40
31.42594771747373
 40
32.5407895042663
 40
32.54078950426994
 40
32.54078950426994
 40
32.54078950426994
 10
-19.05862650672257
 20
-2.950012623781649
 30
0.0
 10
-19.18782842282164
 20
-2.911656525534406
 30
0.0
 10
-19.65363585676557
 20
-2.771645750408896
 30
0.0
 10
-20.09989317508177
 20
-2.667837367286699
 30
0.0
 10
-20.6592348278713
 20
-2.522850331670774
 30
0.0
 10
-21.21852342803293
 20
-2.363908627626983
 30
0.0
 10
-21.77775823678528
 20
-2.191986802799375
 30
0.0
 10
-22.33694613766037
 20
-2.008154806147996
 30
0.0
 10
-22.89608971985538
 20
-1.8135424099762
 30
0.0
 10
-23.45519415677804
 20
-1.609349778267638
 30
0.0
 10
-24.01426566531519
 20
-1.396836650222206
 30
0.0
 10
-24.57330909787031
 20
-1.177309775490782
 30
0.0
 10
-25.1323300821193
 20
-0.9521197205023124
 30
0.0
 10
-25.69133357329665
 20
-0.7226511491944941
 30
0.0
 10
-26.25032785255294
 20
-0.490320006681897
 30
0.0
 10
-26.62291755613528
 20
-0.3345004376363258
 30
0.0
 10
-26.80931476100049
 20
-0.2565478547175953
 30
0.0
  0
VIEWPORT
  5
110
330
101
100
AcDbEntity
 67
     1
  8
0
100
AcDbViewport
 10
420.5
 20
297.0
 30
0.0
 40
948.9782706766916
 41
628.452
 68
     1
 69
     1
1001
ACAD
1000
MVIEW
1002
{
1070
    16
1010
0.0
1020
0.0
1030
0.0
1010
0.0
1020
0.0
1030
1.0
1040
0.0
1040
628.452
1040
420.5
1040
297.0
1040
50.0
1040
0.0
1040
0.0
1070
     0
1070
   100
1070
     1
1070
     1
1070
     0
1070
     0
1070
     0
1070
     0
1040
0.0
1040
0.0
1040
0.0
1040
10.0
1040
10.0
1040
10.0
1040
10.0
1070
     0
1002
{
1002
}
1002
}
  0
ENDSEC
  0
SECTION
  2
OBJECTS
  0
DICTIONARY
  5
C
330
0
100
AcDbDictionary
  3
ACAD_GROUP
350
D
  3
ACAD_LAYOUT
350
1A
  3
ACAD_MLINESTYLE
350
17
  3
ACAD_PLOTSETTINGS
350
19
  3
ACAD_PLOTSTYLENAME
350
E
  3
ACDBVARIABLEDICTIONARY
350
34
  3
ACMDICTIONARY
350
43
  3
AMG
350
2B
  3
AMGSNAPSETTINGS
350
6E
  3
DWGPROPS
350
3166
  3
ACDBHEADERROUNDTRIPXREC
350
3172
  0
DICTIONARY
  5
74
330
1F
100
AcDbDictionary
280
     1
  3
ACAD_INDEX
360
3168
  3
ACAD_LAYOUTSELFREF
360
3195
  0
DICTIONARY
  5
319A
330
101
100
AcDbDictionary
280
     1
  3
ACAD_LAYOUTSELFREF
360
319B
  0
DICTIONARY
  5
D
102
{ACAD_REACTORS
330
C
102
}
330
C
100
AcDbDictionary
  0
DICTIONARY
  5
1A
102
{ACAD_REACTORS
330
C
102
}
330
C
100
AcDbDictionary
  0
DICTIONARY
  5
17
102
{ACAD_REACTORS
330
C
102
}
330
C
100
AcDbDictionary
  3
STANDARD
350
18
  0
DICTIONARY
  5
19
102
{ACAD_REACTORS
330
C
102
}
330
C
100
AcDbDictionary
  0
ACDBDICTIONARYWDFLT
  5
E
102
{ACAD_REACTORS
330
C
102
}
330
C
100
AcDbDictionary
281
     1
  3
Normal
350
F
100
AcDbDictionaryWithDefault
340
F
  0
DICTIONARY
  5
34
102
{ACAD_REACTORS
330
C
102
}
330
C
100
AcDbDictionary
  3
INDEXCTL
350
35
  3
SORTENTS
350
B5E
  0
DICTIONARY
  5
43
102
{ACAD_REACTORS
330
C
102
}
330
C
100
AcDbDictionary
  3
ACMSTDDICTIONARY
350
260
  0
DICTIONARY
  5
2B
102
{ACAD_REACTORS
330
C
102
}
330
C
100
AcDbDictionary
  3
ACMGSETTINGS
350
2C
  0
DICTIONARY
  5
6E
102
{ACAD_REACTORS
330
C
102
}
330
C
100
AcDbDictionary
  0
XRECORD
  5
3166
102
{ACAD_REACTORS
330
C
102
}
330
C
100
AcDbXrecord
  1
DWGPROPS COOKIE
  2

  3

  4

  6

  7

  8

  9

300
AmdtFileType=82
301
=
302
=
303
=
304
=
305
=
306
=
307
=
308
=
309
=
 40
0.0917616203703704
 41
2452800.443498622
 42
2452946.606228657
  1

 90
        1
  0
DICTIONARY
  5
3172
102
{ACAD_REACTORS
330
C
102
}
330
C
100
AcDbDictionary
  3
TSTACKALIGN
350
3173
  3
TSTACKSIZE
350
3174
  3
HYPERLINKBASE
350
3175
  3
STYLESHEET
350
3176
  3
LAYOUTDICT
350
3177
  3
PLOTSETDICT
350
3178
  3
PLOTSTYLNAMDICT
350
3179
  3
LWETCUNION
350
317A
  3
INSUNITS
350
317B
  3
CEPSNTYPE
350
317C
  3
FINGERPRINTGUID
350
317D
  3
VERSIONGUID
350
317E
  3
PSVPSCALE
350
317F
  3
DIMSTYLEDATA
350
3180
  3
PUCSORTHOREF
350
3181
  3
PUCSORTHOVIEW
350
3182
  3
PUCSBASE
350
3183
  3
PUCSORGTOP
350
3184
  3
PUCSORGBOTTOM
350
3185
  3
PUCSORGLEFT
350
3186
  3
PUCSORGRIGHT
350
3187
  3
PUCSORGFRONT
350
3188
  3
PUCSORGBACK
350
3189
  3
UCSORTHOREF
350
318A
  3
UCSORTHOVIEW
350
318B
  3
UCSBASE
350
318C
  3
UCSORGTOP
350
318D
  3
UCSORGBOTTOM
350
318E
  3
UCSORGLEFT
350
318F
  3
UCSORGRIGHT
350
3190
  3
UCSORGFRONT
350
3191
  3
UCSORGBACK
350
3192
  0
DICTIONARY
  5
3168
102
{ACAD_REACTORS
330
74
102
}
330
74
100
AcDbDictionary
  3
*A1
350
3169
  0
XRECORD
  5
3195
102
{ACAD_REACTORS
330
74
102
}
330
74
100
AcDbXrecord
340
1F
  0
XRECORD
  5
319B
102
{ACAD_REACTORS
330
319A
102
}
330
319A
100
AcDbXrecord
340
101
  0
MLINESTYLE
  5
18
102
{ACAD_REACTORS
330
17
102
}
330
17
100
AcDbMlineStyle
  2
STANDARD
 70
     0
  3

 62
   256
 51
90.0
 52
90.0
 71
     2
 49
0.5
 62
   256
  6
BYLAYER
 49
-0.5
 62
   256
  6
BYLAYER
  0
ACDBPLACEHOLDER
  5
F
102
{ACAD_REACTORS
330
E
102
}
330
E
100
AcDbPlaceHolder
280
     0
  0
DICTIONARYVAR
  5
35
102
{ACAD_REACTORS
330
34
102
}
330
34
100
DictionaryVariables
280
     0
  1
1
  0
DICTIONARYVAR
  5
B5E
102
{ACAD_REACTORS
330
34
102
}
330
34
100
DictionaryVariables
280
     0
  1
96
  0
DICTIONARY
  5
260
102
{ACAD_REACTORS
330
43
102
}
330
43
100
AcDbDictionary
  0
DICTIONARY
  5
2C
102
{ACAD_REACTORS
330
2B
102
}
330
2B
100
AcDbDictionary
  3
DWGSETTINGS
350
2D
  0
XRECORD
  5
3173
102
{ACAD_REACTORS
330
3172
102
}
330
3172
100
AcDbXrecord
 90
        1
  0
XRECORD
  5
3174
102
{ACAD_REACTORS
330
3172
102
}
330
3172
100
AcDbXrecord
 90
       70
  0
XRECORD
  5
3175
102
{ACAD_REACTORS
330
3172
102
}
330
3172
100
AcDbXrecord
  1

  0
XRECORD
  5
3176
102
{ACAD_REACTORS
330
3172
102
}
330
3172
100
AcDbXrecord
  1
ASAMI.ctb
  0
XRECORD
  5
3177
102
{ACAD_REACTORS
330
3172
102
}
330
3172
100
AcDbXrecord
340
1A
  0
XRECORD
  5
3178
102
{ACAD_REACTORS
330
3172
102
}
330
3172
100
AcDbXrecord
340
19
  0
XRECORD
  5
3179
102
{ACAD_REACTORS
330
3172
102
}
330
3172
100
AcDbXrecord
340
E
  0
XRECORD
  5
317A
102
{ACAD_REACTORS
330
3172
102
}
330
3172
100
AcDbXrecord
 90
    10781
  0
XRECORD
  5
317B
102
{ACAD_REACTORS
330
3172
102
}
330
3172
100
AcDbXrecord
 90
        4
  0
XRECORD
  5
317C
102
{ACAD_REACTORS
330
3172
102
}
330
3172
100
AcDbXrecord
 90
        0
  0
XRECORD
  5
317D
102
{ACAD_REACTORS
330
3172
102
}
330
3172
100
AcDbXrecord
  1
{AFB28963-8C59-40AE-9337-C84526B81ACE}
  0
XRECORD
  5
317E
102
{ACAD_REACTORS
330
3172
102
}
330
3172
100
AcDbXrecord
  1
{D4C63A5E-E049-4D1E-BAB1-7EC0EEB38E3F}
  0
XRECORD
  5
317F
102
{ACAD_REACTORS
330
3172
102
}
330
3172
100
AcDbXrecord
 40
0.0
  0
XRECORD
  5
3180
102
{ACAD_REACTORS
330
3172
102
}
330
3172
100
AcDbXrecord
1000
DSTYLE
1002
{
1070
    79
 70
     2
1070
   341
340
59
1070
   342
340
59
1070
   371
 70
    -1
1070
   372
 70
    -1
1002
}
  0
XRECORD
  5
3181
102
{ACAD_REACTORS
330
3172
102
}
330
3172
100
AcDbXrecord
340
0
  0
XRECORD
  5
3182
102
{ACAD_REACTORS
330
3172
102
}
330
3172
100
AcDbXrecord
 70
     0
  0
XRECORD
  5
3183
102
{ACAD_REACTORS
330
3172
102
}
330
3172
100
AcDbXrecord
340
0
  0
XRECORD
  5
3184
102
{ACAD_REACTORS
330
3172
102
}
330
3172
100
AcDbXrecord
 10
0.0
 20
0.0
 30
0.0
  0
XRECORD
  5
3185
102
{ACAD_REACTORS
330
3172
102
}
330
3172
100
AcDbXrecord
 10
0.0
 20
0.0
 30
0.0
  0
XRECORD
  5
3186
102
{ACAD_REACTORS
330
3172
102
}
330
3172
100
AcDbXrecord
 10
0.0
 20
0.0
 30
0.0
  0
XRECORD
  5
3187
102
{ACAD_REACTORS
330
3172
102
}
330
3172
100
AcDbXrecord
 10
0.0
 20
0.0
 30
0.0
  0
XRECORD
  5
3188
102
{ACAD_REACTORS
330
3172
102
}
330
3172
100
AcDbXrecord
 10
0.0
 20
0.0
 30
0.0
  0
XRECORD
  5
3189
102
{ACAD_REACTORS
330
3172
102
}
330
3172
100
AcDbXrecord
 10
0.0
 20
0.0
 30
0.0
  0
XRECORD
  5
318A
102
{ACAD_REACTORS
330
3172
102
}
330
3172
100
AcDbXrecord
340
0
  0
XRECORD
  5
318B
102
{ACAD_REACTORS
330
3172
102
}
330
3172
100
AcDbXrecord
 70
     0
  0
XRECORD
  5
318C
102
{ACAD_REACTORS
330
3172
102
}
330
3172
100
AcDbXrecord
340
0
  0
XRECORD
  5
318D
102
{ACAD_REACTORS
330
3172
102
}
330
3172
100
AcDbXrecord
 10
0.0
 20
0.0
 30
0.0
  0
XRECORD
  5
318E
102
{ACAD_REACTORS
330
3172
102
}
330
3172
100
AcDbXrecord
 10
0.0
 20
0.0
 30
0.0
  0
XRECORD
  5
318F
102
{ACAD_REACTORS
330
3172
102
}
330
3172
100
AcDbXrecord
 10
0.0
 20
0.0
 30
0.0
  0
XRECORD
  5
3190
102
{ACAD_REACTORS
330
3172
102
}
330
3172
100
AcDbXrecord
 10
0.0
 20
0.0
 30
0.0
  0
XRECORD
  5
3191
102
{ACAD_REACTORS
330
3172
102
}
330
3172
100
AcDbXrecord
 10
0.0
 20
0.0
 30
0.0
  0
XRECORD
  5
3192
102
{ACAD_REACTORS
330
3172
102
}
330
3172
100
AcDbXrecord
 10
0.0
 20
0.0
 30
0.0
  0
LAYER_INDEX
  5
3169
102
{ACAD_REACTORS
330
3168
102
}
330
3168
100
AcDbIndex
 40
2453151.579980636
100
AcDbLayerIndex
  8
0
360
316A
 90
        0
  8
AM_0
360
316B
 90
       51
  8
AM_7
360
316C
 90
        1
  8
AM_11
360
316D
 90
       18
  8
AM_5
360
316E
 90
        5
  8
Defpoints
360
316F
 90
        0
  8
AM_6
360
3170
 90
        1
  0
XRECORD
  5
2D
102
{ACAD_REACTORS
330
2C
102
}
330
2C
100
AcDbXrecord
  1
VERSION
140
15.0
  1
PRODUCT
  2
AutoCAD Mechanical 2000
  0
IDBUFFER
  5
316A
330
0
100
AcDbIdBuffer
  0
IDBUFFER
  5
316B
330
0
100
AcDbIdBuffer
330
30DC
330
30DD
330
30DE
330
C1D
330
C20
330
1F19
330
1F1A
330
1F1B
330
1F1C
330
1F2F
330
1F31
330
1F32
330
1F5B
330
1F5C
330
2437
330
2442
330
245F
330
270B
330
270C
330
2ECF
330
2ED0
330
2ED1
330
30A0
330
30A1
330
30A2
330
30B1
330
30C0
330
30C1
330
30C3
330
30C4
330
30C5
330
30C6
330
30C7
330
30C8
330
30C9
330
30CA
330
30CB
330
30CC
330
30CD
330
30D0
330
30D1
330
30D2
330
30D3
330
30D4
330
30D5
330
30D6
330
30D7
330
30D8
330
30D9
330
30DA
330
30DB
  0
IDBUFFER
  5
316C
330
0
100
AcDbIdBuffer
330
C9F
  0
IDBUFFER
  5
316D
330
0
100
AcDbIdBuffer
330
30CE
330
30CF
330
144A
330
144B
330
144E
330
144F
330
1450
330
1451
330
1452
330
1453
330
1DAB
330
1DAC
330
1DAD
330
1DAE
330
1DAF
330
1DB0
330
2C01
330
30C2
  0
IDBUFFER
  5
316E
330
0
100
AcDbIdBuffer
330
CC6
330
DF5
330
2424
330
254C
330
299F
  0
IDBUFFER
  5
316F
330
0
100
AcDbIdBuffer
  0
IDBUFFER
  5
3170
330
0
100
AcDbIdBuffer
330
19BD
  0
ENDSEC
  0
EOF
