  0
SECTION
  2
HEADER
  9
$ACADVER
  1
AC1014
  9
$ACADMAINTVER
 70
     9
  9
$DWGCODEPAGE
  3
ANSI_932
  9
$INSBASE
 10
0.0
 20
0.0
 30
0.0
  9
$EXTMIN
 10
-121.400001
 20
-26.75001206798985
 30
-0.00000001
  9
$EXTMAX
 10
13.63600775005938
 20
13.28350217010306
 30
0.00000001
  9
$LIMMIN
 10
-134.5190642042595
 20
-53.82858422525012
  9
$LIMMAX
 10
25.47140465509773
 20
41.06629242752577
  9
$ORTHOMODE
 70
     0
  9
$REGENMODE
 70
     1
  9
$FILLMODE
 70
     1
  9
$QTEXTMODE
 70
     0
  9
$MIRRTEXT
 70
     0
  9
$DRAGMODE
 70
     2
  9
$LTSCALE
 40
1.0
  9
$OSMODE
 70
    55
  9
$ATTMODE
 70
     1
  9
$TEXTSIZE
 40
2.5
  9
$TRACEWID
 40
1.0
  9
$TEXTSTYLE
  7
STANDARD
  9
$CLAYER
  8
AM_0
  9
$CELTYPE
  6
BYLAYER
  9
$CECOLOR
 62
   256
  9
$CELTSCALE
 40
1.0
  9
$DELOBJ
 70
     1
  9
$DISPSILH
 70
     0
  9
$DIMSCALE
 40
0.5
  9
$DIMASZ
 40
2.5
  9
$DIMEXO
 40
1.0
  9
$DIMDLI
 40
12.0
  9
$DIMRND
 40
0.0
  9
$DIMDLE
 40
0.0
  9
$DIMEXE
 40
1.0
  9
$DIMTP
 40
0.1
  9
$DIMTM
 40
0.1
  9
$DIMTXT
 40
3.2
  9
$DIMCEN
 40
0.0
  9
$DIMTSZ
 40
0.0
  9
$DIMTOL
 70
     0
  9
$DIMLIM
 70
     0
  9
$DIMTIH
 70
     0
  9
$DIMTOH
 70
     0
  9
$DIMSE1
 70
     0
  9
$DIMSE2
 70
     0
  9
$DIMTAD
 70
     3
  9
$DIMZIN
 70
     8
  9
$DIMBLK
  1
OPEN30
  9
$DIMASO
 70
     1
  9
$DIMSHO
 70
     1
  9
$DIMPOST
  1

  9
$DIMAPOST
  1
"
  9
$DIMALT
 70
     0
  9
$DIMALTD
 70
     2
  9
$DIMALTF
 40
0.0393701
  9
$DIMLFAC
 40
1.0
  9
$DIMTOFL
 70
     1
  9
$DIMTVP
 40
0.0
  9
$DIMTIX
 70
     0
  9
$DIMSOXD
 70
     0
  9
$DIMSAH
 70
     0
  9
$DIMBLK1
  1

  9
$DIMBLK2
  1

  9
$DIMSTYLE
  2
AM_JIS
  9
$DIMCLRD
 70
   256
  9
$DIMCLRE
 70
   256
  9
$DIMCLRT
 70
     2
  9
$DIMTFAC
 40
0.71
  9
$DIMGAP
 40
1.5
  9
$DIMJUST
 70
     0
  9
$DIMSD1
 70
     0
  9
$DIMSD2
 70
     0
  9
$DIMTOLJ
 70
     0
  9
$DIMTZIN
 70
     0
  9
$DIMALTZ
 70
     0
  9
$DIMALTTZ
 70
     0
  9
$DIMFIT
 70
     3
  9
$DIMUPT
 70
     0
  9
$DIMUNIT
 70
     2
  9
$DIMDEC
 70
     3
  9
$DIMTDEC
 70
     3
  9
$DIMALTU
 70
     2
  9
$DIMALTTD
 70
     2
  9
$DIMTXSTY
  7
ASAMI
  9
$DIMAUNIT
 70
     0
  9
$LUNITS
 70
     2
  9
$LUPREC
 70
     2
  9
$SKETCHINC
 40
1.0
  9
$FILLETRAD
 40
2.5
  9
$AUNITS
 70
     0
  9
$AUPREC
 70
     0
  9
$MENU
  1
.
  9
$ELEVATION
 40
0.0
  9
$PELEVATION
 40
0.0
  9
$THICKNESS
 40
0.0
  9
$LIMCHECK
 70
     0
  9
$BLIPMODE
 70
     0
  9
$CHAMFERA
 40
0.25
  9
$CHAMFERB
 40
0.25
  9
$CHAMFERC
 40
20.0
  9
$CHAMFERD
 40
0.0
  9
$SKPOLY
 70
     0
  9
$TDCREATE
 40
2452800.443498622
  9
$TDUPDATE
 40
2453151.694741736
  9
$TDINDWG
 40
0.0496798958
  9
$TDUSRTIMER
 40
0.0496798958
  9
$USRTIMER
 70
     1
  9
$ANGBASE
 50
0.0
  9
$ANGDIR
 70
     0
  9
$PDMODE
 70
     3
  9
$PDSIZE
 40
0.0
  9
$PLINEWID
 40
0.0
  9
$COORDS
 70
     1
  9
$SPLFRAME
 70
     0
  9
$SPLINETYPE
 70
     6
  9
$SPLINESEGS
 70
     8
  9
$ATTDIA
 70
     1
  9
$ATTREQ
 70
     1
  9
$HANDLING
 70
 12289
  9
$HANDSEED
  5
2629
  9
$SURFTAB1
 70
     6
  9
$SURFTAB2
 70
     6
  9
$SURFTYPE
 70
     6
  9
$SURFU
 70
     6
  9
$SURFV
 70
     6
  9
$UCSNAME
  2

  9
$UCSORG
 10
0.0
 20
0.0
 30
0.0
  9
$UCSXDIR
 10
1.0
 20
0.000000000000002
 30
0.0
  9
$UCSYDIR
 10
-0.000000000000002
 20
1.0
 30
0.0
  9
$PUCSNAME
  2

  9
$PUCSORG
 10
0.0
 20
0.0
 30
0.0
  9
$PUCSXDIR
 10
1.0
 20
0.0
 30
0.0
  9
$PUCSYDIR
 10
0.0
 20
1.0
 30
0.0
  9
$USERI1
 70
     0
  9
$USERI2
 70
     0
  9
$USERI3
 70
     0
  9
$USERI4
 70
     0
  9
$USERI5
 70
     0
  9
$USERR1
 40
0.0
  9
$USERR2
 40
0.0
  9
$USERR3
 40
0.0
  9
$USERR4
 40
0.0
  9
$USERR5
 40
0.0
  9
$WORLDVIEW
 70
     1
  9
$SHADEDGE
 70
     3
  9
$SHADEDIF
 70
    70
  9
$TILEMODE
 70
     1
  9
$MAXACTVP
 70
    64
  9
$PINSBASE
 10
0.0
 20
0.0
 30
0.0
  9
$PLIMCHECK
 70
     0
  9
$PEXTMIN
 10
1.000000000000000E+20
 20
1.000000000000000E+20
 30
1.000000000000000E+20
  9
$PEXTMAX
 10
-1.000000000000000E+20
 20
-1.000000000000000E+20
 30
-1.000000000000000E+20
  9
$PLIMMIN
 10
0.0
 20
0.0
  9
$PLIMMAX
 10
841.0
 20
594.0
  9
$UNITMODE
 70
     0
  9
$VISRETAIN
 70
     1
  9
$PLINEGEN
 70
     0
  9
$PSLTSCALE
 70
     0
  9
$TREEDEPTH
 70
  3020
  9
$PICKSTYLE
 70
     0
  9
$CMLSTYLE
  2
STANDARD
  9
$CMLJUST
 70
     0
  9
$CMLSCALE
 40
20.0
  9
$PROXYGRAPHICS
 70
     1
  9
$MEASUREMENT
 70
     1
  0
ENDSEC
  0
SECTION
  2
CLASSES
  0
CLASS
  1
ACDBDICTIONARYWDFLT
  2
AcDbDictionaryWithDefault
  3
AutoCAD 2000
 90
        0
280
     0
281
     0
  0
CLASS
  1
ACDBPLACEHOLDER
  2
AcDbPlaceHolder
  3
AutoCAD 2000
 90
        0
280
     0
281
     0
  0
CLASS
  1
LAYOUT
  2
AcDbLayout
  3
AutoCAD 2000
 90
        0
280
     0
281
     0
  0
CLASS
  1
AMGSETTINGSOBJ
  2
AmgSettingsObj
  3
"AcadM|Product Description: AutoCAD Mechanical 2000|Company: Autodesk"
 90
        0
280
     0
281
     0
  0
CLASS
  1
ACME_DOCUMENT
  2
AcMeDbDoc
  3
AcMeServices
 90
        0
280
     0
281
     0
  0
CLASS
  1
ACMESCOPE
  2
AcMeScope
  3
AcMeServices
 90
        0
280
     0
281
     0
  0
CLASS
  1
ACMECOMMANDHISTORY
  2
AcMeCommandHistory
  3
AcMeServices
 90
        0
280
     0
281
     0
  0
CLASS
  1
DICTIONARYVAR
  2
AcDbDictionaryVar
  3
AutoCAD 2000
 90
        0
280
     0
281
     0
  0
CLASS
  1
ACIMSYSVARMAN
  2
AcImSysVarManager
  3
AcMeServices
 90
        0
280
     0
281
     0
  0
CLASS
  1
ACIMREALSYSVAR
  2
AcImRealSysVar
  3
AcMeServices
 90
        0
280
     0
281
     0
  0
CLASS
  1
ACIMINTSYSVAR
  2
AcImIntSysVar
  3
AcMeServices
 90
        0
280
     0
281
     0
  0
CLASS
  1
ACMEDRAWINGMAN
  2
AcMeDrawingMan
  3
AcMeServices
 90
        0
280
     0
281
     0
  0
CLASS
  1
ACMEVIEW
  2
AcMeView
  3
AcMeServices
 90
        0
280
     0
281
     0
  0
CLASS
  1
ACDBENTITYCACHE
  2
AcMeEntityCache
  3
AcMeServices
 90
        0
280
     0
281
     0
  0
CLASS
  1
GSMANAGER
  2
AcMeGSManager
  3
AcMeServices
 90
        0
280
     0
281
     0
  0
CLASS
  1
AmdtInternalReactor
  2
AmdtInternalReactor
  3
AcMeServices
 90
        0
280
     0
281
     0
  0
CLASS
  1
ACMESTATEMGR
  2
AcMeStateMgr
  3
AcMeServices
 90
        0
280
     0
281
     0
  0
CLASS
  1
ACME_DATABASE
  2
AcMeDbDatabase
  3
AcMeServices
 90
        0
280
     0
281
     0
  0
CLASS
  1
ACRFINSADJUSTERMGR
  2
AcRfInsAdjusterMgr
  3
AcMeServices
 90
        0
280
     0
281
     0
  0
CLASS
  1
ACMDATADICTIONARY
  2
AcmDataDictionary
  3
"AcmSymBB|Product Description: AutoCAD Mechanical 2000|Company: Autodesk"
 90
        0
280
     0
281
     0
  0
CLASS
  1
ACMDATAENTRYBLOCK
  2
AcmDataEntryBlock
  3
"AcmSymBB|Product Description: AutoCAD Mechanical 2000|Company: Autodesk"
 90
        0
280
     0
281
     0
  0
CLASS
  1
AMGOBJPROPCFG
  2
AmgObjPropCfg
  3
"AmgLay|Product Description: AutoCAD Mechanical 2000|Company: Autodesk"
 90
        1
280
     0
281
     0
  0
CLASS
  1
ACAMGFILTERDAT
  2
AcAmgFilterDat
  3
"AcadM|Product Description: AutoCAD Mechanical 2000|Company: Autodesk"
 90
        0
280
     0
281
     0
  0
CLASS
  1
LAYER_INDEX
  2
AcDbLayerIndex
  3
AutoCAD 2000
 90
        0
280
     0
281
     0
  0
CLASS
  1
IDBUFFER
  2
AcDbIdBuffer
  3
AutoCAD 2000
 90
        0
280
     0
281
     0
  0
CLASS
  1
ACIMSTRSYSVAR
  2
AcImStrSysVar
  3
AcMeServices
 90
        0
280
     0
281
     0
  0
CLASS
  1
ACMSTANDARDJIS
  2
AcmStandardJIS
  3
"AcmSymBB|Product Description: AutoCAD Mechanical 2000|Company: Autodesk"
 90
        0
280
     0
281
     0
  0
CLASS
  1
ACMSURFSTANDARDJIS
  2
AcmSurfTextStdJIS
  3
"AcmSymBB|Product Description: AutoCAD Mechanical 2000|Company: Autodesk"
 90
        0
280
     0
281
     0
  0
CLASS
  1
ACMFCFSTANDARDJIS
  2
AcmFCFStdJIS
  3
"AcmSymBB|Product Description: AutoCAD Mechanical 2000|Company: Autodesk"
 90
        0
280
     0
281
     0
  0
CLASS
  1
ACMWELDSTANDARDJIS
  2
AcmWeldingStdJIS
  3
"AcmSymBB|Product Description: AutoCAD Mechanical 2000|Company: Autodesk"
 90
        0
280
     0
281
     0
  0
CLASS
  1
ACMIDSTANDARDJIS
  2
AcmIdStdJIS
  3
"AcmSymBB|Product Description: AutoCAD Mechanical 2000|Company: Autodesk"
 90
        0
280
     0
281
     0
  0
CLASS
  1
ACMDATUMSTANDARDJIS
  2
AcmDatumStdJIS
  3
"AcmSymBB|Product Description: AutoCAD Mechanical 2000|Company: Autodesk"
 90
        0
280
     0
281
     0
  0
CLASS
  1
ACMBOMSTANDARDJIS
  2
AcmBOMStdJIS
  3
"AcmSymBB|Product Description: AutoCAD Mechanical 2000|Company: Autodesk"
 90
        0
280
     0
281
     0
  0
CLASS
  1
ACMSTANDARDANSI
  2
AcmStandardANSI
  3
"AcmSymBB|Product Description: AutoCAD Mechanical 2000|Company: Autodesk"
 90
        0
280
     0
281
     0
  0
CLASS
  1
ACMSURFSTANDARDANSI
  2
AcmSurfTextStdANSI
  3
"AcmSymBB|Product Description: AutoCAD Mechanical 2000|Company: Autodesk"
 90
        0
280
     0
281
     0
  0
CLASS
  1
ACMFCFSTANDARDANSI
  2
AcmFCFStdANSI
  3
"AcmSymBB|Product Description: AutoCAD Mechanical 2000|Company: Autodesk"
 90
        0
280
     0
281
     0
  0
CLASS
  1
ACMWELDSTANDARDANSI
  2
AcmWeldingStdANSI
  3
"AcmSymBB|Product Description: AutoCAD Mechanical 2000|Company: Autodesk"
 90
        0
280
     0
281
     0
  0
CLASS
  1
ACMIDSTANDARDANSI
  2
AcmIdStdANSI
  3
"AcmSymBB|Product Description: AutoCAD Mechanical 2000|Company: Autodesk"
 90
        0
280
     0
281
     0
  0
CLASS
  1
ACMDATUMSTANDARDANSI
  2
AcmDatumStdANSI
  3
"AcmSymBB|Product Description: AutoCAD Mechanical 2000|Company: Autodesk"
 90
        0
280
     0
281
     0
  0
CLASS
  1
ACMBOMSTANDARDANSI
  2
AcmBOMStdANSI
  3
"AcmSymBB|Product Description: AutoCAD Mechanical 2000|Company: Autodesk"
 90
        0
280
     0
281
     0
  0
CLASS
  1
ACMSTANDARDBSI
  2
AcmStandardBSI
  3
"AcmSymBB|Product Description: AutoCAD Mechanical 2000|Company: Autodesk"
 90
        0
280
     0
281
     0
  0
CLASS
  1
ACMSURFSTANDARDBSI
  2
AcmSurfTextStdBSI
  3
"AcmSymBB|Product Description: AutoCAD Mechanical 2000|Company: Autodesk"
 90
        0
280
     0
281
     0
  0
CLASS
  1
ACMFCFSTANDARDBSI
  2
AcmFCFStdBSI
  3
"AcmSymBB|Product Description: AutoCAD Mechanical 2000|Company: Autodesk"
 90
        0
280
     0
281
     0
  0
CLASS
  1
ACMWELDSTANDARDBSI
  2
AcmWeldingStdBSI
  3
"AcmSymBB|Product Description: AutoCAD Mechanical 2000|Company: Autodesk"
 90
        0
280
     0
281
     0
  0
CLASS
  1
ACMIDSTANDARDBSI
  2
AcmIdStdBSI
  3
"AcmSymBB|Product Description: AutoCAD Mechanical 2000|Company: Autodesk"
 90
        0
280
     0
281
     0
  0
CLASS
  1
ACMDATUMSTANDARDBSI
  2
AcmDatumStdBSI
  3
"AcmSymBB|Product Description: AutoCAD Mechanical 2000|Company: Autodesk"
 90
        0
280
     0
281
     0
  0
CLASS
  1
ACMBOMSTANDARDBSI
  2
AcmBOMStdBSI
  3
"AcmSymBB|Product Description: AutoCAD Mechanical 2000|Company: Autodesk"
 90
        0
280
     0
281
     0
  0
CLASS
  1
LONG_TRANSACTION
  2
AcDbLongTransaction
  3
AutoCAD 2000
 90
        0
280
     0
281
     0
  0
CLASS
  1
LWPOLYLINE
  2
AcDbPolyline
  3
AutoCAD 2000
 90
        0
280
     0
281
     1
  0
CLASS
  1
HATCH
  2
AcDbHatch
  3
AutoCAD 2000
 90
        0
280
     0
281
     1
  0
CLASS
  1
XRECORD
  2
AcDbXrecord
  3
AutoCAD 2000
 90
        0
280
     0
281
     0
  0
ENDSEC
  0
SECTION
  2
TABLES
  0
TABLE
  2
VPORT
  5
8
330
0
100
AcDbSymbolTable
 70
     3
  0
VPORT
  5
25FE
330
8
100
AcDbSymbolTableRecord
100
AcDbViewportTableRecord
  2
*ACTIVE
 70
     0
 10
0.0
 20
0.0
 11
1.0
 21
1.0
 12
-51.38079421270635
 22
-6.732281048021107
 13
0.0
 23
0.0
 14
2.5
 24
2.5
 15
10.0
 25
10.0
 16
0.0
 26
0.0
 36
1.0
 17
0.0
 27
0.0
 37
0.0
 40
89.87260803011755
 41
1.56570841889117
 42
50.0
 43
0.0
 44
0.0
 50
0.0
 51
0.0
 71
     0
 72
   100
 73
     1
 74
     1
 75
     0
 76
     0
 77
     0
 78
     0
  0
ENDTAB
  0
TABLE
  2
LTYPE
  5
5
330
0
100
AcDbSymbolTable
 70
    10
  0
LTYPE
  5
14
330
5
100
AcDbSymbolTableRecord
100
AcDbLinetypeTableRecord
  2
BYBLOCK
 70
     0
  3

 72
    65
 73
     0
 40
0.0
  0
LTYPE
  5
15
330
5
100
AcDbSymbolTableRecord
100
AcDbLinetypeTableRecord
  2
BYLAYER
 70
     0
  3

 72
    65
 73
     0
 40
0.0
  0
LTYPE
  5
16
330
5
100
AcDbSymbolTableRecord
100
AcDbLinetypeTableRecord
  2
CONTINUOUS
 70
     0
  3
Solid line
 72
    65
 73
     0
 40
0.0
  0
LTYPE
  5
4B
330
5
100
AcDbSymbolTableRecord
100
AcDbLinetypeTableRecord
  2
AM_ISO02W050
 70
     0
  3
__ __ __ __ __ __ __ __ __ __ __ __ __ __ __
 72
    65
 73
     2
 40
7.5
 49
6.0
 74
     0
 49
-1.5
 74
     0
  0
LTYPE
  5
4C
330
5
100
AcDbSymbolTableRecord
100
AcDbLinetypeTableRecord
  2
AM_ISO08W050
 70
     0
  3
____ . ____ . ____ . ____ . ____ . ____ . ____
 72
    65
 73
     4
 40
18.0
 49
12.0
 74
     0
 49
-1.5
 74
     0
 49
3.0
 74
     0
 49
-1.5
 74
     0
  0
LTYPE
  5
4D
330
5
100
AcDbSymbolTableRecord
100
AcDbLinetypeTableRecord
  2
AM_ISO09W050
 70
     0
  3
_____ . . _____ . . _____ . . ____ .. ____
 72
    65
 73
     6
 40
22.5
 49
12.0
 74
     0
 49
-1.5
 74
     0
 49
3.0
 74
     0
 49
-1.5
 74
     0
 49
3.0
 74
     0
 49
-1.5
 74
     0
  0
LTYPE
  5
4E
330
5
100
AcDbSymbolTableRecord
100
AcDbLinetypeTableRecord
  2
AMCONSTR
 70
     0
  3
_______________________
 72
    65
 73
     2
 40
9999.0
 49
9999.0
 74
     0
 49
0.0
 74
     0
  0
LTYPE
  5
4F
330
5
100
AcDbSymbolTableRecord
100
AcDbLinetypeTableRecord
  2
AM_ISO02W050X2
 70
     0
  3
 _ _ _ _ _ _ _ _ _ _ _ _
 72
    65
 73
     2
 40
3.75
 49
3.0
 74
     0
 49
-0.75
 74
     0
  0
LTYPE
  5
50
330
5
100
AcDbSymbolTableRecord
100
AcDbLinetypeTableRecord
  2
AM_ISO08W050X2
 70
     0
  3
__ . __ . __ . __ . __ . __
 72
    65
 73
     4
 40
9.0
 49
6.0
 74
     0
 49
-0.75
 74
     0
 49
1.5
 74
     0
 49
-0.75
 74
     0
  0
LTYPE
  5
53
330
5
100
AcDbSymbolTableRecord
100
AcDbLinetypeTableRecord
  2
AMZIGZAG
 70
     0
  3
/\/-/\/-/\/-/\/-/\/-/\/
 72
    65
 73
     2
 40
11.00009999999999
 49
0.0001
 74
     4
 75
   135
340
52
 46
0.04
 50
0.0
 44
0.0
 45
0.0
 49
-11.0
 74
     0
  0
LTYPE
  5
166
330
5
100
AcDbSymbolTableRecord
100
AcDbLinetypeTableRecord
  2
ACJISTGL
 70
     0
  3
_ _ _ _ _
 72
    65
 73
     2
 40
3.0
 49
2.0
 74
     0
 49
-1.0
 74
     0
  0
LTYPE
  5
26A
330
5
100
AcDbSymbolTableRecord
100
AcDbLinetypeTableRecord
  2
ACJISTGB
 70
     0
  3
__ . . __ . .
 72
    65
 73
     6
 40
9.0
 49
4.0
 74
     0
 49
-1.0
 74
     0
 49
1.0
 74
     0
 49
-1.0
 74
     0
 49
1.0
 74
     0
 49
-1.0
 74
     0
  0
ENDTAB
  0
TABLE
  2
LAYER
  5
2
330
0
100
AcDbSymbolTable
 70
     8
  0
LAYER
  5
10
330
2
100
AcDbSymbolTableRecord
100
AcDbLayerTableRecord
  2
0
 70
     0
 62
     7
  6
CONTINUOUS
  0
LAYER
  5
3F9
330
2
100
AcDbSymbolTableRecord
100
AcDbLayerTableRecord
  2
AM_0
 70
     0
 62
     7
  6
CONTINUOUS
  0
LAYER
  5
C7C
330
2
100
AcDbSymbolTableRecord
100
AcDbLayerTableRecord
  2
AM_7
 70
     0
 62
     4
  6
AM_ISO08W050
  0
LAYER
  5
C97
330
2
100
AcDbSymbolTableRecord
100
AcDbLayerTableRecord
  2
AM_11
 70
     0
 62
     3
  6
AM_ISO09W050
  0
LAYER
  5
CC5
330
2
100
AcDbSymbolTableRecord
100
AcDbLayerTableRecord
  2
AM_5
 70
     0
 62
     3
  6
CONTINUOUS
  0
LAYER
  5
CC7
330
2
100
AcDbSymbolTableRecord
100
AcDbLayerTableRecord
  2
DEFPOINTS
 70
     0
 62
     7
  6
CONTINUOUS
  0
LAYER
  5
19BC
330
2
100
AcDbSymbolTableRecord
100
AcDbLayerTableRecord
  2
AM_6
 70
     0
 62
     2
  6
CONTINUOUS
  0
LAYER
  5
247F
330
2
100
AcDbSymbolTableRecord
100
AcDbLayerTableRecord
  2
AM_CL
 70
     0
 62
     1
  6
AMCONSTR
  0
ENDTAB
  0
TABLE
  2
STYLE
  5
3
330
0
100
AcDbSymbolTable
 70
     5
  0
STYLE
  5
11
330
3
100
AcDbSymbolTableRecord
100
AcDbTextStyleTableRecord
  2
STANDARD
 70
     0
 40
0.0
 41
1.0
 50
0.0
 71
     0
 42
2.5
  3
simplex.shx
  4
EXTFONT.SHX
  0
STYLE
  5
52
330
3
100
AcDbSymbolTableRecord
100
AcDbTextStyleTableRecord
  2

 70
     1
 40
0.0
 41
1.0
 50
0.0
 71
     0
 42
2.5
  3
ltypeshp.shx
  4

  0
STYLE
  5
6B
330
3
100
AcDbSymbolTableRecord
100
AcDbTextStyleTableRecord
  2
ASAMI
 70
     0
 40
0.0
 41
1.0
 50
0.0
 71
     0
 42
2.5
  3
simplex.shx
  4
EXTFONT.SHX
  0
STYLE
  5
262
330
3
100
AcDbSymbolTableRecord
100
AcDbTextStyleTableRecord
  2
ACJISTS
 70
     0
 40
1.0
 41
1.0
 50
0.0
 71
     0
 42
2.5
  3
simplex.shx
  4
bigfont.shx
  0
STYLE
  5
269
330
3
100
AcDbSymbolTableRecord
100
AcDbTextStyleTableRecord
  2
ACJISGDT
 70
     0
 40
0.0
 41
1.0
 50
0.0
 71
     0
 42
2.5
  3
amgdtans.shx
  4

  0
ENDTAB
  0
TABLE
  2
VIEW
  5
6
330
0
100
AcDbSymbolTable
 70
     0
  0
ENDTAB
  0
TABLE
  2
UCS
  5
7
330
0
100
AcDbSymbolTable
 70
     0
  0
ENDTAB
  0
TABLE
  2
APPID
  5
9
330
0
100
AcDbSymbolTable
 70
    16
  0
APPID
  5
12
330
9
100
AcDbSymbolTableRecord
100
AcDbRegAppTableRecord
  2
ACAD
 70
     0
  0
APPID
  5
30
330
9
100
AcDbSymbolTableRecord
100
AcDbRegAppTableRecord
  2
MCAD_NO_VIS
 70
     0
  0
APPID
  5
31
330
9
100
AcDbSymbolTableRecord
100
AcDbRegAppTableRecord
  2
ACAD_TEMP_GRAPHIC
 70
     0
  0
APPID
  5
2C2
330
9
100
AcDbSymbolTableRecord
100
AcDbRegAppTableRecord
  2
GENIUS_GENDTOL_13
 70
     0
  0
APPID
  5
339
330
9
100
AcDbSymbolTableRecord
100
AcDbRegAppTableRecord
  2
GENIUS_GENODEF_13
 70
     0
  0
APPID
  5
33A
330
9
100
AcDbSymbolTableRecord
100
AcDbRegAppTableRecord
  2
GENIUS_GENOBJ-N-RSBK_13
 70
     0
  0
APPID
  5
33B
330
9
100
AcDbSymbolTableRecord
100
AcDbRegAppTableRecord
  2
GENIUS_GENOBJ-N-LIB_13
 70
     0
  0
APPID
  5
33C
330
9
100
AcDbSymbolTableRecord
100
AcDbRegAppTableRecord
  2
GENIUS_GENSCALE_13
 70
     0
  0
APPID
  5
378
330
9
100
AcDbSymbolTableRecord
100
AcDbRegAppTableRecord
  2
GENIUS_GENDIMSH_14
 70
     0
  0
APPID
  5
C82
330
9
100
AcDbSymbolTableRecord
100
AcDbRegAppTableRecord
  2
GENIUS_GENOBJ-N-CRS_13
 70
     0
  0
APPID
  5
C83
330
9
100
AcDbSymbolTableRecord
100
AcDbRegAppTableRecord
  2
GENIUS_GENOENT_13
 70
     0
  0
APPID
  5
C84
330
9
100
AcDbSymbolTableRecord
100
AcDbRegAppTableRecord
  2
GENIUS_GENOREF_13
 70
     0
  0
APPID
  5
C85
330
9
100
AcDbSymbolTableRecord
100
AcDbRegAppTableRecord
  2
GENIUS_GENOLIS_13
 70
     0
  0
APPID
  5
CA0
330
9
100
AcDbSymbolTableRecord
100
AcDbRegAppTableRecord
  2
GENIUS_GENOBJ-N-CEN_13
 70
     0
  0
APPID
  5
1CFA
330
9
100
AcDbSymbolTableRecord
100
AcDbRegAppTableRecord
  2
GENIUS_GENFIL_13
 70
     0
  0
APPID
  5
1CFB
330
9
100
AcDbSymbolTableRecord
100
AcDbRegAppTableRecord
  2
GENIUS_GENOBJ-N-CHA_13
 70
     0
  0
ENDTAB
  0
TABLE
  2
DIMSTYLE
  5
A
330
0
100
AcDbSymbolTable
 70
     9
  0
DIMSTYLE
105
58
330
A
100
AcDbSymbolTableRecord
100
AcDbDimStyleTableRecord
  2
AM_JIS
 70
     0
  3

  4
"
  5
OPEN30
  6

  7

 40
0.5
 41
2.5
 42
1.0
 43
12.0
 44
1.0
 45
0.0
 46
0.0
 47
0.1
 48
0.1
140
3.2
141
0.0
142
0.0
143
0.0393701
144
1.0
145
0.0
146
0.71
147
1.5
 71
     0
 72
     0
 73
     0
 74
     0
 75
     0
 76
     0
 77
     3
 78
     8
170
     0
171
     2
172
     1
173
     0
174
     0
175
     0
176
   256
177
   256
178
     2
270
     2
271
     3
272
     3
273
     2
274
     2
340
6B
275
     0
280
     0
281
     0
282
     0
283
     0
284
     0
285
     0
286
     0
287
     3
288
     0
  0
DIMSTYLE
105
5F
330
A
100
AcDbSymbolTableRecord
100
AcDbDimStyleTableRecord
  2
AM_JIS$3
 70
     0
  3

  4
"
  5
OPEN30
  6

  7

 40
0.5
 41
2.5
 42
1.0
 43
10.0
 44
1.0
 45
0.0
 46
0.0
 47
0.1
 48
0.1
140
3.2
141
0.0
142
0.0
143
0.0393701
144
1.0
145
0.0
146
0.71
147
1.5
 71
     0
 72
     0
 73
     0
 74
     1
 75
     0
 76
     0
 77
     3
 78
     8
170
     0
171
     2
172
     0
173
     0
174
     0
175
     0
176
   256
177
   256
178
     2
270
     2
271
     2
272
     3
273
     2
274
     2
340
6B
275
     0
280
     0
281
     0
282
     0
283
     0
284
     0
285
     0
286
     0
287
     0
288
     1
  0
DIMSTYLE
105
60
330
A
100
AcDbSymbolTableRecord
100
AcDbDimStyleTableRecord
  2
AM_JIS$4
 70
     0
  3

  4
"
  5
OPEN30
  6

  7

 40
0.5
 41
2.5
 42
1.0
 43
10.0
 44
1.0
 45
0.0
 46
0.0
 47
0.1
 48
0.1
140
3.2
141
0.0
142
0.0
143
0.0393701
144
1.0
145
0.0
146
0.71
147
1.5
 71
     0
 72
     0
 73
     0
 74
     1
 75
     0
 76
     0
 77
     3
 78
     8
170
     0
171
     2
172
     0
173
     0
174
     0
175
     0
176
   256
177
   256
178
     2
270
     2
271
     2
272
     3
273
     2
274
     2
340
6B
275
     0
280
     0
281
     0
282
     0
283
     0
284
     0
285
     0
286
     0
287
     0
288
     1
  0
DIMSTYLE
105
61
330
A
100
AcDbSymbolTableRecord
100
AcDbDimStyleTableRecord
  2
AM_JIS$6
 70
     0
  3

  4
"
  5
OPEN30
  6

  7

 40
0.5
 41
2.5
 42
1.0
 43
10.0
 44
1.0
 45
0.0
 46
0.0
 47
0.1
 48
0.1
140
3.2
141
0.0
142
0.0
143
0.0393701
144
1.0
145
0.0
146
0.71
147
1.5
 71
     0
 72
     0
 73
     0
 74
     0
 75
     0
 76
     0
 77
     0
 78
     8
170
     0
171
     2
172
     1
173
     0
174
     0
175
     0
176
   256
177
   256
178
     2
270
     2
271
     2
272
     2
273
     2
274
     2
340
6B
275
     0
280
     0
281
     0
282
     0
283
     0
284
     0
285
     0
286
     0
287
     3
288
     0
  0
DIMSTYLE
105
62
330
A
100
AcDbSymbolTableRecord
100
AcDbDimStyleTableRecord
  2
AM_JIS$7
 70
     0
  3

  4
"
  5
OPEN30
  6

  7

 40
0.5
 41
2.5
 42
1.0
 43
10.0
 44
1.0
 45
0.0
 46
0.0
 47
0.1
 48
0.1
140
3.2
141
0.0
142
0.0
143
0.0393701
144
1.0
145
0.0
146
0.71
147
1.5
 71
     0
 72
     0
 73
     0
 74
     0
 75
     0
 76
     0
 77
     3
 78
     8
170
     0
171
     2
172
     1
173
     0
174
     0
175
     0
176
   256
177
   256
178
     2
270
     2
271
     2
272
     3
273
     2
274
     2
340
6B
275
     0
280
     0
281
     0
282
     0
283
     0
284
     0
285
     0
286
     0
287
     3
288
     0
  0
DIMSTYLE
105
63
330
A
100
AcDbSymbolTableRecord
100
AcDbDimStyleTableRecord
  2
AM_JIS$SF
 70
     0
  3

  4
"
  5
OPEN30
  6

  7

 40
0.5
 41
2.5
 42
1.0
 43
10.0
 44
1.0
 45
0.0
 46
0.0
 47
0.1
 48
0.1
140
3.2
141
0.0
142
0.0
143
0.0393701
144
1.0
145
0.0
146
0.71
147
1.5
 71
     0
 72
     0
 73
     0
 74
     0
 75
     1
 76
     1
 77
     3
 78
     8
170
     0
171
     2
172
     1
173
     0
174
     0
175
     0
176
   256
177
   256
178
     2
270
     2
271
     2
272
     2
273
     2
274
     2
340
6B
275
     0
280
     0
281
     0
282
     0
283
     0
284
     0
285
     0
286
     0
287
     3
288
     0
  0
DIMSTYLE
105
68
330
A
100
AcDbSymbolTableRecord
100
AcDbDimStyleTableRecord
  2
AM_JIS$SH
 70
     0
  3

  4
"
  5

  6
GENAXEH
  7
OPEN30
 40
0.5
 41
2.5
 42
1.0
 43
10.0
 44
1.0
 45
0.0
 46
0.0
 47
0.1
 48
0.1
140
3.2
141
0.0
142
0.0
143
0.0393701
144
2.0
145
0.0
146
0.71
147
1.5
 71
     0
 72
     0
 73
     0
 74
     0
 75
     1
 76
     1
 77
     3
 78
     8
170
     0
171
     2
172
     1
173
     1
174
     0
175
     0
176
   256
177
   256
178
     2
270
     2
271
     2
272
     2
273
     2
274
     2
340
6B
275
     0
280
     0
281
     0
282
     0
283
     0
284
     0
285
     0
286
     0
287
     3
288
     0
  0
DIMSTYLE
105
B34
102
{ACAD_REACTORS
330
24B0
102
}
330
A
100
AcDbSymbolTableRecord
100
AcDbDimStyleTableRecord
  2
AM_JIS$2
 70
     0
  3

  4
"
  5
OPEN30
  6

  7

 40
0.5
 41
2.5
 42
1.0
 43
12.0
 44
1.0
 45
0.0
 46
0.0
 47
0.1
 48
0.1
140
3.2
141
0.0
142
0.0
143
0.0393701
144
1.0
145
0.0
146
0.71
147
1.5
 71
     0
 72
     0
 73
     0
 74
     0
 75
     0
 76
     0
 77
     3
 78
     8
170
     0
171
     2
172
     1
173
     0
174
     0
175
     0
176
   256
177
   256
178
     2
270
     2
271
     3
272
     3
273
     2
274
     2
340
6B
275
     0
280
     0
281
     0
282
     0
283
     0
284
     0
285
     0
286
     0
287
     3
288
     0
  0
DIMSTYLE
105
BA5
102
{ACAD_REACTORS
330
CC6
330
DF5
330
1F93
330
2309
102
}
330
A
100
AcDbSymbolTableRecord
100
AcDbDimStyleTableRecord
  2
AM_JIS$0
 70
     0
  3

  4
"
  5
OPEN30
  6

  7

 40
0.5
 41
2.5
 42
0.0
 43
10.0
 44
1.0
 45
0.0
 46
0.0
 47
0.1
 48
0.1000000001
140
3.799999999999999
141
0.0
142
0.0
143
0.0393701
144
1.0
145
0.0
146
0.71
147
1.5
 71
     0
 72
     0
 73
     0
 74
     0
 75
     0
 76
     0
 77
     3
 78
     1
170
     0
171
     2
172
     1
173
     0
174
     0
175
     0
176
     3
177
     3
178
     2
270
     2
271
     2
272
     2
273
     2
274
     2
340
11
275
     1
280
     0
281
     0
282
     0
283
     0
284
     8
285
     0
286
     0
287
     0
288
     0
  0
ENDTAB
  0
TABLE
  2
BLOCK_RECORD
  5
1
330
0
100
AcDbSymbolTable
 70
    10
  0
BLOCK_RECORD
  5
1F
102
{ACAD_XDICTIONARY
360
74
102
}
330
1
100
AcDbSymbolTableRecord
100
AcDbBlockTableRecord
  2
*MODEL_SPACE
  0
BLOCK_RECORD
  5
101
102
{ACAD_XDICTIONARY
360
2627
102
}
330
1
100
AcDbSymbolTableRecord
100
AcDbBlockTableRecord
  2
*PAPER_SPACE
  0
BLOCK_RECORD
  5
59
330
1
100
AcDbSymbolTableRecord
100
AcDbBlockTableRecord
  2
_OPEN30
  0
BLOCK_RECORD
  5
64
330
1
100
AcDbSymbolTableRecord
100
AcDbBlockTableRecord
  2
GENAXEH
  0
BLOCK_RECORD
  5
CC8
330
1
100
AcDbSymbolTableRecord
100
AcDbBlockTableRecord
  2
*D5
  0
BLOCK_RECORD
  5
DF6
330
1
100
AcDbSymbolTableRecord
100
AcDbBlockTableRecord
  2
*D6
  0
BLOCK_RECORD
  5
1F94
330
1
100
AcDbSymbolTableRecord
100
AcDbBlockTableRecord
  2
*D7
  0
BLOCK_RECORD
  5
230A
330
1
100
AcDbSymbolTableRecord
100
AcDbBlockTableRecord
  2
*D8
  0
BLOCK_RECORD
  5
24B1
330
1
100
AcDbSymbolTableRecord
100
AcDbBlockTableRecord
  2
*D9
  0
ENDTAB
  0
ENDSEC
  0
SECTION
  2
BLOCKS
  0
BLOCK
  5
20
330
1F
100
AcDbEntity
  8
0
100
AcDbBlockBegin
  2
*MODEL_SPACE
 70
     0
 10
0.0
 20
0.0
 30
0.0
  3
*MODEL_SPACE
  1

  0
ENDBLK
  5
21
330
1F
100
AcDbEntity
  8
0
100
AcDbBlockEnd
  0
BLOCK
  5
103
330
101
100
AcDbEntity
 67
     1
  8
0
100
AcDbBlockBegin
  2
*PAPER_SPACE
 70
     0
 10
0.0
 20
0.0
 30
0.0
  3
*PAPER_SPACE
  1

  0
ENDBLK
  5
104
330
101
100
AcDbEntity
 67
     1
  8
0
100
AcDbBlockEnd
  0
BLOCK
  5
5D
330
59
100
AcDbEntity
  8
0
100
AcDbBlockBegin
  2
_OPEN30
 70
     0
 10
0.0
 20
0.0
 30
0.0
  3
_OPEN30
  1

  0
LINE
  5
5A
330
59
100
AcDbEntity
  8
0
 62
     0
100
AcDbLine
 10
-1.0
 20
0.26794919
 30
0.0
 11
0.0
 21
0.0
 31
0.0
  0
LINE
  5
5B
330
59
100
AcDbEntity
  8
0
 62
     0
100
AcDbLine
 10
0.0
 20
0.0
 30
0.0
 11
-1.0
 21
-0.26794919
 31
0.0
  0
LINE
  5
5C
330
59
100
AcDbEntity
  8
0
 62
     0
100
AcDbLine
 10
0.0
 20
0.0
 30
0.0
 11
-1.0
 21
0.0
 31
0.0
  0
ENDBLK
  5
5E
330
59
100
AcDbEntity
  8
0
100
AcDbBlockEnd
  0
BLOCK
  5
66
330
64
100
AcDbEntity
  8
0
100
AcDbBlockBegin
  2
GENAXEH
 70
     0
 10
0.0
 20
0.0
 30
0.0
  3
GENAXEH
  1

  0
LINE
  5
65
330
64
100
AcDbEntity
  8
0
100
AcDbLine
 10
-1.0
 20
0.0
 30
0.0
 11
1.0
 21
0.0
 31
0.0
  0
ENDBLK
  5
67
330
64
100
AcDbEntity
  8
0
100
AcDbBlockEnd
  0
BLOCK
  5
CD2
330
CC8
100
AcDbEntity
  8
0
100
AcDbBlockBegin
  2
*D5
 70
     1
 10
0.0
 20
0.0
 30
0.0
  3
*D5
  1

  0
LINE
  5
25B3
330
CC8
100
AcDbEntity
  8
AM_5
 62
     3
100
AcDbLine
 10
-110.0
 20
-3.293795733920806
 30
0.0
 11
-110.0
 21
-16.00001206798982
 31
0.0
  0
LINE
  5
25B4
330
CC8
100
AcDbEntity
  8
AM_5
 62
     3
100
AcDbLine
 10
-0.9999821980836271
 20
-3.50001206798982
 30
0.0
 11
-0.999982198083628
 21
-16.00001206798982
 31
0.0
  0
LINE
  5
25B5
330
CC8
100
AcDbEntity
  8
AM_5
 62
     3
100
AcDbLine
 10
-108.75
 20
-15.50001206798982
 30
0.0
 11
-2.249982198083627
 21
-15.50001206798982
 31
0.0
  0
INSERT
  5
25B6
330
CC8
100
AcDbEntity
  8
AM_5
 62
     3
100
AcDbBlockReference
  2
_OPEN30
 10
-110.0
 20
-15.50001206798982
 30
0.0
 41
1.25
 42
1.25
 43
1.25
 50
180.0
  0
INSERT
  5
25B7
330
CC8
100
AcDbEntity
  8
AM_5
 62
     3
100
AcDbBlockReference
  2
_OPEN30
 10
-0.999982198083628
 20
-15.50001206798982
 30
0.0
 41
1.25
 42
1.25
 43
1.25
  0
MTEXT
  5
25B8
330
CC8
100
AcDbEntity
  8
AM_5
 62
     2
100
AcDbMText
 10
-55.49999109904182
 20
-13.80001206798981
 30
0.0
 40
1.9
 41
0.0
 71
     5
 72
     1
  1
109
1001
ACAD
1000
MTEXTBEGIN
1070
    73
1070
     1
1070
    44
1040
1.0
1070
    74
1070
     0
1000
MTEXTEND
  0
POINT
  5
25B9
330
CC8
100
AcDbEntity
  8
DEFPOINTS
 62
     0
100
AcDbPoint
 10
-110.0
 20
-3.293795733920806
 30
0.0
  0
POINT
  5
25BA
330
CC8
100
AcDbEntity
  8
DEFPOINTS
 62
     0
100
AcDbPoint
 10
-0.9999821980836271
 20
-3.50001206798982
 30
0.0
  0
POINT
  5
25BB
330
CC8
100
AcDbEntity
  8
DEFPOINTS
 62
     0
100
AcDbPoint
 10
-0.999982198083628
 20
-15.50001206798982
 30
0.0
  0
ENDBLK
  5
CD3
330
CC8
100
AcDbEntity
  8
0
100
AcDbBlockEnd
  0
BLOCK
  5
E00
330
DF6
100
AcDbEntity
  8
0
100
AcDbBlockBegin
  2
*D6
 70
     1
 10
0.0
 20
0.0
 30
0.0
  3
*D6
  1

  0
LINE
  5
25AA
330
DF6
100
AcDbEntity
  8
AM_5
 62
     3
100
AcDbLine
 10
-56.99997329712337
 20
-3.500000000000102
 30
0.0
 11
-56.99997329712337
 21
-11.00001206798978
 31
0.0
  0
LINE
  5
25AB
330
DF6
100
AcDbEntity
  8
AM_5
 62
     3
100
AcDbLine
 10
-0.9999821980836271
 20
-3.50001206798982
 30
0.0
 11
-0.9999821980836276
 21
-11.00001206798978
 31
0.0
  0
LINE
  5
25AC
330
DF6
100
AcDbEntity
  8
AM_5
 62
     3
100
AcDbLine
 10
-55.74997329712337
 20
-10.50001206798978
 30
0.0
 11
-2.249982198083627
 21
-10.50001206798978
 31
0.0
  0
INSERT
  5
25AD
330
DF6
100
AcDbEntity
  8
AM_5
 62
     3
100
AcDbBlockReference
  2
_OPEN30
 10
-56.99997329712337
 20
-10.50001206798978
 30
0.0
 41
1.25
 42
1.25
 43
1.25
 50
180.0
  0
INSERT
  5
25AE
330
DF6
100
AcDbEntity
  8
AM_5
 62
     3
100
AcDbBlockReference
  2
_OPEN30
 10
-0.9999821980836276
 20
-10.50001206798978
 30
0.0
 41
1.25
 42
1.25
 43
1.25
  0
MTEXT
  5
25AF
330
DF6
100
AcDbEntity
  8
AM_5
 62
     2
100
AcDbMText
 10
-28.9999777476035
 20
-8.800012067989783
 30
0.0
 40
1.9
 41
0.0
 71
     5
 72
     1
  1
56
1001
ACAD
1000
MTEXTBEGIN
1070
    73
1070
     1
1070
    44
1040
1.0
1070
    74
1070
     0
1000
MTEXTEND
  0
POINT
  5
25B0
330
DF6
100
AcDbEntity
  8
DEFPOINTS
 62
     0
100
AcDbPoint
 10
-56.99997329712337
 20
-3.500000000000102
 30
0.0
  0
POINT
  5
25B1
330
DF6
100
AcDbEntity
  8
DEFPOINTS
 62
     0
100
AcDbPoint
 10
-0.9999821980836271
 20
-3.50001206798982
 30
0.0
  0
POINT
  5
25B2
330
DF6
100
AcDbEntity
  8
DEFPOINTS
 62
     0
100
AcDbPoint
 10
-0.9999821980836276
 20
-10.50001206798978
 30
0.0
  0
ENDBLK
  5
E01
330
DF6
100
AcDbEntity
  8
0
100
AcDbBlockEnd
  0
BLOCK
  5
1FA0
330
1F94
100
AcDbEntity
  8
0
100
AcDbBlockBegin
  2
*D7
 70
     1
 10
0.0
 20
0.0
 30
0.0
  3
*D7
  1

  0
LINE
  5
25BC
330
1F94
100
AcDbEntity
  8
AM_5
 62
     3
100
AcDbLine
 10
-109.75
 20
-3.500000000000495
 30
0.0
 11
-119.250001
 21
-3.500000000000513
 31
0.0
  0
LINE
  5
25BD
330
1F94
100
AcDbEntity
  8
AM_5
 62
     3
100
AcDbLine
 10
-109.75
 20
3.499999999999504
 30
0.0
 11
-119.250001
 21
3.499999999999486
 31
0.0
  0
LINE
  5
25BE
330
1F94
100
AcDbEntity
  8
AM_5
 62
     3
100
AcDbLine
 10
-118.750001
 20
-2.250000000000512
 30
0.0
 11
-118.750001
 21
2.249999999999487
 31
0.0
  0
INSERT
  5
25BF
330
1F94
100
AcDbEntity
  8
AM_5
 62
     3
100
AcDbBlockReference
  2
_OPEN30
 10
-118.750001
 20
-3.500000000000512
 30
0.0
 41
1.25
 42
1.25
 43
1.25
 50
270.0000000000001
  0
INSERT
  5
25C0
330
1F94
100
AcDbEntity
  8
AM_5
 62
     3
100
AcDbBlockReference
  2
_OPEN30
 10
-118.750001
 20
3.499999999999487
 30
0.0
 41
1.25
 42
1.25
 43
1.25
 50
90.0000000000001
  0
MTEXT
  5
25C1
330
1F94
100
AcDbEntity
  8
AM_5
 62
     2
100
AcDbMText
 10
-120.450001
 20
-0.0000000000004928
 30
0.0
 40
1.9
 41
0.0
 71
     5
 72
     1
  1
%%c7
 11
-0.000000000000002
 21
1.0
 31
0.0
1001
ACAD
1000
MTEXTBEGIN
1070
    73
1070
     1
1070
    44
1040
1.0
1070
    74
1070
     0
1000
MTEXTEND
  0
POINT
  5
25C2
330
1F94
100
AcDbEntity
  8
DEFPOINTS
 62
     0
100
AcDbPoint
 10
-109.75
 20
-3.500000000000251
 30
0.0
  0
POINT
  5
25C3
330
1F94
100
AcDbEntity
  8
DEFPOINTS
 62
     0
100
AcDbPoint
 10
-109.75
 20
3.499999999999748
 30
0.0
  0
POINT
  5
25C4
330
1F94
100
AcDbEntity
  8
DEFPOINTS
 62
     0
100
AcDbPoint
 10
-118.750001
 20
3.49999999999975
 30
0.0
  0
ENDBLK
  5
1FA1
330
1F94
100
AcDbEntity
  8
0
100
AcDbBlockEnd
  0
BLOCK
  5
2316
330
230A
100
AcDbEntity
  8
0
100
AcDbBlockBegin
  2
*D8
 70
     1
 10
0.0
 20
0.0
 30
0.0
  3
*D8
  1

  0
LINE
  5
25D0
330
230A
100
AcDbEntity
  8
AM_5
 62
     3
100
AcDbLine
 10
-0.9999821980836529
 20
-3.100011506090742
 30
0.0
 11
9.586422120790498
 21
-3.100011506090744
 31
0.0
  0
LINE
  5
25D1
330
230A
100
AcDbEntity
  8
AM_5
 62
     3
100
AcDbLine
 10
-0.9999821980836038
 20
3.099988493909258
 30
0.0
 11
9.586422120790498
 21
3.099988493909255
 31
0.0
  0
LINE
  5
25D2
330
230A
100
AcDbEntity
  8
AM_5
 62
     3
100
AcDbLine
 10
9.086422120790498
 20
-1.850011506090744
 30
0.0
 11
9.086422120790498
 21
1.849988493909255
 31
0.0
  0
INSERT
  5
25D3
330
230A
100
AcDbEntity
  8
AM_5
 62
     3
100
AcDbBlockReference
  2
_OPEN30
 10
9.086422120790498
 20
-3.100011506090744
 30
0.0
 41
1.25
 42
1.25
 43
1.25
 50
270.0
  0
INSERT
  5
25D4
330
230A
100
AcDbEntity
  8
AM_5
 62
     3
100
AcDbBlockReference
  2
_OPEN30
 10
9.086422120790498
 20
3.099988493909255
 30
0.0
 41
1.25
 42
1.25
 43
1.25
 50
90.0
  0
MTEXT
  5
25D5
330
230A
100
AcDbEntity
  8
AM_5
 62
     2
100
AcDbMText
 10
7.386422120790498
 20
-0.0000115060907428
 30
0.0
 40
1.9
 41
0.0
 71
     5
 72
     1
  1
%%c6.2
 11
0.0000000000000001
 21
1.0
 31
0.0
1001
ACAD
1000
MTEXTBEGIN
1070
    73
1070
     1
1070
    44
1040
1.0
1070
    74
1070
     0
1000
MTEXTEND
  0
POINT
  5
25D6
330
230A
100
AcDbEntity
  8
DEFPOINTS
 62
     0
100
AcDbPoint
 10
-0.9999821980836529
 20
-3.100011506090742
 30
0.0
  0
POINT
  5
25D7
330
230A
100
AcDbEntity
  8
DEFPOINTS
 62
     0
100
AcDbPoint
 10
-0.9999821980836038
 20
3.099988493909258
 30
0.0
  0
POINT
  5
25D8
330
230A
100
AcDbEntity
  8
DEFPOINTS
 62
     0
100
AcDbPoint
 10
9.086422120790498
 20
3.099988493909255
 30
0.0
  0
ENDBLK
  5
2317
330
230A
100
AcDbEntity
  8
0
100
AcDbBlockEnd
  0
BLOCK
  5
24C1
330
24B1
100
AcDbEntity
  8
0
100
AcDbBlockBegin
  2
*D9
 70
     1
 10
0.0
 20
0.0
 30
0.0
  3
*D9
  1

  0
LINE
  5
25C5
330
24B1
100
AcDbEntity
  8
AM_5
100
AcDbLine
 10
0.171010071662854
 20
-0.4698463103929951
 30
0.0
 11
4.83479939672809
 21
-13.28350217010324
 31
0.0
  0
LINE
  5
25C6
330
24B1
100
AcDbEntity
  8
AM_5
100
AcDbLine
 10
0.1710100716628633
 20
0.46984631039291
 30
0.0
 11
4.834799396728354
 21
13.28350217010306
 31
0.0
  0
ARC
  5
25C7
330
24B1
100
AcDbEntity
  8
AM_5
100
AcDbCircle
 10
0.0000000000000195
 20
-0.0000000000000409
 30
0.0
 40
13.63600775005936
100
AcDbArc
 50
295.2540909291318
 51
64.74590907086711
  0
INSERT
  5
25C8
330
24B1
100
AcDbEntity
  8
AM_5
100
AcDbBlockReference
  2
_OPEN30
 10
4.663789325065256
 20
-12.81365585971028
 30
0.0
 41
1.25
 42
1.25
 43
1.25
 50
202.6270454645658
  0
INSERT
  5
25C9
330
24B1
100
AcDbEntity
  8
AM_5
100
AcDbBlockReference
  2
_OPEN30
 10
4.66378932506551
 20
12.81365585971011
 30
0.0
 41
1.25
 42
1.25
 43
1.25
 50
157.3729545354329
  0
MTEXT
  5
25CA
330
24B1
100
AcDbEntity
  8
AM_5
 62
     2
100
AcDbMText
 10
12.08600775005938
 20
-0.000000000000177
 30
0.0
 40
1.6
 41
0.0
 71
     5
 72
     1
  1
140°
  7
ASAMI
 11
-0.000000000000002
 21
1.0
 31
0.0
1001
ACAD
1000
MTEXTBEGIN
1070
    73
1070
     1
1070
    44
1040
1.0
1070
    74
1070
     0
1000
MTEXTEND
  0
POINT
  5
25CB
330
24B1
100
AcDbEntity
  8
DEFPOINTS
 62
     0
100
AcDbPoint
 10
12.52080194964872
 20
-5.400946759351797
 30
0.0
  0
POINT
  5
25CC
330
24B1
100
AcDbEntity
  8
DEFPOINTS
 62
     0
100
AcDbPoint
 10
0.0000000000000195
 20
-0.0000000000000409
 30
0.0
  0
POINT
  5
25CD
330
24B1
100
AcDbEntity
  8
DEFPOINTS
 62
     0
100
AcDbPoint
 10
-0.3281476080770087
 20
0.9015781434396448
 30
0.0
  0
POINT
  5
25CE
330
24B1
100
AcDbEntity
  8
DEFPOINTS
 62
     0
100
AcDbPoint
 10
0.0000000000000195
 20
-0.0000000000000409
 30
0.0
  0
POINT
  5
25CF
330
24B1
100
AcDbEntity
  8
DEFPOINTS
 62
     0
100
AcDbPoint
 10
-0.3281476080770034
 20
-0.9015781434396448
 30
0.0
  0
ENDBLK
  5
24C2
330
24B1
100
AcDbEntity
  8
0
100
AcDbBlockEnd
  0
ENDSEC
  0
SECTION
  2
ENTITIES
  0
DIMENSION
  5
CC6
330
1F
100
AcDbEntity
  8
AM_5
100
AcDbDimension
  2
*D5
 10
-0.999982198083628
 20
-15.50001206798982
 30
0.0
 11
-55.49999109904182
 21
-13.80001206798981
 31
0.0
 70
    32
  1
<>
  3
AM_JIS$0
100
AcDbAlignedDimension
 13
-110.0
 23
-3.293795733920806
 33
0.0
 14
-0.9999821980836271
 24
-3.50001206798982
 34
0.0
 50
0.0000000000001132
100
AcDbRotatedDimension
1001
GENIUS_GENDTOL_13
1000

1000
h7
1000

1040
0.0
1001
ACAD
1000
DSTYLE
1002
{
1070
   271
1070
     0
1002
}
  0
DIMENSION
  5
DF5
330
1F
100
AcDbEntity
  8
AM_5
100
AcDbDimension
  2
*D6
 10
-0.9999821980836276
 20
-10.50001206798978
 30
0.0
 11
-28.9999777476035
 21
-8.800012067989783
 31
0.0
 70
    32
  1
<>
  3
AM_JIS$0
100
AcDbAlignedDimension
 13
-56.99997329712337
 23
-3.500000000000102
 33
0.0
 14
-0.9999821980836271
 24
-3.50001206798982
 34
0.0
 50
0.0000000000001527
100
AcDbRotatedDimension
1001
GENIUS_GENDTOL_13
1000

1000
h7
1000

1040
0.0
1001
ACAD
1000
DSTYLE
1002
{
1070
   271
1070
     0
1002
}
  0
ARC
  5
144A
330
1F
100
AcDbEntity
  8
AM_11
 48
0.5
100
AcDbCircle
 10
-56.11257425944021
 20
-15.45937617226463
 30
0.0
 40
17.09271208445208
100
AcDbArc
 50
64.74833051131179
 51
115.2516644797366
  0
ARC
  5
144B
330
1F
100
AcDbEntity
  8
AM_11
 48
0.5
100
AcDbCircle
 10
-56.11257425944019
 20
15.45938667054937
 30
0.0
 40
17.09271208445208
100
AcDbArc
 50
244.7482808787518
 51
295.2516148471758
  0
TEXT
  5
19BD
330
1F
100
AcDbEntity
  8
AM_6
100
AcDbText
 10
-66.33332443237512
 20
-26.75001206798985
 30
0.0
 40
2.5
  1
MDW062LHK
 50
0.0000000000001527
 72
     4
 11
-55.49999109904179
 21
-25.50001206798982
 31
0.0
100
AcDbText
  0
LINE
  5
1D14
330
1F
100
AcDbEntity
  8
AM_7
100
AcDbLine
 10
-111.75
 20
-0.0000000000000942
 30
0.0
 11
2.086421120790504
 21
0.0000000000000018
 31
0.0
1001
GENIUS_GENODEF_13
1002
{
1000
HIER
1070
     0
1002
}
1002
{
1000
MANEDIT
1070
     0
1002
}
1002
{
1000
NOSEL
1070
     0
1002
}
1002
{
1000
BEHIND
1070
     0
1002
}
1002
{
1000
REACTOR
1002
}
1001
GENIUS_GENOBJ-N-CEN_13
1002
{
1000
OWNER
1000
GEN
1002
}
  0
LINE
  5
1D9D
330
1F
100
AcDbEntity
  8
AM_0
100
AcDbLine
 10
-109.75
 20
-3.500000000000251
 30
0.0
 11
-109.75
 21
3.499999999999747
 31
0.0
  0
LINE
  5
1D9E
330
1F
100
AcDbEntity
  8
AM_0
 48
0.5
100
AcDbLine
 10
-110.0
 20
-3.250000000000252
 30
0.0
 11
-110.0
 21
3.249999999999747
 31
0.0
  0
LINE
  5
1D9F
330
1F
100
AcDbEntity
  8
AM_0
100
AcDbLine
 10
-110.0
 20
-3.250000000000252
 30
0.0
 11
-109.75
 21
-3.500000000000251
 31
0.0
1001
GENIUS_GENFIL_13
1070
     0
1040
0.25
1040
0.25
1040
20.0
1040
0.0
1002
{
1002
}
1001
GENIUS_GENODEF_13
1002
{
1000
HIER
1070
     0
1002
}
1002
{
1000
MANEDIT
1070
     0
1002
}
1002
{
1000
NOSEL
1070
     0
1002
}
1002
{
1000
BEHIND
1070
     0
1002
}
1002
{
1000
REACTOR
1002
}
1001
GENIUS_GENOBJ-N-CHA_13
1002
{
1000
OWNER
1000
GEN
1002
}
  0
LINE
  5
1DA1
330
1F
100
AcDbEntity
  8
AM_0
100
AcDbLine
 10
-110.0
 20
3.249999999999747
 30
0.0
 11
-109.75
 21
3.499999999999747
 31
0.0
1001
GENIUS_GENFIL_13
1070
     0
1040
0.25
1040
0.25
1040
20.0
1040
0.0
1002
{
1002
}
1001
GENIUS_GENODEF_13
1002
{
1000
HIER
1070
     0
1002
}
1002
{
1000
MANEDIT
1070
     0
1002
}
1002
{
1000
NOSEL
1070
     0
1002
}
1002
{
1000
BEHIND
1070
     0
1002
}
1002
{
1000
REACTOR
1002
}
1001
GENIUS_GENOBJ-N-CHA_13
1002
{
1000
OWNER
1000
GEN
1002
}
  0
LINE
  5
1DA2
330
1F
100
AcDbEntity
  8
AM_0
100
AcDbLine
 10
-56.99997329712337
 20
-3.500000000000102
 30
0.0
 11
-56.99997329712339
 21
3.499999999999896
 31
0.0
  0
LINE
  5
1DA4
330
1F
100
AcDbEntity
  8
AM_0
100
AcDbLine
 10
-109.75
 20
3.499999999999748
 30
0.0
 11
-56.99997329712339
 21
3.499999999999896
 31
0.0
  0
LINE
  5
1DA5
330
1F
100
AcDbEntity
  8
AM_0
100
AcDbLine
 10
-109.75
 20
-3.500000000000251
 30
0.0
 11
-56.99997329712337
 21
-3.500000000000102
 31
0.0
  0
LINE
  5
1F71
330
1F
100
AcDbEntity
  8
AM_0
100
AcDbLine
 10
-56.99997329712339
 20
3.499999999999896
 30
0.0
 11
-56.3072040971641
 21
3.100029515917097
 31
0.0
  0
LINE
  5
1F72
330
1F
100
AcDbEntity
  8
AM_0
100
AcDbLine
 10
-56.99997329712337
 20
-3.500000000000102
 30
0.0
 11
-56.30716272049422
 21
-3.100005627085854
 31
0.0
  0
ARC
  5
1F77
330
1F
100
AcDbEntity
  8
AM_11
 48
0.5
100
AcDbCircle
 10
-70.69590759277343
 20
15.45938667054932
 30
0.0
 40
17.09271208445208
100
AcDbArc
 50
244.7482808787518
 51
295.2516148471758
  0
ARC
  5
1F78
330
1F
100
AcDbEntity
  8
AM_11
 48
0.5
100
AcDbCircle
 10
-70.69590759277345
 20
-15.45937617226467
 30
0.0
 40
17.09271208445208
100
AcDbArc
 50
64.74833051131179
 51
115.2516644797366
  0
ARC
  5
1F79
330
1F
100
AcDbEntity
  8
AM_11
 48
0.5
100
AcDbCircle
 10
-85.27924092610666
 20
15.45938667054929
 30
0.0
 40
17.09271208445208
100
AcDbArc
 50
244.7482808787518
 51
295.2516148471758
  0
ARC
  5
1F7A
330
1F
100
AcDbEntity
  8
AM_11
 48
0.5
100
AcDbCircle
 10
-85.27924092610668
 20
-15.45937617226471
 30
0.0
 40
17.09271208445208
100
AcDbArc
 50
64.74833051131179
 51
115.2516644797366
  0
ARC
  5
1F7B
330
1F
100
AcDbEntity
  8
AM_11
 48
0.5
100
AcDbCircle
 10
-99.86257425943989
 20
15.45938667054924
 30
0.0
 40
17.09271208445208
100
AcDbArc
 50
244.7482808787518
 51
295.2516148471758
  0
ARC
  5
1F7C
330
1F
100
AcDbEntity
  8
AM_11
 48
0.5
100
AcDbCircle
 10
-99.86257425943989
 20
-15.45937617226475
 30
0.0
 40
17.09271208445208
100
AcDbArc
 50
64.74833051131179
 51
115.2516644797366
  0
ARC
  5
1F7D
330
1F
100
AcDbEntity
  8
AM_11
 48
0.5
100
AcDbCircle
 10
-114.4459075927731
 20
15.45938667054921
 30
0.0
 40
17.09271208445208
100
AcDbArc
 50
285.0763193491397
 51
295.2516148471758
  0
ARC
  5
1F7E
330
1F
100
AcDbEntity
  8
AM_11
 48
0.5
100
AcDbCircle
 10
-114.4459075927731
 20
-15.45937617226479
 30
0.0
 40
17.09271208445208
100
AcDbArc
 50
64.74833051131179
 51
74.92368065086012
  0
DIMENSION
  5
1F93
330
1F
100
AcDbEntity
  8
AM_5
100
AcDbDimension
  2
*D7
 10
-118.750001
 20
3.49999999999975
 30
0.0
 11
-118.750001
 21
-0.0000000000002495
 31
0.0
 70
   160
  1
%%c<>
 51
359.9999999999998
  3
AM_JIS$0
100
AcDbAlignedDimension
 13
-109.75
 23
-3.500000000000251
 33
0.0
 14
-109.75
 24
3.499999999999748
 34
0.0
 50
270.0000000000002
100
AcDbRotatedDimension
1001
ACAD
1000
DSTYLE
1002
{
1070
   271
1070
     0
1002
}
1001
GENIUS_GENDTOL_13
1000

1000
h7
1000

1040
0.0
  0
DIMENSION
  5
2309
330
1F
100
AcDbEntity
  8
AM_5
100
AcDbDimension
  2
*D8
 10
9.086422120790498
 20
3.099988493909255
 30
0.0
 11
9.086422120790498
 21
-0.000011506090743
 31
0.0
 70
   160
  1
%%c<>
  3
AM_JIS$0
100
AcDbAlignedDimension
 13
-0.9999821980836529
 23
-3.100011506090742
 33
0.0
 14
-0.9999821980836038
 24
3.099988493909258
 34
0.0
 50
89.99999999999955
100
AcDbRotatedDimension
1001
ACAD
1000
DSTYLE
1002
{
1070
   271
1070
     1
1002
}
1001
GENIUS_GENDTOL_13
1000

1000
h7
1000

1040
0.0
  0
ELLIPSE
  5
231A
330
1F
100
AcDbEntity
  8
AM_11
 48
0.5
100
AcDbEllipse
 10
2.220759073889079
 20
15.21399958054064
 30
0.0
 11
-17.09271208445214
 21
0.0000000000021758
 31
0.0
210
0.0
220
0.0
230
1.0
 40
0.9841269841269811
 41
1.130070686340432
 42
1.291800737381121
  0
LINE
  5
231D
330
1F
100
AcDbEntity
  8
AM_0
 48
0.5
100
AcDbLine
 10
-22.15816415386199
 20
-3.100011506090604
 30
0.0
 11
-12.97660255592137
 21
-3.100011506090626
 31
0.0
  0
LINE
  5
231E
330
1F
100
AcDbEntity
  8
AM_11
 48
0.5
100
AcDbLine
 10
-31.1388799675781
 20
3.100428905168708
 30
0.0
 11
-24.55422275830197
 21
3.099988493909481
 31
0.0
  0
LINE
  5
231F
330
1F
100
AcDbEntity
  8
AM_0
 48
0.5
100
AcDbLine
 10
-24.55423164527665
 20
3.099988493909481
 30
0.0
 11
-12.9766025559213
 21
3.099988493909372
 31
0.0
  0
LINE
  5
2320
330
1F
100
AcDbEntity
  8
AM_11
 48
0.5
100
AcDbLine
 10
-32.47632897929992
 20
-3.100011506090508
 30
0.0
 11
-22.15816415386199
 21
-3.100451917349761
 31
0.0
  0
LINE
  5
2321
330
1F
100
AcDbEntity
  8
AM_11
 48
0.5
100
AcDbLine
 10
-50.63868160332055
 20
3.100428905168826
 30
0.0
 11
-44.0540332810191
 21
3.0999884939096
 31
0.0
  0
LINE
  5
2322
330
1F
100
AcDbEntity
  8
AM_11
 48
0.5
100
AcDbLine
 10
-51.72270457109929
 20
-3.100011506090328
 30
0.0
 11
-44.05403328101917
 21
-3.100011506090399
 31
0.0
  0
LINE
  5
2323
330
1F
100
AcDbEntity
  8
AM_0
 48
0.5
100
AcDbLine
 10
-45.77774842740178
 20
1.570700964917682
 30
0.0
 11
-53.00000000000001
 21
-0.2507232650218822
 31
0.0
  0
ELLIPSE
  5
2324
330
1F
100
AcDbEntity
  8
AM_11
 48
0.5
100
AcDbEllipse
 10
-41.52924092610691
 20
-15.21398924889526
 30
0.0
 11
-17.09271208445209
 21
0.0000000000000504
 31
0.0
210
0.0
220
0.0
230
1.0
 40
0.9841269841269831
 41
4.271664206181688
 42
5.153113667164995
  0
ELLIPSE
  5
2325
330
1F
100
AcDbEntity
  8
AM_11
 48
0.5
100
AcDbEllipse
 10
-41.52924092610684
 20
15.21399958054073
 30
0.0
 11
-17.09271208445209
 21
0.000000000000001
 31
0.0
210
0.0
220
0.0
230
1.0
 40
0.9841269841269829
 41
1.130070686340305
 42
2.011520147323597
  0
LINE
  5
2326
330
1F
100
AcDbEntity
  8
AM_0
 48
0.5
100
AcDbLine
 10
-44.05403741362709
 20
-3.100011506090357
 30
0.0
 11
-32.47632745909609
 21
-3.100011506090432
 31
0.0
  0
ELLIPSE
  5
2327
330
1F
100
AcDbEntity
  8
AM_11
 48
0.5
100
AcDbEllipse
 10
-26.9459075927776
 20
15.2139995805407
 30
0.0
 11
17.09271208445209
 21
0.0000000000000162
 31
0.0
210
0.0
220
0.0
230
1.0
 40
0.9841269841269825
 41
4.271663339930097
 42
5.153112800913389
  0
ELLIPSE
  5
2328
330
1F
100
AcDbEntity
  8
AM_11
 48
0.5
100
AcDbEllipse
 10
-26.94590759277767
 20
-15.21398924889529
 30
0.0
 11
-17.09271208445208
 21
0.000000000000001
 31
0.0
210
0.0
220
0.0
230
1.0
 40
0.9841269841269834
 41
4.271664206181685
 42
5.153113667164991
  0
LINE
  5
2329
330
1F
100
AcDbEntity
  8
AM_0
100
AcDbLine
 10
-44.0540332810191
 20
3.0999884939096
 30
0.0
 11
-31.1388799675781
 21
3.100428905168708
 31
0.0
  0
LINE
  5
232A
330
1F
100
AcDbEntity
  8
AM_0
100
AcDbLine
 10
-56.30720409716412
 20
-3.099999414941335
 30
0.0
 11
-56.3072040971641
 21
3.100029515917097
 31
0.0
  0
LINE
  5
232B
330
1F
100
AcDbEntity
  8
AM_0
100
AcDbLine
 10
-50.63868160332055
 20
3.100428905168826
 30
0.0
 11
-56.30720409716409
 21
3.100029515917097
 31
0.0
  0
LINE
  5
232C
330
1F
100
AcDbEntity
  8
AM_0
100
AcDbLine
 10
-51.72094144931244
 20
-3.100011506090328
 30
0.0
 11
-56.30720409716412
 21
-3.099999414941335
 31
0.0
  0
ELLIPSE
  5
232D
330
1F
100
AcDbEntity
  8
AM_11
 48
0.5
100
AcDbEllipse
 10
-12.36257425944433
 20
-15.21398924889532
 30
0.0
 11
-17.09271208445209
 21
0.0000000000000162
 31
0.0
210
0.0
220
0.0
230
1.0
 40
0.9841269841269831
 41
4.271664206181686
 42
5.153113667164992
  0
ELLIPSE
  5
232E
330
1F
100
AcDbEntity
  8
AM_11
 48
0.5
100
AcDbEllipse
 10
-12.36257425944427
 20
15.21399958054067
 30
0.0
 11
17.09271208445209
 21
0.0000000000000162
 31
0.0
210
0.0
220
0.0
230
1.0
 40
0.9841269841269829
 41
4.271663339930097
 42
5.153112800913389
  0
LINE
  5
232F
330
1F
100
AcDbEntity
  8
AM_11
 48
0.5
100
AcDbLine
 10
-12.97660255592137
 20
-3.100011506090626
 30
0.0
 11
-2.658437730482129
 21
-3.100011506090723
 31
0.0
  0
LINE
  5
2330
330
1F
100
AcDbEntity
  8
AM_11
 48
0.5
100
AcDbLine
 10
-12.9766025559213
 20
3.099988493909372
 30
0.0
 11
-2.658437730482065
 21
3.099988493909275
 31
0.0
  0
ELLIPSE
  5
2333
330
1F
100
AcDbEntity
  8
AM_0
 48
0.5
100
AcDbEllipse
 10
-52.09201749325875
 20
-2.098161759386192
 30
0.0
 11
0.9077826466407771
 21
0.0609978115444504
 31
0.0
210
0.0
220
0.0
230
1.0
 40
0.8289928134188201
 41
1.163782929135547
 42
3.034404061886505
  0
ELLIPSE
  5
2334
330
1F
100
AcDbEntity
  8
AM_0
 48
0.5
100
AcDbEllipse
 10
-51.82098579566786
 20
-2.066678172757007
 30
0.0
 11
-1.149492230280329
 21
0.3346431218861572
 31
0.0
210
0.0
220
0.0
230
1.0
 40
0.8539365300403765
 41
0.3397676559024469
 42
1.814456800818544
  0
SPLINE
  5
2335
330
1F
100
AcDbEntity
  8
AM_0
100
AcDbSpline
210
0.0
220
0.0
230
1.0
 70
     8
 71
     3
 72
    17
 73
    13
 74
     0
 42
0.0000000001
 43
0.0000000001
 40
1.580019955310467
 40
1.580019955310467
 40
1.580019955310467
 40
1.580019955310467
 40
2.030549285115227
 40
3.082371838836284
 40
4.126290986361125
 40
5.162752068350215
 40
6.192395305374981
 40
7.216039564037012
 40
8.234688489606833
 40
9.249433870634691
 40
10.26152376260694
 40
11.27226744710342
 40
11.27226744710342
 40
11.27226744710342
 40
11.27226744710352
 10
-7.817117634683349
 20
-2.287902790520792
 30
0.0
 10
-7.894614856356978
 20
-2.311466170112428
 30
0.0
 10
-8.153481612883648
 20
-2.388698294063251
 30
0.0
 10
-8.595431362543768
 20
-2.509839643893462
 30
0.0
 10
-9.142851507106481
 20
-2.645501885203964
 30
0.0
 10
-9.69042235592247
 20
-2.764595320975607
 30
0.0
 10
-10.2380182942436
 20
-2.866720008684443
 30
0.0
 10
-10.78567389216079
 20
-2.951133088420188
 30
0.0
 10
-11.33336732603174
 20
-3.017352851957805
 30
0.0
 10
-11.88109486368013
 20
-3.06495017307217
 30
0.0
 10
-12.42884301051785
 20
-3.0936186622797
 30
0.0
 10
-12.79409707055192
 20
-3.100011523828992
 30
0.0
 10
-12.97660255592132
 20
-3.100011506090627
 30
0.0
  0
SPLINE
  5
2336
330
1F
100
AcDbEntity
  8
AM_0
100
AcDbSpline
210
0.0
220
0.0
230
1.0
 70
     8
 71
     3
 72
    22
 73
    18
 74
     0
 42
0.0000000001
 43
0.0000000001
 40
17.17441611292
 40
17.17441611292
 40
17.17441611292
 40
17.17441611292
 40
17.38177636558528
 40
18.41823744757437
 40
19.46215659509824
 40
20.51397914882054
 40
21.57394542641293
 40
22.64209583141747
 40
23.71826625065247
 40
24.80210429862395
 40
25.8930771157021
 40
26.99048705697709
 40
28.09349309193389
 40
29.20112995599786
 40
30.31233024745139
 40
31.42594771747373
 40
32.5407895042663
 40
32.54078950426994
 40
32.54078950426994
 40
32.54078950426994
 10
-15.06723593488659
 20
-2.783833942802689
 30
0.0
 10
-15.1039139316655
 20
-2.776657746856174
 30
0.0
 10
-15.32377849133433
 20
-2.732946752968408
 30
0.0
 10
-15.72655797532901
 20
-2.645300521110919
 30
0.0
 10
-16.27405433013165
 20
-2.509846592861323
 30
0.0
 10
-16.82149489620498
 20
-2.358924686583808
 30
0.0
 10
-17.36888353844874
 20
-2.19347689423891
 30
0.0
 10
-17.91621953380057
 20
-2.014517655411338
 30
0.0
 10
-18.46350961933192
 20
-1.823160716140411
 30
0.0
 10
-19.01075632914971
 20
-1.620582094605661
 30
0.0
 10
-19.55796472658732
 20
-1.408031082066067
 30
0.0
 10
-20.10514089625521
 20
-1.186818983636941
 30
0.0
 10
-20.65228958731238
 20
-0.9583060392011457
 30
0.0
 10
-21.19941630769501
 20
-0.7238980990068957
 30
0.0
 10
-21.7465259072053
 20
-0.485036506551856
 30
0.0
 10
-22.29362649079614
 20
-0.2431951669680757
 30
0.0
 10
-22.6582886203282
 20
-0.0809973104783756
 30
0.0
 10
-22.84071986040662
 20
0.0001461680635081
 30
0.0
  0
SPLINE
  5
2337
330
1F
100
AcDbEntity
  8
AM_0
100
AcDbSpline
210
0.0
220
0.0
230
1.0
 70
     8
 71
     3
 72
    11
 73
     7
 74
     0
 42
0.0000000001
 43
0.0000000001
 40
11.27226913003534
 40
11.27226913003534
 40
11.27226913003534
 40
11.2722691300354
 40
12.28301561507924
 40
13.29510212255852
 40
14.30984805882082
 40
15.18258238371378
 40
15.18258238371378
 40
15.18258238371378
 40
15.18258238371378
 10
-12.97660255592135
 20
-3.100011506090627
 30
0.0
 10
-13.15841406558593
 20
-3.084839205236507
 30
0.0
 10
-13.5216941538352
 20
-3.048107725194181
 30
0.0
 10
-14.06473837555853
 20
-2.974011244438763
 30
0.0
 10
-14.58009691733467
 20
-2.885511122538676
 30
0.0
 10
-14.91340057121598
 20
-2.817478444901487
 30
0.0
 10
-15.06699638573735
 20
-2.783872181278984
 30
0.0
  0
SPLINE
  5
2338
330
1F
100
AcDbEntity
  8
AM_0
100
AcDbSpline
210
0.0
220
0.0
230
1.0
 70
     8
 71
     3
 72
    55
 73
    51
 74
     0
 42
0.0000000001
 43
0.0000000001
 40
0.0
 40
0.0
 40
0.0
 40
0.0
 40
1.010743684496582
 40
2.022833576467832
 40
3.037578957496688
 40
4.056212745003489
 40
5.079857003664532
 40
6.109500240690281
 40
7.145961322679372
 40
8.189895241603872
 40
9.241717795325891
 40
10.30168407291828
 40
11.36983447792315
 40
12.44600489715814
 40
13.52984294512926
 40
14.62081576220742
 40
15.7182257034828
 40
16.82123173843959
 40
17.92886860250316
 40
19.0400688939571
 40
20.15368796660465
 40
21.26852814259644
 40
22.38336992938901
 40
23.49698739941135
 40
24.6081876908653
 40
25.71582455492886
 40
26.81883757994213
 40
27.91624752121713
 40
29.00722033829659
 40
30.09105838626677
 40
31.16722880550176
 40
32.23537921050758
 40
33.29534548809967
 40
34.347168041821
 40
35.39108718934584
 40
36.42754827133493
 40
37.45720575381954
 40
38.48085062012849
 40
39.49948440763516
 40
40.51422944315121
 40
41.52631975251916
 40
42.53706336719636
 40
43.54780698187354
 40
44.55989729124051
 40
45.57464232675757
 40
46.59327611426424
 40
47.6169209805722
 40
48.64656348684535
 40
49.68302456883444
 40
50.58557219878025
 40
50.58557219878025
 40
50.58557219878025
 40
50.58557219878025
 10
-2.658437730482129
 20
-3.100011506090723
 30
0.0
 10
-2.840943218259322
 20
-3.098167081192813
 30
0.0
 10
-3.206197272504761
 20
-3.094475774811198
 30
0.0
 10
-3.75394543096053
 20
-3.064719701363847
 30
0.0
 10
-4.301670208112673
 20
-3.017415317736158
 30
0.0
 10
-4.849361086478513
 20
-2.951116424960782
 30
0.0
 10
-5.397012600965243
 20
-2.866721500146965
 30
0.0
 10
-5.944613947632943
 20
-2.764605834076106
 30
0.0
 10
-6.492166958183839
 20
-2.645457314271968
 30
0.0
 10
-7.039666776929312
 20
-2.510005549261639
 30
0.0
 10
-7.587109674397776
 20
-2.35908220466524
 30
0.0
 10
-8.134498379289427
 20
-2.193634610715659
 30
0.0
 10
-8.681834357620378
 20
-2.014675318030209
 30
0.0
 10
-9.229124447915262
 20
-1.823318393664615
 30
0.0
 10
-9.776371155871984
 20
-1.620739766918538
 30
0.0
 10
-10.32357955596582
 20
-1.408188760218534
 30
0.0
 10
-10.87075571681196
 20
-1.186976643535853
 30
0.0
 10
-11.41790444072056
 20
-0.9584637667249497
 30
0.0
 10
-11.96503103783232
 20
-0.7240555728719144
 30
0.0
 10
-12.51214136263431
 20
-0.4851948165608275
 30
0.0
 10
-13.0592402138049
 20
-0.2433499155583208
 30
0.0
 10
-13.60633531722729
 20
-0.0000121386032302
 30
0.0
 10
-14.15342796465044
 20
0.2433300185834953
 30
0.0
 10
-14.70052864957713
 20
0.4851711534211992
 30
0.0
 10
-15.2476382989641
 20
0.7240326327501967
 30
0.0
 10
-15.79476587159651
 20
0.9584417195939701
 30
0.0
 10
-16.34191686534047
 20
1.186952646235856
 30
0.0
 10
-16.88909388977518
 20
1.408165884771759
 30
0.0
 10
-17.4363023688677
 20
1.62071671911481
 30
0.0
 10
-17.98354905691186
 20
1.82329538846241
 30
0.0
 10
-18.53083914860815
 20
2.014652313107922
 30
0.0
 10
-19.07817514088018
 20
2.193611563001507
 30
0.0
 10
-19.62556378927534
 20
2.359059325888302
 30
0.0
 10
-20.17300433403533
 20
2.509981337833502
 30
0.0
 10
-20.72050076712679
 20
2.645434876924009
 30
0.0
 10
-21.26805357456393
 20
2.764585792654987
 30
0.0
 10
-21.81565883128878
 20
2.866689795699262
 30
0.0
 10
-22.36331215506136
 20
2.951110842526391
 30
0.0
 10
-22.91100319578727
 20
3.017331146521755
 30
0.0
 10
-23.45872835351524
 20
3.064922792439021
 30
0.0
 10
-24.00647604754585
 20
3.093600277120105
 30
0.0
 10
-24.55423577799985
 20
3.103180475841299
 30
0.0
 10
-25.10199550764789
 20
3.093600277105093
 30
0.0
 10
-25.64974320410104
 20
3.064922792499291
 30
0.0
 10
-26.19746835290987
 20
3.017331146294675
 30
0.0
 10
-26.74515942707579
 20
2.95111084337978
 30
0.0
 10
-27.29280995522038
 20
2.866690204056602
 30
0.0
 10
-27.84041305458893
 20
2.764586836613268
 30
0.0
 10
-28.36306982415583
 20
2.650843574149181
 30
0.0
 10
-28.70217548843533
 20
2.567662051017523
 30
0.0
 10
-28.85950075215342
 20
2.5271236369564
 30
0.0
  0
SPLINE
  5
2339
330
1F
100
AcDbEntity
  8
AM_0
100
AcDbSpline
210
0.0
220
0.0
230
1.0
 70
     8
 71
     3
 72
    46
 73
    42
 74
     0
 42
0.0000000001
 43
0.0000000001
 40
0.0
 40
0.0
 40
0.0
 40
0.0
 40
1.1797905410792
 40
1.771725346678784
 40
2.365928389391084
 40
2.963054206943358
 40
3.563679428541708
 40
4.168281726368678
 40
4.777234562424272
 40
5.390806270667785
 40
6.009119932596676
 40
6.632207668849522
 40
7.259973746737163
 40
7.892212608053092
 40
8.52861341801536
 40
9.168769217093204
 40
9.81218940415078
 40
10.45831090818787
 40
11.1065110782032
 40
11.75612220391374
 40
12.40644563990895
 40
13.05676907590469
 40
13.70638020161522
 40
14.35458037163003
 40
15.0007018756671
 40
15.64412206272523
 40
16.28427786180231
 40
16.92067867176479
 40
17.5529216827261
 40
18.18068776061372
 40
18.80377549686657
 40
19.42208915879529
 40
20.03565231513329
 40
20.64460515118888
 40
21.24920744901585
 40
21.84983224434128
 40
22.44695841635484
 40
23.04117028960383
 40
23.63310489365486
 40
24.22349090745283
 40
24.81309134934788
 40
24.81309134934788
 40
24.81309134934788
 40
24.81309134934788
 10
-1.125115078301001
 20
-3.100011506090738
 30
0.0
 10
-1.49038697827744
 20
-3.092949466457901
 30
0.0
 10
-2.038926283420359
 20
-3.082344198674263
 30
0.0
 10
-2.768342918300897
 20
-3.017049513221758
 30
0.0
 10
-3.316039681036971
 20
-2.951215101129356
 30
0.0
 10
-3.863689628737988
 20
-2.866694899023269
 30
0.0
 10
-4.411291318706473
 20
-2.764612802644888
 30
0.0
 10
-4.958841937805146
 20
-2.645456851380739
 30
0.0
 10
-5.506340568968989
 20
-2.51000327061356
 30
0.0
 10
-6.053784775635719
 20
-2.359083765380697
 30
0.0
 10
-6.601175652015008
 20
-2.193634394421112
 30
0.0
 10
-7.148511725791836
 20
-2.014675376650263
 30
0.0
 10
-7.695801790213055
 20
-1.823318377769107
 30
0.0
 10
-8.243048505217808
 20
-1.620739771287209
 30
0.0
 10
-8.790256903250003
 20
-1.408188758787085
 30
0.0
 10
-9.337433065234611
 20
-1.18697664486367
 30
0.0
 10
-9.884581786651244
 20
-0.9584637628296615
 30
0.0
 10
-10.43170839263744
 20
-0.7240555871988339
 30
0.0
 10
-10.97881868429494
 20
-0.4851947629385044
 30
0.0
 10
-11.52591765951199
 20
-0.2433501162134352
 30
0.0
 10
-12.07301203571844
 20
-0.0000115061398721
 30
0.0
 10
-12.62010641180471
 20
0.2433271042293975
 30
0.0
 10
-13.16720538738226
 20
0.4851717500677828
 30
0.0
 10
-13.71431567772205
 20
0.7240325775685478
 30
0.0
 10
-14.26144228859442
 20
0.9584407411817799
 30
0.0
 10
-14.80859099189363
 20
1.186953667775819
 30
0.0
 10
-15.35576722097317
 20
1.408165616677748
 30
0.0
 10
-15.90297656042996
 20
1.620717701670723
 30
0.0
 10
-16.45022540177144
 20
1.823294467623291
 30
0.0
 10
-16.99751644247425
 20
2.014652447717606
 30
0.0
 10
-17.54485250350755
 20
2.193611518738287
 30
0.0
 10
-18.0922411312673
 20
2.359059369359541
 30
0.0
 10
-18.63968169042584
 20
2.509981209189308
 30
0.0
 10
-19.18717808673701
 20
2.645435343299189
 30
0.0
 10
-19.73472838894213
 20
2.764583498755445
 30
0.0
 10
-20.28233048037865
 20
2.866695202964437
 30
0.0
 10
-20.8299839232239
 20
2.951094709138135
 30
0.0
 10
-21.37767786381741
 20
3.017392583227275
 30
0.0
 10
-21.9254056899685
 20
3.064692625401067
 30
0.0
 10
-22.47315339823223
 20
3.094456728554385
 30
0.0
 10
-22.83840760544225
 20
3.098145390695795
 30
0.0
 10
-23.02091312568449
 20
3.099988493909467
 30
0.0
  0
SPLINE
  5
233C
330
1F
100
AcDbEntity
  8
AM_0
 48
0.5
100
AcDbSpline
210
0.0
220
0.0
230
1.0
 70
     8
 71
     3
 72
    17
 73
    13
 74
     0
 42
0.0000000001
 43
0.0000000001
 40
0.0
 40
0.0
 40
0.0
 40
0.0
 40
1.010743614677189
 40
2.022833924044153
 40
3.037578959561199
 40
4.056212747067873
 40
5.079857613375832
 40
6.109500119648989
 40
7.14596120163808
 40
8.18989512056258
 40
9.241717674284874
 40
9.502793399636274
 40
9.502793399636274
 40
9.502793399636274
 40
9.502793399636274
 10
-2.658437730482065
 20
3.099988493909275
 30
0.0
 10
-2.840943251473076
 20
3.098145398193635
 30
0.0
 10
-3.206197460181483
 20
3.09445675105831
 30
0.0
 10
-3.753945157184594
 20
3.064692535146069
 30
0.0
 10
-4.301670303732961
 20
3.017393158320667
 30
0.0
 10
-4.849361386438516
 20
2.951094135430215
 30
0.0
 10
-5.39701188245914
 20
2.866694633405193
 30
0.0
 10
-5.944615102785388
 20
2.764585958542328
 30
0.0
 10
-6.492163697661708
 20
2.645425418150242
 30
0.0
 10
-7.039678914171505
 20
2.510015231675474
 30
0.0
 10
-7.448490039015045
 20
2.397182633574145
 30
0.0
 10
-7.675201454822905
 20
2.331088539247677
 30
0.0
 10
-7.720240574814205
 20
2.317811783642591
 30
0.0
  0
SPLINE
  5
233F
330
1F
100
AcDbEntity
  8
AM_0
100
AcDbSpline
210
0.0
220
0.0
230
1.0
 70
     8
 71
     3
 72
    23
 73
    19
 74
     0
 42
0.0000000001
 43
0.0000000001
 40
16.03460024169435
 40
16.03460024169435
 40
16.03460024169435
 40
16.03460024169435
 40
16.35212704903564
 40
17.38177054169784
 40
18.41822485651776
 40
19.46214173629503
 40
20.51396345435107
 40
21.57393551351153
 40
22.64208202342361
 40
23.7182574881101
 40
24.80209208578934
 40
25.89306333925047
 40
26.99048218457928
 40
28.09348763352352
 40
29.20111863782268
 40
30.31232390128032
 40
31.42594612798585
 40
32.5407912310448
 40
32.5407912310486
 40
32.5407912310486
 40
32.5407912310486
 10
-50.63868160332055
 20
3.100428905168826
 30
0.0
 10
-50.58240721159931
 20
3.089963851077632
 30
0.0
 10
-50.34389161162671
 20
3.044391485964453
 30
0.0
 10
-49.92374381363797
 20
2.955099391744903
 30
0.0
 10
-49.37965131535969
 20
2.822323024129265
 30
0.0
 10
-48.83606419578619
 20
2.673237294876741
 30
0.0
 10
-48.29295033392103
 20
2.508705036146599
 30
0.0
 10
-47.75029045369083
 20
2.32964351896465
 30
0.0
 10
-47.20805319065505
 20
2.137076334475699
 30
0.0
 10
-46.66620078547165
 20
1.932124175390735
 30
0.0
 10
-46.12470244814084
 20
1.715947673837191
 30
0.0
 10
-45.58351476477741
 20
1.489804710507347
 30
0.0
 10
-45.04259387817149
 20
1.255009726008772
 30
0.0
 10
-44.50190374830722
 20
1.012912693069966
 30
0.0
 10
-43.96139913629812
 20
0.7649213727836313
 30
0.0
 10
-43.42102997997
 20
0.5124838525196467
 30
0.0
 10
-42.88075227801966
 20
0.2570629393502728
 30
0.0
 10
-42.52066388898763
 20
0.0858171833413914
 30
0.0
 10
-42.34052149614664
 20
0.0001461680625113
 30
0.0
  0
SPLINE
  5
2340
330
1F
100
AcDbEntity
  8
AM_0
100
AcDbSpline
210
0.0
220
0.0
230
1.0
 70
     8
 71
     3
 72
    13
 73
     9
 74
     0
 42
0.0000000001
 43
0.0000000001
 40
16.03460056234195
 40
16.03460056234195
 40
16.03460056234195
 40
16.03460056234195
 40
16.35212717791071
 40
17.38177067057215
 40
18.41822498539278
 40
19.46214186516937
 40
20.5139635832251
 40
21.34083983469381
 40
21.34083983469381
 40
21.34083983469381
 40
21.34083983469381
 10
-51.72245716866923
 20
-3.100293437427898
 30
0.0
 10
-51.66618275414322
 20
-3.089828691542089
 30
0.0
 10
-51.42766695680385
 20
-3.044257576787674
 30
0.0
 10
-51.00751938784416
 20
-2.954964440061965
 30
0.0
 10
-50.4634268210943
 20
-2.82218844060339
 30
0.0
 10
-49.91983972006427
 20
-2.673102611647704
 30
0.0
 10
-49.41684282815452
 20
-2.520723513606387
 30
0.0
 10
-49.09593966884338
 20
-2.415799660347365
 30
0.0
 10
-48.95516137616112
 20
-2.368373122607962
 30
0.0
  0
SPLINE
  5
2341
330
1F
100
AcDbEntity
  8
AM_0
 48
0.5
100
AcDbSpline
210
0.0
220
0.0
230
1.0
 70
     8
 71
     3
 72
    22
 73
    18
 74
     0
 42
0.0000000001
 43
0.0000000001
 40
0.0
 40
0.0
 40
0.0
 40
0.0
 40
1.010743684496582
 40
2.022833993863546
 40
3.037578683882831
 40
4.056212471389632
 40
5.079857945358201
 40
6.109499720892564
 40
7.145961650132166
 40
8.189873411961459
 40
9.241710626092514
 40
10.30166235592959
 40
11.36982472628033
 40
12.44598212828784
 40
13.52983440361964
 40
14.62080578343036
 40
14.90544694398022
 40
14.90544694398022
 40
14.90544694398022
 40
14.90544694398022
 10
-44.05403741360813
 20
-3.1000115060904
 30
0.0
 10
-44.236542936259
 20
-3.098167632218167
 30
0.0
 10
-44.60179713566556
 20
-3.09447742786039
 30
0.0
 10
-45.14954472018412
 20
-3.064713065516273
 30
0.0
 10
-45.6972700900324
 20
-3.017416645749989
 30
0.0
 10
-46.24496125962465
 20
-2.95111769185662
 30
0.0
 10
-46.79261128249086
 20
-2.866714893363492
 30
0.0
 10
-47.34021444538208
 20
-2.764607810986495
 30
0.0
 10
-47.88776272396842
 20
-2.645456452608308
 30
0.0
 10
-48.43525988338288
 20
-2.509999984675753
 30
0.0
 10
-48.98270099260778
 20
-2.359084174729354
 30
0.0
 10
-49.53008891251656
 20
-2.193627513388118
 30
0.0
 10
-50.07742717175007
 20
-2.014682877035869
 30
0.0
 10
-50.62471535919303
 20
-1.823314083960419
 30
0.0
 10
-51.17196372764492
 20
-1.620740240016525
 30
0.0
 10
-51.58325912067528
 20
-1.460988846387492
 30
0.0
 10
-51.81244726638841
 20
-1.369680084859547
 30
0.0
 10
-51.85983575383586
 20
-1.350706936957298
 30
0.0
  0
SPLINE
  5
2342
330
1F
100
AcDbEntity
  8
AM_0
 48
0.5
100
AcDbSpline
210
0.0
220
0.0
230
1.0
 70
     8
 71
     3
 72
    26
 73
    22
 74
     0
 42
0.0000000001
 43
0.0000000001
 40
0.0
 40
0.0
 40
0.0
 40
0.0
 40
0.5896004826229707
 40
1.179986252940122
 40
1.771921058539713
 40
2.366124101252007
 40
2.963249918804864
 40
3.563875140402651
 40
4.168477438229614
 40
4.777430274285771
 40
5.390993430623067
 40
6.009307092551945
 40
6.63239903939448
 40
7.260156758871202
 40
7.892403919481949
 40
8.528804729444196
 40
9.168960528521511
 40
9.812380715579642
 40
10.45850221961671
 40
11.10670238963151
 40
11.73624999718734
 40
11.73624999718734
 40
11.73624999718734
 40
11.73624999718734
 10
-42.52071476142702
 20
-3.100011506090413
 30
0.0
 10
-42.70322024922616
 20
-3.098167081272877
 30
0.0
 10
-43.06847430351571
 20
-3.094475775052107
 30
0.0
 10
-43.61622246164128
 20
-3.064719700396124
 30
0.0
 10
-44.16394724005329
 20
-3.01741532138024
 30
0.0
 10
-44.71163811368348
 20
-2.951116411269369
 30
0.0
 10
-45.25928964597819
 20
-2.866721551644022
 30
0.0
 10
-45.8068909255945
 20
-2.764605640122789
 30
0.0
 10
-46.35444158823756
 20
-2.645458611425145
 30
0.0
 10
-46.90193789962398
 20
-2.510004104596152
 30
0.0
 10
-47.44937856541945
 20
-2.359082592218765
 30
0.0
 10
-47.99676809108111
 20
-2.193633422339182
 30
0.0
 10
-48.54410420840554
 20
-2.014678190251522
 30
0.0
 10
-49.09139311886503
 20
-1.823314651725586
 30
0.0
 10
-49.63864214008959
 20
-1.620741868644597
 30
0.0
 10
-50.18585245447866
 20
-1.408188699714423
 30
0.0
 10
-50.73302814119767
 20
-1.186975689119356
 30
0.0
 10
-51.28017924848428
 20
-0.958467673374583
 30
0.0
 10
-51.827296734059
 20
-0.7240408217820266
 30
0.0
 10
-52.36879413437825
 20
-0.4877147128400344
 30
0.0
 10
-52.7275565353409
 20
-0.3289491751226082
 30
0.0
 10
-53.00000000000001
 20
-0.2507232650218822
 30
0.0
  0
SPLINE
  5
2343
330
1F
100
AcDbEntity
  8
AM_0
100
AcDbSpline
210
0.0
220
0.0
230
1.0
 70
     8
 71
     3
 72
    55
 73
    51
 74
     0
 42
0.0000000001
 43
0.0000000001
 40
0.0
 40
0.0
 40
0.0
 40
0.0
 40
1.010743684496582
 40
2.022833576467832
 40
3.037578957496688
 40
4.056212745003489
 40
5.079857003664532
 40
6.109500240690281
 40
7.145961322679372
 40
8.189895241603872
 40
9.241717795325891
 40
10.30168407291828
 40
11.36983447792315
 40
12.44600489715814
 40
13.52984294512926
 40
14.62081576220742
 40
15.7182257034828
 40
16.82123173843959
 40
17.92886860250316
 40
19.0400688939571
 40
20.15368796660465
 40
21.26852814259644
 40
22.38336992938901
 40
23.49698739941135
 40
24.6081876908653
 40
25.71582455492886
 40
26.81883757994213
 40
27.91624752121713
 40
29.00722033829659
 40
30.09105838626677
 40
31.16722880550176
 40
32.23537921050758
 40
33.29534548809967
 40
34.347168041821
 40
35.39108718934584
 40
36.42754827133493
 40
37.45720575381954
 40
38.48085062012849
 40
39.49948440763516
 40
40.51422944315121
 40
41.52631975251916
 40
42.53706336719636
 40
43.54780698187354
 40
44.55989729124051
 40
45.57464232675757
 40
46.59327611426424
 40
47.6169209805722
 40
48.64656348684535
 40
49.68302456883444
 40
50.58557219878025
 40
50.58557219878025
 40
50.58557219878025
 40
50.58557219878025
 10
-22.15816415386199
 20
-3.100011506090604
 30
0.0
 10
-22.34066964163918
 20
-3.098167081192693
 30
0.0
 10
-22.70592369588462
 20
-3.09447577481108
 30
0.0
 10
-23.25367185434039
 20
-3.064719701363727
 30
0.0
 10
-23.80139663149253
 20
-3.01741531773604
 30
0.0
 10
-24.34908750985838
 20
-2.951116424960662
 30
0.0
 10
-24.8967390243451
 20
-2.866721500146846
 30
0.0
 10
-25.44434037101281
 20
-2.764605834075987
 30
0.0
 10
-25.99189338156369
 20
-2.645457314271849
 30
0.0
 10
-26.53939320030916
 20
-2.51000554926152
 30
0.0
 10
-27.08683609777763
 20
-2.35908220466512
 30
0.0
 10
-27.63422480266927
 20
-2.193634610715541
 30
0.0
 10
-28.18156078100023
 20
-2.014675318030089
 30
0.0
 10
-28.72885087129512
 20
-1.823318393664496
 30
0.0
 10
-29.27609757925184
 20
-1.620739766918419
 30
0.0
 10
-29.82330597934567
 20
-1.408188760218416
 30
0.0
 10
-30.37048214019182
 20
-1.186976643535734
 30
0.0
 10
-30.91763086410042
 20
-0.9584637667248308
 30
0.0
 10
-31.46475746121217
 20
-0.7240555728717954
 30
0.0
 10
-32.01186778601416
 20
-0.4851948165607086
 30
0.0
 10
-32.55896663718476
 20
-0.2433499155582019
 30
0.0
 10
-33.10606174060715
 20
-0.0000121386031112
 30
0.0
 10
-33.6531543880303
 20
0.2433300185836143
 30
0.0
 10
-34.20025507295699
 20
0.4851711534213181
 30
0.0
 10
-34.74736472234396
 20
0.724032632750316
 30
0.0
 10
-35.29449229497638
 20
0.9584417195940893
 30
0.0
 10
-35.84164328872035
 20
1.186952646235975
 30
0.0
 10
-36.38882031315505
 20
1.408165884771878
 30
0.0
 10
-36.93602879224756
 20
1.620716719114929
 30
0.0
 10
-37.48327548029171
 20
1.823295388462529
 30
0.0
 10
-38.03056557198799
 20
2.014652313108042
 30
0.0
 10
-38.57790156426002
 20
2.193611563001625
 30
0.0
 10
-39.12529021265518
 20
2.35905932588842
 30
0.0
 10
-39.67273075741517
 20
2.509981337833622
 30
0.0
 10
-40.22022719050664
 20
2.645434876924127
 30
0.0
 10
-40.76777999794378
 20
2.764585792655107
 30
0.0
 10
-41.31538525466864
 20
2.866689795699381
 30
0.0
 10
-41.86303857844122
 20
2.95111084252651
 30
0.0
 10
-42.41072961916713
 20
3.017331146521875
 30
0.0
 10
-42.9584547768951
 20
3.064922792439139
 30
0.0
 10
-43.5062024709257
 20
3.093600277120224
 30
0.0
 10
-44.0539622013797
 20
3.103180475841417
 30
0.0
 10
-44.60172193102774
 20
3.093600277105212
 30
0.0
 10
-45.1494696274809
 20
3.064922792499411
 30
0.0
 10
-45.69719477628972
 20
3.017331146294794
 30
0.0
 10
-46.24488585045565
 20
2.951110843379899
 30
0.0
 10
-46.79253637860023
 20
2.866690204056722
 30
0.0
 10
-47.34013947796879
 20
2.764586836613387
 30
0.0
 10
-47.86279624753569
 20
2.650843574149298
 30
0.0
 10
-48.20190191181517
 20
2.567662051017641
 30
0.0
 10
-48.35922717553327
 20
2.52712363695652
 30
0.0
  0
SPLINE
  5
2344
330
1F
100
AcDbEntity
  8
AM_0
100
AcDbSpline
210
0.0
220
0.0
230
1.0
 70
     8
 71
     3
 72
    46
 73
    42
 74
     0
 42
0.0000000001
 43
0.0000000001
 40
0.0
 40
0.0
 40
0.0
 40
0.0
 40
1.179790541079198
 40
1.771725346678782
 40
2.365928389391083
 40
2.963054206943358
 40
3.56367942854171
 40
4.168281726368679
 40
4.777234562424272
 40
5.390806270667778
 40
6.009119932596676
 40
6.632207668849522
 40
7.259973746737163
 40
7.892212608053084
 40
8.52861341801536
 40
9.168769217093196
 40
9.812189404150775
 40
10.45831090818786
 40
11.10651107820319
 40
11.75612220391373
 40
12.40644563990894
 40
13.05676907590468
 40
13.70638020161522
 40
14.35458037163002
 40
15.0007018756671
 40
15.64412206272522
 40
16.2842778618023
 40
16.92067867176477
 40
17.55292168272609
 40
18.18068776061372
 40
18.80377549686656
 40
19.42208915879528
 40
20.03565231513328
 40
20.64460515118887
 40
21.24920744901584
 40
21.84983224434128
 40
22.44695841635482
 40
23.04117028960381
 40
23.63310489365484
 40
24.22349090745283
 40
24.81309134934786
 40
24.81309134934786
 40
24.81309134934786
 40
24.81309134934786
 10
-20.62484150168086
 20
-3.100011506090619
 30
0.0
 10
-20.9901134016573
 20
-3.092949466457781
 30
0.0
 10
-21.53865270680021
 20
-3.082344198674141
 30
0.0
 10
-22.26806934168076
 20
-3.017049513221641
 30
0.0
 10
-22.81576610441683
 20
-2.951215101129235
 30
0.0
 10
-23.36341605211785
 20
-2.866694899023151
 30
0.0
 10
-23.91101774208633
 20
-2.764612802644767
 30
0.0
 10
-24.45856836118501
 20
-2.64545685138062
 30
0.0
 10
-25.00606699234885
 20
-2.510003270613443
 30
0.0
 10
-25.55351119901557
 20
-2.359083765380574
 30
0.0
 10
-26.10090207539486
 20
-2.193634394420997
 30
0.0
 10
-26.64823814917169
 20
-2.014675376650143
 30
0.0
 10
-27.19552821359291
 20
-1.82331837776899
 30
0.0
 10
-27.74277492859766
 20
-1.620739771287085
 30
0.0
 10
-28.28998332662986
 20
-1.408188758786972
 30
0.0
 10
-28.83715948861447
 20
-1.186976644863547
 30
0.0
 10
-29.3843082100311
 20
-0.9584637628295451
 30
0.0
 10
-29.93143481601729
 20
-0.7240555871987131
 30
0.0
 10
-30.47854510767479
 20
-0.4851947629383867
 30
0.0
 10
-31.02564408289184
 20
-0.2433501162133162
 30
0.0
 10
-31.5727384590983
 20
-0.0000115061397527
 30
0.0
 10
-32.11983283518457
 20
0.2433271042295161
 30
0.0
 10
-32.66693181076213
 20
0.4851717500679018
 30
0.0
 10
-33.21404210110192
 20
0.7240325775686671
 30
0.0
 10
-33.76116871197428
 20
0.9584407411818963
 30
0.0
 10
-34.30831741527349
 20
1.186953667775939
 30
0.0
 10
-34.85549364435305
 20
1.408165616677867
 30
0.0
 10
-35.40270298380981
 20
1.620717701670843
 30
0.0
 10
-35.94995182515128
 20
1.823294467623411
 30
0.0
 10
-36.49724286585409
 20
2.014652447717724
 30
0.0
 10
-37.04457892688739
 20
2.193611518738407
 30
0.0
 10
-37.59196755464714
 20
2.359059369359659
 30
0.0
 10
-38.1394081138057
 20
2.509981209189429
 30
0.0
 10
-38.68690451011685
 20
2.645435343299306
 30
0.0
 10
-39.23445481232199
 20
2.764583498755564
 30
0.0
 10
-39.78205690375851
 20
2.866695202964556
 30
0.0
 10
-40.32971034660376
 20
2.951094709138256
 30
0.0
 10
-40.87740428719725
 20
3.017392583227394
 30
0.0
 10
-41.42513211334835
 20
3.064692625401187
 30
0.0
 10
-41.97287982161209
 20
3.094456728554504
 30
0.0
 10
-42.3381340288221
 20
3.098145390695913
 30
0.0
 10
-42.52063954906434
 20
3.099988493909586
 30
0.0
  0
SPLINE
  5
2345
330
1F
100
AcDbEntity
  8
AM_0
100
AcDbSpline
210
0.0
220
0.0
230
1.0
 70
     8
 71
     3
 72
    22
 73
    18
 74
     0
 42
0.0000000001
 43
0.0000000001
 40
17.17441611292
 40
17.17441611292
 40
17.17441611292
 40
17.17441611292
 40
17.38177636558528
 40
18.41823744757437
 40
19.46215659509824
 40
20.51397914882054
 40
21.57394542641293
 40
22.64209583141747
 40
23.71826625065247
 40
24.80210429862395
 40
25.8930771157021
 40
26.99048705697709
 40
28.09349309193389
 40
29.20112995599786
 40
30.31233024745139
 40
31.42594771747373
 40
32.5407895042663
 40
32.54078950426994
 40
32.54078950426994
 40
32.54078950426994
 10
-34.56696235826646
 20
-2.78383394280257
 30
0.0
 10
-34.60364035504536
 20
-2.776657746856057
 30
0.0
 10
-34.82350491471419
 20
-2.73294675296829
 30
0.0
 10
-35.22628439870887
 20
-2.645300521110799
 30
0.0
 10
-35.77378075351151
 20
-2.509846592861203
 30
0.0
 10
-36.32122131958485
 20
-2.358924686583689
 30
0.0
 10
-36.86860996182861
 20
-2.193476894238792
 30
0.0
 10
-37.41594595718045
 20
-2.014517655411219
 30
0.0
 10
-37.96323604271179
 20
-1.823160716140292
 30
0.0
 10
-38.51048275252956
 20
-1.620582094605542
 30
0.0
 10
-39.05769114996716
 20
-1.408031082065948
 30
0.0
 10
-39.60486731963504
 20
-1.186818983636823
 30
0.0
 10
-40.15201601069222
 20
-0.9583060392010269
 30
0.0
 10
-40.69914273107486
 20
-0.7238980990067765
 30
0.0
 10
-41.24625233058515
 20
-0.4850365065517374
 30
0.0
 10
-41.793352914176
 20
-0.2431951669679566
 30
0.0
 10
-42.15801504370805
 20
-0.0809973104782567
 30
0.0
 10
-42.34044628378647
 20
0.0001461680636271
 30
0.0
  0
SPLINE
  5
2346
330
1F
100
AcDbEntity
  8
AM_0
100
AcDbSpline
210
0.0
220
0.0
230
1.0
 70
     8
 71
     3
 72
    17
 73
    13
 74
     0
 42
0.0000000001
 43
0.0000000001
 40
1.580019955310467
 40
1.580019955310467
 40
1.580019955310467
 40
1.580019955310467
 40
2.030549285115227
 40
3.082371838836284
 40
4.126290986361125
 40
5.162752068350215
 40
6.192395305374981
 40
7.216039564037012
 40
8.234688489606833
 40
9.249433870634691
 40
10.26152376260694
 40
11.27226744710342
 40
11.27226744710342
 40
11.27226744710342
 40
11.27226744710352
 10
-27.3168440580632
 20
-2.287902790520672
 30
0.0
 10
-27.39434127973682
 20
-2.31146617011231
 30
0.0
 10
-27.65320803626349
 20
-2.388698294063133
 30
0.0
 10
-28.09515778592362
 20
-2.509839643893344
 30
0.0
 10
-28.64257793048634
 20
-2.645501885203844
 30
0.0
 10
-29.19014877930234
 20
-2.764595320975488
 30
0.0
 10
-29.73774471762346
 20
-2.866720008684324
 30
0.0
 10
-30.28540031554065
 20
-2.951133088420068
 30
0.0
 10
-30.8330937494116
 20
-3.017352851957686
 30
0.0
 10
-31.38082128705998
 20
-3.064950173072051
 30
0.0
 10
-31.92856943389771
 20
-3.093618662279582
 30
0.0
 10
-32.29382349393178
 20
-3.100011523828873
 30
0.0
 10
-32.47632897930118
 20
-3.100011506090508
 30
0.0
  0
SPLINE
  5
2347
330
1F
100
AcDbEntity
  8
AM_0
100
AcDbSpline
210
0.0
220
0.0
230
1.0
 70
     8
 71
     3
 72
    11
 73
     7
 74
     0
 42
0.0000000001
 43
0.0000000001
 40
11.27226913003534
 40
11.27226913003534
 40
11.27226913003534
 40
11.2722691300354
 40
12.28301561507924
 40
13.29510212255852
 40
14.30984805882082
 40
15.18258238371378
 40
15.18258238371378
 40
15.18258238371378
 40
15.18258238371378
 10
-32.47632897930121
 20
-3.100011506090508
 30
0.0
 10
-32.65814048896579
 20
-3.084839205236388
 30
0.0
 10
-33.02142057721506
 20
-3.048107725194064
 30
0.0
 10
-33.56446479893839
 20
-2.974011244438644
 30
0.0
 10
-34.07982334071454
 20
-2.885511122538557
 30
0.0
 10
-34.41312699459585
 20
-2.817478444901368
 30
0.0
 10
-34.56672280911721
 20
-2.783872181278865
 30
0.0
  0
SPLINE
  5
2348
330
1F
100
AcDbEntity
  8
AM_0
100
AcDbSpline
210
0.0
220
0.0
230
1.0
 70
     8
 71
     3
 72
    23
 73
    19
 74
     0
 42
0.0000000001
 43
0.0000000001
 40
16.03460024169435
 40
16.03460024169435
 40
16.03460024169435
 40
16.03460024169435
 40
16.35212704903564
 40
17.38177054169784
 40
18.41822485651776
 40
19.46214173629503
 40
20.51396345435107
 40
21.57393551351153
 40
22.64208202342361
 40
23.7182574881101
 40
24.80209208578934
 40
25.89306333925047
 40
26.99048218457928
 40
28.09348763352352
 40
29.20111863782268
 40
30.31232390128032
 40
31.42594612798585
 40
32.5407912310448
 40
32.5407912310486
 40
32.5407912310486
 40
32.5407912310486
 10
-31.1388799675781
 20
3.100428905168709
 30
0.0
 10
-31.08260557585686
 20
3.089963851077516
 30
0.0
 10
-30.84408997588425
 20
3.044391485964338
 30
0.0
 10
-30.42394217789551
 20
2.955099391744787
 30
0.0
 10
-29.87984967961723
 20
2.822323024129147
 30
0.0
 10
-29.33626256004372
 20
2.673237294876624
 30
0.0
 10
-28.79314869817859
 20
2.508705036146482
 30
0.0
 10
-28.2504888179484
 20
2.329643518964532
 30
0.0
 10
-27.70825155491261
 20
2.137076334475582
 30
0.0
 10
-27.16639914972921
 20
1.932124175390619
 30
0.0
 10
-26.6249008123984
 20
1.715947673837074
 30
0.0
 10
-26.08371312903494
 20
1.48980471050723
 30
0.0
 10
-25.54279224242902
 20
1.255009726008654
 30
0.0
 10
-25.00210211256475
 20
1.012912693069849
 30
0.0
 10
-24.46159750055566
 20
0.7649213727835145
 30
0.0
 10
-23.92122834422754
 20
0.5124838525195297
 30
0.0
 10
-23.38095064227721
 20
0.2570629393501558
 30
0.0
 10
-23.02086225324517
 20
0.0858171833412743
 30
0.0
 10
-22.84071986040419
 20
0.0001461680623943
 30
0.0
  0
ELLIPSE
  5
2467
330
1F
100
AcDbEntity
  8
AM_0
 48
0.5
100
AcDbEllipse
 10
3.301326243079007
 20
-0.6890868964962298
 30
0.0
 11
4.841556635471936
 21
1.094281341430596
 31
0.0
210
0.0
220
0.0
230
0.9999999999999998
 40
0.9266291543884765
 41
3.039012159428779
 42
3.451643150946603
  0
ELLIPSE
  5
2468
330
1F
100
AcDbEntity
  8
AM_0
 48
0.5
100
AcDbEllipse
 10
-5.463072057554102
 20
5.896541586770029
 30
0.0
 11
-4.833241519645106
 21
6.551379064207088
 31
0.0
210
0.0
220
0.0
230
0.9999999999999998
 40
0.5700206404056104
 41
3.14653163117385
 42
3.335796059594246
  0
SPLINE
  5
2469
330
1F
100
AcDbEntity
  8
AM_0
 48
0.5
100
AcDbSpline
210
0.0
220
0.0
230
1.0
 70
     8
 71
     3
 72
    10
 73
     6
 74
     0
 42
0.0000000001
 43
0.0000000001
 40
0.0
 40
0.0
 40
0.0
 40
0.0
 40
2.69986029516136
 40
4.147722969032201
 40
6.285750005020438
 40
6.285750005020438
 40
6.285750005020438
 40
6.285750005020438
 10
-3.315524800622316
 20
0.5610838747845382
 30
0.0
 10
-2.94367415086959
 20
0.2730724528190489
 30
0.0
 10
-2.372409969610652
 20
-0.1693917711153557
 30
0.0
 10
-1.021446920231902
 20
0.0448129110105473
 30
0.0
 10
-1.275872557612911
 20
0.766282623908877
 30
0.0
 10
-1.443980762874152
 20
1.206040634589486
 30
0.0
  0
ELLIPSE
  5
246A
330
1F
100
AcDbEntity
  8
AM_0
 48
0.5
100
AcDbEllipse
 10
-0.8286249796585316
 20
-0.8079042259033055
 30
0.0
 11
-0.4474477383294678
 21
0.2583333341074427
 31
0.0
210
0.0
220
0.0
230
1.0
 40
0.5000000000001405
 41
4.483836531792615
 42
7.627276873122125
  0
ELLIPSE
  5
246B
330
1F
100
AcDbEntity
  8
AM_0
 48
0.5
100
AcDbEllipse
 10
-0.8286249796585316
 20
-0.8079042259033055
 30
0.0
 11
-0.0897165760246072
 21
0.5088164728154253
 31
0.0
210
0.0
220
0.0
230
1.0
 40
0.4999981224495358
 41
1.805862328724633
 42
4.941204218436607
  0
ELLIPSE
  5
246C
330
1F
100
AcDbEntity
  8
AM_0
 48
0.5
100
AcDbEllipse
 10
2.073935445146358
 20
3.72174112169206
 30
0.0
 11
-4.417917426653595
 21
4.417917426653577
 31
0.0
210
0.0
220
0.0
230
1.0
 40
0.9999999999999943
 41
1.315765716631529
 42
1.723886646826419
  0
ELLIPSE
  5
246D
330
1F
100
AcDbEntity
  8
AM_0
 48
0.5
100
AcDbEllipse
 10
-5.271259816491097
 20
5.202924237333222
 30
0.0
 11
5.285219040429564
 21
5.285219040429585
 31
0.0
210
0.0
220
0.0
230
1.0
 40
0.9999999999999122
 41
4.437574142215648
 42
4.526068919895139
  0
ELLIPSE
  5
246E
330
1F
100
AcDbEntity
  8
AM_0
 48
0.5
100
AcDbEllipse
 10
4.518957403223689
 20
-3.751108006924859
 30
0.0
 11
0.8796610060084027
 21
-5.948361087300716
 31
0.0
210
0.0
220
0.0
230
-1.0
 40
0.8991184301885631
 41
1.890270824098471
 42
2.197796108596753
  0
ELLIPSE
  5
246F
330
1F
100
AcDbEntity
  8
AM_0
 48
0.5
100
AcDbEllipse
 10
4.518957403223667
 20
3.751108006924889
 30
0.0
 11
0.8796610060083692
 21
5.948361087300719
 31
0.0
210
0.0
220
0.0
230
1.0
 40
0.8991184301885631
 41
1.890270824098471
 42
2.197796108596753
  0
LINE
  5
2470
330
1F
100
AcDbEntity
  8
AM_0
 48
0.5
100
AcDbLine
 10
-0.8349769276885066
 20
-2.633819341137471
 30
0.0
 11
-1.000000000000014
 21
-3.099999600964131
 31
0.0
  0
LINE
  5
2471
330
1F
100
AcDbEntity
  8
AM_0
 48
0.5
100
AcDbLine
 10
0.0000000000000249
 20
-0.0000000000000267
 30
0.0
 11
-1.428521919254013
 21
1.190306236031096
 31
0.0
  0
SPLINE
  5
2473
330
1F
100
AcDbEntity
  8
AM_0
 48
0.5
100
AcDbSpline
210
0.0
220
0.0
230
1.0
 70
     8
 71
     3
 72
    25
 73
    21
 74
     0
 42
0.0000000001
 43
0.0000000001
 40
6.846175049578289
 40
6.846175049578289
 40
6.846175049578289
 40
6.846175049578289
 40
7.604337694224321
 40
8.711974558287883
 40
9.814980593243754
 40
10.91239053451967
 40
12.0033633515982
 40
13.08720139956839
 40
14.16337181880432
 40
15.23152222380919
 40
16.29148850140128
 40
17.34331105512262
 40
18.38723020264746
 40
19.42369128463655
 40
20.45333379090873
 40
21.47697865721768
 40
22.49561244472435
 40
23.5103574802404
 40
24.52244778960836
 40
25.53320666051913
 40
25.53320666051913
 40
25.53320666051913
 40
25.53320666051913
 10
-3.315608331668903
 20
0.5611206942734999
 30
0.0
 10
-3.434295057169135
 20
0.6155511809437951
 30
0.0
 10
-3.726626802625954
 20
0.7489571539041631
 30
0.0
 10
-4.193038004100579
 20
0.9584525553003562
 30
0.0
 10
-4.714933650125352
 20
1.186965564307529
 30
0.0
 10
-5.236855542621114
 20
1.408177645542354
 30
0.0
 10
-5.75880816586962
 20
1.620728662727584
 30
0.0
 10
-6.280797335711163
 20
1.823307282742911
 30
0.0
 10
-6.802827878905983
 20
2.014664223473618
 30
0.0
 10
-7.324902212180541
 20
2.193623458012835
 30
0.0
 10
-7.84702676615131
 20
2.359071265890991
 30
0.0
 10
-8.369200833799325
 20
2.509993114934067
 30
0.0
 10
-8.891428165791349
 20
2.645447254384217
 30
0.0
 10
-9.413706919163098
 20
2.764595379691288
 30
0.0
 10
-9.936035053629813
 20
2.866707198093644
 30
0.0
 10
-10.45840966268092
 20
2.951105865095643
 30
0.0
 10
-10.98082261837726
 20
3.017405110561954
 30
0.0
 10
-11.50326816319785
 20
3.064704426247454
 30
0.0
 10
-12.02573781627722
 20
3.094468814846004
 30
0.0
 10
-12.37413676953151
 20
3.098157346902768
 30
0.0
 10
-12.54822158813832
 20
3.100000399036035
 30
0.0
  0
LINE
  5
2474
330
1F
100
AcDbEntity
  8
AM_0
 48
0.5
100
AcDbLine
 10
-2.706279754642439
 20
3.10000039903589
 30
0.0
 11
-0.9999821980836038
 21
3.099988493909258
 31
0.0
  0
LINE
  5
2475
330
1F
100
AcDbEntity
  8
AM_0
 48
0.5
100
AcDbLine
 10
-0.8349769276885208
 20
2.633819341137472
 30
0.0
 11
-0.9999821980836038
 21
3.099988493909258
 31
0.0
  0
LINE
  5
2476
330
1F
100
AcDbEntity
  8
AM_0
 48
0.5
100
AcDbLine
 10
-2.706279754642515
 20
-3.099999600964105
 30
0.0
 11
-1.000000000000014
 21
-3.099999600964131
 31
0.0
  0
LINE
  5
2477
330
1F
100
AcDbEntity
  8
AM_0
100
AcDbLine
 10
-0.3281476080770087
 20
0.9015781434396448
 30
0.0
 11
0.0000000000000195
 21
-0.0000000000000409
 31
0.0
  0
LINE
  5
2478
330
1F
100
AcDbEntity
  8
AM_0
100
AcDbLine
 10
0.0000000000000195
 20
-0.0000000000000409
 30
0.0
 11
-0.3281476080770034
 21
-0.9015781434396448
 31
0.0
  0
DIMENSION
  5
24B0
330
1F
100
AcDbEntity
  8
AM_5
100
AcDbDimension
  2
*D9
 10
-0.3281476080770034
 20
-0.9015781434396448
 30
0.0
 11
12.08600775005938
 21
-0.0000000000002034
 31
0.0
 70
    34
  1
<>
 51
359.9999999999998
  3
AM_JIS$2
100
AcDb2LineAngularDimension
 13
-0.3281476080770087
 23
0.9015781434396448
 33
0.0
 14
0.0000000000000195
 24
-0.0000000000000409
 34
0.0
 15
0.0000000000000195
 25
-0.0000000000000409
 35
0.0
 16
12.52080194964872
 26
-5.400946759351797
 36
0.0
1001
ACAD
1000
DSTYLE
1002
{
1070
   179
1070
     3
1002
}
1001
GENIUS_GENDTOL_13
1000

1000
h7
1000

1040
0.0
  0
VIEWPORT
  5
110
330
101
100
AcDbEntity
 67
     1
  8
0
100
AcDbViewport
 10
420.5
 20
297.0
 30
0.0
 40
948.9782706766916
 41
628.452
 68
     1
 69
     1
1001
ACAD
1000
MVIEW
1002
{
1070
    16
1010
0.0
1020
0.0
1030
0.0
1010
0.0
1020
0.0
1030
1.0
1040
0.0
1040
628.452
1040
420.5
1040
297.0
1040
50.0
1040
0.0
1040
0.0
1070
     0
1070
   100
1070
     1
1070
     1
1070
     0
1070
     0
1070
     0
1070
     0
1040
0.0
1040
0.0
1040
0.0
1040
10.0
1040
10.0
1040
10.0
1040
10.0
1070
     0
1002
{
1002
}
1002
}
  0
ENDSEC
  0
SECTION
  2
OBJECTS
  0
DICTIONARY
  5
C
330
0
100
AcDbDictionary
  3
ACAD_GROUP
350
D
  3
ACAD_LAYOUT
350
1A
  3
ACAD_MLINESTYLE
350
17
  3
ACAD_PLOTSETTINGS
350
19
  3
ACAD_PLOTSTYLENAME
350
E
  3
ACDBVARIABLEDICTIONARY
350
34
  3
ACMDICTIONARY
350
43
  3
AMG
350
2B
  3
AMGSNAPSETTINGS
350
6E
  3
DWGPROPS
350
25F2
  3
ACDBHEADERROUNDTRIPXREC
350
25FF
  0
DICTIONARY
  5
74
330
1F
100
AcDbDictionary
280
     1
  3
ACAD_INDEX
360
25F4
  3
ACAD_LAYOUTSELFREF
360
2622
  0
DICTIONARY
  5
2627
330
101
100
AcDbDictionary
280
     1
  3
ACAD_LAYOUTSELFREF
360
2628
  0
DICTIONARY
  5
D
102
{ACAD_REACTORS
330
C
102
}
330
C
100
AcDbDictionary
  0
DICTIONARY
  5
1A
102
{ACAD_REACTORS
330
C
102
}
330
C
100
AcDbDictionary
  0
DICTIONARY
  5
17
102
{ACAD_REACTORS
330
C
102
}
330
C
100
AcDbDictionary
  3
STANDARD
350
18
  0
DICTIONARY
  5
19
102
{ACAD_REACTORS
330
C
102
}
330
C
100
AcDbDictionary
  0
ACDBDICTIONARYWDFLT
  5
E
102
{ACAD_REACTORS
330
C
102
}
330
C
100
AcDbDictionary
281
     1
  3
Normal
350
F
100
AcDbDictionaryWithDefault
340
F
  0
DICTIONARY
  5
34
102
{ACAD_REACTORS
330
C
102
}
330
C
100
AcDbDictionary
  3
INDEXCTL
350
35
  3
SORTENTS
350
B5E
  0
DICTIONARY
  5
43
102
{ACAD_REACTORS
330
C
102
}
330
C
100
AcDbDictionary
  3
ACMSTDDICTIONARY
350
260
  0
DICTIONARY
  5
2B
102
{ACAD_REACTORS
330
C
102
}
330
C
100
AcDbDictionary
  3
ACMGSETTINGS
350
2C
  0
DICTIONARY
  5
6E
102
{ACAD_REACTORS
330
C
102
}
330
C
100
AcDbDictionary
  0
XRECORD
  5
25F2
102
{ACAD_REACTORS
330
C
102
}
330
C
100
AcDbXrecord
  1
DWGPROPS COOKIE
  2

  3

  4

  6

  7

  8

  9

300
AmdtFileType=82
301
=
302
=
303
=
304
=
305
=
306
=
307
=
308
=
309
=
 40
0.0495173148148148
 41
2452800.443498622
 42
2452948.546116354
  1

 90
        1
  0
DICTIONARY
  5
25FF
102
{ACAD_REACTORS
330
C
102
}
330
C
100
AcDbDictionary
  3
TSTACKALIGN
350
2600
  3
TSTACKSIZE
350
2601
  3
HYPERLINKBASE
350
2602
  3
STYLESHEET
350
2603
  3
LAYOUTDICT
350
2604
  3
PLOTSETDICT
350
2605
  3
PLOTSTYLNAMDICT
350
2606
  3
LWETCUNION
350
2607
  3
INSUNITS
350
2608
  3
CEPSNTYPE
350
2609
  3
FINGERPRINTGUID
350
260A
  3
VERSIONGUID
350
260B
  3
PSVPSCALE
350
260C
  3
DIMSTYLEDATA
350
260D
  3
PUCSORTHOREF
350
260E
  3
PUCSORTHOVIEW
350
260F
  3
PUCSBASE
350
2610
  3
PUCSORGTOP
350
2611
  3
PUCSORGBOTTOM
350
2612
  3
PUCSORGLEFT
350
2613
  3
PUCSORGRIGHT
350
2614
  3
PUCSORGFRONT
350
2615
  3
PUCSORGBACK
350
2616
  3
UCSORTHOREF
350
2617
  3
UCSORTHOVIEW
350
2618
  3
UCSBASE
350
2619
  3
UCSORGTOP
350
261A
  3
UCSORGBOTTOM
350
261B
  3
UCSORGLEFT
350
261C
  3
UCSORGRIGHT
350
261D
  3
UCSORGFRONT
350
261E
  3
UCSORGBACK
350
261F
  0
DICTIONARY
  5
25F4
102
{ACAD_REACTORS
330
74
102
}
330
74
100
AcDbDictionary
  3
*A1
350
25F5
  0
XRECORD
  5
2622
102
{ACAD_REACTORS
330
74
102
}
330
74
100
AcDbXrecord
340
1F
  0
XRECORD
  5
2628
102
{ACAD_REACTORS
330
2627
102
}
330
2627
100
AcDbXrecord
340
101
  0
MLINESTYLE
  5
18
102
{ACAD_REACTORS
330
17
102
}
330
17
100
AcDbMlineStyle
  2
STANDARD
 70
     0
  3

 62
   256
 51
90.0
 52
90.0
 71
     2
 49
0.5
 62
   256
  6
BYLAYER
 49
-0.5
 62
   256
  6
BYLAYER
  0
ACDBPLACEHOLDER
  5
F
102
{ACAD_REACTORS
330
E
102
}
330
E
100
AcDbPlaceHolder
280
     0
  0
DICTIONARYVAR
  5
35
102
{ACAD_REACTORS
330
34
102
}
330
34
100
DictionaryVariables
280
     0
  1
1
  0
DICTIONARYVAR
  5
B5E
102
{ACAD_REACTORS
330
34
102
}
330
34
100
DictionaryVariables
280
     0
  1
96
  0
DICTIONARY
  5
260
102
{ACAD_REACTORS
330
43
102
}
330
43
100
AcDbDictionary
  0
DICTIONARY
  5
2C
102
{ACAD_REACTORS
330
2B
102
}
330
2B
100
AcDbDictionary
  3
DWGSETTINGS
350
2D
  0
XRECORD
  5
2600
102
{ACAD_REACTORS
330
25FF
102
}
330
25FF
100
AcDbXrecord
 90
        1
  0
XRECORD
  5
2601
102
{ACAD_REACTORS
330
25FF
102
}
330
25FF
100
AcDbXrecord
 90
       70
  0
XRECORD
  5
2602
102
{ACAD_REACTORS
330
25FF
102
}
330
25FF
100
AcDbXrecord
  1

  0
XRECORD
  5
2603
102
{ACAD_REACTORS
330
25FF
102
}
330
25FF
100
AcDbXrecord
  1
ASAMI.ctb
  0
XRECORD
  5
2604
102
{ACAD_REACTORS
330
25FF
102
}
330
25FF
100
AcDbXrecord
340
1A
  0
XRECORD
  5
2605
102
{ACAD_REACTORS
330
25FF
102
}
330
25FF
100
AcDbXrecord
340
19
  0
XRECORD
  5
2606
102
{ACAD_REACTORS
330
25FF
102
}
330
25FF
100
AcDbXrecord
340
E
  0
XRECORD
  5
2607
102
{ACAD_REACTORS
330
25FF
102
}
330
25FF
100
AcDbXrecord
 90
    10781
  0
XRECORD
  5
2608
102
{ACAD_REACTORS
330
25FF
102
}
330
25FF
100
AcDbXrecord
 90
        4
  0
XRECORD
  5
2609
102
{ACAD_REACTORS
330
25FF
102
}
330
25FF
100
AcDbXrecord
 90
        0
  0
XRECORD
  5
260A
102
{ACAD_REACTORS
330
25FF
102
}
330
25FF
100
AcDbXrecord
  1
{AFB28963-8C59-40AE-9337-C84526B81ACE}
  0
XRECORD
  5
260B
102
{ACAD_REACTORS
330
25FF
102
}
330
25FF
100
AcDbXrecord
  1
{047BDE38-C2AE-48FB-B028-FFDFF56A58C0}
  0
XRECORD
  5
260C
102
{ACAD_REACTORS
330
25FF
102
}
330
25FF
100
AcDbXrecord
 40
0.0
  0
XRECORD
  5
260D
102
{ACAD_REACTORS
330
25FF
102
}
330
25FF
100
AcDbXrecord
1000
DSTYLE
1002
{
1070
    79
 70
     2
1070
   341
340
59
1070
   342
340
59
1070
   371
 70
    -1
1070
   372
 70
    -1
1002
}
  0
XRECORD
  5
260E
102
{ACAD_REACTORS
330
25FF
102
}
330
25FF
100
AcDbXrecord
340
0
  0
XRECORD
  5
260F
102
{ACAD_REACTORS
330
25FF
102
}
330
25FF
100
AcDbXrecord
 70
     0
  0
XRECORD
  5
2610
102
{ACAD_REACTORS
330
25FF
102
}
330
25FF
100
AcDbXrecord
340
0
  0
XRECORD
  5
2611
102
{ACAD_REACTORS
330
25FF
102
}
330
25FF
100
AcDbXrecord
 10
0.0
 20
0.0
 30
0.0
  0
XRECORD
  5
2612
102
{ACAD_REACTORS
330
25FF
102
}
330
25FF
100
AcDbXrecord
 10
0.0
 20
0.0
 30
0.0
  0
XRECORD
  5
2613
102
{ACAD_REACTORS
330
25FF
102
}
330
25FF
100
AcDbXrecord
 10
0.0
 20
0.0
 30
0.0
  0
XRECORD
  5
2614
102
{ACAD_REACTORS
330
25FF
102
}
330
25FF
100
AcDbXrecord
 10
0.0
 20
0.0
 30
0.0
  0
XRECORD
  5
2615
102
{ACAD_REACTORS
330
25FF
102
}
330
25FF
100
AcDbXrecord
 10
0.0
 20
0.0
 30
0.0
  0
XRECORD
  5
2616
102
{ACAD_REACTORS
330
25FF
102
}
330
25FF
100
AcDbXrecord
 10
0.0
 20
0.0
 30
0.0
  0
XRECORD
  5
2617
102
{ACAD_REACTORS
330
25FF
102
}
330
25FF
100
AcDbXrecord
340
0
  0
XRECORD
  5
2618
102
{ACAD_REACTORS
330
25FF
102
}
330
25FF
100
AcDbXrecord
 70
     0
  0
XRECORD
  5
2619
102
{ACAD_REACTORS
330
25FF
102
}
330
25FF
100
AcDbXrecord
340
0
  0
XRECORD
  5
261A
102
{ACAD_REACTORS
330
25FF
102
}
330
25FF
100
AcDbXrecord
 10
0.0
 20
0.0
 30
0.0
  0
XRECORD
  5
261B
102
{ACAD_REACTORS
330
25FF
102
}
330
25FF
100
AcDbXrecord
 10
0.0
 20
0.0
 30
0.0
  0
XRECORD
  5
261C
102
{ACAD_REACTORS
330
25FF
102
}
330
25FF
100
AcDbXrecord
 10
0.0
 20
0.0
 30
0.0
  0
XRECORD
  5
261D
102
{ACAD_REACTORS
330
25FF
102
}
330
25FF
100
AcDbXrecord
 10
0.0
 20
0.0
 30
0.0
  0
XRECORD
  5
261E
102
{ACAD_REACTORS
330
25FF
102
}
330
25FF
100
AcDbXrecord
 10
0.0
 20
0.0
 30
0.0
  0
XRECORD
  5
261F
102
{ACAD_REACTORS
330
25FF
102
}
330
25FF
100
AcDbXrecord
 10
0.0
 20
0.0
 30
0.0
  0
LAYER_INDEX
  5
25F5
102
{ACAD_REACTORS
330
25F4
102
}
330
25F4
100
AcDbIndex
 40
2453151.694741736
100
AcDbLayerIndex
  8
0
360
25F6
 90
        0
  8
AM_0
360
25F7
 90
       52
  8
AM_7
360
25F8
 90
        1
  8
AM_11
360
25F9
 90
       23
  8
AM_5
360
25FA
 90
        5
  8
Defpoints
360
25FB
 90
        0
  8
AM_6
360
25FC
 90
        1
  8
AM_CL
360
25FD
 90
        0
  0
XRECORD
  5
2D
102
{ACAD_REACTORS
330
2C
102
}
330
2C
100
AcDbXrecord
  1
VERSION
140
15.0
  1
PRODUCT
  2
AutoCAD Mechanical 2000
  0
IDBUFFER
  5
25F6
330
0
100
AcDbIdBuffer
  0
IDBUFFER
  5
25F7
330
0
100
AcDbIdBuffer
330
2475
330
2476
330
2477
330
2478
330
1D9D
330
1D9E
330
1D9F
330
1DA1
330
1DA2
330
1DA4
330
1DA5
330
1F71
330
1F72
330
231D
330
231F
330
2323
330
2326
330
2329
330
232A
330
232B
330
232C
330
2333
330
2334
330
2335
330
2336
330
2337
330
2338
330
2339
330
233C
330
233F
330
2340
330
2341
330
2342
330
2343
330
2344
330
2345
330
2346
330
2347
330
2348
330
2467
330
2468
330
2469
330
246A
330
246B
330
246C
330
246D
330
246E
330
246F
330
2470
330
2471
330
2473
330
2474
  0
IDBUFFER
  5
25F8
330
0
100
AcDbIdBuffer
330
1D14
  0
IDBUFFER
  5
25F9
330
0
100
AcDbIdBuffer
330
2325
330
2327
330
2328
330
232D
330
232E
330
232F
330
2330
330
144A
330
144B
330
1F77
330
1F78
330
1F79
330
1F7A
330
1F7B
330
1F7C
330
1F7D
330
1F7E
330
231A
330
231E
330
2320
330
2321
330
2322
330
2324
  0
IDBUFFER
  5
25FA
330
0
100
AcDbIdBuffer
330
CC6
330
DF5
330
1F93
330
2309
330
24B0
  0
IDBUFFER
  5
25FB
330
0
100
AcDbIdBuffer
  0
IDBUFFER
  5
25FC
330
0
100
AcDbIdBuffer
330
19BD
  0
IDBUFFER
  5
25FD
330
0
100
AcDbIdBuffer
  0
ENDSEC
  0
EOF
