  0
SECTION
  2
HEADER
  9
$ACADVER
  1
AC1014
  9
$ACADMAINTVER
 70
     9
  9
$DWGCODEPAGE
  3
ANSI_932
  9
$INSBASE
 10
0.0
 20
0.0
 30
0.0
  9
$EXTMIN
 10
-121.4000009999999
 20
-26.75001206798964
 30
-0.00000001
  9
$EXTMAX
 10
13.2386023051785
 20
12.91006320608877
 30
0.00000001
  9
$LIMMIN
 10
-124.9449435500567
 20
-42.63002086321231
  9
$LIMMAX
 10
21.36387671057201
 20
28.90543668805509
  9
$ORTHOMODE
 70
     0
  9
$REGENMODE
 70
     1
  9
$FILLMODE
 70
     1
  9
$QTEXTMODE
 70
     0
  9
$MIRRTEXT
 70
     0
  9
$DRAGMODE
 70
     2
  9
$LTSCALE
 40
1.0
  9
$OSMODE
 70
    55
  9
$ATTMODE
 70
     1
  9
$TEXTSIZE
 40
2.5
  9
$TRACEWID
 40
1.0
  9
$TEXTSTYLE
  7
STANDARD
  9
$CLAYER
  8
AM_0
  9
$CELTYPE
  6
BYLAYER
  9
$CECOLOR
 62
   256
  9
$CELTSCALE
 40
1.0
  9
$DELOBJ
 70
     1
  9
$DISPSILH
 70
     0
  9
$DIMSCALE
 40
0.5
  9
$DIMASZ
 40
2.5
  9
$DIMEXO
 40
1.0
  9
$DIMDLI
 40
12.0
  9
$DIMRND
 40
0.0
  9
$DIMDLE
 40
0.0
  9
$DIMEXE
 40
1.0
  9
$DIMTP
 40
0.1
  9
$DIMTM
 40
0.1
  9
$DIMTXT
 40
3.2
  9
$DIMCEN
 40
0.0
  9
$DIMTSZ
 40
0.0
  9
$DIMTOL
 70
     0
  9
$DIMLIM
 70
     0
  9
$DIMTIH
 70
     0
  9
$DIMTOH
 70
     0
  9
$DIMSE1
 70
     0
  9
$DIMSE2
 70
     0
  9
$DIMTAD
 70
     3
  9
$DIMZIN
 70
     8
  9
$DIMBLK
  1
OPEN30
  9
$DIMASO
 70
     1
  9
$DIMSHO
 70
     1
  9
$DIMPOST
  1

  9
$DIMAPOST
  1
"
  9
$DIMALT
 70
     0
  9
$DIMALTD
 70
     2
  9
$DIMALTF
 40
0.0393701
  9
$DIMLFAC
 40
1.0
  9
$DIMTOFL
 70
     1
  9
$DIMTVP
 40
0.0
  9
$DIMTIX
 70
     0
  9
$DIMSOXD
 70
     0
  9
$DIMSAH
 70
     0
  9
$DIMBLK1
  1

  9
$DIMBLK2
  1

  9
$DIMSTYLE
  2
AM_JIS
  9
$DIMCLRD
 70
   256
  9
$DIMCLRE
 70
   256
  9
$DIMCLRT
 70
     2
  9
$DIMTFAC
 40
0.71
  9
$DIMGAP
 40
1.5
  9
$DIMJUST
 70
     0
  9
$DIMSD1
 70
     0
  9
$DIMSD2
 70
     0
  9
$DIMTOLJ
 70
     0
  9
$DIMTZIN
 70
     0
  9
$DIMALTZ
 70
     0
  9
$DIMALTTZ
 70
     0
  9
$DIMFIT
 70
     3
  9
$DIMUPT
 70
     0
  9
$DIMUNIT
 70
     2
  9
$DIMDEC
 70
     3
  9
$DIMTDEC
 70
     3
  9
$DIMALTU
 70
     2
  9
$DIMALTTD
 70
     2
  9
$DIMTXSTY
  7
ASAMI
  9
$DIMAUNIT
 70
     0
  9
$LUNITS
 70
     2
  9
$LUPREC
 70
     2
  9
$SKETCHINC
 40
1.0
  9
$FILLETRAD
 40
2.5
  9
$AUNITS
 70
     0
  9
$AUPREC
 70
     0
  9
$MENU
  1
.
  9
$ELEVATION
 40
0.0
  9
$PELEVATION
 40
0.0
  9
$THICKNESS
 40
0.0
  9
$LIMCHECK
 70
     0
  9
$BLIPMODE
 70
     0
  9
$CHAMFERA
 40
0.25
  9
$CHAMFERB
 40
0.25
  9
$CHAMFERC
 40
20.0
  9
$CHAMFERD
 40
0.0
  9
$SKPOLY
 70
     0
  9
$TDCREATE
 40
2452800.443498622
  9
$TDUPDATE
 40
2453151.695133263
  9
$TDINDWG
 40
0.0574415741
  9
$TDUSRTIMER
 40
0.0574415741
  9
$USRTIMER
 70
     1
  9
$ANGBASE
 50
0.0
  9
$ANGDIR
 70
     0
  9
$PDMODE
 70
     3
  9
$PDSIZE
 40
0.0
  9
$PLINEWID
 40
0.0
  9
$COORDS
 70
     1
  9
$SPLFRAME
 70
     0
  9
$SPLINETYPE
 70
     6
  9
$SPLINESEGS
 70
     8
  9
$ATTDIA
 70
     1
  9
$ATTREQ
 70
     1
  9
$HANDLING
 70
 12289
  9
$HANDSEED
  5
24C9
  9
$SURFTAB1
 70
     6
  9
$SURFTAB2
 70
     6
  9
$SURFTYPE
 70
     6
  9
$SURFU
 70
     6
  9
$SURFV
 70
     6
  9
$UCSNAME
  2

  9
$UCSORG
 10
0.0
 20
0.0
 30
0.0
  9
$UCSXDIR
 10
1.0
 20
0.000000000000002
 30
0.0
  9
$UCSYDIR
 10
-0.000000000000002
 20
1.0
 30
0.0
  9
$PUCSNAME
  2

  9
$PUCSORG
 10
0.0
 20
0.0
 30
0.0
  9
$PUCSXDIR
 10
1.0
 20
0.0
 30
0.0
  9
$PUCSYDIR
 10
0.0
 20
1.0
 30
0.0
  9
$USERI1
 70
     0
  9
$USERI2
 70
     0
  9
$USERI3
 70
     0
  9
$USERI4
 70
     0
  9
$USERI5
 70
     0
  9
$USERR1
 40
0.0
  9
$USERR2
 40
0.0
  9
$USERR3
 40
0.0
  9
$USERR4
 40
0.0
  9
$USERR5
 40
0.0
  9
$WORLDVIEW
 70
     1
  9
$SHADEDGE
 70
     3
  9
$SHADEDIF
 70
    70
  9
$TILEMODE
 70
     1
  9
$MAXACTVP
 70
    64
  9
$PINSBASE
 10
0.0
 20
0.0
 30
0.0
  9
$PLIMCHECK
 70
     0
  9
$PEXTMIN
 10
1.000000000000000E+20
 20
1.000000000000000E+20
 30
1.000000000000000E+20
  9
$PEXTMAX
 10
-1.000000000000000E+20
 20
-1.000000000000000E+20
 30
-1.000000000000000E+20
  9
$PLIMMIN
 10
0.0
 20
0.0
  9
$PLIMMAX
 10
841.0
 20
594.0
  9
$UNITMODE
 70
     0
  9
$VISRETAIN
 70
     1
  9
$PLINEGEN
 70
     0
  9
$PSLTSCALE
 70
     0
  9
$TREEDEPTH
 70
  3020
  9
$PICKSTYLE
 70
     0
  9
$CMLSTYLE
  2
STANDARD
  9
$CMLJUST
 70
     0
  9
$CMLSCALE
 40
20.0
  9
$PROXYGRAPHICS
 70
     1
  9
$MEASUREMENT
 70
     1
  0
ENDSEC
  0
SECTION
  2
CLASSES
  0
CLASS
  1
ACDBDICTIONARYWDFLT
  2
AcDbDictionaryWithDefault
  3
AutoCAD 2000
 90
        0
280
     0
281
     0
  0
CLASS
  1
ACDBPLACEHOLDER
  2
AcDbPlaceHolder
  3
AutoCAD 2000
 90
        0
280
     0
281
     0
  0
CLASS
  1
LAYOUT
  2
AcDbLayout
  3
AutoCAD 2000
 90
        0
280
     0
281
     0
  0
CLASS
  1
AMGSETTINGSOBJ
  2
AmgSettingsObj
  3
"AcadM|Product Description: AutoCAD Mechanical 2000|Company: Autodesk"
 90
        0
280
     0
281
     0
  0
CLASS
  1
ACME_DOCUMENT
  2
AcMeDbDoc
  3
AcMeServices
 90
        0
280
     0
281
     0
  0
CLASS
  1
ACMESCOPE
  2
AcMeScope
  3
AcMeServices
 90
        0
280
     0
281
     0
  0
CLASS
  1
ACMECOMMANDHISTORY
  2
AcMeCommandHistory
  3
AcMeServices
 90
        0
280
     0
281
     0
  0
CLASS
  1
DICTIONARYVAR
  2
AcDbDictionaryVar
  3
AutoCAD 2000
 90
        0
280
     0
281
     0
  0
CLASS
  1
ACIMSYSVARMAN
  2
AcImSysVarManager
  3
AcMeServices
 90
        0
280
     0
281
     0
  0
CLASS
  1
ACIMREALSYSVAR
  2
AcImRealSysVar
  3
AcMeServices
 90
        0
280
     0
281
     0
  0
CLASS
  1
ACIMINTSYSVAR
  2
AcImIntSysVar
  3
AcMeServices
 90
        0
280
     0
281
     0
  0
CLASS
  1
ACMEDRAWINGMAN
  2
AcMeDrawingMan
  3
AcMeServices
 90
        0
280
     0
281
     0
  0
CLASS
  1
ACMEVIEW
  2
AcMeView
  3
AcMeServices
 90
        0
280
     0
281
     0
  0
CLASS
  1
ACDBENTITYCACHE
  2
AcMeEntityCache
  3
AcMeServices
 90
        0
280
     0
281
     0
  0
CLASS
  1
GSMANAGER
  2
AcMeGSManager
  3
AcMeServices
 90
        0
280
     0
281
     0
  0
CLASS
  1
AmdtInternalReactor
  2
AmdtInternalReactor
  3
AcMeServices
 90
        0
280
     0
281
     0
  0
CLASS
  1
ACMESTATEMGR
  2
AcMeStateMgr
  3
AcMeServices
 90
        0
280
     0
281
     0
  0
CLASS
  1
ACME_DATABASE
  2
AcMeDbDatabase
  3
AcMeServices
 90
        0
280
     0
281
     0
  0
CLASS
  1
ACRFINSADJUSTERMGR
  2
AcRfInsAdjusterMgr
  3
AcMeServices
 90
        0
280
     0
281
     0
  0
CLASS
  1
ACMDATADICTIONARY
  2
AcmDataDictionary
  3
"AcmSymBB|Product Description: AutoCAD Mechanical 2000|Company: Autodesk"
 90
        0
280
     0
281
     0
  0
CLASS
  1
ACMDATAENTRYBLOCK
  2
AcmDataEntryBlock
  3
"AcmSymBB|Product Description: AutoCAD Mechanical 2000|Company: Autodesk"
 90
        0
280
     0
281
     0
  0
CLASS
  1
AMGOBJPROPCFG
  2
AmgObjPropCfg
  3
"AmgLay|Product Description: AutoCAD Mechanical 2000|Company: Autodesk"
 90
        1
280
     0
281
     0
  0
CLASS
  1
ACAMGFILTERDAT
  2
AcAmgFilterDat
  3
"AcadM|Product Description: AutoCAD Mechanical 2000|Company: Autodesk"
 90
        0
280
     0
281
     0
  0
CLASS
  1
LAYER_INDEX
  2
AcDbLayerIndex
  3
AutoCAD 2000
 90
        0
280
     0
281
     0
  0
CLASS
  1
IDBUFFER
  2
AcDbIdBuffer
  3
AutoCAD 2000
 90
        0
280
     0
281
     0
  0
CLASS
  1
ACIMSTRSYSVAR
  2
AcImStrSysVar
  3
AcMeServices
 90
        0
280
     0
281
     0
  0
CLASS
  1
ACMSTANDARDJIS
  2
AcmStandardJIS
  3
"AcmSymBB|Product Description: AutoCAD Mechanical 2000|Company: Autodesk"
 90
        0
280
     0
281
     0
  0
CLASS
  1
ACMSURFSTANDARDJIS
  2
AcmSurfTextStdJIS
  3
"AcmSymBB|Product Description: AutoCAD Mechanical 2000|Company: Autodesk"
 90
        0
280
     0
281
     0
  0
CLASS
  1
ACMFCFSTANDARDJIS
  2
AcmFCFStdJIS
  3
"AcmSymBB|Product Description: AutoCAD Mechanical 2000|Company: Autodesk"
 90
        0
280
     0
281
     0
  0
CLASS
  1
ACMWELDSTANDARDJIS
  2
AcmWeldingStdJIS
  3
"AcmSymBB|Product Description: AutoCAD Mechanical 2000|Company: Autodesk"
 90
        0
280
     0
281
     0
  0
CLASS
  1
ACMIDSTANDARDJIS
  2
AcmIdStdJIS
  3
"AcmSymBB|Product Description: AutoCAD Mechanical 2000|Company: Autodesk"
 90
        0
280
     0
281
     0
  0
CLASS
  1
ACMDATUMSTANDARDJIS
  2
AcmDatumStdJIS
  3
"AcmSymBB|Product Description: AutoCAD Mechanical 2000|Company: Autodesk"
 90
        0
280
     0
281
     0
  0
CLASS
  1
ACMBOMSTANDARDJIS
  2
AcmBOMStdJIS
  3
"AcmSymBB|Product Description: AutoCAD Mechanical 2000|Company: Autodesk"
 90
        0
280
     0
281
     0
  0
CLASS
  1
ACMSTANDARDANSI
  2
AcmStandardANSI
  3
"AcmSymBB|Product Description: AutoCAD Mechanical 2000|Company: Autodesk"
 90
        0
280
     0
281
     0
  0
CLASS
  1
ACMSURFSTANDARDANSI
  2
AcmSurfTextStdANSI
  3
"AcmSymBB|Product Description: AutoCAD Mechanical 2000|Company: Autodesk"
 90
        0
280
     0
281
     0
  0
CLASS
  1
ACMFCFSTANDARDANSI
  2
AcmFCFStdANSI
  3
"AcmSymBB|Product Description: AutoCAD Mechanical 2000|Company: Autodesk"
 90
        0
280
     0
281
     0
  0
CLASS
  1
ACMWELDSTANDARDANSI
  2
AcmWeldingStdANSI
  3
"AcmSymBB|Product Description: AutoCAD Mechanical 2000|Company: Autodesk"
 90
        0
280
     0
281
     0
  0
CLASS
  1
ACMIDSTANDARDANSI
  2
AcmIdStdANSI
  3
"AcmSymBB|Product Description: AutoCAD Mechanical 2000|Company: Autodesk"
 90
        0
280
     0
281
     0
  0
CLASS
  1
ACMDATUMSTANDARDANSI
  2
AcmDatumStdANSI
  3
"AcmSymBB|Product Description: AutoCAD Mechanical 2000|Company: Autodesk"
 90
        0
280
     0
281
     0
  0
CLASS
  1
ACMBOMSTANDARDANSI
  2
AcmBOMStdANSI
  3
"AcmSymBB|Product Description: AutoCAD Mechanical 2000|Company: Autodesk"
 90
        0
280
     0
281
     0
  0
CLASS
  1
ACMSTANDARDBSI
  2
AcmStandardBSI
  3
"AcmSymBB|Product Description: AutoCAD Mechanical 2000|Company: Autodesk"
 90
        0
280
     0
281
     0
  0
CLASS
  1
ACMSURFSTANDARDBSI
  2
AcmSurfTextStdBSI
  3
"AcmSymBB|Product Description: AutoCAD Mechanical 2000|Company: Autodesk"
 90
        0
280
     0
281
     0
  0
CLASS
  1
ACMFCFSTANDARDBSI
  2
AcmFCFStdBSI
  3
"AcmSymBB|Product Description: AutoCAD Mechanical 2000|Company: Autodesk"
 90
        0
280
     0
281
     0
  0
CLASS
  1
ACMWELDSTANDARDBSI
  2
AcmWeldingStdBSI
  3
"AcmSymBB|Product Description: AutoCAD Mechanical 2000|Company: Autodesk"
 90
        0
280
     0
281
     0
  0
CLASS
  1
ACMIDSTANDARDBSI
  2
AcmIdStdBSI
  3
"AcmSymBB|Product Description: AutoCAD Mechanical 2000|Company: Autodesk"
 90
        0
280
     0
281
     0
  0
CLASS
  1
ACMDATUMSTANDARDBSI
  2
AcmDatumStdBSI
  3
"AcmSymBB|Product Description: AutoCAD Mechanical 2000|Company: Autodesk"
 90
        0
280
     0
281
     0
  0
CLASS
  1
ACMBOMSTANDARDBSI
  2
AcmBOMStdBSI
  3
"AcmSymBB|Product Description: AutoCAD Mechanical 2000|Company: Autodesk"
 90
        0
280
     0
281
     0
  0
CLASS
  1
LONG_TRANSACTION
  2
AcDbLongTransaction
  3
AutoCAD 2000
 90
        0
280
     0
281
     0
  0
CLASS
  1
LWPOLYLINE
  2
AcDbPolyline
  3
AutoCAD 2000
 90
        0
280
     0
281
     1
  0
CLASS
  1
HATCH
  2
AcDbHatch
  3
AutoCAD 2000
 90
        0
280
     0
281
     1
  0
CLASS
  1
XRECORD
  2
AcDbXrecord
  3
AutoCAD 2000
 90
        0
280
     0
281
     0
  0
ENDSEC
  0
SECTION
  2
TABLES
  0
TABLE
  2
VPORT
  5
8
330
0
100
AcDbSymbolTable
 70
     3
  0
VPORT
  5
249E
330
8
100
AcDbSymbolTableRecord
100
AcDbViewportTableRecord
  2
*ACTIVE
 70
     0
 10
0.0
 20
0.0
 11
1.0
 21
1.0
 12
-51.58935884627213
 22
-6.919598005095224
 13
0.0
 23
0.0
 14
2.5
 24
2.5
 15
10.0
 25
10.0
 16
0.0
 26
0.0
 36
1.0
 17
0.0
 27
0.0
 37
0.0
 40
89.6161242704051
 41
1.56570841889117
 42
50.0
 43
0.0
 44
0.0
 50
0.0
 51
0.0
 71
     0
 72
   100
 73
     1
 74
     1
 75
     0
 76
     0
 77
     0
 78
     0
  0
ENDTAB
  0
TABLE
  2
LTYPE
  5
5
330
0
100
AcDbSymbolTable
 70
    10
  0
LTYPE
  5
14
330
5
100
AcDbSymbolTableRecord
100
AcDbLinetypeTableRecord
  2
BYBLOCK
 70
     0
  3

 72
    65
 73
     0
 40
0.0
  0
LTYPE
  5
15
330
5
100
AcDbSymbolTableRecord
100
AcDbLinetypeTableRecord
  2
BYLAYER
 70
     0
  3

 72
    65
 73
     0
 40
0.0
  0
LTYPE
  5
16
330
5
100
AcDbSymbolTableRecord
100
AcDbLinetypeTableRecord
  2
CONTINUOUS
 70
     0
  3
Solid line
 72
    65
 73
     0
 40
0.0
  0
LTYPE
  5
4B
330
5
100
AcDbSymbolTableRecord
100
AcDbLinetypeTableRecord
  2
AM_ISO02W050
 70
     0
  3
__ __ __ __ __ __ __ __ __ __ __ __ __ __ __
 72
    65
 73
     2
 40
7.5
 49
6.0
 74
     0
 49
-1.5
 74
     0
  0
LTYPE
  5
4C
330
5
100
AcDbSymbolTableRecord
100
AcDbLinetypeTableRecord
  2
AM_ISO08W050
 70
     0
  3
____ . ____ . ____ . ____ . ____ . ____ . ____
 72
    65
 73
     4
 40
18.0
 49
12.0
 74
     0
 49
-1.5
 74
     0
 49
3.0
 74
     0
 49
-1.5
 74
     0
  0
LTYPE
  5
4D
330
5
100
AcDbSymbolTableRecord
100
AcDbLinetypeTableRecord
  2
AM_ISO09W050
 70
     0
  3
_____ . . _____ . . _____ . . ____ .. ____
 72
    65
 73
     6
 40
22.5
 49
12.0
 74
     0
 49
-1.5
 74
     0
 49
3.0
 74
     0
 49
-1.5
 74
     0
 49
3.0
 74
     0
 49
-1.5
 74
     0
  0
LTYPE
  5
4E
330
5
100
AcDbSymbolTableRecord
100
AcDbLinetypeTableRecord
  2
AMCONSTR
 70
     0
  3
_______________________
 72
    65
 73
     2
 40
9999.0
 49
9999.0
 74
     0
 49
0.0
 74
     0
  0
LTYPE
  5
4F
330
5
100
AcDbSymbolTableRecord
100
AcDbLinetypeTableRecord
  2
AM_ISO02W050X2
 70
     0
  3
 _ _ _ _ _ _ _ _ _ _ _ _
 72
    65
 73
     2
 40
3.75
 49
3.0
 74
     0
 49
-0.75
 74
     0
  0
LTYPE
  5
50
330
5
100
AcDbSymbolTableRecord
100
AcDbLinetypeTableRecord
  2
AM_ISO08W050X2
 70
     0
  3
__ . __ . __ . __ . __ . __
 72
    65
 73
     4
 40
9.0
 49
6.0
 74
     0
 49
-0.75
 74
     0
 49
1.5
 74
     0
 49
-0.75
 74
     0
  0
LTYPE
  5
53
330
5
100
AcDbSymbolTableRecord
100
AcDbLinetypeTableRecord
  2
AMZIGZAG
 70
     0
  3
/\/-/\/-/\/-/\/-/\/-/\/
 72
    65
 73
     2
 40
11.00009999999999
 49
0.0001
 74
     4
 75
   135
340
52
 46
0.04
 50
0.0
 44
0.0
 45
0.0
 49
-11.0
 74
     0
  0
LTYPE
  5
166
330
5
100
AcDbSymbolTableRecord
100
AcDbLinetypeTableRecord
  2
ACJISTGL
 70
     0
  3
_ _ _ _ _
 72
    65
 73
     2
 40
3.0
 49
2.0
 74
     0
 49
-1.0
 74
     0
  0
LTYPE
  5
26A
330
5
100
AcDbSymbolTableRecord
100
AcDbLinetypeTableRecord
  2
ACJISTGB
 70
     0
  3
__ . . __ . .
 72
    65
 73
     6
 40
9.0
 49
4.0
 74
     0
 49
-1.0
 74
     0
 49
1.0
 74
     0
 49
-1.0
 74
     0
 49
1.0
 74
     0
 49
-1.0
 74
     0
  0
ENDTAB
  0
TABLE
  2
LAYER
  5
2
330
0
100
AcDbSymbolTable
 70
     8
  0
LAYER
  5
10
330
2
100
AcDbSymbolTableRecord
100
AcDbLayerTableRecord
  2
0
 70
     0
 62
     7
  6
CONTINUOUS
  0
LAYER
  5
3F9
330
2
100
AcDbSymbolTableRecord
100
AcDbLayerTableRecord
  2
AM_0
 70
     0
 62
     7
  6
CONTINUOUS
  0
LAYER
  5
C7C
330
2
100
AcDbSymbolTableRecord
100
AcDbLayerTableRecord
  2
AM_7
 70
     0
 62
     4
  6
AM_ISO08W050
  0
LAYER
  5
C97
330
2
100
AcDbSymbolTableRecord
100
AcDbLayerTableRecord
  2
AM_11
 70
     0
 62
     3
  6
AM_ISO09W050
  0
LAYER
  5
CC5
330
2
100
AcDbSymbolTableRecord
100
AcDbLayerTableRecord
  2
AM_5
 70
     0
 62
     3
  6
CONTINUOUS
  0
LAYER
  5
CC7
330
2
100
AcDbSymbolTableRecord
100
AcDbLayerTableRecord
  2
DEFPOINTS
 70
     0
 62
     7
  6
CONTINUOUS
  0
LAYER
  5
19BC
330
2
100
AcDbSymbolTableRecord
100
AcDbLayerTableRecord
  2
AM_6
 70
     0
 62
     2
  6
CONTINUOUS
  0
LAYER
  5
2317
330
2
100
AcDbSymbolTableRecord
100
AcDbLayerTableRecord
  2
AM_CL
 70
     0
 62
     1
  6
AMCONSTR
  0
ENDTAB
  0
TABLE
  2
STYLE
  5
3
330
0
100
AcDbSymbolTable
 70
     5
  0
STYLE
  5
11
330
3
100
AcDbSymbolTableRecord
100
AcDbTextStyleTableRecord
  2
STANDARD
 70
     0
 40
0.0
 41
1.0
 50
0.0
 71
     0
 42
2.5
  3
simplex.shx
  4
EXTFONT.SHX
  0
STYLE
  5
52
330
3
100
AcDbSymbolTableRecord
100
AcDbTextStyleTableRecord
  2

 70
     1
 40
0.0
 41
1.0
 50
0.0
 71
     0
 42
2.5
  3
ltypeshp.shx
  4

  0
STYLE
  5
6B
330
3
100
AcDbSymbolTableRecord
100
AcDbTextStyleTableRecord
  2
ASAMI
 70
     0
 40
0.0
 41
1.0
 50
0.0
 71
     0
 42
2.5
  3
simplex.shx
  4
EXTFONT.SHX
  0
STYLE
  5
262
330
3
100
AcDbSymbolTableRecord
100
AcDbTextStyleTableRecord
  2
ACJISTS
 70
     0
 40
1.0
 41
1.0
 50
0.0
 71
     0
 42
2.5
  3
simplex.shx
  4
bigfont.shx
  0
STYLE
  5
269
330
3
100
AcDbSymbolTableRecord
100
AcDbTextStyleTableRecord
  2
ACJISGDT
 70
     0
 40
0.0
 41
1.0
 50
0.0
 71
     0
 42
2.5
  3
amgdtans.shx
  4

  0
ENDTAB
  0
TABLE
  2
VIEW
  5
6
330
0
100
AcDbSymbolTable
 70
     0
  0
ENDTAB
  0
TABLE
  2
UCS
  5
7
330
0
100
AcDbSymbolTable
 70
     0
  0
ENDTAB
  0
TABLE
  2
APPID
  5
9
330
0
100
AcDbSymbolTable
 70
    16
  0
APPID
  5
12
330
9
100
AcDbSymbolTableRecord
100
AcDbRegAppTableRecord
  2
ACAD
 70
     0
  0
APPID
  5
30
330
9
100
AcDbSymbolTableRecord
100
AcDbRegAppTableRecord
  2
MCAD_NO_VIS
 70
     0
  0
APPID
  5
31
330
9
100
AcDbSymbolTableRecord
100
AcDbRegAppTableRecord
  2
ACAD_TEMP_GRAPHIC
 70
     0
  0
APPID
  5
2C2
330
9
100
AcDbSymbolTableRecord
100
AcDbRegAppTableRecord
  2
GENIUS_GENDTOL_13
 70
     0
  0
APPID
  5
339
330
9
100
AcDbSymbolTableRecord
100
AcDbRegAppTableRecord
  2
GENIUS_GENODEF_13
 70
     0
  0
APPID
  5
33A
330
9
100
AcDbSymbolTableRecord
100
AcDbRegAppTableRecord
  2
GENIUS_GENOBJ-N-RSBK_13
 70
     0
  0
APPID
  5
33B
330
9
100
AcDbSymbolTableRecord
100
AcDbRegAppTableRecord
  2
GENIUS_GENOBJ-N-LIB_13
 70
     0
  0
APPID
  5
33C
330
9
100
AcDbSymbolTableRecord
100
AcDbRegAppTableRecord
  2
GENIUS_GENSCALE_13
 70
     0
  0
APPID
  5
378
330
9
100
AcDbSymbolTableRecord
100
AcDbRegAppTableRecord
  2
GENIUS_GENDIMSH_14
 70
     0
  0
APPID
  5
C82
330
9
100
AcDbSymbolTableRecord
100
AcDbRegAppTableRecord
  2
GENIUS_GENOBJ-N-CRS_13
 70
     0
  0
APPID
  5
C83
330
9
100
AcDbSymbolTableRecord
100
AcDbRegAppTableRecord
  2
GENIUS_GENOENT_13
 70
     0
  0
APPID
  5
C84
330
9
100
AcDbSymbolTableRecord
100
AcDbRegAppTableRecord
  2
GENIUS_GENOREF_13
 70
     0
  0
APPID
  5
C85
330
9
100
AcDbSymbolTableRecord
100
AcDbRegAppTableRecord
  2
GENIUS_GENOLIS_13
 70
     0
  0
APPID
  5
CA0
330
9
100
AcDbSymbolTableRecord
100
AcDbRegAppTableRecord
  2
GENIUS_GENOBJ-N-CEN_13
 70
     0
  0
APPID
  5
1CFA
330
9
100
AcDbSymbolTableRecord
100
AcDbRegAppTableRecord
  2
GENIUS_GENFIL_13
 70
     0
  0
APPID
  5
1CFB
330
9
100
AcDbSymbolTableRecord
100
AcDbRegAppTableRecord
  2
GENIUS_GENOBJ-N-CHA_13
 70
     0
  0
ENDTAB
  0
TABLE
  2
DIMSTYLE
  5
A
330
0
100
AcDbSymbolTable
 70
     9
  0
DIMSTYLE
105
58
330
A
100
AcDbSymbolTableRecord
100
AcDbDimStyleTableRecord
  2
AM_JIS
 70
     0
  3

  4
"
  5
OPEN30
  6

  7

 40
0.5
 41
2.5
 42
1.0
 43
12.0
 44
1.0
 45
0.0
 46
0.0
 47
0.1
 48
0.1
140
3.2
141
0.0
142
0.0
143
0.0393701
144
1.0
145
0.0
146
0.71
147
1.5
 71
     0
 72
     0
 73
     0
 74
     0
 75
     0
 76
     0
 77
     3
 78
     8
170
     0
171
     2
172
     1
173
     0
174
     0
175
     0
176
   256
177
   256
178
     2
270
     2
271
     3
272
     3
273
     2
274
     2
340
6B
275
     0
280
     0
281
     0
282
     0
283
     0
284
     0
285
     0
286
     0
287
     3
288
     0
  0
DIMSTYLE
105
5F
330
A
100
AcDbSymbolTableRecord
100
AcDbDimStyleTableRecord
  2
AM_JIS$3
 70
     0
  3

  4
"
  5
OPEN30
  6

  7

 40
0.5
 41
2.5
 42
1.0
 43
10.0
 44
1.0
 45
0.0
 46
0.0
 47
0.1
 48
0.1
140
3.2
141
0.0
142
0.0
143
0.0393701
144
1.0
145
0.0
146
0.71
147
1.5
 71
     0
 72
     0
 73
     0
 74
     1
 75
     0
 76
     0
 77
     3
 78
     8
170
     0
171
     2
172
     0
173
     0
174
     0
175
     0
176
   256
177
   256
178
     2
270
     2
271
     2
272
     3
273
     2
274
     2
340
6B
275
     0
280
     0
281
     0
282
     0
283
     0
284
     0
285
     0
286
     0
287
     0
288
     1
  0
DIMSTYLE
105
60
330
A
100
AcDbSymbolTableRecord
100
AcDbDimStyleTableRecord
  2
AM_JIS$4
 70
     0
  3

  4
"
  5
OPEN30
  6

  7

 40
0.5
 41
2.5
 42
1.0
 43
10.0
 44
1.0
 45
0.0
 46
0.0
 47
0.1
 48
0.1
140
3.2
141
0.0
142
0.0
143
0.0393701
144
1.0
145
0.0
146
0.71
147
1.5
 71
     0
 72
     0
 73
     0
 74
     1
 75
     0
 76
     0
 77
     3
 78
     8
170
     0
171
     2
172
     0
173
     0
174
     0
175
     0
176
   256
177
   256
178
     2
270
     2
271
     2
272
     3
273
     2
274
     2
340
6B
275
     0
280
     0
281
     0
282
     0
283
     0
284
     0
285
     0
286
     0
287
     0
288
     1
  0
DIMSTYLE
105
61
330
A
100
AcDbSymbolTableRecord
100
AcDbDimStyleTableRecord
  2
AM_JIS$6
 70
     0
  3

  4
"
  5
OPEN30
  6

  7

 40
0.5
 41
2.5
 42
1.0
 43
10.0
 44
1.0
 45
0.0
 46
0.0
 47
0.1
 48
0.1
140
3.2
141
0.0
142
0.0
143
0.0393701
144
1.0
145
0.0
146
0.71
147
1.5
 71
     0
 72
     0
 73
     0
 74
     0
 75
     0
 76
     0
 77
     0
 78
     8
170
     0
171
     2
172
     1
173
     0
174
     0
175
     0
176
   256
177
   256
178
     2
270
     2
271
     2
272
     2
273
     2
274
     2
340
6B
275
     0
280
     0
281
     0
282
     0
283
     0
284
     0
285
     0
286
     0
287
     3
288
     0
  0
DIMSTYLE
105
62
330
A
100
AcDbSymbolTableRecord
100
AcDbDimStyleTableRecord
  2
AM_JIS$7
 70
     0
  3

  4
"
  5
OPEN30
  6

  7

 40
0.5
 41
2.5
 42
1.0
 43
10.0
 44
1.0
 45
0.0
 46
0.0
 47
0.1
 48
0.1
140
3.2
141
0.0
142
0.0
143
0.0393701
144
1.0
145
0.0
146
0.71
147
1.5
 71
     0
 72
     0
 73
     0
 74
     0
 75
     0
 76
     0
 77
     3
 78
     8
170
     0
171
     2
172
     1
173
     0
174
     0
175
     0
176
   256
177
   256
178
     2
270
     2
271
     2
272
     3
273
     2
274
     2
340
6B
275
     0
280
     0
281
     0
282
     0
283
     0
284
     0
285
     0
286
     0
287
     3
288
     0
  0
DIMSTYLE
105
63
330
A
100
AcDbSymbolTableRecord
100
AcDbDimStyleTableRecord
  2
AM_JIS$SF
 70
     0
  3

  4
"
  5
OPEN30
  6

  7

 40
0.5
 41
2.5
 42
1.0
 43
10.0
 44
1.0
 45
0.0
 46
0.0
 47
0.1
 48
0.1
140
3.2
141
0.0
142
0.0
143
0.0393701
144
1.0
145
0.0
146
0.71
147
1.5
 71
     0
 72
     0
 73
     0
 74
     0
 75
     1
 76
     1
 77
     3
 78
     8
170
     0
171
     2
172
     1
173
     0
174
     0
175
     0
176
   256
177
   256
178
     2
270
     2
271
     2
272
     2
273
     2
274
     2
340
6B
275
     0
280
     0
281
     0
282
     0
283
     0
284
     0
285
     0
286
     0
287
     3
288
     0
  0
DIMSTYLE
105
68
330
A
100
AcDbSymbolTableRecord
100
AcDbDimStyleTableRecord
  2
AM_JIS$SH
 70
     0
  3

  4
"
  5

  6
GENAXEH
  7
OPEN30
 40
0.5
 41
2.5
 42
1.0
 43
10.0
 44
1.0
 45
0.0
 46
0.0
 47
0.1
 48
0.1
140
3.2
141
0.0
142
0.0
143
0.0393701
144
2.0
145
0.0
146
0.71
147
1.5
 71
     0
 72
     0
 73
     0
 74
     0
 75
     1
 76
     1
 77
     3
 78
     8
170
     0
171
     2
172
     1
173
     1
174
     0
175
     0
176
   256
177
   256
178
     2
270
     2
271
     2
272
     2
273
     2
274
     2
340
6B
275
     0
280
     0
281
     0
282
     0
283
     0
284
     0
285
     0
286
     0
287
     3
288
     0
  0
DIMSTYLE
105
B34
102
{ACAD_REACTORS
330
237B
102
}
330
A
100
AcDbSymbolTableRecord
100
AcDbDimStyleTableRecord
  2
AM_JIS$2
 70
     0
  3

  4
"
  5
OPEN30
  6

  7

 40
0.5
 41
2.5
 42
1.0
 43
12.0
 44
1.0
 45
0.0
 46
0.0
 47
0.1
 48
0.1
140
3.2
141
0.0
142
0.0
143
0.0393701
144
1.0
145
0.0
146
0.71
147
1.5
 71
     0
 72
     0
 73
     0
 74
     0
 75
     0
 76
     0
 77
     3
 78
     8
170
     0
171
     2
172
     1
173
     0
174
     0
175
     0
176
   256
177
   256
178
     2
270
     2
271
     3
272
     3
273
     2
274
     2
340
6B
275
     0
280
     0
281
     0
282
     0
283
     0
284
     0
285
     0
286
     0
287
     3
288
     0
  0
DIMSTYLE
105
BA5
102
{ACAD_REACTORS
330
CC6
330
DF5
330
1F93
330
21D4
102
}
330
A
100
AcDbSymbolTableRecord
100
AcDbDimStyleTableRecord
  2
AM_JIS$0
 70
     0
  3

  4
"
  5
OPEN30
  6

  7

 40
0.5
 41
2.5
 42
0.0
 43
10.0
 44
1.0
 45
0.0
 46
0.0
 47
0.1
 48
0.1000000001
140
3.799999999999999
141
0.0
142
0.0
143
0.0393701
144
1.0
145
0.0
146
0.71
147
1.5
 71
     0
 72
     0
 73
     0
 74
     0
 75
     0
 76
     0
 77
     3
 78
     1
170
     0
171
     2
172
     1
173
     0
174
     0
175
     0
176
     3
177
     3
178
     2
270
     2
271
     2
272
     2
273
     2
274
     2
340
11
275
     1
280
     0
281
     0
282
     0
283
     0
284
     8
285
     0
286
     0
287
     0
288
     0
  0
ENDTAB
  0
TABLE
  2
BLOCK_RECORD
  5
1
330
0
100
AcDbSymbolTable
 70
    11
  0
BLOCK_RECORD
  5
1F
102
{ACAD_XDICTIONARY
360
74
102
}
330
1
100
AcDbSymbolTableRecord
100
AcDbBlockTableRecord
  2
*MODEL_SPACE
  0
BLOCK_RECORD
  5
101
102
{ACAD_XDICTIONARY
360
24C7
102
}
330
1
100
AcDbSymbolTableRecord
100
AcDbBlockTableRecord
  2
*PAPER_SPACE
  0
BLOCK_RECORD
  5
59
330
1
100
AcDbSymbolTableRecord
100
AcDbBlockTableRecord
  2
_OPEN30
  0
BLOCK_RECORD
  5
64
330
1
100
AcDbSymbolTableRecord
100
AcDbBlockTableRecord
  2
GENAXEH
  0
BLOCK_RECORD
  5
CC8
330
1
100
AcDbSymbolTableRecord
100
AcDbBlockTableRecord
  2
*D5
  0
BLOCK_RECORD
  5
DF6
330
1
100
AcDbSymbolTableRecord
100
AcDbBlockTableRecord
  2
*D6
  0
BLOCK_RECORD
  5
1F94
330
1
100
AcDbSymbolTableRecord
100
AcDbBlockTableRecord
  2
*D8
  0
BLOCK_RECORD
  5
21D5
330
1
100
AcDbSymbolTableRecord
100
AcDbBlockTableRecord
  2
*D9
  0
BLOCK_RECORD
  5
237C
330
1
100
AcDbSymbolTableRecord
100
AcDbBlockTableRecord
  2
*D10
  0
ENDTAB
  0
ENDSEC
  0
SECTION
  2
BLOCKS
  0
BLOCK
  5
20
330
1F
100
AcDbEntity
  8
0
100
AcDbBlockBegin
  2
*MODEL_SPACE
 70
     0
 10
0.0
 20
0.0
 30
0.0
  3
*MODEL_SPACE
  1

  0
ENDBLK
  5
21
330
1F
100
AcDbEntity
  8
0
100
AcDbBlockEnd
  0
BLOCK
  5
103
330
101
100
AcDbEntity
 67
     1
  8
0
100
AcDbBlockBegin
  2
*PAPER_SPACE
 70
     0
 10
0.0
 20
0.0
 30
0.0
  3
*PAPER_SPACE
  1

  0
ENDBLK
  5
104
330
101
100
AcDbEntity
 67
     1
  8
0
100
AcDbBlockEnd
  0
BLOCK
  5
5D
330
59
100
AcDbEntity
  8
0
100
AcDbBlockBegin
  2
_OPEN30
 70
     0
 10
0.0
 20
0.0
 30
0.0
  3
_OPEN30
  1

  0
LINE
  5
5A
330
59
100
AcDbEntity
  8
0
 62
     0
100
AcDbLine
 10
-1.0
 20
0.26794919
 30
0.0
 11
0.0
 21
0.0
 31
0.0
  0
LINE
  5
5B
330
59
100
AcDbEntity
  8
0
 62
     0
100
AcDbLine
 10
0.0
 20
0.0
 30
0.0
 11
-1.0
 21
-0.26794919
 31
0.0
  0
LINE
  5
5C
330
59
100
AcDbEntity
  8
0
 62
     0
100
AcDbLine
 10
0.0
 20
0.0
 30
0.0
 11
-1.0
 21
0.0
 31
0.0
  0
ENDBLK
  5
5E
330
59
100
AcDbEntity
  8
0
100
AcDbBlockEnd
  0
BLOCK
  5
66
330
64
100
AcDbEntity
  8
0
100
AcDbBlockBegin
  2
GENAXEH
 70
     0
 10
0.0
 20
0.0
 30
0.0
  3
GENAXEH
  1

  0
LINE
  5
65
330
64
100
AcDbEntity
  8
0
100
AcDbLine
 10
-1.0
 20
0.0
 30
0.0
 11
1.0
 21
0.0
 31
0.0
  0
ENDBLK
  5
67
330
64
100
AcDbEntity
  8
0
100
AcDbBlockEnd
  0
BLOCK
  5
CD2
330
CC8
100
AcDbEntity
  8
0
100
AcDbBlockBegin
  2
*D5
 70
     1
 10
0.0
 20
0.0
 30
0.0
  3
*D5
  1

  0
LINE
  5
245D
330
CC8
100
AcDbEntity
  8
AM_5
 62
     3
100
AcDbLine
 10
-109.9999999999998
 20
-3.293795733920598
 30
0.0
 11
-109.9999999999998
 21
-16.00001206798961
 31
0.0
  0
LINE
  5
245E
330
CC8
100
AcDbEntity
  8
AM_5
 62
     3
100
AcDbLine
 10
-0.9999821980834708
 20
-3.500012067989612
 30
0.0
 11
-0.9999821980834717
 21
-16.00001206798961
 31
0.0
  0
LINE
  5
245F
330
CC8
100
AcDbEntity
  8
AM_5
 62
     3
100
AcDbLine
 10
-108.7499999999998
 20
-15.50001206798961
 30
0.0
 11
-2.249982198083471
 21
-15.50001206798961
 31
0.0
  0
INSERT
  5
2460
330
CC8
100
AcDbEntity
  8
AM_5
 62
     3
100
AcDbBlockReference
  2
_OPEN30
 10
-109.9999999999998
 20
-15.50001206798961
 30
0.0
 41
1.25
 42
1.25
 43
1.25
 50
180.0
  0
INSERT
  5
2461
330
CC8
100
AcDbEntity
  8
AM_5
 62
     3
100
AcDbBlockReference
  2
_OPEN30
 10
-0.9999821980834717
 20
-15.50001206798961
 30
0.0
 41
1.25
 42
1.25
 43
1.25
  0
MTEXT
  5
2462
330
CC8
100
AcDbEntity
  8
AM_5
 62
     2
100
AcDbMText
 10
-55.49999109904167
 20
-13.80001206798961
 30
0.0
 40
1.9
 41
0.0
 71
     5
 72
     1
  1
109
1001
ACAD
1000
MTEXTBEGIN
1070
    73
1070
     1
1070
    44
1040
1.0
1070
    74
1070
     0
1000
MTEXTEND
  0
POINT
  5
2463
330
CC8
100
AcDbEntity
  8
DEFPOINTS
 62
     0
100
AcDbPoint
 10
-109.9999999999998
 20
-3.293795733920598
 30
0.0
  0
POINT
  5
2464
330
CC8
100
AcDbEntity
  8
DEFPOINTS
 62
     0
100
AcDbPoint
 10
-0.9999821980834708
 20
-3.500012067989612
 30
0.0
  0
POINT
  5
2465
330
CC8
100
AcDbEntity
  8
DEFPOINTS
 62
     0
100
AcDbPoint
 10
-0.9999821980834717
 20
-15.50001206798961
 30
0.0
  0
ENDBLK
  5
CD3
330
CC8
100
AcDbEntity
  8
0
100
AcDbBlockEnd
  0
BLOCK
  5
E00
330
DF6
100
AcDbEntity
  8
0
100
AcDbBlockBegin
  2
*D6
 70
     1
 10
0.0
 20
0.0
 30
0.0
  3
*D6
  1

  0
LINE
  5
2454
330
DF6
100
AcDbEntity
  8
AM_5
 62
     3
100
AcDbLine
 10
-56.99997329712321
 20
-3.499999999999894
 30
0.0
 11
-56.99997329712321
 21
-11.00001206798957
 31
0.0
  0
LINE
  5
2455
330
DF6
100
AcDbEntity
  8
AM_5
 62
     3
100
AcDbLine
 10
-0.9999821980834708
 20
-3.500012067989612
 30
0.0
 11
-0.9999821980834713
 21
-11.00001206798957
 31
0.0
  0
LINE
  5
2456
330
DF6
100
AcDbEntity
  8
AM_5
 62
     3
100
AcDbLine
 10
-55.74997329712321
 20
-10.50001206798957
 30
0.0
 11
-2.249982198083471
 21
-10.50001206798957
 31
0.0
  0
INSERT
  5
2457
330
DF6
100
AcDbEntity
  8
AM_5
 62
     3
100
AcDbBlockReference
  2
_OPEN30
 10
-56.99997329712321
 20
-10.50001206798957
 30
0.0
 41
1.25
 42
1.25
 43
1.25
 50
180.0
  0
INSERT
  5
2458
330
DF6
100
AcDbEntity
  8
AM_5
 62
     3
100
AcDbBlockReference
  2
_OPEN30
 10
-0.9999821980834713
 20
-10.50001206798957
 30
0.0
 41
1.25
 42
1.25
 43
1.25
  0
MTEXT
  5
2459
330
DF6
100
AcDbEntity
  8
AM_5
 62
     2
100
AcDbMText
 10
-28.99997774760334
 20
-8.800012067989575
 30
0.0
 40
1.9
 41
0.0
 71
     5
 72
     1
  1
56
1001
ACAD
1000
MTEXTBEGIN
1070
    73
1070
     1
1070
    44
1040
1.0
1070
    74
1070
     0
1000
MTEXTEND
  0
POINT
  5
245A
330
DF6
100
AcDbEntity
  8
DEFPOINTS
 62
     0
100
AcDbPoint
 10
-56.99997329712321
 20
-3.499999999999894
 30
0.0
  0
POINT
  5
245B
330
DF6
100
AcDbEntity
  8
DEFPOINTS
 62
     0
100
AcDbPoint
 10
-0.9999821980834708
 20
-3.500012067989612
 30
0.0
  0
POINT
  5
245C
330
DF6
100
AcDbEntity
  8
DEFPOINTS
 62
     0
100
AcDbPoint
 10
-0.9999821980834713
 20
-10.50001206798957
 30
0.0
  0
ENDBLK
  5
E01
330
DF6
100
AcDbEntity
  8
0
100
AcDbBlockEnd
  0
BLOCK
  5
1FA0
330
1F94
100
AcDbEntity
  8
0
100
AcDbBlockBegin
  2
*D8
 70
     1
 10
0.0
 20
0.0
 30
0.0
  3
*D8
  1

  0
LINE
  5
247A
330
1F94
100
AcDbEntity
  8
AM_5
 62
     3
100
AcDbLine
 10
-109.7499999999998
 20
-3.500000000000287
 30
0.0
 11
-119.2500009999998
 21
-3.500000000000305
 31
0.0
  0
LINE
  5
247B
330
1F94
100
AcDbEntity
  8
AM_5
 62
     3
100
AcDbLine
 10
-109.7499999999998
 20
3.499999999999712
 30
0.0
 11
-119.2500009999998
 21
3.499999999999694
 31
0.0
  0
LINE
  5
247C
330
1F94
100
AcDbEntity
  8
AM_5
 62
     3
100
AcDbLine
 10
-118.7500009999998
 20
-2.250000000000304
 30
0.0
 11
-118.7500009999998
 21
2.249999999999695
 31
0.0
  0
INSERT
  5
247D
330
1F94
100
AcDbEntity
  8
AM_5
 62
     3
100
AcDbBlockReference
  2
_OPEN30
 10
-118.7500009999998
 20
-3.500000000000304
 30
0.0
 41
1.25
 42
1.25
 43
1.25
 50
270.0000000000001
  0
INSERT
  5
247E
330
1F94
100
AcDbEntity
  8
AM_5
 62
     3
100
AcDbBlockReference
  2
_OPEN30
 10
-118.7500009999998
 20
3.499999999999695
 30
0.0
 41
1.25
 42
1.25
 43
1.25
 50
90.0000000000001
  0
MTEXT
  5
247F
330
1F94
100
AcDbEntity
  8
AM_5
 62
     2
100
AcDbMText
 10
-120.4500009999998
 20
-0.0000000000002848
 30
0.0
 40
1.9
 41
0.0
 71
     5
 72
     1
  1
%%c7
 11
-0.000000000000002
 21
1.0
 31
0.0
1001
ACAD
1000
MTEXTBEGIN
1070
    73
1070
     1
1070
    44
1040
1.0
1070
    74
1070
     0
1000
MTEXTEND
  0
POINT
  5
2480
330
1F94
100
AcDbEntity
  8
DEFPOINTS
 62
     0
100
AcDbPoint
 10
-109.7499999999998
 20
-3.500000000000043
 30
0.0
  0
POINT
  5
2481
330
1F94
100
AcDbEntity
  8
DEFPOINTS
 62
     0
100
AcDbPoint
 10
-109.7499999999998
 20
3.499999999999956
 30
0.0
  0
POINT
  5
2482
330
1F94
100
AcDbEntity
  8
DEFPOINTS
 62
     0
100
AcDbPoint
 10
-118.7500009999998
 20
3.499999999999958
 30
0.0
  0
ENDBLK
  5
1FA1
330
1F94
100
AcDbEntity
  8
0
100
AcDbBlockEnd
  0
BLOCK
  5
21E1
330
21D5
100
AcDbEntity
  8
0
100
AcDbBlockBegin
  2
*D9
 70
     1
 10
0.0
 20
0.0
 30
0.0
  3
*D9
  1

  0
LINE
  5
2471
330
21D5
100
AcDbEntity
  8
AM_5
 62
     3
100
AcDbLine
 10
-0.9999821980834841
 20
-3.200011877254757
 30
0.0
 11
9.586422120790654
 21
-3.200011877254759
 31
0.0
  0
LINE
  5
2472
330
21D5
100
AcDbEntity
  8
AM_5
 62
     3
100
AcDbLine
 10
-0.99998219808346
 20
3.199988122745243
 30
0.0
 11
9.586422120790654
 21
3.19998812274524
 31
0.0
  0
LINE
  5
2473
330
21D5
100
AcDbEntity
  8
AM_5
 62
     3
100
AcDbLine
 10
9.086422120790654
 20
-1.950011877254759
 30
0.0
 11
9.086422120790654
 21
1.949988122745241
 31
0.0
  0
INSERT
  5
2474
330
21D5
100
AcDbEntity
  8
AM_5
 62
     3
100
AcDbBlockReference
  2
_OPEN30
 10
9.086422120790654
 20
-3.200011877254759
 30
0.0
 41
1.25
 42
1.25
 43
1.25
 50
270.0
  0
INSERT
  5
2475
330
21D5
100
AcDbEntity
  8
AM_5
 62
     3
100
AcDbBlockReference
  2
_OPEN30
 10
9.086422120790654
 20
3.19998812274524
 30
0.0
 41
1.25
 42
1.25
 43
1.25
 50
90.0
  0
MTEXT
  5
2476
330
21D5
100
AcDbEntity
  8
AM_5
 62
     2
100
AcDbMText
 10
7.386422120790654
 20
-0.0000118772547576
 30
0.0
 40
1.9
 41
0.0
 71
     5
 72
     1
  1
%%c6.4
 11
0.0000000000000001
 21
1.0
 31
0.0
1001
ACAD
1000
MTEXTBEGIN
1070
    73
1070
     1
1070
    44
1040
1.0
1070
    74
1070
     0
1000
MTEXTEND
  0
POINT
  5
2477
330
21D5
100
AcDbEntity
  8
DEFPOINTS
 62
     0
100
AcDbPoint
 10
-0.9999821980834841
 20
-3.200011877254757
 30
0.0
  0
POINT
  5
2478
330
21D5
100
AcDbEntity
  8
DEFPOINTS
 62
     0
100
AcDbPoint
 10
-0.99998219808346
 20
3.199988122745243
 30
0.0
  0
POINT
  5
2479
330
21D5
100
AcDbEntity
  8
DEFPOINTS
 62
     0
100
AcDbPoint
 10
9.086422120790654
 20
3.19998812274524
 30
0.0
  0
ENDBLK
  5
21E2
330
21D5
100
AcDbEntity
  8
0
100
AcDbBlockEnd
  0
BLOCK
  5
238C
330
237C
100
AcDbEntity
  8
0
100
AcDbBlockBegin
  2
*D10
 70
     1
 10
0.0
 20
0.0
 30
0.0
  3
*D10
  1

  0
LINE
  5
2466
330
237C
100
AcDbEntity
  8
AM_5
100
AcDbLine
 10
0.1710100716629029
 20
-0.4698463103927474
 30
0.0
 11
4.698878729511347
 21
-12.9100632060883
 31
0.0
  0
LINE
  5
2467
330
237C
100
AcDbEntity
  8
AM_5
100
AcDbLine
 10
0.1710100716628972
 20
0.4698463103931689
 30
0.0
 11
4.698878729511192
 21
12.91006320608877
 31
0.0
  0
ARC
  5
2468
330
237C
100
AcDbEntity
  8
AM_5
100
AcDbCircle
 10
0.0000000000000764
 20
0.0000000000002097
 30
0.0
 40
13.23860230517842
100
AcDbArc
 50
295.4119274893859
 51
64.58807251061481
  0
INSERT
  5
2469
330
237C
100
AcDbEntity
  8
AM_5
100
AcDbBlockReference
  2
_OPEN30
 10
4.527868657848521
 20
-12.44021689569534
 30
0.0
 41
1.25
 42
1.25
 43
1.25
 50
202.7059637446924
  0
INSERT
  5
246A
330
237C
100
AcDbEntity
  8
AM_5
100
AcDbBlockReference
  2
_OPEN30
 10
4.527868657848371
 20
12.44021689569582
 30
0.0
 41
1.25
 42
1.25
 43
1.25
 50
157.2940362553081
  0
MTEXT
  5
246B
330
237C
100
AcDbEntity
  8
AM_5
 62
     2
100
AcDbMText
 10
11.68860230517849
 20
0.0000000000002891
 30
0.0
 40
1.6
 41
0.0
 71
     5
 72
     1
  1
140°
  7
ASAMI
 11
-0.000000000000002
 21
1.0
 31
0.0
1001
ACAD
1000
MTEXTBEGIN
1070
    73
1070
     1
1070
    44
1040
1.0
1070
    74
1070
     0
1000
MTEXTEND
  0
POINT
  5
246C
330
237C
100
AcDbEntity
  8
DEFPOINTS
 62
     0
100
AcDbPoint
 10
12.1558978691972
 20
-5.243542503720348
 30
0.0
  0
POINT
  5
246D
330
237C
100
AcDbEntity
  8
DEFPOINTS
 62
     0
100
AcDbPoint
 10
0.0000000000000764
 20
0.0000000000002097
 30
0.0
  0
POINT
  5
246E
330
237C
100
AcDbEntity
  8
DEFPOINTS
 62
     0
100
AcDbPoint
 10
-0.3387330147890797
 20
0.9306613093572588
 30
0.0
  0
POINT
  5
246F
330
237C
100
AcDbEntity
  8
DEFPOINTS
 62
     0
100
AcDbPoint
 10
0.0000000000000764
 20
0.0000000000002097
 30
0.0
  0
POINT
  5
2470
330
237C
100
AcDbEntity
  8
DEFPOINTS
 62
     0
100
AcDbPoint
 10
-0.3387330147890726
 20
-0.9306613093568428
 30
0.0
  0
ENDBLK
  5
238D
330
237C
100
AcDbEntity
  8
0
100
AcDbBlockEnd
  0
ENDSEC
  0
SECTION
  2
ENTITIES
  0
DIMENSION
  5
CC6
330
1F
100
AcDbEntity
  8
AM_5
100
AcDbDimension
  2
*D5
 10
-0.9999821980834717
 20
-15.50001206798961
 30
0.0
 11
-55.49999109904167
 21
-13.80001206798961
 31
0.0
 70
    32
  1
<>
  3
AM_JIS$0
100
AcDbAlignedDimension
 13
-109.9999999999998
 23
-3.293795733920598
 33
0.0
 14
-0.9999821980834708
 24
-3.500012067989612
 34
0.0
 50
0.0000000000001132
100
AcDbRotatedDimension
1001
GENIUS_GENDTOL_13
1000

1000
h7
1000

1040
0.0
1001
ACAD
1000
DSTYLE
1002
{
1070
   271
1070
     0
1002
}
  0
DIMENSION
  5
DF5
330
1F
100
AcDbEntity
  8
AM_5
100
AcDbDimension
  2
*D6
 10
-0.9999821980834713
 20
-10.50001206798957
 30
0.0
 11
-28.99997774760334
 21
-8.800012067989575
 31
0.0
 70
    32
  1
<>
  3
AM_JIS$0
100
AcDbAlignedDimension
 13
-56.99997329712321
 23
-3.499999999999894
 33
0.0
 14
-0.9999821980834708
 24
-3.500012067989612
 34
0.0
 50
0.0000000000001527
100
AcDbRotatedDimension
1001
GENIUS_GENDTOL_13
1000

1000
h7
1000

1040
0.0
1001
ACAD
1000
DSTYLE
1002
{
1070
   271
1070
     0
1002
}
  0
ARC
  5
144A
330
1F
100
AcDbEntity
  8
AM_11
 48
0.5
100
AcDbCircle
 10
-56.11257425944006
 20
-15.45937617226442
 30
0.0
 40
17.09271208445208
100
AcDbArc
 50
64.74833051131179
 51
115.2516644797366
  0
ARC
  5
144B
330
1F
100
AcDbEntity
  8
AM_11
 48
0.5
100
AcDbCircle
 10
-56.11257425944003
 20
15.45938667054957
 30
0.0
 40
17.09271208445208
100
AcDbArc
 50
244.7482808787518
 51
295.2516148471758
  0
ARC
  5
144E
330
1F
100
AcDbEntity
  8
AM_11
 48
0.5
100
AcDbCircle
 10
-41.52924092610672
 20
-15.45937617226442
 30
0.0
 40
17.09271208445208
100
AcDbArc
 50
64.74833051131179
 51
115.2516644797366
  0
ARC
  5
144F
330
1F
100
AcDbEntity
  8
AM_11
 48
0.5
100
AcDbCircle
 10
-41.52924092610672
 20
15.45938667054957
 30
0.0
 40
17.09271208445208
100
AcDbArc
 50
244.7482808787518
 51
295.2516148471758
  0
ARC
  5
1450
330
1F
100
AcDbEntity
  8
AM_11
 48
0.5
100
AcDbCircle
 10
-26.94590759277748
 20
15.45938667054957
 30
0.0
 40
17.09271208445208
100
AcDbArc
 50
244.7482808787518
 51
295.2516148471758
  0
ARC
  5
1451
330
1F
100
AcDbEntity
  8
AM_11
 48
0.5
100
AcDbCircle
 10
-26.94590759277748
 20
-15.45937617226442
 30
0.0
 40
17.09271208445208
100
AcDbArc
 50
64.74833051131179
 51
115.2516644797366
  0
ARC
  5
1452
330
1F
100
AcDbEntity
  8
AM_11
 48
0.5
100
AcDbCircle
 10
-12.36257425944414
 20
-15.45937617226442
 30
0.0
 40
17.09271208445208
100
AcDbArc
 50
64.74833051131179
 51
115.2516644797366
  0
ARC
  5
1453
330
1F
100
AcDbEntity
  8
AM_11
 48
0.5
100
AcDbCircle
 10
-12.36257425944414
 20
15.45938667054957
 30
0.0
 40
17.09271208445208
100
AcDbArc
 50
244.7482808787518
 51
295.2516148471758
  0
ARC
  5
1454
330
1F
100
AcDbEntity
  8
AM_11
 48
0.5
100
AcDbCircle
 10
2.220759073889205
 20
15.45938667054957
 30
0.0
 40
17.09271208445208
100
AcDbArc
 50
244.7482808787518
 51
254.0147302238188
  0
TEXT
  5
19BD
330
1F
100
AcDbEntity
  8
AM_6
100
AcDbText
 10
-66.33332443237496
 20
-26.75001206798964
 30
0.0
 40
2.5
  1
MDW064LHK
 50
0.0000000000001527
 72
     4
 11
-55.49999109904163
 21
-25.50001206798961
 31
0.0
100
AcDbText
  0
LINE
  5
1D14
330
1F
100
AcDbEntity
  8
AM_7
100
AcDbLine
 10
-111.7499999999998
 20
0.0000000000001138
 30
0.0
 11
2.08642112079066
 21
0.0000000000002097
 31
0.0
1001
GENIUS_GENODEF_13
1002
{
1000
HIER
1070
     0
1002
}
1002
{
1000
MANEDIT
1070
     0
1002
}
1002
{
1000
NOSEL
1070
     0
1002
}
1002
{
1000
BEHIND
1070
     0
1002
}
1002
{
1000
REACTOR
1002
}
1001
GENIUS_GENOBJ-N-CEN_13
1002
{
1000
OWNER
1000
GEN
1002
}
  0
LINE
  5
1D9D
330
1F
100
AcDbEntity
  8
AM_0
100
AcDbLine
 10
-109.7499999999998
 20
-3.500000000000043
 30
0.0
 11
-109.7499999999998
 21
3.499999999999955
 31
0.0
  0
LINE
  5
1D9E
330
1F
100
AcDbEntity
  8
AM_0
 48
0.5
100
AcDbLine
 10
-109.9999999999998
 20
-3.250000000000044
 30
0.0
 11
-109.9999999999998
 21
3.249999999999955
 31
0.0
  0
LINE
  5
1D9F
330
1F
100
AcDbEntity
  8
AM_0
100
AcDbLine
 10
-109.9999999999998
 20
-3.250000000000044
 30
0.0
 11
-109.7499999999998
 21
-3.500000000000043
 31
0.0
1001
GENIUS_GENFIL_13
1070
     0
1040
0.25
1040
0.25
1040
20.0
1040
0.0
1002
{
1002
}
1001
GENIUS_GENODEF_13
1002
{
1000
HIER
1070
     0
1002
}
1002
{
1000
MANEDIT
1070
     0
1002
}
1002
{
1000
NOSEL
1070
     0
1002
}
1002
{
1000
BEHIND
1070
     0
1002
}
1002
{
1000
REACTOR
1002
}
1001
GENIUS_GENOBJ-N-CHA_13
1002
{
1000
OWNER
1000
GEN
1002
}
  0
LINE
  5
1DA1
330
1F
100
AcDbEntity
  8
AM_0
100
AcDbLine
 10
-109.9999999999998
 20
3.249999999999955
 30
0.0
 11
-109.7499999999998
 21
3.499999999999955
 31
0.0
1001
GENIUS_GENFIL_13
1070
     0
1040
0.25
1040
0.25
1040
20.0
1040
0.0
1002
{
1002
}
1001
GENIUS_GENODEF_13
1002
{
1000
HIER
1070
     0
1002
}
1002
{
1000
MANEDIT
1070
     0
1002
}
1002
{
1000
NOSEL
1070
     0
1002
}
1002
{
1000
BEHIND
1070
     0
1002
}
1002
{
1000
REACTOR
1002
}
1001
GENIUS_GENOBJ-N-CHA_13
1002
{
1000
OWNER
1000
GEN
1002
}
  0
LINE
  5
1DA2
330
1F
100
AcDbEntity
  8
AM_0
100
AcDbLine
 10
-56.99997329712321
 20
-3.499999999999894
 30
0.0
 11
-56.99997329712324
 21
3.500000000000104
 31
0.0
  0
LINE
  5
1DA4
330
1F
100
AcDbEntity
  8
AM_0
100
AcDbLine
 10
-109.7499999999998
 20
3.499999999999956
 30
0.0
 11
-56.99997329712324
 21
3.500000000000104
 31
0.0
  0
LINE
  5
1DA5
330
1F
100
AcDbEntity
  8
AM_0
100
AcDbLine
 10
-109.7499999999998
 20
-3.500000000000043
 30
0.0
 11
-56.99997329712321
 21
-3.499999999999894
 31
0.0
  0
LINE
  5
1F71
330
1F
100
AcDbEntity
  8
AM_0
100
AcDbLine
 10
-56.99997329712324
 20
3.500000000000104
 30
0.0
 11
-56.48038901053211
 21
3.200017872270014
 31
0.0
  0
LINE
  5
1F72
330
1F
100
AcDbEntity
  8
AM_0
100
AcDbLine
 10
-56.99997329712321
 20
-3.499999999999894
 30
0.0
 11
-56.48037862686102
 21
-3.200011877254532
 31
0.0
  0
ARC
  5
1F77
330
1F
100
AcDbEntity
  8
AM_11
 48
0.5
100
AcDbCircle
 10
-70.69590759277327
 20
15.45938667054953
 30
0.0
 40
17.09271208445208
100
AcDbArc
 50
244.7482808787518
 51
295.2516148471758
  0
ARC
  5
1F78
330
1F
100
AcDbEntity
  8
AM_11
 48
0.5
100
AcDbCircle
 10
-70.69590759277329
 20
-15.45937617226446
 30
0.0
 40
17.09271208445208
100
AcDbArc
 50
64.74833051131179
 51
115.2516644797366
  0
ARC
  5
1F79
330
1F
100
AcDbEntity
  8
AM_11
 48
0.5
100
AcDbCircle
 10
-85.2792409261065
 20
15.45938667054949
 30
0.0
 40
17.09271208445208
100
AcDbArc
 50
244.7482808787518
 51
295.2516148471758
  0
ARC
  5
1F7A
330
1F
100
AcDbEntity
  8
AM_11
 48
0.5
100
AcDbCircle
 10
-85.27924092610652
 20
-15.4593761722645
 30
0.0
 40
17.09271208445208
100
AcDbArc
 50
64.74833051131179
 51
115.2516644797366
  0
ARC
  5
1F7B
330
1F
100
AcDbEntity
  8
AM_11
 48
0.5
100
AcDbCircle
 10
-99.86257425943973
 20
15.45938667054945
 30
0.0
 40
17.09271208445208
100
AcDbArc
 50
244.7482808787518
 51
295.2516148471758
  0
ARC
  5
1F7C
330
1F
100
AcDbEntity
  8
AM_11
 48
0.5
100
AcDbCircle
 10
-99.86257425943975
 20
-15.45937617226454
 30
0.0
 40
17.09271208445208
100
AcDbArc
 50
64.74833051131179
 51
115.2516644797366
  0
ARC
  5
1F7D
330
1F
100
AcDbEntity
  8
AM_11
 48
0.5
100
AcDbCircle
 10
-114.4459075927729
 20
15.45938667054941
 30
0.0
 40
17.09271208445208
100
AcDbArc
 50
285.0763193491397
 51
295.2516148471758
  0
ARC
  5
1F7E
330
1F
100
AcDbEntity
  8
AM_11
 48
0.5
100
AcDbCircle
 10
-114.4459075927729
 20
-15.45937617226458
 30
0.0
 40
17.09271208445208
100
AcDbArc
 50
64.74833051131179
 51
74.92368065086012
  0
DIMENSION
  5
1F93
330
1F
100
AcDbEntity
  8
AM_5
100
AcDbDimension
  2
*D8
 10
-118.7500009999998
 20
3.499999999999958
 30
0.0
 11
-118.7500009999998
 21
-0.0000000000000415
 31
0.0
 70
   160
  1
%%c<>
 51
359.9999999999998
  3
AM_JIS$0
100
AcDbAlignedDimension
 13
-109.7499999999998
 23
-3.500000000000043
 33
0.0
 14
-109.7499999999998
 24
3.499999999999956
 34
0.0
 50
270.0000000000002
100
AcDbRotatedDimension
1001
ACAD
1000
DSTYLE
1002
{
1070
   271
1070
     0
1002
}
1001
GENIUS_GENDTOL_13
1000

1000
h7
1000

1040
0.0
  0
DIMENSION
  5
21D4
330
1F
100
AcDbEntity
  8
AM_5
100
AcDbDimension
  2
*D9
 10
9.086422120790654
 20
3.19998812274524
 30
0.0
 11
9.086422120790654
 21
-0.0000118772547578
 31
0.0
 70
   160
  1
%%c<>
  3
AM_JIS$0
100
AcDbAlignedDimension
 13
-0.9999821980834841
 23
-3.200011877254757
 33
0.0
 14
-0.99998219808346
 24
3.199988122745243
 34
0.0
 50
89.99999999999978
100
AcDbRotatedDimension
1001
ACAD
1000
DSTYLE
1002
{
1070
   271
1070
     1
1002
}
1001
GENIUS_GENDTOL_13
1000

1000
h7
1000

1040
0.0
  0
LINE
  5
21E7
330
1F
100
AcDbEntity
  8
AM_0
 48
0.5
100
AcDbLine
 10
-2.65843773048196
 20
-3.200011877254745
 30
0.0
 11
-0.9999821980834841
 21
-3.200011877254754
 31
0.0
  0
LINE
  5
21E8
330
1F
100
AcDbEntity
  8
AM_0
 48
0.5
100
AcDbLine
 10
-2.658437730481921
 20
3.199988122745255
 30
0.0
 11
-0.9999821980834447
 21
3.199988122745245
 31
0.0
  0
LINE
  5
21E9
330
1F
100
AcDbEntity
  8
AM_0
 48
0.5
100
AcDbLine
 10
-22.15816415386182
 20
-3.200011877254699
 30
0.0
 11
-12.9766025559212
 21
-3.200011877254685
 31
0.0
  0
LINE
  5
21EA
330
1F
100
AcDbEntity
  8
AM_11
 48
0.5
100
AcDbLine
 10
-31.13887996757795
 20
3.200442740819395
 30
0.0
 11
-24.55422275830183
 21
3.19998812274538
 31
0.0
  0
LINE
  5
21EB
330
1F
100
AcDbEntity
  8
AM_0
 48
0.5
100
AcDbLine
 10
-24.55423164527651
 20
3.19998812274538
 30
0.0
 11
-12.97660255592116
 21
3.199988122745314
 31
0.0
  0
LINE
  5
21EC
330
1F
100
AcDbEntity
  8
AM_11
 48
0.5
100
AcDbLine
 10
-32.47632897929975
 20
-3.200011877254641
 30
0.0
 11
-22.15816415386182
 21
-3.200466495328668
 31
0.0
  0
LINE
  5
21ED
330
1F
100
AcDbEntity
  8
AM_11
 48
0.5
100
AcDbLine
 10
-50.63868160332041
 20
3.200442740819439
 30
0.0
 11
-44.05403328101896
 21
3.199988122745425
 31
0.0
  0
LINE
  5
21EE
330
1F
100
AcDbEntity
  8
AM_11
 48
0.5
100
AcDbLine
 10
-51.72270457109912
 20
-3.200011877254532
 30
0.0
 11
-44.054033281019
 21
-3.200011877254575
 31
0.0
  0
LINE
  5
21EF
330
1F
100
AcDbEntity
  8
AM_0
 48
0.5
100
AcDbLine
 10
-45.77774842740162
 20
1.621368737979568
 30
0.0
 11
-52.99999999999986
 21
-0.2035673497018241
 31
0.0
  0
LINE
  5
21F0
330
1F
100
AcDbEntity
  8
AM_0
 48
0.5
100
AcDbLine
 10
-44.05403741362692
 20
-3.200011877254532
 30
0.0
 11
-33.40451749325858
 21
-3.200011877254569
 31
0.0
  0
LINE
  5
21F1
330
1F
100
AcDbEntity
  8
AM_0
100
AcDbLine
 10
-44.05403328101896
 20
3.199988122745425
 30
0.0
 11
-31.13887996757795
 21
3.200442740819395
 31
0.0
  0
LINE
  5
21F2
330
1F
100
AcDbEntity
  8
AM_0
100
AcDbLine
 10
-56.48038901053211
 20
-3.200005579385634
 30
0.0
 11
-56.48038901053211
 21
3.200017872270014
 31
0.0
  0
LINE
  5
21F3
330
1F
100
AcDbEntity
  8
AM_0
100
AcDbLine
 10
-51.72094144931227
 20
-3.200011877254532
 30
0.0
 11
-56.4803890105321
 21
-3.200005579385634
 31
0.0
  0
LINE
  5
21F4
330
1F
100
AcDbEntity
  8
AM_11
 48
0.5
100
AcDbLine
 10
-12.9766025559212
 20
-3.200011877254685
 30
0.0
 11
-2.65843773048196
 21
-3.200011877254745
 31
0.0
  0
LINE
  5
21F5
330
1F
100
AcDbEntity
  8
AM_11
 48
0.5
100
AcDbLine
 10
-12.97660255592116
 20
3.199988122745314
 30
0.0
 11
-2.658437730481921
 21
3.199988122745255
 31
0.0
  0
ELLIPSE
  5
21F8
330
1F
100
AcDbEntity
  8
AM_0
 48
0.5
100
AcDbEllipse
 10
-52.09201749325858
 20
-2.165844396785748
 30
0.0
 11
0.9070141260696745
 21
0.0734856475482575
 31
0.0
210
0.0
220
0.0
230
1.0
 40
0.8554403087037535
 41
1.15023248683549
 42
3.020853619579402
  0
ELLIPSE
  5
21F9
330
1F
100
AcDbEntity
  8
AM_0
 48
0.5
100
AcDbEllipse
 10
-51.82098579566769
 20
-2.133345210587878
 30
0.0
 11
-1.128703419789487
 21
0.4099732825832731
 31
0.0
210
0.0
220
0.0
230
0.9999999999999998
 40
0.8761458051029677
 41
0.4042107342335162
 42
1.878899879269669
  0
SPLINE
  5
21FA
330
1F
100
AcDbEntity
  8
AM_0
100
AcDbSpline
210
0.0
220
0.0
230
1.0
 70
     8
 71
     3
 72
    17
 73
    13
 74
     0
 42
0.0000000001
 43
0.0000000001
 40
1.580019955310467
 40
1.580019955310467
 40
1.580019955310467
 40
1.580019955310467
 40
2.030549285115227
 40
3.082371838836284
 40
4.126290986361125
 40
5.162752068350215
 40
6.192395305374981
 40
7.216039564037012
 40
8.234688489606833
 40
9.249433870634691
 40
10.26152376260694
 40
11.27226744710342
 40
11.27226744710342
 40
11.27226744710342
 40
11.27226744710352
 10
-7.817117634683182
 20
-2.361706106343868
 30
0.0
 10
-7.894614856356811
 20
-2.38602959495459
 30
0.0
 10
-8.153481612883481
 20
-2.465753077742538
 30
0.0
 10
-8.595431362543601
 20
-2.590802213051144
 30
0.0
 10
-9.142851507106314
 20
-2.730840655694244
 30
0.0
 10
-9.690422355922303
 20
-2.853775815200459
 30
0.0
 10
-10.23801829424343
 20
-2.959194847674099
 30
0.0
 10
-10.78567389216062
 20
-3.046330929981966
 30
0.0
 10
-11.33336732603157
 20
-3.114686814924025
 30
0.0
 10
-11.88109486367996
 20
-3.163819533493695
 30
0.0
 10
-12.42884301051768
 20
-3.193412812675663
 30
0.0
 10
-12.79409707055175
 20
-3.200011895565256
 30
0.0
 10
-12.97660255592115
 20
-3.200011877254686
 30
0.0
  0
SPLINE
  5
21FB
330
1F
100
AcDbEntity
  8
AM_0
100
AcDbSpline
210
0.0
220
0.0
230
1.0
 70
     8
 71
     3
 72
    22
 73
    18
 74
     0
 42
0.0000000001
 43
0.0000000001
 40
17.17441611292
 40
17.17441611292
 40
17.17441611292
 40
17.17441611292
 40
17.38177636558528
 40
18.41823744757437
 40
19.46215659509824
 40
20.51397914882054
 40
21.57394542641293
 40
22.64209583141747
 40
23.71826625065247
 40
24.80210429862395
 40
25.8930771157021
 40
26.99048705697709
 40
28.09349309193389
 40
29.20112995599786
 40
30.31233024745139
 40
31.42594771747373
 40
32.5407895042663
 40
32.54078950426994
 40
32.54078950426994
 40
32.54078950426994
 10
-15.06723593488642
 20
-2.873635037731662
 30
0.0
 10
-15.10391393166533
 20
-2.866227351593325
 30
0.0
 10
-15.32377849133416
 20
-2.821106325644664
 30
0.0
 10
-15.72655797532885
 20
-2.730632795985321
 30
0.0
 10
-16.27405433013148
 20
-2.590809386179289
 30
0.0
 10
-16.82149489620482
 20
-2.435019031312179
 30
0.0
 10
-17.36888353844857
 20
-2.26423421340777
 30
0.0
 10
-17.91621953380041
 20
-2.079502095908343
 30
0.0
 10
-18.46350961933176
 20
-1.881972352144807
 30
0.0
 10
-19.01075632914954
 20
-1.672858936367003
 30
0.0
 10
-19.55796472658716
 20
-1.453451439551941
 30
0.0
 10
-20.10514089625504
 20
-1.225103466979942
 30
0.0
 10
-20.65228958731222
 20
-0.9892191372397684
 30
0.0
 10
-21.19941630769485
 20
-0.7472496505876413
 30
0.0
 10
-21.74652590720514
 20
-0.5006828454727637
 30
0.0
 10
-22.29362649079599
 20
-0.2510401723540248
 30
0.0
 10
-22.65828862032804
 20
-0.0836101269453036
 30
0.0
 10
-22.84071986040646
 20
0.0001508831624466
 30
0.0
  0
SPLINE
  5
21FC
330
1F
100
AcDbEntity
  8
AM_0
100
AcDbSpline
210
0.0
220
0.0
230
1.0
 70
     8
 71
     3
 72
    11
 73
     7
 74
     0
 42
0.0000000001
 43
0.0000000001
 40
11.27226913003534
 40
11.27226913003534
 40
11.27226913003534
 40
11.2722691300354
 40
12.28301561507924
 40
13.29510212255852
 40
14.30984805882082
 40
15.18258238371378
 40
15.18258238371378
 40
15.18258238371378
 40
15.18258238371378
 10
-12.97660255592118
 20
-3.200011877254686
 30
0.0
 10
-13.15841406558576
 20
-3.184350147340758
 30
0.0
 10
-13.52169415383503
 20
-3.146433780845454
 30
0.0
 10
-14.06473837555836
 20
-3.069947091033412
 30
0.0
 10
-14.58009691733451
 20
-2.978592126491388
 30
0.0
 10
-14.91340057121582
 20
-2.908364846349775
 30
0.0
 10
-15.06699638573718
 20
-2.873674509707192
 30
0.0
  0
SPLINE
  5
21FD
330
1F
100
AcDbEntity
  8
AM_0
100
AcDbSpline
210
0.0
220
0.0
230
1.0
 70
     8
 71
     3
 72
    55
 73
    51
 74
     0
 42
0.0000000001
 43
0.0000000001
 40
0.0
 40
0.0
 40
0.0
 40
0.0
 40
1.010743684496582
 40
2.022833576467832
 40
3.037578957496688
 40
4.056212745003489
 40
5.079857003664532
 40
6.109500240690281
 40
7.145961322679372
 40
8.189895241603872
 40
9.241717795325891
 40
10.30168407291828
 40
11.36983447792315
 40
12.44600489715814
 40
13.52984294512926
 40
14.62081576220742
 40
15.7182257034828
 40
16.82123173843959
 40
17.92886860250316
 40
19.0400688939571
 40
20.15368796660465
 40
21.26852814259644
 40
22.38336992938901
 40
23.49698739941135
 40
24.6081876908653
 40
25.71582455492886
 40
26.81883757994213
 40
27.91624752121713
 40
29.00722033829659
 40
30.09105838626677
 40
31.16722880550176
 40
32.23537921050758
 40
33.29534548809967
 40
34.347168041821
 40
35.39108718934584
 40
36.42754827133493
 40
37.45720575381954
 40
38.48085062012849
 40
39.49948440763516
 40
40.51422944315121
 40
41.52631975251916
 40
42.53706336719636
 40
43.54780698187354
 40
44.55989729124051
 40
45.57464232675757
 40
46.59327611426424
 40
47.6169209805722
 40
48.64656348684535
 40
49.68302456883444
 40
50.58557219878025
 40
50.58557219878025
 40
50.58557219878025
 40
50.58557219878025
 10
-2.65843773048196
 20
-3.200011877254745
 30
0.0
 10
-2.840943218259153
 20
-3.198107954779483
 30
0.0
 10
-3.206197272504593
 20
-3.194297573998463
 30
0.0
 10
-3.753945430960361
 20
-3.163581627214103
 30
0.0
 10
-4.301670208112504
 20
-3.114751295727459
 30
0.0
 10
-4.849361086478344
 20
-3.046313728991588
 30
0.0
 10
-5.397012600965075
 20
-2.959196387248295
 30
0.0
 10
-5.944613947632776
 20
-2.853786667433218
 30
0.0
 10
-6.492166958183672
 20
-2.730794646990238
 30
0.0
 10
-7.039666776929145
 20
-2.590973470205385
 30
0.0
 10
-7.587109674397609
 20
-2.435181630622007
 30
0.0
 10
-8.134498379289262
 20
-2.264397017512765
 30
0.0
 10
-8.681834357620214
 20
-2.079664844418108
 30
0.0
 10
-9.229124447915099
 20
-1.882135116040723
 30
0.0
 10
-9.776371155871821
 20
-1.673021694883484
 30
0.0
 10
-10.32357955596565
 20
-1.453614204096386
 30
0.0
 10
-10.8707557168118
 20
-1.225266212682008
 30
0.0
 10
-11.4179044407204
 20
-0.9893819527481744
 30
0.0
 10
-11.96503103783216
 20
-0.7474122042547206
 30
0.0
 10
-12.51214136263415
 20
-0.5008462622561813
 30
0.0
 10
-13.05924021380474
 20
-0.2511999128342411
 30
0.0
 10
-13.60633531722714
 20
-0.0000125301709239
 30
0.0
 10
-14.15342796465029
 20
0.2511793740218228
 30
0.0
 10
-14.70052864957697
 20
0.5008218357897732
 30
0.0
 10
-15.24763829896395
 20
0.7473885241293812
 30
0.0
 10
-15.79476587159636
 20
0.9893591944197257
 30
0.0
 10
-16.34191686534033
 20
1.225241441275864
 30
0.0
 10
-16.88909388977503
 20
1.453590590732278
 30
0.0
 10
-17.43630236886756
 20
1.672997903602522
 30
0.0
 10
-17.98354905691172
 20
1.882111368735527
 30
0.0
 10
-18.530839148608
 20
2.079641097401859
 30
0.0
 10
-19.07817514088003
 20
2.264373226324267
 30
0.0
 10
-19.62556378927519
 20
2.435158013820311
 30
0.0
 10
-20.17300433403518
 20
2.590948477763742
 30
0.0
 10
-20.72050076712665
 20
2.730771485857166
 30
0.0
 10
-21.26805357456379
 20
2.853765979514948
 30
0.0
 10
-21.81565883128864
 20
2.959163660076778
 30
0.0
 10
-22.36331215506122
 20
3.046307966478973
 30
0.0
 10
-22.91100319578713
 20
3.114664409312895
 30
0.0
 10
-23.4587283535151
 20
3.163791269614587
 30
0.0
 10
-24.00647604754571
 20
3.193393834446672
 30
0.0
 10
-24.55423577799971
 20
3.203283071836288
 30
0.0
 10
-25.10199550764775
 20
3.193393834431171
 30
0.0
 10
-25.6497432041009
 20
3.163791269676793
 30
0.0
 10
-26.19746835290973
 20
3.114664409078477
 30
0.0
 10
-26.74515942707565
 20
3.046307967359874
 30
0.0
 10
-27.29280995522024
 20
2.959164081606913
 30
0.0
 10
-27.84041305458879
 20
2.853767057149277
 30
0.0
 10
-28.36306982415569
 20
2.736354657186345
 30
0.0
 10
-28.70217548843518
 20
2.650489859114955
 30
0.0
 10
-28.85950075215327
 20
2.608643754277667
 30
0.0
  0
SPLINE
  5
21FE
330
1F
100
AcDbEntity
  8
AM_0
100
AcDbSpline
210
0.0
220
0.0
230
1.0
 70
     8
 71
     3
 72
    46
 73
    42
 74
     0
 42
0.0000000001
 43
0.0000000001
 40
0.0
 40
0.0
 40
0.0
 40
0.0
 40
1.1797905410792
 40
1.771725346678784
 40
2.365928389391084
 40
2.963054206943358
 40
3.563679428541708
 40
4.168281726368678
 40
4.777234562424272
 40
5.390806270667785
 40
6.009119932596676
 40
6.632207668849522
 40
7.259973746737163
 40
7.892212608053092
 40
8.52861341801536
 40
9.168769217093204
 40
9.81218940415078
 40
10.45831090818787
 40
11.1065110782032
 40
11.75612220391374
 40
12.40644563990895
 40
13.05676907590469
 40
13.70638020161522
 40
14.35458037163003
 40
15.0007018756671
 40
15.64412206272523
 40
16.28427786180231
 40
16.92067867176479
 40
17.5529216827261
 40
18.18068776061372
 40
18.80377549686657
 40
19.42208915879529
 40
20.03565231513329
 40
20.64460515118888
 40
21.24920744901585
 40
21.84983224434128
 40
22.44695841635484
 40
23.04117028960383
 40
23.63310489365486
 40
24.22349090745283
 40
24.81309134934788
 40
24.81309134934788
 40
24.81309134934788
 40
24.81309134934788
 10
-1.125115078300833
 20
-3.200011877254754
 30
0.0
 10
-1.490386978277271
 20
-3.192722029891826
 30
0.0
 10
-2.03892628342019
 20
-3.181774656695815
 30
0.0
 10
-2.768342918300728
 20
-3.114373691067427
 30
0.0
 10
-3.316039681036803
 20
-3.046415588262368
 30
0.0
 10
-3.86368962873782
 20
-2.959168928023829
 30
0.0
 10
-4.411291318706306
 20
-2.853793860794534
 30
0.0
 10
-4.958841937804979
 20
-2.730794169167028
 30
0.0
 10
-5.506340568968822
 20
-2.590971118052523
 30
0.0
 10
-6.053784775635554
 20
-2.435183241683117
 30
0.0
 10
-6.601175652014843
 20
-2.264396794240969
 30
0.0
 10
-7.148511725791671
 20
-2.079664904929126
 30
0.0
 10
-7.695801790212891
 20
-1.882135099632451
 30
0.0
 10
-8.243048505217645
 20
-1.673021699393074
 30
0.0
 10
-8.79025690324984
 20
-1.453614202618755
 30
0.0
 10
-9.337433065234451
 20
-1.225266214052651
 30
0.0
 10
-9.884581786651084
 20
-0.9893819487272255
 30
0.0
 10
-10.43170839263728
 20
-0.7474122190437928
 30
0.0
 10
-10.97881868429478
 20
-0.5008462069040998
 30
0.0
 10
-11.52591765951183
 20
-0.251200119962095
 30
0.0
 10
-12.07301203571829
 20
-0.0000118773055158
 30
0.0
 10
-12.62010641180455
 20
0.2511763656563088
 30
0.0
 10
-13.16720538738211
 20
0.5008224516830269
 30
0.0
 10
-13.7143156777219
 20
0.747388467167685
 30
0.0
 10
-14.26144228859426
 20
0.9893581844458582
 30
0.0
 10
-14.80859099189347
 20
1.225242495768735
 30
0.0
 10
-15.35576722097302
 20
1.45359031399008
 30
0.0
 10
-15.90297656042981
 20
1.672998917853794
 30
0.0
 10
-16.45022540177129
 20
1.882110418191926
 30
0.0
 10
-16.9975164424741
 20
2.079641236353797
 30
0.0
 10
-17.5448525035074
 20
2.264373180633208
 30
0.0
 10
-18.09224113126715
 20
2.435158058693855
 30
0.0
 10
-18.63968169042569
 20
2.590948344969742
 30
0.0
 10
-19.18717808673686
 20
2.730771967276713
 30
0.0
 10
-19.73472838894199
 20
2.853763611618652
 30
0.0
 10
-20.28233048037851
 20
2.959169241769868
 30
0.0
 10
-20.82998392322376
 20
3.046291312658844
 30
0.0
 10
-21.37767786381727
 20
3.114727827847632
 30
0.0
 10
-21.92540568996836
 20
3.163553677833479
 30
0.0
 10
-22.47315339823209
 20
3.19427791334658
 30
0.0
 10
-22.83840760544211
 20
3.198085564589324
 30
0.0
 10
-23.02091312568435
 20
3.199988122745371
 30
0.0
  0
SPLINE
  5
2201
330
1F
100
AcDbEntity
  8
AM_0
 48
0.5
100
AcDbSpline
210
0.0
220
0.0
230
1.0
 70
     8
 71
     3
 72
    17
 73
    13
 74
     0
 42
0.0000000001
 43
0.0000000001
 40
0.0
 40
0.0
 40
0.0
 40
0.0
 40
1.010743614677189
 40
2.022833924044153
 40
3.037578959561199
 40
4.056212747067873
 40
5.079857613375832
 40
6.109500119648989
 40
7.14596120163808
 40
8.18989512056258
 40
9.241717674284874
 40
9.693948937866434
 40
9.693948937866434
 40
9.693948937866434
 40
9.693948937866434
 10
-2.658437730481921
 20
3.199988122745255
 30
0.0
 10
-2.840943251472932
 20
3.19808557232911
 30
0.0
 10
-3.206197460181339
 20
3.194277936576514
 30
0.0
 10
-3.75394515718445
 20
3.163553584667102
 30
0.0
 10
-4.301670303732817
 20
3.114728421492491
 30
0.0
 10
-4.849361386438372
 20
3.046290720444281
 30
0.0
 10
-5.397011882458995
 20
2.959168653837804
 30
0.0
 10
-5.944615102785243
 20
2.853766150753553
 30
0.0
 10
-6.492163697661562
 20
2.730761721961722
 30
0.0
 10
-7.039678914171359
 20
2.590983464955506
 30
0.0
 10
-7.481647474096751
 20
2.46506438448999
 30
0.0
 10
-7.741197325578815
 20
2.386346851242949
 30
0.0
 10
-7.819100265972052
 20
2.362251941274327
 30
0.0
  0
SPLINE
  5
2204
330
1F
100
AcDbEntity
  8
AM_0
100
AcDbSpline
210
0.0
220
0.0
230
1.0
 70
     8
 71
     3
 72
    23
 73
    19
 74
     0
 42
0.0000000001
 43
0.0000000001
 40
16.03460024169435
 40
16.03460024169435
 40
16.03460024169435
 40
16.03460024169435
 40
16.35212704903564
 40
17.38177054169784
 40
18.41822485651776
 40
19.46214173629503
 40
20.51396345435107
 40
21.57393551351153
 40
22.64208202342361
 40
23.7182574881101
 40
24.80209208578934
 40
25.89306333925047
 40
26.99048218457928
 40
28.09348763352352
 40
29.20111863782268
 40
30.31232390128032
 40
31.42594612798585
 40
32.5407912310448
 40
32.5407912310486
 40
32.5407912310486
 40
32.5407912310486
 10
-50.63868160332041
 20
3.200442740819439
 30
0.0
 10
-50.58240721159917
 20
3.189640104338207
 30
0.0
 10
-50.34389161162657
 20
3.142597662931055
 30
0.0
 10
-49.92374381363783
 20
3.050425178575392
 30
0.0
 10
-49.37965131535955
 20
2.913365702326994
 30
0.0
 10
-48.83606419578605
 20
2.759470756001809
 30
0.0
 10
-48.29295033392089
 20
2.589631005054569
 30
0.0
 10
-47.75029045369069
 20
2.40479330989901
 30
0.0
 10
-47.20805319065491
 20
2.206014280749128
 30
0.0
 10
-46.6662007854715
 20
1.994450761693684
 30
0.0
 10
-46.12470244814068
 20
1.771300824606156
 30
0.0
 10
-45.58351476477726
 20
1.537862926975351
 30
0.0
 10
-45.04259387817134
 20
1.295493910718759
 30
0.0
 10
-44.50190374830707
 20
1.045587296072252
 30
0.0
 10
-43.96139913629796
 20
0.7895962557766831
 30
0.0
 10
-43.42102997996984
 20
0.5290155896977336
 30
0.0
 10
-42.8807522780195
 20
0.2653552922325757
 30
0.0
 10
-42.52066388898747
 20
0.0885854795782478
 30
0.0
 10
-42.34052149614649
 20
0.00015088316134
 30
0.0
  0
SPLINE
  5
2205
330
1F
100
AcDbEntity
  8
AM_0
100
AcDbSpline
210
0.0
220
0.0
230
1.0
 70
     8
 71
     3
 72
    13
 73
     9
 74
     0
 42
0.0000000001
 43
0.0000000001
 40
16.03460056234195
 40
16.03460056234195
 40
16.03460056234195
 40
16.03460056234195
 40
16.35212717791071
 40
17.38177067057215
 40
18.41822498539278
 40
19.46214186516937
 40
20.5139635832251
 40
21.34083983469381
 40
21.34083983469381
 40
21.34083983469381
 40
21.34083983469381
 10
-51.72245716866906
 20
-3.200302903151378
 30
0.0
 10
-51.66618275414305
 20
-3.189500584817639
 30
0.0
 10
-51.42766695680368
 20
-3.142459434103404
 30
0.0
 10
-51.00751938784398
 20
-3.050285873612348
 30
0.0
 10
-50.46342682109413
 20
-2.913226777397043
 30
0.0
 10
-49.9198397200641
 20
-2.75933172815246
 30
0.0
 10
-49.41684282815435
 20
-2.602037175335616
 30
0.0
 10
-49.09593966884321
 20
-2.493728681648883
 30
0.0
 10
-48.95516137616096
 20
-2.444772255595305
 30
0.0
  0
SPLINE
  5
2206
330
1F
100
AcDbEntity
  8
AM_0
 48
0.5
100
AcDbSpline
210
0.0
220
0.0
230
1.0
 70
     8
 71
     3
 72
    22
 73
    18
 74
     0
 42
0.0000000001
 43
0.0000000001
 40
0.0
 40
0.0
 40
0.0
 40
0.0
 40
1.010743684496582
 40
2.022833993863546
 40
3.037578683882831
 40
4.056212471389632
 40
5.079857945358201
 40
6.109499720892564
 40
7.145961650132166
 40
8.189873411961459
 40
9.241710626092514
 40
10.30166235592959
 40
11.36982472628033
 40
12.44598212828784
 40
13.52983440361964
 40
14.62080578343036
 40
14.90544694398022
 40
14.90544694398022
 40
14.90544694398022
 40
14.90544694398022
 10
-44.05403741360795
 20
-3.200011877254575
 30
0.0
 10
-44.23654293625883
 20
-3.198108523580013
 30
0.0
 10
-44.60179713566538
 20
-3.194299280371986
 30
0.0
 10
-45.14954472018394
 20
-3.163574777307095
 30
0.0
 10
-45.69727009003223
 20
-3.11475266658061
 30
0.0
 10
-46.24496125962447
 20
-3.046315036755199
 30
0.0
 10
-46.79261128249069
 20
-2.95918956734294
 30
0.0
 10
-47.34021444538191
 20
-2.853788708115074
 30
0.0
 10
-47.88776272396825
 20
-2.730793757531141
 30
0.0
 10
-48.43525988338271
 20
-2.590967726116893
 30
0.0
 10
-48.98270099260761
 20
-2.435183664236741
 30
0.0
 10
-49.5300889125164
 20
-2.264389691239339
 30
0.0
 10
-50.0774271717499
 20
-2.079672647262826
 30
0.0
 10
-50.62471535919287
 20
-1.882130667313976
 30
0.0
 10
-51.17196372764476
 20
-1.673022183242861
 30
0.0
 10
-51.58325912067513
 20
-1.508117518851604
 30
0.0
 10
-51.81244726638825
 20
-1.413863313403403
 30
0.0
 10
-51.8598357538357
 20
-1.394278128472049
 30
0.0
  0
SPLINE
  5
2207
330
1F
100
AcDbEntity
  8
AM_0
 48
0.5
100
AcDbSpline
210
0.0
220
0.0
230
1.0
 70
     8
 71
     3
 72
    26
 73
    22
 74
     0
 42
0.0000000001
 43
0.0000000001
 40
0.0
 40
0.0
 40
0.0
 40
0.0
 40
0.5896004826229707
 40
1.179986252940122
 40
1.771921058539713
 40
2.366124101252007
 40
2.963249918804864
 40
3.563875140402651
 40
4.168477438229614
 40
4.777430274285771
 40
5.390993430623067
 40
6.009307092551945
 40
6.63239903939448
 40
7.260156758871202
 40
7.892403919481949
 40
8.528804729444196
 40
9.168960528521511
 40
9.812380715579642
 40
10.45850221961671
 40
11.10670238963151
 40
11.73624999718734
 40
11.73624999718734
 40
11.73624999718734
 40
11.73624999718734
 10
-42.52071476142684
 20
-3.200011877254584
 30
0.0
 10
-42.70322024922598
 20
-3.198107954862289
 30
0.0
 10
-43.06847430351554
 20
-3.194297574247301
 30
0.0
 10
-43.61622246164111
 20
-3.163581626215321
 30
0.0
 10
-44.16394724005312
 20
-3.11475129948925
 30
0.0
 10
-44.7116381136833
 20
-3.046313714858675
 30
0.0
 10
-45.25928964597802
 20
-2.959196440406707
 30
0.0
 10
-45.80689092559433
 20
-2.8537864672235
 30
0.0
 10
-46.35444158823739
 20
-2.730795985987225
 30
0.0
 10
-46.90193789962381
 20
-2.590971978937944
 30
0.0
 10
-47.44937856541928
 20
-2.435182030677417
 30
0.0
 10
-47.99676809108094
 20
-2.264395790801721
 30
0.0
 10
-48.54410420840537
 20
-2.079667809291881
 30
0.0
 10
-49.09139311886487
 20
-1.882131253394142
 30
0.0
 10
-49.63864214008943
 20
-1.673023864407316
 30
0.0
 10
-50.18585245447851
 20
-1.453614141640688
 30
0.0
 10
-50.73302814119751
 20
-1.22526522747804
 30
0.0
 10
-51.28017924848413
 20
-0.9893859854189221
 30
0.0
 10
-51.82729673405884
 20
-0.7473969773233824
 30
0.0
 10
-52.36879413437809
 20
-0.5034474455122955
 30
0.0
 10
-52.72755653534074
 20
-0.3395604388362441
 30
0.0
 10
-52.99999999999986
 20
-0.2035673497018241
 30
0.0
  0
SPLINE
  5
2208
330
1F
100
AcDbEntity
  8
AM_0
100
AcDbSpline
210
0.0
220
0.0
230
1.0
 70
     8
 71
     3
 72
    55
 73
    51
 74
     0
 42
0.0000000001
 43
0.0000000001
 40
0.0
 40
0.0
 40
0.0
 40
0.0
 40
1.010743684496582
 40
2.022833576467832
 40
3.037578957496688
 40
4.056212745003489
 40
5.079857003664532
 40
6.109500240690281
 40
7.145961322679372
 40
8.189895241603872
 40
9.241717795325891
 40
10.30168407291828
 40
11.36983447792315
 40
12.44600489715814
 40
13.52984294512926
 40
14.62081576220742
 40
15.7182257034828
 40
16.82123173843959
 40
17.92886860250316
 40
19.0400688939571
 40
20.15368796660465
 40
21.26852814259644
 40
22.38336992938901
 40
23.49698739941135
 40
24.6081876908653
 40
25.71582455492886
 40
26.81883757994213
 40
27.91624752121713
 40
29.00722033829659
 40
30.09105838626677
 40
31.16722880550176
 40
32.23537921050758
 40
33.29534548809967
 40
34.347168041821
 40
35.39108718934584
 40
36.42754827133493
 40
37.45720575381954
 40
38.48085062012849
 40
39.49948440763516
 40
40.51422944315121
 40
41.52631975251916
 40
42.53706336719636
 40
43.54780698187354
 40
44.55989729124051
 40
45.57464232675757
 40
46.59327611426424
 40
47.6169209805722
 40
48.64656348684535
 40
49.68302456883444
 40
50.58557219878025
 40
50.58557219878025
 40
50.58557219878025
 40
50.58557219878025
 10
-22.15816415386182
 20
-3.2000118772547
 30
0.0
 10
-22.34066964163901
 20
-3.198107954779437
 30
0.0
 10
-22.70592369588445
 20
-3.194297573998418
 30
0.0
 10
-23.25367185434022
 20
-3.163581627214056
 30
0.0
 10
-23.80139663149236
 20
-3.114751295727414
 30
0.0
 10
-24.34908750985821
 20
-3.046313728991542
 30
0.0
 10
-24.89673902434494
 20
-2.95919638724825
 30
0.0
 10
-25.44434037101264
 20
-2.853786667433172
 30
0.0
 10
-25.99189338156353
 20
-2.730794646990193
 30
0.0
 10
-26.539393200309
 20
-2.590973470205339
 30
0.0
 10
-27.08683609777746
 20
-2.435181630621961
 30
0.0
 10
-27.63422480266911
 20
-2.26439701751272
 30
0.0
 10
-28.18156078100007
 20
-2.079664844418063
 30
0.0
 10
-28.72885087129495
 20
-1.882135116040678
 30
0.0
 10
-29.27609757925168
 20
-1.673021694883439
 30
0.0
 10
-29.8233059793455
 20
-1.453614204096341
 30
0.0
 10
-30.37048214019166
 20
-1.225266212681962
 30
0.0
 10
-30.91763086410026
 20
-0.9893819527481294
 30
0.0
 10
-31.46475746121201
 20
-0.7474122042546754
 30
0.0
 10
-32.011867786014
 20
-0.5008462622561362
 30
0.0
 10
-32.5589666371846
 20
-0.251199912834196
 30
0.0
 10
-33.106061740607
 20
-0.0000125301708787
 30
0.0
 10
-33.65315438803014
 20
0.251179374021868
 30
0.0
 10
-34.20025507295683
 20
0.5008218357898182
 30
0.0
 10
-34.74736472234381
 20
0.7473885241294265
 30
0.0
 10
-35.29449229497623
 20
0.989359194419771
 30
0.0
 10
-35.8416432887202
 20
1.22524144127591
 30
0.0
 10
-36.38882031315489
 20
1.453590590732323
 30
0.0
 10
-36.9360287922474
 20
1.672997903602567
 30
0.0
 10
-37.48327548029156
 20
1.882111368735572
 30
0.0
 10
-38.03056557198785
 20
2.079641097401904
 30
0.0
 10
-38.57790156425988
 20
2.264373226324312
 30
0.0
 10
-39.12529021265504
 20
2.435158013820356
 30
0.0
 10
-39.67273075741503
 20
2.590948477763788
 30
0.0
 10
-40.22022719050649
 20
2.73077148585721
 30
0.0
 10
-40.76777999794364
 20
2.853765979514994
 30
0.0
 10
-41.3153852546685
 20
2.959163660076823
 30
0.0
 10
-41.86303857844108
 20
3.046307966479018
 30
0.0
 10
-42.41072961916699
 20
3.114664409312941
 30
0.0
 10
-42.95845477689495
 20
3.163791269614632
 30
0.0
 10
-43.50620247092556
 20
3.193393834446717
 30
0.0
 10
-44.05396220137956
 20
3.203283071836334
 30
0.0
 10
-44.6017219310276
 20
3.193393834431216
 30
0.0
 10
-45.14946962748076
 20
3.163791269676838
 30
0.0
 10
-45.69719477628958
 20
3.114664409078522
 30
0.0
 10
-46.24488585045551
 20
3.046307967359919
 30
0.0
 10
-46.79253637860009
 20
2.959164081606959
 30
0.0
 10
-47.34013947796865
 20
2.853767057149321
 30
0.0
 10
-47.86279624753555
 20
2.736354657186389
 30
0.0
 10
-48.20190191181503
 20
2.650489859115
 30
0.0
 10
-48.35922717553312
 20
2.608643754277712
 30
0.0
  0
SPLINE
  5
2209
330
1F
100
AcDbEntity
  8
AM_0
100
AcDbSpline
210
0.0
220
0.0
230
1.0
 70
     8
 71
     3
 72
    46
 73
    42
 74
     0
 42
0.0000000001
 43
0.0000000001
 40
0.0
 40
0.0
 40
0.0
 40
0.0
 40
1.179790541079198
 40
1.771725346678782
 40
2.365928389391083
 40
2.963054206943358
 40
3.56367942854171
 40
4.168281726368679
 40
4.777234562424272
 40
5.390806270667778
 40
6.009119932596676
 40
6.632207668849522
 40
7.259973746737163
 40
7.892212608053084
 40
8.52861341801536
 40
9.168769217093196
 40
9.812189404150775
 40
10.45831090818786
 40
11.10651107820319
 40
11.75612220391373
 40
12.40644563990894
 40
13.05676907590468
 40
13.70638020161522
 40
14.35458037163002
 40
15.0007018756671
 40
15.64412206272522
 40
16.2842778618023
 40
16.92067867176477
 40
17.55292168272609
 40
18.18068776061372
 40
18.80377549686656
 40
19.42208915879528
 40
20.03565231513328
 40
20.64460515118887
 40
21.24920744901584
 40
21.84983224434128
 40
22.44695841635482
 40
23.04117028960381
 40
23.63310489365484
 40
24.22349090745283
 40
24.81309134934786
 40
24.81309134934786
 40
24.81309134934786
 40
24.81309134934786
 10
-20.62484150168069
 20
-3.200011877254709
 30
0.0
 10
-20.99011340165712
 20
-3.19272202989178
 30
0.0
 10
-21.53865270680004
 20
-3.181774656695767
 30
0.0
 10
-22.26806934168059
 20
-3.114373691067383
 30
0.0
 10
-22.81576610441665
 20
-3.046415588262321
 30
0.0
 10
-23.36341605211768
 20
-2.959168928023785
 30
0.0
 10
-23.91101774208616
 20
-2.853793860794488
 30
0.0
 10
-24.45856836118484
 20
-2.730794169166983
 30
0.0
 10
-25.00606699234869
 20
-2.59097111805248
 30
0.0
 10
-25.5535111990154
 20
-2.435183241683069
 30
0.0
 10
-26.1009020753947
 20
-2.264396794240926
 30
0.0
 10
-26.64823814917152
 20
-2.079664904929079
 30
0.0
 10
-27.19552821359275
 20
-1.882135099632408
 30
0.0
 10
-27.7427749285975
 20
-1.673021699393024
 30
0.0
 10
-28.28998332662969
 20
-1.453614202618716
 30
0.0
 10
-28.83715948861431
 20
-1.225266214052602
 30
0.0
 10
-29.38430821003093
 20
-0.989381948727183
 30
0.0
 10
-29.93143481601713
 20
-0.7474122190437456
 30
0.0
 10
-30.47854510767463
 20
-0.5008462069040559
 30
0.0
 10
-31.02564408289168
 20
-0.2512001199620498
 30
0.0
 10
-31.57273845909815
 20
-0.0000118773054702
 30
0.0
 10
-32.11983283518442
 20
0.2511763656563535
 30
0.0
 10
-32.66693181076198
 20
0.5008224516830719
 30
0.0
 10
-33.21404210110177
 20
0.7473884671677307
 30
0.0
 10
-33.76116871197412
 20
0.9893581844459008
 30
0.0
 10
-34.30831741527333
 20
1.225242495768782
 30
0.0
 10
-34.85549364435289
 20
1.453590313990125
 30
0.0
 10
-35.40270298380966
 20
1.672998917853839
 30
0.0
 10
-35.94995182515114
 20
1.882110418191972
 30
0.0
 10
-36.49724286585394
 20
2.079641236353841
 30
0.0
 10
-37.04457892688724
 20
2.264373180633254
 30
0.0
 10
-37.59196755464699
 20
2.435158058693899
 30
0.0
 10
-38.13940811380556
 20
2.590948344969788
 30
0.0
 10
-38.68690451011671
 20
2.730771967276757
 30
0.0
 10
-39.23445481232185
 20
2.853763611618698
 30
0.0
 10
-39.78205690375837
 20
2.959169241769913
 30
0.0
 10
-40.32971034660362
 20
3.04629131265889
 30
0.0
 10
-40.87740428719711
 20
3.114727827847677
 30
0.0
 10
-41.42513211334821
 20
3.163553677833525
 30
0.0
 10
-41.97287982161195
 20
3.194277913346625
 30
0.0
 10
-42.33813402882196
 20
3.198085564589368
 30
0.0
 10
-42.5206395490642
 20
3.199988122745416
 30
0.0
  0
SPLINE
  5
220A
330
1F
100
AcDbEntity
  8
AM_0
100
AcDbSpline
210
0.0
220
0.0
230
1.0
 70
     8
 71
     3
 72
    22
 73
    18
 74
     0
 42
0.0000000001
 43
0.0000000001
 40
17.17441611292
 40
17.17441611292
 40
17.17441611292
 40
17.17441611292
 40
17.38177636558528
 40
18.41823744757437
 40
19.46215659509824
 40
20.51397914882054
 40
21.57394542641293
 40
22.64209583141747
 40
23.71826625065247
 40
24.80210429862395
 40
25.8930771157021
 40
26.99048705697709
 40
28.09349309193389
 40
29.20112995599786
 40
30.31233024745139
 40
31.42594771747373
 40
32.5407895042663
 40
32.54078950426994
 40
32.54078950426994
 40
32.54078950426994
 10
-34.56696235826628
 20
-2.873635037731617
 30
0.0
 10
-34.60364035504519
 20
-2.866227351593281
 30
0.0
 10
-34.82350491471402
 20
-2.821106325644619
 30
0.0
 10
-35.2262843987087
 20
-2.730632795985274
 30
0.0
 10
-35.77378075351134
 20
-2.590809386179243
 30
0.0
 10
-36.32122131958468
 20
-2.435019031312133
 30
0.0
 10
-36.86860996182844
 20
-2.264234213407726
 30
0.0
 10
-37.41594595718028
 20
-2.079502095908297
 30
0.0
 10
-37.96323604271162
 20
-1.881972352144762
 30
0.0
 10
-38.5104827525294
 20
-1.672858936366958
 30
0.0
 10
-39.057691149967
 20
-1.453451439551896
 30
0.0
 10
-39.60486731963489
 20
-1.225103466979898
 30
0.0
 10
-40.15201601069207
 20
-0.9892191372397233
 30
0.0
 10
-40.6991427310747
 20
-0.7472496505875962
 30
0.0
 10
-41.246252330585
 20
-0.5006828454727188
 30
0.0
 10
-41.79335291417585
 20
-0.2510401723539795
 30
0.0
 10
-42.1580150437079
 20
-0.0836101269452585
 30
0.0
 10
-42.34044628378632
 20
0.0001508831624918
 30
0.0
  0
SPLINE
  5
220B
330
1F
100
AcDbEntity
  8
AM_0
100
AcDbSpline
210
0.0
220
0.0
230
1.0
 70
     8
 71
     3
 72
    17
 73
    13
 74
     0
 42
0.0000000001
 43
0.0000000001
 40
1.580019955310467
 40
1.580019955310467
 40
1.580019955310467
 40
1.580019955310467
 40
2.030549285115227
 40
3.082371838836284
 40
4.126290986361125
 40
5.162752068350215
 40
6.192395305374981
 40
7.216039564037012
 40
8.234688489606833
 40
9.249433870634691
 40
10.26152376260694
 40
11.27226744710342
 40
11.27226744710342
 40
11.27226744710342
 40
11.27226744710352
 10
-27.31684405806304
 20
-2.361706106343822
 30
0.0
 10
-27.39434127973666
 20
-2.386029594954545
 30
0.0
 10
-27.65320803626333
 20
-2.465753077742493
 30
0.0
 10
-28.09515778592346
 20
-2.5908022130511
 30
0.0
 10
-28.64257793048617
 20
-2.730840655694199
 30
0.0
 10
-29.19014877930216
 20
-2.853775815200413
 30
0.0
 10
-29.73774471762329
 20
-2.959194847674054
 30
0.0
 10
-30.28540031554048
 20
-3.046330929981921
 30
0.0
 10
-30.83309374941142
 20
-3.11468681492398
 30
0.0
 10
-31.38082128705981
 20
-3.163819533493649
 30
0.0
 10
-31.92856943389754
 20
-3.193412812675619
 30
0.0
 10
-32.29382349393161
 20
-3.20001189556521
 30
0.0
 10
-32.47632897930101
 20
-3.200011877254641
 30
0.0
  0
SPLINE
  5
220C
330
1F
100
AcDbEntity
  8
AM_0
100
AcDbSpline
210
0.0
220
0.0
230
1.0
 70
     8
 71
     3
 72
    11
 73
     7
 74
     0
 42
0.0000000001
 43
0.0000000001
 40
11.27226913003534
 40
11.27226913003534
 40
11.27226913003534
 40
11.2722691300354
 40
12.28301561507924
 40
13.29510212255852
 40
14.30984805882082
 40
15.18258238371378
 40
15.18258238371378
 40
15.18258238371378
 40
15.18258238371378
 10
-32.47632897930104
 20
-3.200011877254641
 30
0.0
 10
-32.65814048896563
 20
-3.184350147340713
 30
0.0
 10
-33.02142057721489
 20
-3.14643378084541
 30
0.0
 10
-33.56446479893822
 20
-3.069947091033367
 30
0.0
 10
-34.07982334071437
 20
-2.978592126491343
 30
0.0
 10
-34.41312699459567
 20
-2.90836484634973
 30
0.0
 10
-34.56672280911704
 20
-2.873674509707147
 30
0.0
  0
SPLINE
  5
220D
330
1F
100
AcDbEntity
  8
AM_0
100
AcDbSpline
210
0.0
220
0.0
230
1.0
 70
     8
 71
     3
 72
    23
 73
    19
 74
     0
 42
0.0000000001
 43
0.0000000001
 40
16.03460024169435
 40
16.03460024169435
 40
16.03460024169435
 40
16.03460024169435
 40
16.35212704903564
 40
17.38177054169784
 40
18.41822485651776
 40
19.46214173629503
 40
20.51396345435107
 40
21.57393551351153
 40
22.64208202342361
 40
23.7182574881101
 40
24.80209208578934
 40
25.89306333925047
 40
26.99048218457928
 40
28.09348763352352
 40
29.20111863782268
 40
30.31232390128032
 40
31.42594612798585
 40
32.5407912310448
 40
32.5407912310486
 40
32.5407912310486
 40
32.5407912310486
 10
-31.13887996757795
 20
3.200442740819396
 30
0.0
 10
-31.08260557585671
 20
3.189640104338164
 30
0.0
 10
-30.8440899758841
 20
3.142597662931013
 30
0.0
 10
-30.42394217789537
 20
3.05042517857535
 30
0.0
 10
-29.87984967961709
 20
2.91336570232695
 30
0.0
 10
-29.33626256004358
 20
2.759470756001767
 30
0.0
 10
-28.79314869817845
 20
2.589631005054526
 30
0.0
 10
-28.25048881794825
 20
2.404793309898967
 30
0.0
 10
-27.70825155491246
 20
2.206014280749085
 30
0.0
 10
-27.16639914972906
 20
1.994450761693641
 30
0.0
 10
-26.62490081239825
 20
1.771300824606113
 30
0.0
 10
-26.08371312903479
 20
1.537862926975308
 30
0.0
 10
-25.54279224242887
 20
1.295493910718716
 30
0.0
 10
-25.0021021125646
 20
1.045587296072209
 30
0.0
 10
-24.46159750055551
 20
0.7895962557766402
 30
0.0
 10
-23.92122834422738
 20
0.5290155896976904
 30
0.0
 10
-23.38095064227705
 20
0.2653552922325326
 30
0.0
 10
-23.02086225324502
 20
0.0885854795782046
 30
0.0
 10
-22.84071986040403
 20
0.0001508831612969
 30
0.0
  0
LINE
  5
2211
330
1F
100
AcDbEntity
  8
AM_0
100
AcDbLine
 10
-50.63868160332041
 20
3.200442740819439
 30
0.0
 11
-56.4803890105321
 21
3.200017872270011
 31
0.0
  0
SPLINE
  5
234C
330
1F
100
AcDbEntity
  8
AM_0
 48
0.5
100
AcDbSpline
210
0.0
220
0.0
230
1.0
 70
     8
 71
     3
 72
    25
 73
    21
 74
     0
 42
0.0000000001
 43
0.0000000001
 40
6.846175049578289
 40
6.846175049578289
 40
6.846175049578289
 40
6.846175049578289
 40
7.604337694224321
 40
8.711974558287883
 40
9.814980593243754
 40
10.91239053451967
 40
12.0033633515982
 40
13.08720139956839
 40
14.16337181880432
 40
15.23152222380919
 40
16.29148850140128
 40
17.34331105512262
 40
18.38723020264746
 40
19.42369128463655
 40
20.45333379090873
 40
21.47697865721768
 40
22.49561244472435
 40
23.5103574802404
 40
24.52244778960836
 40
25.53320666051913
 40
25.53320666051913
 40
25.53320666051913
 40
25.53320666051913
 10
-3.422563439141999
 20
0.5792213618309071
 30
0.0
 10
-3.545078768690629
 20
0.635407670651862
 30
0.0
 10
-3.846840570452506
 20
0.7731170620948157
 30
0.0
 10
-4.328297294555348
 20
0.9893703796650791
 30
0.0
 10
-4.867028284000276
 20
1.225254776059579
 30
0.0
 10
-5.405786366576542
 20
1.453602730882625
 30
0.0
 10
-5.944576171220163
 20
1.673010232493187
 30
0.0
 10
-6.483403701379177
 20
1.882123646702556
 30
0.0
 10
-7.022273939515766
 20
2.079653391972957
 30
0.0
 10
-7.561189380315308
 20
2.264385505045698
 30
0.0
 10
-8.100156661833523
 20
2.435170338984441
 30
0.0
 10
-8.639175054244379
 20
2.590960634770841
 30
0.0
 10
-9.17824842920389
 20
2.730784262590347
 30
0.0
 10
-9.717374884297306
 20
2.853775875810548
 30
0.0
 10
-10.25655231342424
 20
2.959181623838787
 30
0.0
 10
-10.7957777163157
 20
3.046302828486005
 30
0.0
 10
-11.33504270284095
 20
3.114740759289944
 30
0.0
 10
-11.87434132975254
 20
3.163565859352395
 30
0.0
 10
-12.41366484260866
 20
3.194290389518641
 30
0.0
 10
-12.77330247177437
 20
3.198097906480455
 30
0.0
 10
-12.95300292969109
 20
3.200000411908344
 30
0.0
  0
ELLIPSE
  5
234D
330
1F
100
AcDbEntity
  8
AM_0
 48
0.5
100
AcDbEllipse
 10
4.664730222682578
 20
3.872111491019452
 30
0.0
 11
0.9080371674924979
 21
6.140243703020099
 31
0.0
210
0.0
220
0.0
230
1.0
 40
0.8991184301885631
 41
1.890270824098471
 42
2.197796108596753
  0
ELLIPSE
  5
234E
330
1F
100
AcDbEntity
  8
AM_0
 48
0.5
100
AcDbEllipse
 10
4.664730222682615
 20
-3.872111491018996
 30
0.0
 11
0.9080371674925567
 21
-6.140243703020088
 31
0.0
210
0.0
220
0.0
230
-1.0
 40
0.8991184301885633
 41
1.890270824098471
 42
2.197796108596753
  0
ELLIPSE
  5
234F
330
1F
100
AcDbEntity
  8
AM_0
 48
0.5
100
AcDbEllipse
 10
-5.441300455732662
 20
5.370760503053841
 30
0.0
 11
5.455709977217603
 21
5.455709977217646
 31
0.0
210
0.0
220
0.0
230
0.9999999999999998
 40
0.9999999999999122
 41
4.437574142215648
 42
4.526068919895139
  0
ELLIPSE
  5
2350
330
1F
100
AcDbEntity
  8
AM_0
 48
0.5
100
AcDbEllipse
 10
2.14083658853826
 20
3.841797286908146
 30
0.0
 11
-4.560430892029526
 21
4.560430892029489
 31
0.0
210
0.0
220
0.0
230
1.0
 40
0.9999999999999943
 41
1.315765716631529
 42
1.723886646826419
  0
ELLIPSE
  5
2351
330
1F
100
AcDbEntity
  8
AM_0
 48
0.5
100
AcDbEllipse
 10
-0.8553548177119409
 20
-0.8339656525451458
 30
0.0
 11
-0.0926106591221762
 21
0.5252299074223741
 31
0.0
210
0.0
220
0.0
230
1.0
 40
0.4999981224495357
 41
1.805862328724633
 42
4.941204218436607
  0
ELLIPSE
  5
2352
330
1F
100
AcDbEntity
  8
AM_0
 48
0.5
100
AcDbEllipse
 10
-0.8553548177119409
 20
-0.8339656525451458
 30
0.0
 11
-0.4618815363400963
 21
0.2666666674657463
 31
0.0
210
0.0
220
0.0
230
1.0
 40
0.5000000000001405
 41
4.483836531792615
 42
7.627276873122125
  0
SPLINE
  5
2353
330
1F
100
AcDbEntity
  8
AM_0
 48
0.5
100
AcDbSpline
210
0.0
220
0.0
230
1.0
 70
     8
 71
     3
 72
    10
 73
     6
 74
     0
 42
0.0000000001
 43
0.0000000001
 40
0.0
 40
0.0
 40
0.0
 40
0.0
 40
2.69986029516136
 40
4.147722969032201
 40
6.285750005020438
 40
6.285750005020438
 40
6.285750005020438
 40
6.285750005020438
 10
-3.422477213545523
 20
0.5791833546164967
 30
0.0
 10
-3.03863138154271
 20
0.2818812416198676
 30
0.0
 10
-2.448939323468966
 20
-0.1748560217962945
 30
0.0
 10
-1.054396820884452
 20
0.0462584887852879
 30
0.0
 10
-1.317029736890656
 20
0.7910014182287207
 30
0.0
 10
-1.490560787482907
 20
1.244945171189353
 30
0.0
  0
ELLIPSE
  5
2354
330
1F
100
AcDbEntity
  8
AM_0
 48
0.5
100
AcDbEllipse
 10
-5.639300188442863
 20
6.08675260569829
 30
0.0
 11
-4.989152536407865
 21
6.762713872729886
 31
0.0
210
0.0
220
0.0
230
1.0
 40
0.5700206404056103
 41
3.14653163117385
 42
3.335796059594246
  0
ELLIPSE
  5
2355
330
1F
100
AcDbEntity
  8
AM_0
 48
0.5
100
AcDbEllipse
 10
3.407820638017129
 20
-0.7113155060604121
 30
0.0
 11
5.001104866533197
 21
1.130342192868249
 31
0.0
210
0.0
220
0.0
230
1.0
 40
0.8722335335748979
 41
3.032663891140797
 42
3.47313958814737
  0
LINE
  5
2356
330
1F
100
AcDbEntity
  8
AM_0
100
AcDbLine
 10
0.0000000000000764
 20
0.0000000000002097
 30
0.0
 11
-0.3387330147890726
 21
-0.9306613093568428
 31
0.0
  0
LINE
  5
2358
330
1F
100
AcDbEntity
  8
AM_0
 48
0.5
100
AcDbLine
 10
-0.8619116672912667
 20
-2.718781255367508
 30
0.0
 11
-0.9999999999998607
 21
-3.199999588091795
 31
0.0
  0
LINE
  5
2359
330
1F
100
AcDbEntity
  8
AM_0
100
AcDbLine
 10
-0.3387330147890797
 20
0.9306613093572588
 30
0.0
 11
0.0000000000000764
 21
0.0000000000002097
 31
0.0
  0
LINE
  5
235A
330
1F
100
AcDbEntity
  8
AM_0
 48
0.5
100
AcDbLine
 10
0.0000000000001172
 20
0.0000000000001778
 30
0.0
 11
-1.474603271487925
 21
1.228703211387142
 31
0.0
  0
LINE
  5
235C
330
1F
100
AcDbEntity
  8
AM_0
 48
0.5
100
AcDbLine
 10
-0.861911667291288
 20
2.718781255367918
 30
0.0
 11
-0.9999999999998578
 21
3.199988122745245
 31
0.0
  0
DIMENSION
  5
237B
330
1F
100
AcDbEntity
  8
AM_5
100
AcDbDimension
  2
*D10
 10
-0.3387330147890726
 20
-0.9306613093568428
 30
0.0
 11
11.68860230517849
 21
0.0000000000002636
 31
0.0
 70
    34
  1
<>
 51
359.9999999999998
  3
AM_JIS$2
100
AcDb2LineAngularDimension
 13
-0.3387330147890797
 23
0.9306613093572588
 33
0.0
 14
0.0000000000000764
 24
0.0000000000002097
 34
0.0
 15
0.0000000000000764
 25
0.0000000000002097
 35
0.0
 16
12.1558978691972
 26
-5.243542503720348
 36
0.0
1001
ACAD
1000
DSTYLE
1002
{
1070
   179
1070
     3
1002
}
1001
GENIUS_GENDTOL_13
1000

1000
h7
1000

1040
0.0
  0
VIEWPORT
  5
110
330
101
100
AcDbEntity
 67
     1
  8
0
100
AcDbViewport
 10
420.5
 20
297.0
 30
0.0
 40
948.9782706766916
 41
628.452
 68
     1
 69
     1
1001
ACAD
1000
MVIEW
1002
{
1070
    16
1010
0.0
1020
0.0
1030
0.0
1010
0.0
1020
0.0
1030
1.0
1040
0.0
1040
628.452
1040
420.5
1040
297.0
1040
50.0
1040
0.0
1040
0.0
1070
     0
1070
   100
1070
     1
1070
     1
1070
     0
1070
     0
1070
     0
1070
     0
1040
0.0
1040
0.0
1040
0.0
1040
10.0
1040
10.0
1040
10.0
1040
10.0
1070
     0
1002
{
1002
}
1002
}
  0
ENDSEC
  0
SECTION
  2
OBJECTS
  0
DICTIONARY
  5
C
330
0
100
AcDbDictionary
  3
ACAD_GROUP
350
D
  3
ACAD_LAYOUT
350
1A
  3
ACAD_MLINESTYLE
350
17
  3
ACAD_PLOTSETTINGS
350
19
  3
ACAD_PLOTSTYLENAME
350
E
  3
ACDBVARIABLEDICTIONARY
350
34
  3
ACMDICTIONARY
350
43
  3
AMG
350
2B
  3
AMGSNAPSETTINGS
350
6E
  3
DWGPROPS
350
2492
  3
ACDBHEADERROUNDTRIPXREC
350
249F
  0
DICTIONARY
  5
74
330
1F
100
AcDbDictionary
280
     1
  3
ACAD_INDEX
360
2494
  3
ACAD_LAYOUTSELFREF
360
24C2
  0
DICTIONARY
  5
24C7
330
101
100
AcDbDictionary
280
     1
  3
ACAD_LAYOUTSELFREF
360
24C8
  0
DICTIONARY
  5
D
102
{ACAD_REACTORS
330
C
102
}
330
C
100
AcDbDictionary
  0
DICTIONARY
  5
1A
102
{ACAD_REACTORS
330
C
102
}
330
C
100
AcDbDictionary
  0
DICTIONARY
  5
17
102
{ACAD_REACTORS
330
C
102
}
330
C
100
AcDbDictionary
  3
STANDARD
350
18
  0
DICTIONARY
  5
19
102
{ACAD_REACTORS
330
C
102
}
330
C
100
AcDbDictionary
  0
ACDBDICTIONARYWDFLT
  5
E
102
{ACAD_REACTORS
330
C
102
}
330
C
100
AcDbDictionary
281
     1
  3
Normal
350
F
100
AcDbDictionaryWithDefault
340
F
  0
DICTIONARY
  5
34
102
{ACAD_REACTORS
330
C
102
}
330
C
100
AcDbDictionary
  3
INDEXCTL
350
35
  3
SORTENTS
350
B5E
  0
DICTIONARY
  5
43
102
{ACAD_REACTORS
330
C
102
}
330
C
100
AcDbDictionary
  3
ACMSTDDICTIONARY
350
260
  0
DICTIONARY
  5
2B
102
{ACAD_REACTORS
330
C
102
}
330
C
100
AcDbDictionary
  3
ACMGSETTINGS
350
2C
  0
DICTIONARY
  5
6E
102
{ACAD_REACTORS
330
C
102
}
330
C
100
AcDbDictionary
  0
XRECORD
  5
2492
102
{ACAD_REACTORS
330
C
102
}
330
C
100
AcDbXrecord
  1
DWGPROPS COOKIE
  2

  3

  4

  6

  7

  8

  9

300
AmdtFileType=82
301
=
302
=
303
=
304
=
305
=
306
=
307
=
308
=
309
=
 40
0.0572764699074074
 41
2452800.443498622
 42
2452948.545794085
  1

 90
        1
  0
DICTIONARY
  5
249F
102
{ACAD_REACTORS
330
C
102
}
330
C
100
AcDbDictionary
  3
TSTACKALIGN
350
24A0
  3
TSTACKSIZE
350
24A1
  3
HYPERLINKBASE
350
24A2
  3
STYLESHEET
350
24A3
  3
LAYOUTDICT
350
24A4
  3
PLOTSETDICT
350
24A5
  3
PLOTSTYLNAMDICT
350
24A6
  3
LWETCUNION
350
24A7
  3
INSUNITS
350
24A8
  3
CEPSNTYPE
350
24A9
  3
FINGERPRINTGUID
350
24AA
  3
VERSIONGUID
350
24AB
  3
PSVPSCALE
350
24AC
  3
DIMSTYLEDATA
350
24AD
  3
PUCSORTHOREF
350
24AE
  3
PUCSORTHOVIEW
350
24AF
  3
PUCSBASE
350
24B0
  3
PUCSORGTOP
350
24B1
  3
PUCSORGBOTTOM
350
24B2
  3
PUCSORGLEFT
350
24B3
  3
PUCSORGRIGHT
350
24B4
  3
PUCSORGFRONT
350
24B5
  3
PUCSORGBACK
350
24B6
  3
UCSORTHOREF
350
24B7
  3
UCSORTHOVIEW
350
24B8
  3
UCSBASE
350
24B9
  3
UCSORGTOP
350
24BA
  3
UCSORGBOTTOM
350
24BB
  3
UCSORGLEFT
350
24BC
  3
UCSORGRIGHT
350
24BD
  3
UCSORGFRONT
350
24BE
  3
UCSORGBACK
350
24BF
  0
DICTIONARY
  5
2494
102
{ACAD_REACTORS
330
74
102
}
330
74
100
AcDbDictionary
  3
*A1
350
2495
  0
XRECORD
  5
24C2
102
{ACAD_REACTORS
330
74
102
}
330
74
100
AcDbXrecord
340
1F
  0
XRECORD
  5
24C8
102
{ACAD_REACTORS
330
24C7
102
}
330
24C7
100
AcDbXrecord
340
101
  0
MLINESTYLE
  5
18
102
{ACAD_REACTORS
330
17
102
}
330
17
100
AcDbMlineStyle
  2
STANDARD
 70
     0
  3

 62
   256
 51
90.0
 52
90.0
 71
     2
 49
0.5
 62
   256
  6
BYLAYER
 49
-0.5
 62
   256
  6
BYLAYER
  0
ACDBPLACEHOLDER
  5
F
102
{ACAD_REACTORS
330
E
102
}
330
E
100
AcDbPlaceHolder
280
     0
  0
DICTIONARYVAR
  5
35
102
{ACAD_REACTORS
330
34
102
}
330
34
100
DictionaryVariables
280
     0
  1
1
  0
DICTIONARYVAR
  5
B5E
102
{ACAD_REACTORS
330
34
102
}
330
34
100
DictionaryVariables
280
     0
  1
96
  0
DICTIONARY
  5
260
102
{ACAD_REACTORS
330
43
102
}
330
43
100
AcDbDictionary
  0
DICTIONARY
  5
2C
102
{ACAD_REACTORS
330
2B
102
}
330
2B
100
AcDbDictionary
  3
DWGSETTINGS
350
2D
  0
XRECORD
  5
24A0
102
{ACAD_REACTORS
330
249F
102
}
330
249F
100
AcDbXrecord
 90
        1
  0
XRECORD
  5
24A1
102
{ACAD_REACTORS
330
249F
102
}
330
249F
100
AcDbXrecord
 90
       70
  0
XRECORD
  5
24A2
102
{ACAD_REACTORS
330
249F
102
}
330
249F
100
AcDbXrecord
  1

  0
XRECORD
  5
24A3
102
{ACAD_REACTORS
330
249F
102
}
330
249F
100
AcDbXrecord
  1
ASAMI.ctb
  0
XRECORD
  5
24A4
102
{ACAD_REACTORS
330
249F
102
}
330
249F
100
AcDbXrecord
340
1A
  0
XRECORD
  5
24A5
102
{ACAD_REACTORS
330
249F
102
}
330
249F
100
AcDbXrecord
340
19
  0
XRECORD
  5
24A6
102
{ACAD_REACTORS
330
249F
102
}
330
249F
100
AcDbXrecord
340
E
  0
XRECORD
  5
24A7
102
{ACAD_REACTORS
330
249F
102
}
330
249F
100
AcDbXrecord
 90
    10781
  0
XRECORD
  5
24A8
102
{ACAD_REACTORS
330
249F
102
}
330
249F
100
AcDbXrecord
 90
        4
  0
XRECORD
  5
24A9
102
{ACAD_REACTORS
330
249F
102
}
330
249F
100
AcDbXrecord
 90
        0
  0
XRECORD
  5
24AA
102
{ACAD_REACTORS
330
249F
102
}
330
249F
100
AcDbXrecord
  1
{AFB28963-8C59-40AE-9337-C84526B81ACE}
  0
XRECORD
  5
24AB
102
{ACAD_REACTORS
330
249F
102
}
330
249F
100
AcDbXrecord
  1
{19BC60D1-41BC-4293-9688-7360788293DE}
  0
XRECORD
  5
24AC
102
{ACAD_REACTORS
330
249F
102
}
330
249F
100
AcDbXrecord
 40
0.0
  0
XRECORD
  5
24AD
102
{ACAD_REACTORS
330
249F
102
}
330
249F
100
AcDbXrecord
1000
DSTYLE
1002
{
1070
    79
 70
     2
1070
   341
340
59
1070
   342
340
59
1070
   371
 70
    -1
1070
   372
 70
    -1
1002
}
  0
XRECORD
  5
24AE
102
{ACAD_REACTORS
330
249F
102
}
330
249F
100
AcDbXrecord
340
0
  0
XRECORD
  5
24AF
102
{ACAD_REACTORS
330
249F
102
}
330
249F
100
AcDbXrecord
 70
     0
  0
XRECORD
  5
24B0
102
{ACAD_REACTORS
330
249F
102
}
330
249F
100
AcDbXrecord
340
0
  0
XRECORD
  5
24B1
102
{ACAD_REACTORS
330
249F
102
}
330
249F
100
AcDbXrecord
 10
0.0
 20
0.0
 30
0.0
  0
XRECORD
  5
24B2
102
{ACAD_REACTORS
330
249F
102
}
330
249F
100
AcDbXrecord
 10
0.0
 20
0.0
 30
0.0
  0
XRECORD
  5
24B3
102
{ACAD_REACTORS
330
249F
102
}
330
249F
100
AcDbXrecord
 10
0.0
 20
0.0
 30
0.0
  0
XRECORD
  5
24B4
102
{ACAD_REACTORS
330
249F
102
}
330
249F
100
AcDbXrecord
 10
0.0
 20
0.0
 30
0.0
  0
XRECORD
  5
24B5
102
{ACAD_REACTORS
330
249F
102
}
330
249F
100
AcDbXrecord
 10
0.0
 20
0.0
 30
0.0
  0
XRECORD
  5
24B6
102
{ACAD_REACTORS
330
249F
102
}
330
249F
100
AcDbXrecord
 10
0.0
 20
0.0
 30
0.0
  0
XRECORD
  5
24B7
102
{ACAD_REACTORS
330
249F
102
}
330
249F
100
AcDbXrecord
340
0
  0
XRECORD
  5
24B8
102
{ACAD_REACTORS
330
249F
102
}
330
249F
100
AcDbXrecord
 70
     0
  0
XRECORD
  5
24B9
102
{ACAD_REACTORS
330
249F
102
}
330
249F
100
AcDbXrecord
340
0
  0
XRECORD
  5
24BA
102
{ACAD_REACTORS
330
249F
102
}
330
249F
100
AcDbXrecord
 10
0.0
 20
0.0
 30
0.0
  0
XRECORD
  5
24BB
102
{ACAD_REACTORS
330
249F
102
}
330
249F
100
AcDbXrecord
 10
0.0
 20
0.0
 30
0.0
  0
XRECORD
  5
24BC
102
{ACAD_REACTORS
330
249F
102
}
330
249F
100
AcDbXrecord
 10
0.0
 20
0.0
 30
0.0
  0
XRECORD
  5
24BD
102
{ACAD_REACTORS
330
249F
102
}
330
249F
100
AcDbXrecord
 10
0.0
 20
0.0
 30
0.0
  0
XRECORD
  5
24BE
102
{ACAD_REACTORS
330
249F
102
}
330
249F
100
AcDbXrecord
 10
0.0
 20
0.0
 30
0.0
  0
XRECORD
  5
24BF
102
{ACAD_REACTORS
330
249F
102
}
330
249F
100
AcDbXrecord
 10
0.0
 20
0.0
 30
0.0
  0
LAYER_INDEX
  5
2495
102
{ACAD_REACTORS
330
2494
102
}
330
2494
100
AcDbIndex
 40
2453151.695133263
100
AcDbLayerIndex
  8
0
360
2496
 90
        0
  8
AM_0
360
2497
 90
       52
  8
AM_7
360
2498
 90
        1
  8
AM_11
360
2499
 90
       23
  8
AM_5
360
249A
 90
        5
  8
Defpoints
360
249B
 90
        0
  8
AM_6
360
249C
 90
        1
  8
AM_CL
360
249D
 90
        0
  0
XRECORD
  5
2D
102
{ACAD_REACTORS
330
2C
102
}
330
2C
100
AcDbXrecord
  1
VERSION
140
15.0
  1
PRODUCT
  2
AutoCAD Mechanical 2000
  0
IDBUFFER
  5
2496
330
0
100
AcDbIdBuffer
  0
IDBUFFER
  5
2497
330
0
100
AcDbIdBuffer
330
2358
330
2359
330
235A
330
235C
330
1D9D
330
1D9E
330
1D9F
330
1DA1
330
1DA2
330
1DA4
330
1DA5
330
1F71
330
1F72
330
21E7
330
21E8
330
21E9
330
21EB
330
21EF
330
21F0
330
21F1
330
21F2
330
21F3
330
21F8
330
21F9
330
21FA
330
21FB
330
21FC
330
21FD
330
21FE
330
2201
330
2204
330
2205
330
2206
330
2207
330
2208
330
2209
330
220A
330
220B
330
220C
330
220D
330
2211
330
234C
330
234D
330
234E
330
234F
330
2350
330
2351
330
2352
330
2353
330
2354
330
2355
330
2356
  0
IDBUFFER
  5
2498
330
0
100
AcDbIdBuffer
330
1D14
  0
IDBUFFER
  5
2499
330
0
100
AcDbIdBuffer
330
1F7E
330
21EA
330
21EC
330
21ED
330
21EE
330
21F4
330
21F5
330
144A
330
144B
330
144E
330
144F
330
1450
330
1451
330
1452
330
1453
330
1454
330
1F77
330
1F78
330
1F79
330
1F7A
330
1F7B
330
1F7C
330
1F7D
  0
IDBUFFER
  5
249A
330
0
100
AcDbIdBuffer
330
CC6
330
DF5
330
1F93
330
21D4
330
237B
  0
IDBUFFER
  5
249B
330
0
100
AcDbIdBuffer
  0
IDBUFFER
  5
249C
330
0
100
AcDbIdBuffer
330
19BD
  0
IDBUFFER
  5
249D
330
0
100
AcDbIdBuffer
  0
ENDSEC
  0
EOF
