  0
SECTION
  2
HEADER
  9
$ACADVER
  1
AC1014
  9
$ACADMAINTVER
 70
     9
  9
$DWGCODEPAGE
  3
ANSI_932
  9
$INSBASE
 10
0.0
 20
0.0
 30
0.0
  9
$EXTMIN
 10
-120.9220030296784
 20
-30.06133655472378
 30
-0.00000001
  9
$EXTMAX
 10
16.6281425623813
 20
16.28311620201174
 30
0.00000001
  9
$LIMMIN
 10
-138.043628963965
 20
-56.59550642026701
  9
$LIMMAX
 10
33.48614593319649
 20
35.21316621954776
  9
$ORTHOMODE
 70
     0
  9
$REGENMODE
 70
     1
  9
$FILLMODE
 70
     1
  9
$QTEXTMODE
 70
     0
  9
$MIRRTEXT
 70
     0
  9
$DRAGMODE
 70
     2
  9
$LTSCALE
 40
1.0
  9
$OSMODE
 70
    55
  9
$ATTMODE
 70
     1
  9
$TEXTSIZE
 40
2.5
  9
$TRACEWID
 40
1.0
  9
$TEXTSTYLE
  7
STANDARD
  9
$CLAYER
  8
AM_0
  9
$CELTYPE
  6
BYLAYER
  9
$CECOLOR
 62
   256
  9
$CELTSCALE
 40
1.0
  9
$DELOBJ
 70
     1
  9
$DISPSILH
 70
     0
  9
$DIMSCALE
 40
1.0
  9
$DIMASZ
 40
2.5
  9
$DIMEXO
 40
1.0
  9
$DIMDLI
 40
12.0
  9
$DIMRND
 40
0.0
  9
$DIMDLE
 40
0.0
  9
$DIMEXE
 40
1.0
  9
$DIMTP
 40
0.1
  9
$DIMTM
 40
0.1
  9
$DIMTXT
 40
3.2
  9
$DIMCEN
 40
0.0
  9
$DIMTSZ
 40
0.0
  9
$DIMTOL
 70
     0
  9
$DIMLIM
 70
     0
  9
$DIMTIH
 70
     0
  9
$DIMTOH
 70
     0
  9
$DIMSE1
 70
     0
  9
$DIMSE2
 70
     0
  9
$DIMTAD
 70
     3
  9
$DIMZIN
 70
     8
  9
$DIMBLK
  1
OPEN30
  9
$DIMASO
 70
     1
  9
$DIMSHO
 70
     1
  9
$DIMPOST
  1

  9
$DIMAPOST
  1
"
  9
$DIMALT
 70
     0
  9
$DIMALTD
 70
     2
  9
$DIMALTF
 40
0.0393701
  9
$DIMLFAC
 40
1.0
  9
$DIMTOFL
 70
     1
  9
$DIMTVP
 40
0.0
  9
$DIMTIX
 70
     0
  9
$DIMSOXD
 70
     0
  9
$DIMSAH
 70
     0
  9
$DIMBLK1
  1

  9
$DIMBLK2
  1

  9
$DIMSTYLE
  2
AM_JIS
  9
$DIMCLRD
 70
   256
  9
$DIMCLRE
 70
   256
  9
$DIMCLRT
 70
     2
  9
$DIMTFAC
 40
0.71
  9
$DIMGAP
 40
1.5
  9
$DIMJUST
 70
     0
  9
$DIMSD1
 70
     0
  9
$DIMSD2
 70
     0
  9
$DIMTOLJ
 70
     0
  9
$DIMTZIN
 70
     0
  9
$DIMALTZ
 70
     0
  9
$DIMALTTZ
 70
     0
  9
$DIMFIT
 70
     3
  9
$DIMUPT
 70
     0
  9
$DIMUNIT
 70
     2
  9
$DIMDEC
 70
     3
  9
$DIMTDEC
 70
     3
  9
$DIMALTU
 70
     2
  9
$DIMALTTD
 70
     2
  9
$DIMTXSTY
  7
ASAMI
  9
$DIMAUNIT
 70
     0
  9
$LUNITS
 70
     2
  9
$LUPREC
 70
     2
  9
$SKETCHINC
 40
1.0
  9
$FILLETRAD
 40
2.5
  9
$AUNITS
 70
     0
  9
$AUPREC
 70
     0
  9
$MENU
  1
.
  9
$ELEVATION
 40
0.0
  9
$PELEVATION
 40
0.0
  9
$THICKNESS
 40
0.0
  9
$LIMCHECK
 70
     0
  9
$BLIPMODE
 70
     0
  9
$CHAMFERA
 40
0.25
  9
$CHAMFERB
 40
0.25
  9
$CHAMFERC
 40
20.0
  9
$CHAMFERD
 40
0.0
  9
$SKPOLY
 70
     0
  9
$TDCREATE
 40
2452800.443498622
  9
$TDUPDATE
 40
2453151.584610266
  9
$TDINDWG
 40
0.0460454745
  9
$TDUSRTIMER
 40
0.0460454745
  9
$USRTIMER
 70
     1
  9
$ANGBASE
 50
0.0
  9
$ANGDIR
 70
     0
  9
$PDMODE
 70
     3
  9
$PDSIZE
 40
0.0
  9
$PLINEWID
 40
0.0
  9
$COORDS
 70
     1
  9
$SPLFRAME
 70
     0
  9
$SPLINETYPE
 70
     6
  9
$SPLINESEGS
 70
     8
  9
$ATTDIA
 70
     1
  9
$ATTREQ
 70
     1
  9
$HANDLING
 70
 12289
  9
$HANDSEED
  5
2366
  9
$SURFTAB1
 70
     6
  9
$SURFTAB2
 70
     6
  9
$SURFTYPE
 70
     6
  9
$SURFU
 70
     6
  9
$SURFV
 70
     6
  9
$UCSNAME
  2

  9
$UCSORG
 10
0.0
 20
0.0
 30
0.0
  9
$UCSXDIR
 10
1.0
 20
0.000000000000002
 30
0.0
  9
$UCSYDIR
 10
-0.000000000000002
 20
1.0
 30
0.0
  9
$PUCSNAME
  2

  9
$PUCSORG
 10
0.0
 20
0.0
 30
0.0
  9
$PUCSXDIR
 10
1.0
 20
0.0
 30
0.0
  9
$PUCSYDIR
 10
0.0
 20
1.0
 30
0.0
  9
$USERI1
 70
     0
  9
$USERI2
 70
     0
  9
$USERI3
 70
     0
  9
$USERI4
 70
     0
  9
$USERI5
 70
     0
  9
$USERR1
 40
0.0
  9
$USERR2
 40
0.0
  9
$USERR3
 40
0.0
  9
$USERR4
 40
0.0
  9
$USERR5
 40
0.0
  9
$WORLDVIEW
 70
     1
  9
$SHADEDGE
 70
     3
  9
$SHADEDIF
 70
    70
  9
$TILEMODE
 70
     1
  9
$MAXACTVP
 70
    64
  9
$PINSBASE
 10
0.0
 20
0.0
 30
0.0
  9
$PLIMCHECK
 70
     0
  9
$PEXTMIN
 10
1.000000000000000E+20
 20
1.000000000000000E+20
 30
1.000000000000000E+20
  9
$PEXTMAX
 10
-1.000000000000000E+20
 20
-1.000000000000000E+20
 30
-1.000000000000000E+20
  9
$PLIMMIN
 10
0.0
 20
0.0
  9
$PLIMMAX
 10
841.0
 20
594.0
  9
$UNITMODE
 70
     0
  9
$VISRETAIN
 70
     1
  9
$PLINEGEN
 70
     0
  9
$PSLTSCALE
 70
     0
  9
$TREEDEPTH
 70
  3020
  9
$PICKSTYLE
 70
     0
  9
$CMLSTYLE
  2
STANDARD
  9
$CMLJUST
 70
     0
  9
$CMLSCALE
 40
20.0
  9
$PROXYGRAPHICS
 70
     1
  9
$MEASUREMENT
 70
     1
  0
ENDSEC
  0
SECTION
  2
CLASSES
  0
CLASS
  1
ACDBDICTIONARYWDFLT
  2
AcDbDictionaryWithDefault
  3
AutoCAD 2000
 90
        0
280
     0
281
     0
  0
CLASS
  1
ACDBPLACEHOLDER
  2
AcDbPlaceHolder
  3
AutoCAD 2000
 90
        0
280
     0
281
     0
  0
CLASS
  1
LAYOUT
  2
AcDbLayout
  3
AutoCAD 2000
 90
        0
280
     0
281
     0
  0
CLASS
  1
AMGSETTINGSOBJ
  2
AmgSettingsObj
  3
"AcadM|Product Description: AutoCAD Mechanical 2000|Company: Autodesk"
 90
        0
280
     0
281
     0
  0
CLASS
  1
ACME_DOCUMENT
  2
AcMeDbDoc
  3
AcMeServices
 90
        0
280
     0
281
     0
  0
CLASS
  1
ACMESCOPE
  2
AcMeScope
  3
AcMeServices
 90
        0
280
     0
281
     0
  0
CLASS
  1
ACMECOMMANDHISTORY
  2
AcMeCommandHistory
  3
AcMeServices
 90
        0
280
     0
281
     0
  0
CLASS
  1
DICTIONARYVAR
  2
AcDbDictionaryVar
  3
AutoCAD 2000
 90
        0
280
     0
281
     0
  0
CLASS
  1
ACIMSYSVARMAN
  2
AcImSysVarManager
  3
AcMeServices
 90
        0
280
     0
281
     0
  0
CLASS
  1
ACIMREALSYSVAR
  2
AcImRealSysVar
  3
AcMeServices
 90
        0
280
     0
281
     0
  0
CLASS
  1
ACIMINTSYSVAR
  2
AcImIntSysVar
  3
AcMeServices
 90
        0
280
     0
281
     0
  0
CLASS
  1
ACMEDRAWINGMAN
  2
AcMeDrawingMan
  3
AcMeServices
 90
        0
280
     0
281
     0
  0
CLASS
  1
ACMEVIEW
  2
AcMeView
  3
AcMeServices
 90
        0
280
     0
281
     0
  0
CLASS
  1
ACDBENTITYCACHE
  2
AcMeEntityCache
  3
AcMeServices
 90
        0
280
     0
281
     0
  0
CLASS
  1
GSMANAGER
  2
AcMeGSManager
  3
AcMeServices
 90
        0
280
     0
281
     0
  0
CLASS
  1
AmdtInternalReactor
  2
AmdtInternalReactor
  3
AcMeServices
 90
        0
280
     0
281
     0
  0
CLASS
  1
ACMESTATEMGR
  2
AcMeStateMgr
  3
AcMeServices
 90
        0
280
     0
281
     0
  0
CLASS
  1
ACME_DATABASE
  2
AcMeDbDatabase
  3
AcMeServices
 90
        0
280
     0
281
     0
  0
CLASS
  1
ACRFINSADJUSTERMGR
  2
AcRfInsAdjusterMgr
  3
AcMeServices
 90
        0
280
     0
281
     0
  0
CLASS
  1
ACMDATADICTIONARY
  2
AcmDataDictionary
  3
"AcmSymBB|Product Description: AutoCAD Mechanical 2000|Company: Autodesk"
 90
        0
280
     0
281
     0
  0
CLASS
  1
ACMDATAENTRYBLOCK
  2
AcmDataEntryBlock
  3
"AcmSymBB|Product Description: AutoCAD Mechanical 2000|Company: Autodesk"
 90
        0
280
     0
281
     0
  0
CLASS
  1
AMGOBJPROPCFG
  2
AmgObjPropCfg
  3
"AmgLay|Product Description: AutoCAD Mechanical 2000|Company: Autodesk"
 90
        1
280
     0
281
     0
  0
CLASS
  1
ACAMGFILTERDAT
  2
AcAmgFilterDat
  3
"AcadM|Product Description: AutoCAD Mechanical 2000|Company: Autodesk"
 90
        0
280
     0
281
     0
  0
CLASS
  1
LAYER_INDEX
  2
AcDbLayerIndex
  3
AutoCAD 2000
 90
        0
280
     0
281
     0
  0
CLASS
  1
IDBUFFER
  2
AcDbIdBuffer
  3
AutoCAD 2000
 90
        0
280
     0
281
     0
  0
CLASS
  1
ACIMSTRSYSVAR
  2
AcImStrSysVar
  3
AcMeServices
 90
        0
280
     0
281
     0
  0
CLASS
  1
ACMSTANDARDJIS
  2
AcmStandardJIS
  3
"AcmSymBB|Product Description: AutoCAD Mechanical 2000|Company: Autodesk"
 90
        0
280
     0
281
     0
  0
CLASS
  1
ACMSURFSTANDARDJIS
  2
AcmSurfTextStdJIS
  3
"AcmSymBB|Product Description: AutoCAD Mechanical 2000|Company: Autodesk"
 90
        0
280
     0
281
     0
  0
CLASS
  1
ACMFCFSTANDARDJIS
  2
AcmFCFStdJIS
  3
"AcmSymBB|Product Description: AutoCAD Mechanical 2000|Company: Autodesk"
 90
        0
280
     0
281
     0
  0
CLASS
  1
ACMWELDSTANDARDJIS
  2
AcmWeldingStdJIS
  3
"AcmSymBB|Product Description: AutoCAD Mechanical 2000|Company: Autodesk"
 90
        0
280
     0
281
     0
  0
CLASS
  1
ACMIDSTANDARDJIS
  2
AcmIdStdJIS
  3
"AcmSymBB|Product Description: AutoCAD Mechanical 2000|Company: Autodesk"
 90
        0
280
     0
281
     0
  0
CLASS
  1
ACMDATUMSTANDARDJIS
  2
AcmDatumStdJIS
  3
"AcmSymBB|Product Description: AutoCAD Mechanical 2000|Company: Autodesk"
 90
        0
280
     0
281
     0
  0
CLASS
  1
ACMBOMSTANDARDJIS
  2
AcmBOMStdJIS
  3
"AcmSymBB|Product Description: AutoCAD Mechanical 2000|Company: Autodesk"
 90
        0
280
     0
281
     0
  0
CLASS
  1
ACMSTANDARDANSI
  2
AcmStandardANSI
  3
"AcmSymBB|Product Description: AutoCAD Mechanical 2000|Company: Autodesk"
 90
        0
280
     0
281
     0
  0
CLASS
  1
ACMSURFSTANDARDANSI
  2
AcmSurfTextStdANSI
  3
"AcmSymBB|Product Description: AutoCAD Mechanical 2000|Company: Autodesk"
 90
        0
280
     0
281
     0
  0
CLASS
  1
ACMFCFSTANDARDANSI
  2
AcmFCFStdANSI
  3
"AcmSymBB|Product Description: AutoCAD Mechanical 2000|Company: Autodesk"
 90
        0
280
     0
281
     0
  0
CLASS
  1
ACMWELDSTANDARDANSI
  2
AcmWeldingStdANSI
  3
"AcmSymBB|Product Description: AutoCAD Mechanical 2000|Company: Autodesk"
 90
        0
280
     0
281
     0
  0
CLASS
  1
ACMIDSTANDARDANSI
  2
AcmIdStdANSI
  3
"AcmSymBB|Product Description: AutoCAD Mechanical 2000|Company: Autodesk"
 90
        0
280
     0
281
     0
  0
CLASS
  1
ACMDATUMSTANDARDANSI
  2
AcmDatumStdANSI
  3
"AcmSymBB|Product Description: AutoCAD Mechanical 2000|Company: Autodesk"
 90
        0
280
     0
281
     0
  0
CLASS
  1
ACMBOMSTANDARDANSI
  2
AcmBOMStdANSI
  3
"AcmSymBB|Product Description: AutoCAD Mechanical 2000|Company: Autodesk"
 90
        0
280
     0
281
     0
  0
CLASS
  1
ACMSTANDARDBSI
  2
AcmStandardBSI
  3
"AcmSymBB|Product Description: AutoCAD Mechanical 2000|Company: Autodesk"
 90
        0
280
     0
281
     0
  0
CLASS
  1
ACMSURFSTANDARDBSI
  2
AcmSurfTextStdBSI
  3
"AcmSymBB|Product Description: AutoCAD Mechanical 2000|Company: Autodesk"
 90
        0
280
     0
281
     0
  0
CLASS
  1
ACMFCFSTANDARDBSI
  2
AcmFCFStdBSI
  3
"AcmSymBB|Product Description: AutoCAD Mechanical 2000|Company: Autodesk"
 90
        0
280
     0
281
     0
  0
CLASS
  1
ACMWELDSTANDARDBSI
  2
AcmWeldingStdBSI
  3
"AcmSymBB|Product Description: AutoCAD Mechanical 2000|Company: Autodesk"
 90
        0
280
     0
281
     0
  0
CLASS
  1
ACMIDSTANDARDBSI
  2
AcmIdStdBSI
  3
"AcmSymBB|Product Description: AutoCAD Mechanical 2000|Company: Autodesk"
 90
        0
280
     0
281
     0
  0
CLASS
  1
ACMDATUMSTANDARDBSI
  2
AcmDatumStdBSI
  3
"AcmSymBB|Product Description: AutoCAD Mechanical 2000|Company: Autodesk"
 90
        0
280
     0
281
     0
  0
CLASS
  1
ACMBOMSTANDARDBSI
  2
AcmBOMStdBSI
  3
"AcmSymBB|Product Description: AutoCAD Mechanical 2000|Company: Autodesk"
 90
        0
280
     0
281
     0
  0
CLASS
  1
LONG_TRANSACTION
  2
AcDbLongTransaction
  3
AutoCAD 2000
 90
        0
280
     0
281
     0
  0
CLASS
  1
LWPOLYLINE
  2
AcDbPolyline
  3
AutoCAD 2000
 90
        0
280
     0
281
     1
  0
CLASS
  1
HATCH
  2
AcDbHatch
  3
AutoCAD 2000
 90
        0
280
     0
281
     1
  0
CLASS
  1
XRECORD
  2
AcDbXrecord
  3
AutoCAD 2000
 90
        0
280
     0
281
     0
  0
ENDSEC
  0
SECTION
  2
TABLES
  0
TABLE
  2
VPORT
  5
8
330
0
100
AcDbSymbolTable
 70
     3
  0
VPORT
  5
233B
330
8
100
AcDbSymbolTableRecord
100
AcDbViewportTableRecord
  2
*ACTIVE
 70
     0
 10
0.0
 20
0.0
 11
1.0
 21
1.0
 12
-56.08447356367207
 22
3.193357502765763
 13
0.0
 23
0.0
 14
2.5
 24
2.5
 15
10.0
 25
10.0
 16
0.0
 26
0.0
 36
1.0
 17
0.0
 27
0.0
 37
0.0
 40
164.9388173536128
 41
1.56570841889117
 42
50.0
 43
0.0
 44
0.0
 50
0.0
 51
0.0
 71
     0
 72
   100
 73
     1
 74
     1
 75
     0
 76
     0
 77
     0
 78
     0
  0
ENDTAB
  0
TABLE
  2
LTYPE
  5
5
330
0
100
AcDbSymbolTable
 70
    10
  0
LTYPE
  5
14
330
5
100
AcDbSymbolTableRecord
100
AcDbLinetypeTableRecord
  2
BYBLOCK
 70
     0
  3

 72
    65
 73
     0
 40
0.0
  0
LTYPE
  5
15
330
5
100
AcDbSymbolTableRecord
100
AcDbLinetypeTableRecord
  2
BYLAYER
 70
     0
  3

 72
    65
 73
     0
 40
0.0
  0
LTYPE
  5
16
330
5
100
AcDbSymbolTableRecord
100
AcDbLinetypeTableRecord
  2
CONTINUOUS
 70
     0
  3
Solid line
 72
    65
 73
     0
 40
0.0
  0
LTYPE
  5
4B
330
5
100
AcDbSymbolTableRecord
100
AcDbLinetypeTableRecord
  2
AM_ISO02W050
 70
     0
  3
__ __ __ __ __ __ __ __ __ __ __ __ __ __ __
 72
    65
 73
     2
 40
7.5
 49
6.0
 74
     0
 49
-1.5
 74
     0
  0
LTYPE
  5
4C
330
5
100
AcDbSymbolTableRecord
100
AcDbLinetypeTableRecord
  2
AM_ISO08W050
 70
     0
  3
____ . ____ . ____ . ____ . ____ . ____ . ____
 72
    65
 73
     4
 40
18.0
 49
12.0
 74
     0
 49
-1.5
 74
     0
 49
3.0
 74
     0
 49
-1.5
 74
     0
  0
LTYPE
  5
4D
330
5
100
AcDbSymbolTableRecord
100
AcDbLinetypeTableRecord
  2
AM_ISO09W050
 70
     0
  3
_____ . . _____ . . _____ . . ____ .. ____
 72
    65
 73
     6
 40
22.5
 49
12.0
 74
     0
 49
-1.5
 74
     0
 49
3.0
 74
     0
 49
-1.5
 74
     0
 49
3.0
 74
     0
 49
-1.5
 74
     0
  0
LTYPE
  5
4E
330
5
100
AcDbSymbolTableRecord
100
AcDbLinetypeTableRecord
  2
AMCONSTR
 70
     0
  3
_______________________
 72
    65
 73
     2
 40
9999.0
 49
9999.0
 74
     0
 49
0.0
 74
     0
  0
LTYPE
  5
4F
330
5
100
AcDbSymbolTableRecord
100
AcDbLinetypeTableRecord
  2
AM_ISO02W050X2
 70
     0
  3
 _ _ _ _ _ _ _ _ _ _ _ _
 72
    65
 73
     2
 40
3.75
 49
3.0
 74
     0
 49
-0.75
 74
     0
  0
LTYPE
  5
50
330
5
100
AcDbSymbolTableRecord
100
AcDbLinetypeTableRecord
  2
AM_ISO08W050X2
 70
     0
  3
__ . __ . __ . __ . __ . __
 72
    65
 73
     4
 40
9.0
 49
6.0
 74
     0
 49
-0.75
 74
     0
 49
1.5
 74
     0
 49
-0.75
 74
     0
  0
LTYPE
  5
53
330
5
100
AcDbSymbolTableRecord
100
AcDbLinetypeTableRecord
  2
AMZIGZAG
 70
     0
  3
/\/-/\/-/\/-/\/-/\/-/\/
 72
    65
 73
     2
 40
11.00009999999999
 49
0.0001
 74
     4
 75
   135
340
52
 46
0.04
 50
0.0
 44
0.0
 45
0.0
 49
-11.0
 74
     0
  0
LTYPE
  5
166
330
5
100
AcDbSymbolTableRecord
100
AcDbLinetypeTableRecord
  2
ACJISTGL
 70
     0
  3
_ _ _ _ _
 72
    65
 73
     2
 40
3.0
 49
2.0
 74
     0
 49
-1.0
 74
     0
  0
LTYPE
  5
26A
330
5
100
AcDbSymbolTableRecord
100
AcDbLinetypeTableRecord
  2
ACJISTGB
 70
     0
  3
__ . . __ . .
 72
    65
 73
     6
 40
9.0
 49
4.0
 74
     0
 49
-1.0
 74
     0
 49
1.0
 74
     0
 49
-1.0
 74
     0
 49
1.0
 74
     0
 49
-1.0
 74
     0
  0
ENDTAB
  0
TABLE
  2
LAYER
  5
2
330
0
100
AcDbSymbolTable
 70
     8
  0
LAYER
  5
10
330
2
100
AcDbSymbolTableRecord
100
AcDbLayerTableRecord
  2
0
 70
     0
 62
     7
  6
CONTINUOUS
  0
LAYER
  5
3F9
330
2
100
AcDbSymbolTableRecord
100
AcDbLayerTableRecord
  2
AM_0
 70
     0
 62
     7
  6
CONTINUOUS
  0
LAYER
  5
C7C
330
2
100
AcDbSymbolTableRecord
100
AcDbLayerTableRecord
  2
AM_7
 70
     0
 62
     4
  6
AM_ISO08W050
  0
LAYER
  5
C97
330
2
100
AcDbSymbolTableRecord
100
AcDbLayerTableRecord
  2
AM_11
 70
     0
 62
     3
  6
AM_ISO09W050
  0
LAYER
  5
CC5
330
2
100
AcDbSymbolTableRecord
100
AcDbLayerTableRecord
  2
AM_5
 70
     0
 62
     3
  6
CONTINUOUS
  0
LAYER
  5
CC7
330
2
100
AcDbSymbolTableRecord
100
AcDbLayerTableRecord
  2
DEFPOINTS
 70
     0
 62
     7
  6
CONTINUOUS
  0
LAYER
  5
19BC
330
2
100
AcDbSymbolTableRecord
100
AcDbLayerTableRecord
  2
AM_6
 70
     0
 62
     2
  6
CONTINUOUS
  0
LAYER
  5
2246
330
2
100
AcDbSymbolTableRecord
100
AcDbLayerTableRecord
  2
AM_CL
 70
     0
 62
     1
  6
AMCONSTR
  0
ENDTAB
  0
TABLE
  2
STYLE
  5
3
330
0
100
AcDbSymbolTable
 70
     5
  0
STYLE
  5
11
330
3
100
AcDbSymbolTableRecord
100
AcDbTextStyleTableRecord
  2
STANDARD
 70
     0
 40
0.0
 41
1.0
 50
0.0
 71
     0
 42
2.5
  3
simplex.shx
  4
EXTFONT.SHX
  0
STYLE
  5
52
330
3
100
AcDbSymbolTableRecord
100
AcDbTextStyleTableRecord
  2

 70
     1
 40
0.0
 41
1.0
 50
0.0
 71
     0
 42
2.5
  3
ltypeshp.shx
  4

  0
STYLE
  5
6B
330
3
100
AcDbSymbolTableRecord
100
AcDbTextStyleTableRecord
  2
ASAMI
 70
     0
 40
0.0
 41
1.0
 50
0.0
 71
     0
 42
2.5
  3
simplex.shx
  4
EXTFONT.SHX
  0
STYLE
  5
262
330
3
100
AcDbSymbolTableRecord
100
AcDbTextStyleTableRecord
  2
ACJISTS
 70
     0
 40
1.0
 41
1.0
 50
0.0
 71
     0
 42
2.5
  3
simplex.shx
  4
bigfont.shx
  0
STYLE
  5
269
330
3
100
AcDbSymbolTableRecord
100
AcDbTextStyleTableRecord
  2
ACJISGDT
 70
     0
 40
0.0
 41
1.0
 50
0.0
 71
     0
 42
2.5
  3
amgdtans.shx
  4

  0
ENDTAB
  0
TABLE
  2
VIEW
  5
6
330
0
100
AcDbSymbolTable
 70
     0
  0
ENDTAB
  0
TABLE
  2
UCS
  5
7
330
0
100
AcDbSymbolTable
 70
     0
  0
ENDTAB
  0
TABLE
  2
APPID
  5
9
330
0
100
AcDbSymbolTable
 70
    16
  0
APPID
  5
12
330
9
100
AcDbSymbolTableRecord
100
AcDbRegAppTableRecord
  2
ACAD
 70
     0
  0
APPID
  5
30
330
9
100
AcDbSymbolTableRecord
100
AcDbRegAppTableRecord
  2
MCAD_NO_VIS
 70
     0
  0
APPID
  5
31
330
9
100
AcDbSymbolTableRecord
100
AcDbRegAppTableRecord
  2
ACAD_TEMP_GRAPHIC
 70
     0
  0
APPID
  5
2C2
330
9
100
AcDbSymbolTableRecord
100
AcDbRegAppTableRecord
  2
GENIUS_GENDTOL_13
 70
     0
  0
APPID
  5
339
330
9
100
AcDbSymbolTableRecord
100
AcDbRegAppTableRecord
  2
GENIUS_GENODEF_13
 70
     0
  0
APPID
  5
33A
330
9
100
AcDbSymbolTableRecord
100
AcDbRegAppTableRecord
  2
GENIUS_GENOBJ-N-RSBK_13
 70
     0
  0
APPID
  5
33B
330
9
100
AcDbSymbolTableRecord
100
AcDbRegAppTableRecord
  2
GENIUS_GENOBJ-N-LIB_13
 70
     0
  0
APPID
  5
33C
330
9
100
AcDbSymbolTableRecord
100
AcDbRegAppTableRecord
  2
GENIUS_GENSCALE_13
 70
     0
  0
APPID
  5
378
330
9
100
AcDbSymbolTableRecord
100
AcDbRegAppTableRecord
  2
GENIUS_GENDIMSH_14
 70
     0
  0
APPID
  5
C82
330
9
100
AcDbSymbolTableRecord
100
AcDbRegAppTableRecord
  2
GENIUS_GENOBJ-N-CRS_13
 70
     0
  0
APPID
  5
C83
330
9
100
AcDbSymbolTableRecord
100
AcDbRegAppTableRecord
  2
GENIUS_GENOENT_13
 70
     0
  0
APPID
  5
C84
330
9
100
AcDbSymbolTableRecord
100
AcDbRegAppTableRecord
  2
GENIUS_GENOREF_13
 70
     0
  0
APPID
  5
C85
330
9
100
AcDbSymbolTableRecord
100
AcDbRegAppTableRecord
  2
GENIUS_GENOLIS_13
 70
     0
  0
APPID
  5
CA0
330
9
100
AcDbSymbolTableRecord
100
AcDbRegAppTableRecord
  2
GENIUS_GENOBJ-N-CEN_13
 70
     0
  0
APPID
  5
1CFA
330
9
100
AcDbSymbolTableRecord
100
AcDbRegAppTableRecord
  2
GENIUS_GENFIL_13
 70
     0
  0
APPID
  5
1CFB
330
9
100
AcDbSymbolTableRecord
100
AcDbRegAppTableRecord
  2
GENIUS_GENOBJ-N-CHA_13
 70
     0
  0
ENDTAB
  0
TABLE
  2
DIMSTYLE
  5
A
330
0
100
AcDbSymbolTable
 70
     9
  0
DIMSTYLE
105
58
330
A
100
AcDbSymbolTableRecord
100
AcDbDimStyleTableRecord
  2
AM_JIS
 70
     0
  3

  4
"
  5
OPEN30
  6

  7

 40
0.5
 41
2.5
 42
1.0
 43
12.0
 44
1.0
 45
0.0
 46
0.0
 47
0.1
 48
0.1
140
3.2
141
0.0
142
0.0
143
0.0393701
144
1.0
145
0.0
146
0.71
147
1.5
 71
     0
 72
     0
 73
     0
 74
     0
 75
     0
 76
     0
 77
     3
 78
     8
170
     0
171
     2
172
     1
173
     0
174
     0
175
     0
176
   256
177
   256
178
     2
270
     2
271
     3
272
     3
273
     2
274
     2
340
6B
275
     0
280
     0
281
     0
282
     0
283
     0
284
     0
285
     0
286
     0
287
     3
288
     0
  0
DIMSTYLE
105
5F
330
A
100
AcDbSymbolTableRecord
100
AcDbDimStyleTableRecord
  2
AM_JIS$3
 70
     0
  3

  4
"
  5
OPEN30
  6

  7

 40
0.5
 41
2.5
 42
1.0
 43
10.0
 44
1.0
 45
0.0
 46
0.0
 47
0.1
 48
0.1
140
3.2
141
0.0
142
0.0
143
0.0393701
144
1.0
145
0.0
146
0.71
147
1.5
 71
     0
 72
     0
 73
     0
 74
     1
 75
     0
 76
     0
 77
     3
 78
     8
170
     0
171
     2
172
     0
173
     0
174
     0
175
     0
176
   256
177
   256
178
     2
270
     2
271
     2
272
     3
273
     2
274
     2
340
6B
275
     0
280
     0
281
     0
282
     0
283
     0
284
     0
285
     0
286
     0
287
     0
288
     1
  0
DIMSTYLE
105
60
330
A
100
AcDbSymbolTableRecord
100
AcDbDimStyleTableRecord
  2
AM_JIS$4
 70
     0
  3

  4
"
  5
OPEN30
  6

  7

 40
0.5
 41
2.5
 42
1.0
 43
10.0
 44
1.0
 45
0.0
 46
0.0
 47
0.1
 48
0.1
140
3.2
141
0.0
142
0.0
143
0.0393701
144
1.0
145
0.0
146
0.71
147
1.5
 71
     0
 72
     0
 73
     0
 74
     1
 75
     0
 76
     0
 77
     3
 78
     8
170
     0
171
     2
172
     0
173
     0
174
     0
175
     0
176
   256
177
   256
178
     2
270
     2
271
     2
272
     3
273
     2
274
     2
340
6B
275
     0
280
     0
281
     0
282
     0
283
     0
284
     0
285
     0
286
     0
287
     0
288
     1
  0
DIMSTYLE
105
61
330
A
100
AcDbSymbolTableRecord
100
AcDbDimStyleTableRecord
  2
AM_JIS$6
 70
     0
  3

  4
"
  5
OPEN30
  6

  7

 40
0.5
 41
2.5
 42
1.0
 43
10.0
 44
1.0
 45
0.0
 46
0.0
 47
0.1
 48
0.1
140
3.2
141
0.0
142
0.0
143
0.0393701
144
1.0
145
0.0
146
0.71
147
1.5
 71
     0
 72
     0
 73
     0
 74
     0
 75
     0
 76
     0
 77
     0
 78
     8
170
     0
171
     2
172
     1
173
     0
174
     0
175
     0
176
   256
177
   256
178
     2
270
     2
271
     2
272
     2
273
     2
274
     2
340
6B
275
     0
280
     0
281
     0
282
     0
283
     0
284
     0
285
     0
286
     0
287
     3
288
     0
  0
DIMSTYLE
105
62
330
A
100
AcDbSymbolTableRecord
100
AcDbDimStyleTableRecord
  2
AM_JIS$7
 70
     0
  3

  4
"
  5
OPEN30
  6

  7

 40
0.5
 41
2.5
 42
1.0
 43
10.0
 44
1.0
 45
0.0
 46
0.0
 47
0.1
 48
0.1
140
3.2
141
0.0
142
0.0
143
0.0393701
144
1.0
145
0.0
146
0.71
147
1.5
 71
     0
 72
     0
 73
     0
 74
     0
 75
     0
 76
     0
 77
     3
 78
     8
170
     0
171
     2
172
     1
173
     0
174
     0
175
     0
176
   256
177
   256
178
     2
270
     2
271
     2
272
     3
273
     2
274
     2
340
6B
275
     0
280
     0
281
     0
282
     0
283
     0
284
     0
285
     0
286
     0
287
     3
288
     0
  0
DIMSTYLE
105
63
330
A
100
AcDbSymbolTableRecord
100
AcDbDimStyleTableRecord
  2
AM_JIS$SF
 70
     0
  3

  4
"
  5
OPEN30
  6

  7

 40
0.5
 41
2.5
 42
1.0
 43
10.0
 44
1.0
 45
0.0
 46
0.0
 47
0.1
 48
0.1
140
3.2
141
0.0
142
0.0
143
0.0393701
144
1.0
145
0.0
146
0.71
147
1.5
 71
     0
 72
     0
 73
     0
 74
     0
 75
     1
 76
     1
 77
     3
 78
     8
170
     0
171
     2
172
     1
173
     0
174
     0
175
     0
176
   256
177
   256
178
     2
270
     2
271
     2
272
     2
273
     2
274
     2
340
6B
275
     0
280
     0
281
     0
282
     0
283
     0
284
     0
285
     0
286
     0
287
     3
288
     0
  0
DIMSTYLE
105
68
330
A
100
AcDbSymbolTableRecord
100
AcDbDimStyleTableRecord
  2
AM_JIS$SH
 70
     0
  3

  4
"
  5

  6
GENAXEH
  7
OPEN30
 40
0.5
 41
2.5
 42
1.0
 43
10.0
 44
1.0
 45
0.0
 46
0.0
 47
0.1
 48
0.1
140
3.2
141
0.0
142
0.0
143
0.0393701
144
2.0
145
0.0
146
0.71
147
1.5
 71
     0
 72
     0
 73
     0
 74
     0
 75
     1
 76
     1
 77
     3
 78
     8
170
     0
171
     2
172
     1
173
     1
174
     0
175
     0
176
   256
177
   256
178
     2
270
     2
271
     2
272
     2
273
     2
274
     2
340
6B
275
     0
280
     0
281
     0
282
     0
283
     0
284
     0
285
     0
286
     0
287
     3
288
     0
  0
DIMSTYLE
105
B34
102
{ACAD_REACTORS
330
11B2
102
}
330
A
100
AcDbSymbolTableRecord
100
AcDbDimStyleTableRecord
  2
AM_JIS$2
 70
     0
  3

  4
"
  5
OPEN30
  6

  7

 40
0.5
 41
2.5
 42
1.0
 43
12.0
 44
1.0
 45
0.0
 46
0.0
 47
0.1
 48
0.1
140
3.2
141
0.0
142
0.0
143
0.0393701
144
1.0
145
0.0
146
0.71
147
1.5
 71
     0
 72
     0
 73
     0
 74
     0
 75
     0
 76
     0
 77
     3
 78
     8
170
     0
171
     2
172
     1
173
     0
174
     0
175
     0
176
   256
177
   256
178
     2
270
     2
271
     3
272
     3
273
     2
274
     2
340
6B
275
     0
280
     0
281
     0
282
     0
283
     0
284
     0
285
     0
286
     0
287
     3
288
     0
  0
DIMSTYLE
105
BA5
102
{ACAD_REACTORS
330
CC6
330
DF5
330
1ECF
330
1F93
102
}
330
A
100
AcDbSymbolTableRecord
100
AcDbDimStyleTableRecord
  2
AM_JIS$0
 70
     0
  3

  4
"
  5
OPEN30
  6

  7

 40
0.5
 41
2.5
 42
0.8
 43
10.0
 44
1.0
 45
0.0
 46
0.0
 47
0.1
 48
0.1000000001
140
3.799999999999999
141
0.0
142
0.0
143
0.0393701
144
1.0
145
0.0
146
0.71
147
1.5
 71
     0
 72
     0
 73
     0
 74
     0
 75
     0
 76
     0
 77
     3
 78
     9
170
     0
171
     2
172
     1
173
     0
174
     0
175
     0
176
     3
177
     3
178
     2
270
     2
271
     2
272
     2
273
     2
274
     2
340
11
275
     1
280
     0
281
     0
282
     0
283
     0
284
     8
285
     0
286
     0
287
     0
288
     0
  0
ENDTAB
  0
TABLE
  2
BLOCK_RECORD
  5
1
330
0
100
AcDbSymbolTable
 70
    15
  0
BLOCK_RECORD
  5
1F
102
{ACAD_XDICTIONARY
360
74
102
}
330
1
100
AcDbSymbolTableRecord
100
AcDbBlockTableRecord
  2
*MODEL_SPACE
  0
BLOCK_RECORD
  5
101
102
{ACAD_XDICTIONARY
360
2364
102
}
330
1
100
AcDbSymbolTableRecord
100
AcDbBlockTableRecord
  2
*PAPER_SPACE
  0
BLOCK_RECORD
  5
59
330
1
100
AcDbSymbolTableRecord
100
AcDbBlockTableRecord
  2
_OPEN30
  0
BLOCK_RECORD
  5
64
330
1
100
AcDbSymbolTableRecord
100
AcDbBlockTableRecord
  2
GENAXEH
  0
BLOCK_RECORD
  5
CC8
330
1
100
AcDbSymbolTableRecord
100
AcDbBlockTableRecord
  2
*D5
  0
BLOCK_RECORD
  5
DF6
330
1
100
AcDbSymbolTableRecord
100
AcDbBlockTableRecord
  2
*D7
  0
BLOCK_RECORD
  5
11B3
330
1
100
AcDbSymbolTableRecord
100
AcDbBlockTableRecord
  2
*D9
  0
BLOCK_RECORD
  5
1ED0
330
1
100
AcDbSymbolTableRecord
100
AcDbBlockTableRecord
  2
*D11
  0
BLOCK_RECORD
  5
1F94
330
1
100
AcDbSymbolTableRecord
100
AcDbBlockTableRecord
  2
*D12
  0
ENDTAB
  0
ENDSEC
  0
SECTION
  2
BLOCKS
  0
BLOCK
  5
20
330
1F
100
AcDbEntity
  8
0
100
AcDbBlockBegin
  2
*MODEL_SPACE
 70
     0
 10
0.0
 20
0.0
 30
0.0
  3
*MODEL_SPACE
  1

  0
ENDBLK
  5
21
330
1F
100
AcDbEntity
  8
0
100
AcDbBlockEnd
  0
BLOCK
  5
103
330
101
100
AcDbEntity
 67
     1
  8
0
100
AcDbBlockBegin
  2
*PAPER_SPACE
 70
     0
 10
0.0
 20
0.0
 30
0.0
  3
*PAPER_SPACE
  1

  0
ENDBLK
  5
104
330
101
100
AcDbEntity
 67
     1
  8
0
100
AcDbBlockEnd
  0
BLOCK
  5
5D
330
59
100
AcDbEntity
  8
0
100
AcDbBlockBegin
  2
_OPEN30
 70
     0
 10
0.0
 20
0.0
 30
0.0
  3
_OPEN30
  1

  0
LINE
  5
5A
330
59
100
AcDbEntity
  8
0
 62
     0
100
AcDbLine
 10
-1.0
 20
0.26794919
 30
0.0
 11
0.0
 21
0.0
 31
0.0
  0
LINE
  5
5B
330
59
100
AcDbEntity
  8
0
 62
     0
100
AcDbLine
 10
0.0
 20
0.0
 30
0.0
 11
-1.0
 21
-0.26794919
 31
0.0
  0
LINE
  5
5C
330
59
100
AcDbEntity
  8
0
 62
     0
100
AcDbLine
 10
0.0
 20
0.0
 30
0.0
 11
-1.0
 21
0.0
 31
0.0
  0
ENDBLK
  5
5E
330
59
100
AcDbEntity
  8
0
100
AcDbBlockEnd
  0
BLOCK
  5
66
330
64
100
AcDbEntity
  8
0
100
AcDbBlockBegin
  2
GENAXEH
 70
     0
 10
0.0
 20
0.0
 30
0.0
  3
GENAXEH
  1

  0
LINE
  5
65
330
64
100
AcDbEntity
  8
0
100
AcDbLine
 10
-1.0
 20
0.0
 30
0.0
 11
1.0
 21
0.0
 31
0.0
  0
ENDBLK
  5
67
330
64
100
AcDbEntity
  8
0
100
AcDbBlockEnd
  0
BLOCK
  5
CD2
330
CC8
100
AcDbEntity
  8
0
100
AcDbBlockBegin
  2
*D5
 70
     1
 10
0.0
 20
0.0
 30
0.0
  3
*D5
  1

  0
LINE
  5
2304
330
CC8
100
AcDbEntity
  8
AM_5
 62
     3
100
AcDbLine
 10
-110.3829137273227
 20
-3.693791300954976
 30
0.0
 11
-110.3829137273227
 21
-19.31133655472375
 31
0.0
  0
LINE
  5
2305
330
CC8
100
AcDbEntity
  8
AM_5
 62
     3
100
AcDbLine
 10
-1.382913727322724
 20
-3.65000747607828
 30
0.0
 11
-1.382913727322725
 21
-19.31133655472375
 31
0.0
  0
LINE
  5
2306
330
CC8
100
AcDbEntity
  8
AM_5
 62
     3
100
AcDbLine
 10
-109.1329137273227
 20
-18.81133655472375
 30
0.0
 11
-2.632913727322725
 21
-18.81133655472375
 31
0.0
  0
INSERT
  5
2307
330
CC8
100
AcDbEntity
  8
AM_5
 62
     3
100
AcDbBlockReference
  2
_OPEN30
 10
-110.3829137273227
 20
-18.81133655472375
 30
0.0
 41
1.25
 42
1.25
 43
1.25
 50
180.0
  0
INSERT
  5
2308
330
CC8
100
AcDbEntity
  8
AM_5
 62
     3
100
AcDbBlockReference
  2
_OPEN30
 10
-1.382913727322725
 20
-18.81133655472375
 30
0.0
 41
1.25
 42
1.25
 43
1.25
  0
MTEXT
  5
2309
330
CC8
100
AcDbEntity
  8
AM_5
 62
     2
100
AcDbMText
 10
-55.88291372732275
 20
-17.11133655472375
 30
0.0
 40
1.9
 41
0.0
 71
     5
 72
     1
  1
109
1001
ACAD
1000
MTEXTBEGIN
1070
    73
1070
     1
1070
    44
1040
1.0
1070
    74
1070
     0
1000
MTEXTEND
  0
POINT
  5
230A
330
CC8
100
AcDbEntity
  8
DEFPOINTS
 62
     0
100
AcDbPoint
 10
-110.3829137273227
 20
-3.293791300954977
 30
0.0
  0
POINT
  5
230B
330
CC8
100
AcDbEntity
  8
DEFPOINTS
 62
     0
100
AcDbPoint
 10
-1.382913727322724
 20
-3.25000747607828
 30
0.0
  0
POINT
  5
230C
330
CC8
100
AcDbEntity
  8
DEFPOINTS
 62
     0
100
AcDbPoint
 10
-1.382913727322725
 20
-18.81133655472375
 30
0.0
  0
ENDBLK
  5
CD3
330
CC8
100
AcDbEntity
  8
0
100
AcDbBlockEnd
  0
BLOCK
  5
E00
330
DF6
100
AcDbEntity
  8
0
100
AcDbBlockBegin
  2
*D7
 70
     1
 10
0.0
 20
0.0
 30
0.0
  3
*D7
  1

  0
LINE
  5
22DC
330
DF6
100
AcDbEntity
  8
AM_5
 62
     3
100
AcDbLine
 10
-57.38291372732272
 20
-3.899995567034272
 30
0.0
 11
-57.38291372732272
 21
-13.01203781623299
 31
0.0
  0
LINE
  5
22DD
330
DF6
100
AcDbEntity
  8
AM_5
 62
     3
100
AcDbLine
 10
-1.382913727322724
 20
-3.65000747607828
 30
0.0
 11
-1.382913727322725
 21
-13.01203781623299
 31
0.0
  0
LINE
  5
22DE
330
DF6
100
AcDbEntity
  8
AM_5
 62
     3
100
AcDbLine
 10
-56.13291372732272
 20
-12.51203781623299
 30
0.0
 11
-2.632913727322725
 21
-12.51203781623299
 31
0.0
  0
INSERT
  5
22DF
330
DF6
100
AcDbEntity
  8
AM_5
 62
     3
100
AcDbBlockReference
  2
_OPEN30
 10
-57.38291372732272
 20
-12.51203781623299
 30
0.0
 41
1.25
 42
1.25
 43
1.25
 50
180.0
  0
INSERT
  5
22E0
330
DF6
100
AcDbEntity
  8
AM_5
 62
     3
100
AcDbBlockReference
  2
_OPEN30
 10
-1.382913727322725
 20
-12.51203781623299
 30
0.0
 41
1.25
 42
1.25
 43
1.25
  0
MTEXT
  5
22E1
330
DF6
100
AcDbEntity
  8
AM_5
 62
     2
100
AcDbMText
 10
-29.38291372732272
 20
-10.81203781623299
 30
0.0
 40
1.9
 41
0.0
 71
     5
 72
     1
  1
56
1001
ACAD
1000
MTEXTBEGIN
1070
    73
1070
     1
1070
    44
1040
1.0
1070
    74
1070
     0
1000
MTEXTEND
  0
POINT
  5
22E2
330
DF6
100
AcDbEntity
  8
DEFPOINTS
 62
     0
100
AcDbPoint
 10
-57.38291372732272
 20
-3.499995567034273
 30
0.0
  0
POINT
  5
22E3
330
DF6
100
AcDbEntity
  8
DEFPOINTS
 62
     0
100
AcDbPoint
 10
-1.382913727322724
 20
-3.25000747607828
 30
0.0
  0
POINT
  5
22E4
330
DF6
100
AcDbEntity
  8
DEFPOINTS
 62
     0
100
AcDbPoint
 10
-1.382913727322725
 20
-12.51203781623299
 30
0.0
  0
ENDBLK
  5
E01
330
DF6
100
AcDbEntity
  8
0
100
AcDbBlockEnd
  0
BLOCK
  5
11C1
330
11B3
100
AcDbEntity
  8
0
100
AcDbBlockBegin
  2
*D9
 70
     1
 10
0.0
 20
0.0
 30
0.0
  3
*D9
  1

  0
LINE
  5
22F9
330
11B3
100
AcDbEntity
  8
AM_5
100
AcDbLine
 10
-0.0289863991845578
 20
-0.4698539458736415
 30
0.0
 11
5.726575449708549
 21
-16.28313029338086
 31
0.0
  0
LINE
  5
22FA
330
11B3
100
AcDbEntity
  8
AM_5
100
AcDbLine
 10
-0.0289870351415823
 20
0.4698411984894548
 30
0.0
 11
5.726586723853636
 21
16.28311620201174
 31
0.0
  0
ARC
  5
22FB
330
11B3
100
AcDbEntity
  8
AM_5
100
AcDbCircle
 10
-0.1999974308628418
 20
-0.000004993955752
 30
0.0
 40
16.82813999324516
100
AcDbArc
 50
294.2569290103909
 51
65.74303131902984
  0
INSERT
  5
22FC
330
11B3
100
AcDbEntity
  8
AM_5
100
AcDbBlockReference
  2
_OPEN30
 10
5.555565379300483
 20
-15.81328398253121
 30
0.0
 41
1.25
 42
1.25
 43
1.25
 50
202.1284644286887
  0
INSERT
  5
22FD
330
11B3
100
AcDbEntity
  8
AM_5
100
AcDbBlockReference
  2
_OPEN30
 10
5.555576328132377
 20
15.81327000956654
 30
0.0
 41
1.25
 42
1.25
 43
1.25
 50
157.8714959007321
  0
MTEXT
  5
22FE
330
11B3
100
AcDbEntity
  8
AM_5
 62
     2
100
AcDbMText
 10
15.07814256238131
 20
-0.0000108197082419
 30
0.0
 40
1.6
 41
0.0
 71
     5
 72
     1
  1
140°
  7
ASAMI
 11
0.0000000000000001
 21
1.0
 31
0.0
1001
ACAD
1000
MTEXTBEGIN
1070
    73
1070
     1
1070
    44
1040
1.0
1070
    74
1070
     0
1000
MTEXTEND
  0
POINT
  5
22FF
330
11B3
100
AcDbEntity
  8
DEFPOINTS
 62
     0
100
AcDbPoint
 10
15.25187483045283
 20
6.665273638797765
 30
0.0
  0
POINT
  5
2300
330
11B3
100
AcDbEntity
  8
DEFPOINTS
 62
     0
100
AcDbPoint
 10
-0.1999975822122958
 20
-0.0000054097840669
 30
0.0
  0
POINT
  5
2301
330
11B3
100
AcDbEntity
  8
DEFPOINTS
 62
     0
100
AcDbPoint
 10
-0.1999964695926248
 20
-0.0000076350239893
 30
0.0
  0
POINT
  5
2302
330
11B3
100
AcDbEntity
  8
DEFPOINTS
 62
     0
100
AcDbPoint
 10
-0.6670877120647898
 20
1.283315017156934
 30
0.0
  0
POINT
  5
2303
330
11B3
100
AcDbEntity
  8
DEFPOINTS
 62
     0
100
AcDbPoint
 10
-0.6670955004047916
 20
-1.283343638645574
 30
0.0
  0
ENDBLK
  5
11C2
330
11B3
100
AcDbEntity
  8
0
100
AcDbBlockEnd
  0
BLOCK
  5
1EDC
330
1ED0
100
AcDbEntity
  8
0
100
AcDbBlockBegin
  2
*D11
 70
     1
 10
0.0
 20
0.0
 30
0.0
  3
*D11
  1

  0
LINE
  5
22F0
330
1ED0
100
AcDbEntity
  8
AM_5
 62
     3
100
AcDbLine
 10
-1.136395230070217
 20
-3.25000747607828
 30
0.0
 11
8.493362157396518
 21
-3.250007476078283
 31
0.0
  0
LINE
  5
22F1
330
1ED0
100
AcDbEntity
  8
AM_5
 62
     3
100
AcDbLine
 10
-1.136395230070206
 20
3.24999252392172
 30
0.0
 11
8.493362157396518
 21
3.249992523921717
 31
0.0
  0
LINE
  5
22F2
330
1ED0
100
AcDbEntity
  8
AM_5
 62
     3
100
AcDbLine
 10
7.993362157396517
 20
-2.000007476078283
 30
0.0
 11
7.993362157396518
 21
1.999992523921717
 31
0.0
  0
INSERT
  5
22F3
330
1ED0
100
AcDbEntity
  8
AM_5
 62
     3
100
AcDbBlockReference
  2
_OPEN30
 10
7.993362157396517
 20
-3.250007476078283
 30
0.0
 41
1.25
 42
1.25
 43
1.25
 50
270.0
  0
INSERT
  5
22F4
330
1ED0
100
AcDbEntity
  8
AM_5
 62
     3
100
AcDbBlockReference
  2
_OPEN30
 10
7.993362157396519
 20
3.249992523921717
 30
0.0
 41
1.25
 42
1.25
 43
1.25
 50
90.0
  0
MTEXT
  5
22F5
330
1ED0
100
AcDbEntity
  8
AM_5
 62
     2
100
AcDbMText
 10
6.293362157396518
 20
-0.0000074760782812
 30
0.0
 40
1.9
 41
0.0
 71
     5
 72
     1
  1
%%c6.5
 11
0.0000000000000001
 21
1.0
 31
0.0
1001
ACAD
1000
MTEXTBEGIN
1070
    73
1070
     1
1070
    44
1040
1.0
1070
    74
1070
     0
1000
MTEXTEND
  0
POINT
  5
22F6
330
1ED0
100
AcDbEntity
  8
DEFPOINTS
 62
     0
100
AcDbPoint
 10
-1.536395230070217
 20
-3.25000747607828
 30
0.0
  0
POINT
  5
22F7
330
1ED0
100
AcDbEntity
  8
DEFPOINTS
 62
     0
100
AcDbPoint
 10
-1.536395230070206
 20
3.24999252392172
 30
0.0
  0
POINT
  5
22F8
330
1ED0
100
AcDbEntity
  8
DEFPOINTS
 62
     0
100
AcDbPoint
 10
7.993362157396519
 20
3.249992523921717
 30
0.0
  0
ENDBLK
  5
1EDD
330
1ED0
100
AcDbEntity
  8
0
100
AcDbBlockEnd
  0
BLOCK
  5
1FA0
330
1F94
100
AcDbEntity
  8
0
100
AcDbBlockBegin
  2
*D12
 70
     1
 10
0.0
 20
0.0
 30
0.0
  3
*D12
  1

  0
LINE
  5
230D
330
1F94
100
AcDbEntity
  8
AM_5
 62
     3
100
AcDbLine
 10
-110.6864130319866
 20
-3.499995567034667
 30
0.0
 11
-118.7720030296784
 21
-3.499995567034683
 31
0.0
  0
LINE
  5
230E
330
1F94
100
AcDbEntity
  8
AM_5
 62
     3
100
AcDbLine
 10
-110.6864130319866
 20
3.500004432965332
 30
0.0
 11
-118.7720030296784
 21
3.500004432965316
 31
0.0
  0
LINE
  5
230F
330
1F94
100
AcDbEntity
  8
AM_5
 62
     3
100
AcDbLine
 10
-118.2720030296784
 20
-2.249995567034682
 30
0.0
 11
-118.2720030296784
 21
2.250004432965317
 31
0.0
  0
INSERT
  5
2310
330
1F94
100
AcDbEntity
  8
AM_5
 62
     3
100
AcDbBlockReference
  2
_OPEN30
 10
-118.2720030296784
 20
-3.499995567034682
 30
0.0
 41
1.25
 42
1.25
 43
1.25
 50
270.0000000000001
  0
INSERT
  5
2311
330
1F94
100
AcDbEntity
  8
AM_5
 62
     3
100
AcDbBlockReference
  2
_OPEN30
 10
-118.2720030296784
 20
3.500004432965317
 30
0.0
 41
1.25
 42
1.25
 43
1.25
 50
90.0000000000001
  0
MTEXT
  5
2312
330
1F94
100
AcDbEntity
  8
AM_5
 62
     2
100
AcDbMText
 10
-119.9720030296784
 20
0.000004432965332
 30
0.0
 40
1.9
 41
0.0
 71
     5
 72
     1
  1
%%c7
 11
-0.000000000000002
 21
1.0
 31
0.0
1001
ACAD
1000
MTEXTBEGIN
1070
    73
1070
     1
1070
    44
1040
1.0
1070
    74
1070
     0
1000
MTEXTEND
  0
POINT
  5
2313
330
1F94
100
AcDbEntity
  8
DEFPOINTS
 62
     0
100
AcDbPoint
 10
-110.2864130319866
 20
-3.499995567034422
 30
0.0
  0
POINT
  5
2314
330
1F94
100
AcDbEntity
  8
DEFPOINTS
 62
     0
100
AcDbPoint
 10
-110.2864130319866
 20
3.500004432965577
 30
0.0
  0
POINT
  5
2315
330
1F94
100
AcDbEntity
  8
DEFPOINTS
 62
     0
100
AcDbPoint
 10
-118.2720030296784
 20
3.500004432965579
 30
0.0
  0
ENDBLK
  5
1FA1
330
1F94
100
AcDbEntity
  8
0
100
AcDbBlockEnd
  0
ENDSEC
  0
SECTION
  2
ENTITIES
  0
DIMENSION
  5
CC6
330
1F
100
AcDbEntity
  8
AM_5
100
AcDbDimension
  2
*D5
 10
-1.382913727322725
 20
-18.81133655472375
 30
0.0
 11
-55.88291372732275
 21
-17.11133655472375
 31
0.0
 70
    32
  1
<>
  3
AM_JIS$0
100
AcDbAlignedDimension
 13
-110.3829137273227
 23
-3.293791300954977
 33
0.0
 14
-1.382913727322724
 24
-3.25000747607828
 34
0.0
 50
0.0000000000001132
100
AcDbRotatedDimension
1001
GENIUS_GENDTOL_13
1000

1000
h7
1000

1040
0.0
1001
ACAD
1000
DSTYLE
1002
{
1070
   271
1070
     0
1002
}
  0
DIMENSION
  5
DF5
330
1F
100
AcDbEntity
  8
AM_5
100
AcDbDimension
  2
*D7
 10
-1.382913727322725
 20
-12.51203781623299
 30
0.0
 11
-29.38291372732272
 21
-10.81203781623299
 31
0.0
 70
    32
  1
<>
  3
AM_JIS$0
100
AcDbAlignedDimension
 13
-57.38291372732272
 23
-3.499995567034273
 33
0.0
 14
-1.382913727322724
 24
-3.25000747607828
 34
0.0
 50
0.0000000000001527
100
AcDbRotatedDimension
1001
GENIUS_GENDTOL_13
1000

1000
h7
1000

1040
0.0
1001
ACAD
1000
DSTYLE
1002
{
1070
   271
1070
     0
1002
}
  0
DIMENSION
  5
11B2
330
1F
100
AcDbEntity
  8
AM_5
100
AcDbDimension
  2
*D9
 10
-0.6670955004047916
 20
-1.283343638645574
 30
0.0
 11
15.07814256238131
 21
-0.0000108197082443
 31
0.0
 70
    34
  1
<>
  3
AM_JIS$2
100
AcDb2LineAngularDimension
 13
-0.1999964695926248
 23
-0.0000076350239893
 33
0.0
 14
-0.6670877120647898
 24
1.283315017156934
 34
0.0
 15
-0.1999975822122958
 25
-0.0000054097840669
 35
0.0
 16
15.25187483045283
 26
6.665273638797765
 36
0.0
1001
ACAD
1000
DSTYLE
1002
{
1070
   179
1070
     3
1002
}
1001
GENIUS_GENDTOL_13
1000

1000
h7
1000

1040
0.0
  0
TEXT
  5
19BD
330
1F
100
AcDbEntity
  8
AM_6
100
AcDbText
 10
-68.85910420351319
 20
-30.06133655472378
 30
0.0
 40
2.5
  1
MDW0650LDLH
 50
0.0000000000001527
 72
     4
 11
-55.88291372732272
 21
-28.81133655472375
 31
0.0
100
AcDbText
  0
LINE
  5
1D14
330
1F
100
AcDbEntity
  8
AM_7
100
AcDbLine
 10
-112.2864130319866
 20
0.0000044329657349
 30
0.0
 11
1.55000808880392
 21
0.0000044329658309
 31
0.0
1001
GENIUS_GENODEF_13
1002
{
1000
HIER
1070
     0
1002
}
1002
{
1000
MANEDIT
1070
     0
1002
}
1002
{
1000
NOSEL
1070
     0
1002
}
1002
{
1000
BEHIND
1070
     0
1002
}
1002
{
1000
REACTOR
1002
}
1001
GENIUS_GENOBJ-N-CEN_13
1002
{
1000
OWNER
1000
GEN
1002
}
  0
LINE
  5
1D9D
330
1F
100
AcDbEntity
  8
AM_0
100
AcDbLine
 10
-110.1329137273227
 20
-3.499995567034422
 30
0.0
 11
-110.1329137273227
 21
3.500004432965577
 31
0.0
  0
LINE
  5
1D9E
330
1F
100
AcDbEntity
  8
AM_0
 48
0.5
100
AcDbLine
 10
-110.3829137273227
 20
-3.249995567034422
 30
0.0
 11
-110.3829137273227
 21
3.250004432965576
 31
0.0
  0
LINE
  5
1D9F
330
1F
100
AcDbEntity
  8
AM_0
100
AcDbLine
 10
-110.3829137273227
 20
-3.249995567034422
 30
0.0
 11
-110.1329137273227
 21
-3.499995567034422
 31
0.0
1001
GENIUS_GENFIL_13
1070
     0
1040
0.25
1040
0.25
1040
20.0
1040
0.0
1002
{
1002
}
1001
GENIUS_GENODEF_13
1002
{
1000
HIER
1070
     0
1002
}
1002
{
1000
MANEDIT
1070
     0
1002
}
1002
{
1000
NOSEL
1070
     0
1002
}
1002
{
1000
BEHIND
1070
     0
1002
}
1002
{
1000
REACTOR
1002
}
1001
GENIUS_GENOBJ-N-CHA_13
1002
{
1000
OWNER
1000
GEN
1002
}
  0
LINE
  5
1DA1
330
1F
100
AcDbEntity
  8
AM_0
100
AcDbLine
 10
-110.3829137273227
 20
3.250004432965576
 30
0.0
 11
-110.1329137273227
 21
3.500004432965577
 31
0.0
1001
GENIUS_GENFIL_13
1070
     0
1040
0.25
1040
0.25
1040
20.0
1040
0.0
1002
{
1002
}
1001
GENIUS_GENODEF_13
1002
{
1000
HIER
1070
     0
1002
}
1002
{
1000
MANEDIT
1070
     0
1002
}
1002
{
1000
NOSEL
1070
     0
1002
}
1002
{
1000
BEHIND
1070
     0
1002
}
1002
{
1000
REACTOR
1002
}
1001
GENIUS_GENOBJ-N-CHA_13
1002
{
1000
OWNER
1000
GEN
1002
}
  0
LINE
  5
1DA2
330
1F
100
AcDbEntity
  8
AM_0
100
AcDbLine
 10
-57.38291372732271
 20
-3.499995567034273
 30
0.0
 11
-57.38291372732274
 21
3.500004432965726
 31
0.0
  0
LINE
  5
1DA4
330
1F
100
AcDbEntity
  8
AM_0
100
AcDbLine
 10
-110.2864130319866
 20
3.500004432965577
 30
0.0
 11
-57.38291372732274
 21
3.500004432965726
 31
0.0
  0
LINE
  5
1DA5
330
1F
100
AcDbEntity
  8
AM_0
100
AcDbLine
 10
-110.2864130319866
 20
-3.499995567034422
 30
0.0
 11
-57.38291372732272
 21
-3.499995567034273
 31
0.0
  0
DIMENSION
  5
1ECF
330
1F
100
AcDbEntity
  8
AM_5
100
AcDbDimension
  2
*D11
 10
7.993362157396519
 20
3.249992523921717
 30
0.0
 11
7.993362157396518
 21
-0.0000074760782814
 31
0.0
 70
   160
  1
%%c<>
  3
AM_JIS$0
100
AcDbAlignedDimension
 13
-1.536395230070217
 23
-3.25000747607828
 33
0.0
 14
-1.536395230070206
 24
3.24999252392172
 34
0.0
 50
89.99999999999991
100
AcDbRotatedDimension
1001
ACAD
1000
DSTYLE
1002
{
1070
   271
1070
     1
1002
}
1001
GENIUS_GENDTOL_13
1000

1000
h7
1000

1040
0.0
  0
LINE
  5
1EE0
330
1F
100
AcDbEntity
  8
AM_0
 48
0.5
100
AcDbLine
 10
-0.1999929516759659
 20
-0.0000054097840669
 30
0.0
 11
-1.855265935045302
 21
1.247893804642522
 31
0.0
  0
LINE
  5
1EE1
330
1F
100
AcDbEntity
  8
AM_0
 48
0.5
100
AcDbLine
 10
-3.194850762468695
 20
-3.250007476078271
 30
0.0
 11
-1.382913727322728
 21
-3.250007476078277
 31
0.0
  0
LINE
  5
1EE2
330
1F
100
AcDbEntity
  8
AM_0
 48
0.5
100
AcDbLine
 10
-3.194850762468667
 20
3.249992523921729
 30
0.0
 11
-1.400859997559856
 21
3.249992523921722
 31
0.0
  0
LINE
  5
1EE3
330
1F
100
AcDbEntity
  8
AM_0
 48
0.5
100
AcDbLine
 10
-22.69457718584855
 20
-3.250007476078264
 30
0.0
 11
-13.51301558790793
 21
-3.250007476078231
 31
0.0
  0
LINE
  5
1EE4
330
1F
100
AcDbEntity
  8
AM_11
 48
0.2
100
AcDbLine
 10
-31.6752929995647
 20
3.250454245403221
 30
0.0
 11
-25.09063579028858
 21
3.249992523921812
 31
0.0
  0
LINE
  5
1EE5
330
1F
100
AcDbEntity
  8
AM_0
 48
0.5
100
AcDbLine
 10
-25.09064467726325
 20
3.249992523921812
 30
0.0
 11
-13.5130155879079
 21
3.249992523921768
 31
0.0
  0
LINE
  5
1EE6
330
1F
100
AcDbEntity
  8
AM_11
 48
0.2
100
AcDbLine
 10
-33.01274201128648
 20
-3.250007476078224
 30
0.0
 11
-22.69457718584856
 21
-3.250469197559638
 31
0.0
  0
LINE
  5
1EEA
330
1F
100
AcDbEntity
  8
AM_0
 48
0.5
100
AcDbLine
 10
-44.59045044561365
 20
-3.250007476078137
 30
0.0
 11
-33.94093052524531
 21
-3.250007476078153
 31
0.0
  0
LINE
  5
1EEB
330
1F
100
AcDbEntity
  8
AM_0
100
AcDbLine
 10
-44.59044631300571
 20
3.24999252392182
 30
0.0
 11
-31.6752929995647
 21
3.250454245403221
 31
0.0
  0
LINE
  5
1EEC
330
1F
100
AcDbEntity
  8
AM_11
 48
0.2
100
AcDbLine
 10
-13.51301558790793
 20
-3.250007476078231
 30
0.0
 11
-3.194850762468694
 21
-3.250007476078271
 31
0.0
  0
LINE
  5
1EED
330
1F
100
AcDbEntity
  8
AM_11
 48
0.2
100
AcDbLine
 10
-13.5130155879079
 20
3.249992523921768
 30
0.0
 11
-3.194850762468667
 21
3.249992523921729
 31
0.0
  0
ELLIPSE
  5
1EEE
330
1F
100
AcDbEntity
  8
AM_0
 48
0.5
100
AcDbEllipse
 10
-6.085036241327697
 20
6.181850220739746
 30
0.0
 11
-6.035273218905095
 21
6.035273218905096
 31
0.0
210
0.0
220
0.0
230
1.0
 40
0.9999999999999584
 41
2.994620931161755
 42
3.117000146187709
  0
ELLIPSE
  5
1EEF
330
1F
100
AcDbEntity
  8
AM_0
 48
0.5
100
AcDbEllipse
 10
1.816665172793772
 20
3.90181747509357
 30
0.0
 11
4.631687624717449
 21
4.631687624717448
 31
0.0
210
0.0
220
0.0
230
1.0
 40
0.9999999999999962
 41
2.886562043426436
 42
3.294682973621331
  0
ELLIPSE
  5
1EF0
330
1F
100
AcDbEntity
  8
AM_0
 48
0.5
100
AcDbEllipse
 10
-5.883942762793895
 20
5.454670741491481
 30
0.0
 11
-5.540955445611106
 21
5.540955445611106
 31
0.0
210
0.0
220
0.0
230
1.0
 40
0.9999999999998948
 41
2.866777815420716
 42
2.955272593100222
  0
SPLINE
  5
1EF3
330
1F
100
AcDbEntity
  8
AM_0
100
AcDbSpline
210
0.0
220
0.0
230
1.0
 70
     8
 71
     3
 72
    17
 73
    13
 74
     0
 42
0.0000000001
 43
0.0000000001
 40
1.580019955310467
 40
1.580019955310467
 40
1.580019955310467
 40
1.580019955310467
 40
2.030549285115227
 40
3.082371838836284
 40
4.126290986361125
 40
5.162752068350215
 40
6.192395305374981
 40
7.216039564037012
 40
8.234688489606833
 40
9.249433870634691
 40
10.26152376260694
 40
11.27226744710342
 40
11.27226744710342
 40
11.27226744710342
 40
11.27226744710352
 10
-8.353530666669916
 20
-2.398603177496922
 30
0.0
 10
-8.431027888343546
 20
-2.423306720617186
 30
0.0
 10
-8.689894644870216
 20
-2.504275882823697
 30
0.0
 10
-9.131844394530336
 20
-2.631278910871501
 30
0.0
 10
-9.679264539093049
 20
-2.7735054541809
 30
0.0
 10
-10.22683538790903
 20
-2.898361475554401
 30
0.0
 10
-10.77443132623016
 20
-3.005427680410442
 30
0.0
 10
-11.32208692414736
 20
-3.093925264004371
 30
0.0
 10
-11.8697803580183
 20
-3.163349209648651
 30
0.0
 10
-12.41750789566669
 20
-3.213249626945973
 30
0.0
 10
-12.96525604250441
 20
-3.243305301115161
 30
0.0
 10
-13.33051010253849
 20
-3.250007494674904
 30
0.0
 10
-13.51301558790789
 20
-3.250007476078232
 30
0.0
  0
SPLINE
  5
1EF4
330
1F
100
AcDbEntity
  8
AM_0
100
AcDbSpline
210
0.0
220
0.0
230
1.0
 70
     8
 71
     3
 72
    22
 73
    18
 74
     0
 42
0.0000000001
 43
0.0000000001
 40
17.17441611292
 40
17.17441611292
 40
17.17441611292
 40
17.17441611292
 40
17.38177636558528
 40
18.41823744757437
 40
19.46215659509824
 40
20.51397914882054
 40
21.57394542641293
 40
22.64209583141747
 40
23.71826625065247
 40
24.80210429862395
 40
25.8930771157021
 40
26.99048705697709
 40
28.09349309193389
 40
29.20112995599786
 40
30.31233024745139
 40
31.42594771747373
 40
32.5407895042663
 40
32.54078950426994
 40
32.54078950426994
 40
32.54078950426994
 10
-15.60364896687316
 20
-2.918530998437665
 30
0.0
 10
-15.64032696365207
 20
-2.911007567203416
 30
0.0
 10
-15.86019152332089
 20
-2.865181525224308
 30
0.0
 10
-16.26297100731558
 20
-2.773294346664038
 30
0.0
 10
-16.81046736211822
 20
-2.631286196079788
 30
0.0
 10
-17.35790792819155
 20
-2.47306161691788
 30
0.0
 10
-17.90529657043531
 20
-2.299608286233717
 30
0.0
 10
-18.45263256578715
 20
-2.111989729398362
 30
0.0
 10
-18.99992265131849
 20
-1.911373583388522
 30
0.0
 10
-19.54716936113628
 20
-1.698992770489191
 30
0.0
 10
-20.09437775857389
 20
-1.476157031536394
 30
0.0
 10
-20.64155392824178
 20
-1.244241121892959
 30
0.0
 10
-21.18870261929895
 20
-1.004671099500596
 30
0.0
 10
-21.73582933968159
 20
-0.7589208396195307
 30
0.0
 10
-22.28293893919188
 20
-0.5085014281747342
 30
0.0
 10
-22.83003952278273
 20
-0.254958088288516
 30
0.0
 10
-23.19470165231478
 20
-0.0849119484202845
 30
0.0
 10
-23.3771328923932
 20
0.000157827470399
 30
0.0
  0
SPLINE
  5
1EF5
330
1F
100
AcDbEntity
  8
AM_0
100
AcDbSpline
210
0.0
220
0.0
230
1.0
 70
     8
 71
     3
 72
    11
 73
     7
 74
     0
 42
0.0000000001
 43
0.0000000001
 40
11.27226913003534
 40
11.27226913003534
 40
11.27226913003534
 40
11.2722691300354
 40
12.28301561507924
 40
13.29510212255852
 40
14.30984805882082
 40
15.18258238371378
 40
15.18258238371378
 40
15.18258238371378
 40
15.18258238371378
 10
-13.51301558790791
 20
-3.250007476078232
 30
0.0
 10
-13.6948270975725
 20
-3.234101031634398
 30
0.0
 10
-14.05810718582176
 20
-3.195592221912607
 30
0.0
 10
-14.6011514075451
 20
-3.117910427572252
 30
0.0
 10
-15.11650994932124
 20
-3.02512804170926
 30
0.0
 10
-15.44981360320255
 20
-2.953803460315436
 30
0.0
 10
-15.60340941772392
 20
-2.918571087162812
 30
0.0
  0
SPLINE
  5
1EF6
330
1F
100
AcDbEntity
  8
AM_0
100
AcDbSpline
210
0.0
220
0.0
230
1.0
 70
     8
 71
     3
 72
    55
 73
    51
 74
     0
 42
0.0000000001
 43
0.0000000001
 40
0.0
 40
0.0
 40
0.0
 40
0.0
 40
1.010743684496582
 40
2.022833576467832
 40
3.037578957496688
 40
4.056212745003489
 40
5.079857003664532
 40
6.109500240690281
 40
7.145961322679372
 40
8.189895241603872
 40
9.241717795325891
 40
10.30168407291828
 40
11.36983447792315
 40
12.44600489715814
 40
13.52984294512926
 40
14.62081576220742
 40
15.7182257034828
 40
16.82123173843959
 40
17.92886860250316
 40
19.0400688939571
 40
20.15368796660465
 40
21.26852814259644
 40
22.38336992938901
 40
23.49698739941135
 40
24.6081876908653
 40
25.71582455492886
 40
26.81883757994213
 40
27.91624752121713
 40
29.00722033829659
 40
30.09105838626677
 40
31.16722880550176
 40
32.23537921050758
 40
33.29534548809967
 40
34.347168041821
 40
35.39108718934584
 40
36.42754827133493
 40
37.45720575381954
 40
38.48085062012849
 40
39.49948440763516
 40
40.51422944315121
 40
41.52631975251916
 40
42.53706336719636
 40
43.54780698187354
 40
44.55989729124051
 40
45.57464232675757
 40
46.59327611426424
 40
47.6169209805722
 40
48.64656348684535
 40
49.68302456883444
 40
50.58557219878025
 40
50.58557219878025
 40
50.58557219878025
 40
50.58557219878025
 10
-3.194850762468694
 20
-3.250007476078271
 30
0.0
 10
-3.377356250245887
 20
-3.248073804814334
 30
0.0
 10
-3.742610304491326
 20
-3.244203886833611
 30
0.0
 10
-4.290358462947095
 20
-3.213008003380746
 30
0.0
 10
-4.838083240099238
 20
-3.163414697964625
 30
0.0
 10
-5.385774118465078
 20
-3.093907794248507
 30
0.0
 10
-5.933425632951808
 20
-3.005429244040476
 30
0.0
 10
-6.48102697961951
 20
-2.898372497353289
 30
0.0
 10
-7.028579990170406
 20
-2.773458726590889
 30
0.0
 10
-7.57607980891588
 20
-2.631452843918773
 30
0.0
 10
-8.123522706384344
 20
-2.473226756841906
 30
0.0
 10
-8.670911411275996
 20
-2.299773634152833
 30
0.0
 10
-9.218247389606951
 20
-2.112155020853574
 30
0.0
 10
-9.765537479901835
 20
-1.911538890470293
 30
0.0
 10
-10.31278418785855
 20
-1.699158072107474
 30
0.0
 10
-10.85999258795239
 20
-1.476322339276828
 30
0.0
 10
-11.40716874879854
 20
-1.244406410496601
 30
0.0
 10
-11.95431747270714
 20
-1.004836459001302
 30
0.0
 10
-12.5014440698189
 20
-0.7590859331876399
 30
0.0
 10
-13.04855439462089
 20
-0.5086673983453745
 30
0.0
 10
-13.59565324579148
 20
-0.2551203247137175
 30
0.0
 10
-14.14274834921388
 20
-0.0000081391962871
 30
0.0
 10
-14.68984099663703
 20
0.2551086384994702
 30
0.0
 10
-15.23694168156372
 20
0.5086517637325438
 30
0.0
 10
-15.78405133095069
 20
0.7590710565774571
 30
0.0
 10
-16.3311789035831
 20
1.004822518591087
 30
0.0
 10
-16.87832989732707
 20
1.244390425554352
 30
0.0
 10
-17.42550692176177
 20
1.476307530471021
 30
0.0
 10
-17.9727154008543
 20
1.699143082604862
 30
0.0
 10
-18.51996208889846
 20
1.911523945630568
 30
0.0
 10
-19.06725218059474
 20
2.112140076307311
 30
0.0
 10
-19.61458817286677
 20
2.299758644744131
 30
0.0
 10
-20.16197682126194
 20
2.4732119445448
 30
0.0
 10
-20.70941736602192
 20
2.631436634487345
 30
0.0
 10
-21.25691379911339
 20
2.773444377082228
 30
0.0
 10
-21.80446660655053
 20
2.898360659703411
 30
0.0
 10
-22.35207186327539
 20
3.00540517902402
 30
0.0
 10
-22.89972518704796
 20
3.093911115213748
 30
0.0
 10
-23.44741622777388
 20
3.163335627466949
 30
0.0
 10
-23.99514138550185
 20
3.213230094960853
 30
0.0
 10
-24.54288907953245
 20
3.243295199868438
 30
0.0
 10
-25.09064880998645
 20
3.253338956592267
 30
0.0
 10
-25.6384085396345
 20
3.243295199852693
 30
0.0
 10
-26.18615623608764
 20
3.213230095024027
 30
0.0
 10
-26.73388138489647
 20
3.163335627228861
 30
0.0
 10
-27.2815724590624
 20
3.093911116108404
 30
0.0
 10
-27.82922298720698
 20
3.005405607140552
 30
0.0
 10
-28.37682608657554
 20
2.898361754175764
 30
0.0
 10
-28.89948285614244
 20
2.77911478546341
 30
0.0
 10
-29.23858852042192
 20
2.691908349922154
 30
0.0
 10
-29.39591378414002
 20
2.649408399696783
 30
0.0
  0
SPLINE
  5
1EF7
330
1F
100
AcDbEntity
  8
AM_0
100
AcDbSpline
210
0.0
220
0.0
230
1.0
 70
     8
 71
     3
 72
    46
 73
    42
 74
     0
 42
0.0000000001
 43
0.0000000001
 40
0.0
 40
0.0
 40
0.0
 40
0.0
 40
1.1797905410792
 40
1.771725346678784
 40
2.365928389391084
 40
2.963054206943358
 40
3.563679428541708
 40
4.168281726368678
 40
4.777234562424272
 40
5.390806270667785
 40
6.009119932596676
 40
6.632207668849522
 40
7.259973746737163
 40
7.892212608053092
 40
8.52861341801536
 40
9.168769217093204
 40
9.81218940415078
 40
10.45831090818787
 40
11.1065110782032
 40
11.75612220391374
 40
12.40644563990895
 40
13.05676907590469
 40
13.70638020161522
 40
14.35458037163003
 40
15.0007018756671
 40
15.64412206272523
 40
16.28427786180231
 40
16.92067867176479
 40
17.5529216827261
 40
18.18068776061372
 40
18.80377549686657
 40
19.42208915879529
 40
20.03565231513329
 40
20.64460515118888
 40
21.24920744901585
 40
21.84983224434128
 40
22.44695841635484
 40
23.04117028960383
 40
23.63310489365486
 40
24.22349090745283
 40
24.81309134934788
 40
24.81309134934788
 40
24.81309134934788
 40
24.81309134934788
 10
-1.661528110287566
 20
-3.250007476078277
 30
0.0
 10
-2.026800010264005
 20
-3.242603724850305
 30
0.0
 10
-2.575339315406924
 20
-3.231485298948106
 30
0.0
 10
-3.304755950287462
 20
-3.163031193231777
 30
0.0
 10
-3.852452713023537
 20
-3.094011245070389
 30
0.0
 10
-4.400102660724554
 20
-3.005401355765625
 30
0.0
 10
-4.94770435069304
 20
-2.898379803110873
 30
0.0
 10
-5.495254969791713
 20
-2.773458241301689
 30
0.0
 10
-6.042753600955557
 20
-2.631450455013521
 30
0.0
 10
-6.590197807622288
 20
-2.473228393075844
 30
0.0
 10
-7.137588684001578
 20
-2.299773407392413
 30
0.0
 10
-7.684924757778406
 20
-2.112155082310074
 30
0.0
 10
-8.232214822199628
 20
-1.911538873805639
 30
0.0
 10
-8.779461537204381
 20
-1.699158076687523
 30
0.0
 10
-9.326669935236576
 20
-1.476322337776107
 30
0.0
 10
-9.873846097221189
 20
-1.244406411888658
 30
0.0
 10
-10.42099481863782
 20
-1.004836454917523
 30
0.0
 10
-10.96812142462402
 20
-0.7590859482077882
 30
0.0
 10
-11.51523171628151
 20
-0.5086673421284137
 30
0.0
 10
-12.06233069149857
 20
-0.2551205350779411
 30
0.0
 10
-12.60942506770503
 20
-0.000007476129854
 30
0.0
 10
-13.15651944379129
 20
0.255105583128248
 30
0.0
 10
-13.70361841936885
 20
0.5086523892491326
 30
0.0
 10
-14.25072870970864
 20
0.7590709987257375
 30
0.0
 10
-14.79785532058101
 20
1.004821492836381
 30
0.0
 10
-15.34500402388021
 20
1.244391496523677
 30
0.0
 10
-15.89218025295977
 20
1.476307249404729
 30
0.0
 10
-16.43938959241655
 20
1.699144112703812
 30
0.0
 10
-16.98663843375803
 20
1.911522980234726
 30
0.0
 10
-17.53392947446085
 20
2.112140217430376
 30
0.0
 10
-18.08126553549414
 20
2.299758598339152
 30
0.0
 10
-18.6286541632539
 20
2.473211990119495
 30
0.0
 10
-19.17609472241244
 20
2.631436499618442
 30
0.0
 10
-19.72359111872361
 20
2.773444866023958
 30
0.0
 10
-20.27114142092873
 20
2.89835825480874
 30
0.0
 10
-20.81874351236526
 20
3.005410847931067
 30
0.0
 10
-21.36639695521051
 20
3.093894201177682
 30
0.0
 10
-21.91409089580401
 20
3.163400036916294
 30
0.0
 10
-22.4618187219551
 20
3.212988790808169
 30
0.0
 10
-23.00956643021884
 20
3.244193092501161
 30
0.0
 10
-23.37482063742885
 20
3.248060238294572
 30
0.0
 10
-23.55732615767109
 20
3.249992523921807
 30
0.0
  0
SPLINE
  5
1EF8
330
1F
100
AcDbEntity
  8
AM_0
 48
0.5
100
AcDbSpline
210
0.0
220
0.0
230
1.0
 70
     8
 71
     3
 72
    10
 73
     6
 74
     0
 42
0.0000000001
 43
0.0000000001
 40
0.0
 40
0.0
 40
0.0
 40
0.0
 40
2.69986029516136
 40
4.147722969032201
 40
6.285750005020438
 40
6.285750005020438
 40
6.285750005020438
 40
6.285750005020438
 10
-3.83357540744755
 20
0.5882252001098213
 30
0.0
 10
-3.443731984319691
 20
0.2862777415976195
 30
0.0
 10
-2.844825987838539
 20
-0.1775960415594131
 30
0.0
 10
-1.42849375865114
 20
0.0469733832500173
 30
0.0
 10
-1.695230313969948
 20
0.8033529209660057
 30
0.0
 10
-1.871472787227702
 20
1.264389545066641
 30
0.0
  0
SPLINE
  5
1EF9
330
1F
100
AcDbEntity
  8
AM_0
 48
0.5
100
AcDbSpline
210
0.0
220
0.0
230
1.0
 70
     8
 71
     3
 72
    25
 73
    21
 74
     0
 42
0.0000000001
 43
0.0000000001
 40
6.846175049578289
 40
6.846175049578289
 40
6.846175049578289
 40
6.846175049578289
 40
7.604337694224321
 40
8.711974558287883
 40
9.814980593243754
 40
10.91239053451967
 40
12.0033633515982
 40
13.08720139956839
 40
14.16337181880432
 40
15.23152222380919
 40
16.29148850140128
 40
17.34331105512262
 40
18.38723020264746
 40
19.42369128463655
 40
20.45333379090873
 40
21.47697865721768
 40
22.49561244472435
 40
23.5103574802404
 40
24.52244778960836
 40
25.53320666051913
 40
25.53320666051913
 40
25.53320666051913
 40
25.53320666051913
 10
-3.833662980318968
 20
0.5882638011869567
 30
0.0
 10
-3.9580926118918
 20
0.6453280210832367
 30
0.0
 10
-4.264569441806203
 20
0.7851891217674866
 30
0.0
 10
-4.753548927223151
 20
1.00482139742478
 30
0.0
 10
-5.300697588378154
 20
1.244391487512938
 30
0.0
 10
-5.847873765994682
 20
1.476307379130089
 30
0.0
 10
-6.395082161335855
 20
1.699143122953307
 30
0.0
 10
-6.94232887165361
 20
1.911523934259694
 30
0.0
 10
-7.489618957261081
 20
2.112140081799943
 30
0.0
 10
-8.036954951823123
 20
2.299758634139439
 30
0.0
 10
-8.584343597115061
 20
2.47321198110847
 30
0.0
 10
-9.131784151907341
 20
2.631436500266526
 30
0.0
 10
-9.679280548350593
 20
2.773444872270709
 30
0.0
 10
-10.22683085430484
 20
2.898358229447473
 30
0.0
 10
-10.77443293076188
 20
3.005410942288647
 30
0.0
 10
-11.32208373057353
 20
3.093893415758478
 30
0.0
 10
-11.86977473251323
 20
3.163400689231221
 30
0.0
 10
-12.41749990047031
 20
3.212988681482142
 30
0.0
 10
-12.96525034321481
 20
3.244193282432231
 30
0.0
 10
-13.33050731033624
 20
3.248060291846571
 30
0.0
 10
-13.5130155879079
 20
3.249992523921768
 30
0.0
  0
SPLINE
  5
1EFA
330
1F
100
AcDbEntity
  8
AM_0
 48
0.5
100
AcDbSpline
210
0.0
220
0.0
230
1.0
 70
     8
 71
     3
 72
    16
 73
    12
 74
     0
 42
0.0000000001
 43
0.0000000001
 40
0.0
 40
0.0
 40
0.0
 40
0.0
 40
1.010743614677189
 40
2.022833924044153
 40
3.037578959561199
 40
4.056212747067873
 40
5.079857613375832
 40
6.109500119648989
 40
7.14596120163808
 40
8.18989512056258
 40
8.545190612624931
 40
8.545190612624931
 40
8.545190612624931
 40
8.545190612624931
 10
-3.194850762468667
 20
3.249992523921729
 30
0.0
 10
-3.377346137340921
 20
3.249972994186619
 30
0.0
 10
-3.742615208387598
 20
3.24330427857228
 30
0.0
 10
-4.290356916750766
 20
3.213227643296806
 30
0.0
 10
-4.838083695258033
 20
3.163336328656754
 30
0.0
 10
-5.385774258249739
 20
3.093910772614338
 30
0.0
 10
-5.933425195339505
 20
3.005406280140021
 30
0.0
 10
-6.481027163852885
 20
2.898359386945601
 30
0.0
 10
-7.028580366700035
 20
2.773444356578142
 30
0.0
 10
-7.454328360197639
 20
2.663013270331196
 30
0.0
 10
-7.697677208460664
 20
2.595095418026705
 30
0.0
 10
-7.759389117302775
 20
2.577568723291586
 30
0.0
  0
SPLINE
  5
1EFB
330
1F
100
AcDbEntity
  8
AM_0
 48
0.5
100
AcDbSpline
210
0.0
220
0.0
230
1.0
 70
     8
 71
     3
 72
    17
 73
    13
 74
     0
 42
0.0000000001
 43
0.0000000001
 40
0.0
 40
0.0
 40
0.0
 40
0.0
 40
1.010743614677189
 40
2.022833924044153
 40
3.037578959561199
 40
4.056212747067873
 40
5.079857613375832
 40
6.109500119648989
 40
7.14596120163808
 40
8.18989512056258
 40
9.241717674284874
 40
9.693948937866434
 40
9.693948937866434
 40
9.693948937866434
 40
9.693948937866434
 10
-3.194850762468667
 20
3.249992523921729
 30
0.0
 10
-3.377356283459678
 20
3.248060246155331
 30
0.0
 10
-3.742610492168085
 20
3.2441931160941
 30
0.0
 10
-4.290358189171196
 20
3.212988696186103
 30
0.0
 10
-4.838083335719563
 20
3.163400639836887
 30
0.0
 10
-5.385774418425119
 20
3.093893599709798
 30
0.0
 10
-5.933424914445741
 20
3.005410250812594
 30
0.0
 10
-6.481028134771988
 20
2.898360833617651
 30
0.0
 10
-7.028576729648308
 20
2.773434460625946
 30
0.0
 10
-7.576091946158104
 20
2.631472168354007
 30
0.0
 10
-8.018060506083497
 20
2.503585602256216
 30
0.0
 10
-8.27761035756556
 20
2.42363810755219
 30
0.0
 10
-8.355513297958797
 20
2.399166714615307
 30
0.0
  0
ELLIPSE
  5
1EFC
330
1F
100
AcDbEntity
  8
AM_0
 48
0.5
100
AcDbEllipse
 10
-1.22634172417905
 20
-0.8470042602886989
 30
0.0
 11
-0.4690984353454741
 21
0.2708333341448434
 31
0.0
210
0.0
220
0.0
230
0.9999999999999996
 40
0.5000000000000901
 41
4.483836531792558
 42
7.627276873122069
  0
ELLIPSE
  5
1EFD
330
1F
100
AcDbEntity
  8
AM_0
 48
0.5
100
AcDbEllipse
 10
-1.22634172417905
 20
-0.8470042602886989
 30
0.0
 11
-0.0940577006709513
 21
0.5334366247258556
 31
0.0
210
0.0
220
0.0
230
0.9999999999999998
 40
0.499998122449526
 41
1.805862328724646
 42
4.94120421843662
  0
SPLINE
  5
1F02
330
1F
100
AcDbEntity
  8
AM_0
100
AcDbSpline
210
0.0
220
0.0
230
1.0
 70
     8
 71
     3
 72
    55
 73
    51
 74
     0
 42
0.0000000001
 43
0.0000000001
 40
0.0
 40
0.0
 40
0.0
 40
0.0
 40
1.010743684496582
 40
2.022833576467832
 40
3.037578957496688
 40
4.056212745003489
 40
5.079857003664532
 40
6.109500240690281
 40
7.145961322679372
 40
8.189895241603872
 40
9.241717795325891
 40
10.30168407291828
 40
11.36983447792315
 40
12.44600489715814
 40
13.52984294512926
 40
14.62081576220742
 40
15.7182257034828
 40
16.82123173843959
 40
17.92886860250316
 40
19.0400688939571
 40
20.15368796660465
 40
21.26852814259644
 40
22.38336992938901
 40
23.49698739941135
 40
24.6081876908653
 40
25.71582455492886
 40
26.81883757994213
 40
27.91624752121713
 40
29.00722033829659
 40
30.09105838626677
 40
31.16722880550176
 40
32.23537921050758
 40
33.29534548809967
 40
34.347168041821
 40
35.39108718934584
 40
36.42754827133493
 40
37.45720575381954
 40
38.48085062012849
 40
39.49948440763516
 40
40.51422944315121
 40
41.52631975251916
 40
42.53706336719636
 40
43.54780698187354
 40
44.55989729124051
 40
45.57464232675757
 40
46.59327611426424
 40
47.6169209805722
 40
48.64656348684535
 40
49.68302456883444
 40
50.58557219878025
 40
50.58557219878025
 40
50.58557219878025
 40
50.58557219878025
 10
-22.69457718584855
 20
-3.250007476078264
 30
0.0
 10
-22.87708267362574
 20
-3.248073804814326
 30
0.0
 10
-23.24233672787118
 20
-3.244203886833604
 30
0.0
 10
-23.79008488632695
 20
-3.213008003380738
 30
0.0
 10
-24.3378096634791
 20
-3.163414697964618
 30
0.0
 10
-24.88550054184494
 20
-3.093907794248499
 30
0.0
 10
-25.43315205633167
 20
-3.005429244040469
 30
0.0
 10
-25.98075340299937
 20
-2.898372497353282
 30
0.0
 10
-26.52830641355026
 20
-2.773458726590882
 30
0.0
 10
-27.07580623229574
 20
-2.631452843918765
 30
0.0
 10
-27.6232491297642
 20
-2.473226756841899
 30
0.0
 10
-28.17063783465584
 20
-2.299773634152826
 30
0.0
 10
-28.7179738129868
 20
-2.112155020853566
 30
0.0
 10
-29.26526390328169
 20
-1.911538890470286
 30
0.0
 10
-29.81251061123842
 20
-1.699158072107467
 30
0.0
 10
-30.35971901133224
 20
-1.476322339276821
 30
0.0
 10
-30.90689517217839
 20
-1.244406410496594
 30
0.0
 10
-31.454043896087
 20
-1.004836459001295
 30
0.0
 10
-32.00117049319875
 20
-0.7590859331876324
 30
0.0
 10
-32.54828081800074
 20
-0.5086673983453672
 30
0.0
 10
-33.09537966917134
 20
-0.2551203247137103
 30
0.0
 10
-33.64247477259374
 20
-0.0000081391962798
 30
0.0
 10
-34.18956742001688
 20
0.2551086384994776
 30
0.0
 10
-34.73666810494357
 20
0.508651763732551
 30
0.0
 10
-35.28377775433055
 20
0.7590710565774646
 30
0.0
 10
-35.83090532696297
 20
1.004822518591094
 30
0.0
 10
-36.37805632070694
 20
1.244390425554359
 30
0.0
 10
-36.92523334514163
 20
1.476307530471028
 30
0.0
 10
-37.47244182423414
 20
1.699143082604869
 30
0.0
 10
-38.01968851227831
 20
1.911523945630576
 30
0.0
 10
-38.5669786039746
 20
2.112140076307318
 30
0.0
 10
-39.11431459624663
 20
2.299758644744138
 30
0.0
 10
-39.66170324464178
 20
2.473211944544806
 30
0.0
 10
-40.20914378940178
 20
2.631436634487353
 30
0.0
 10
-40.75664022249324
 20
2.773444377082234
 30
0.0
 10
-41.30419302993039
 20
2.898360659703419
 30
0.0
 10
-41.85179828665524
 20
3.005405179024027
 30
0.0
 10
-42.39945161042782
 20
3.093911115213755
 30
0.0
 10
-42.94714265115374
 20
3.163335627466957
 30
0.0
 10
-43.4948678088817
 20
3.21323009496086
 30
0.0
 10
-44.0426155029123
 20
3.243295199868446
 30
0.0
 10
-44.59037523336631
 20
3.253338956592274
 30
0.0
 10
-45.13813496301435
 20
3.2432951998527
 30
0.0
 10
-45.6858826594675
 20
3.213230095024035
 30
0.0
 10
-46.23360780827633
 20
3.163335627228868
 30
0.0
 10
-46.78129888244225
 20
3.093911116108411
 30
0.0
 10
-47.32894941058684
 20
3.00540560714056
 30
0.0
 10
-47.87655250995539
 20
2.898361754175771
 30
0.0
 10
-48.39920927952229
 20
2.779114785463417
 30
0.0
 10
-48.73831494380178
 20
2.691908349922161
 30
0.0
 10
-48.89564020751987
 20
2.64940839969679
 30
0.0
  0
SPLINE
  5
1F03
330
1F
100
AcDbEntity
  8
AM_0
100
AcDbSpline
210
0.0
220
0.0
230
1.0
 70
     8
 71
     3
 72
    46
 73
    42
 74
     0
 42
0.0000000001
 43
0.0000000001
 40
0.0
 40
0.0
 40
0.0
 40
0.0
 40
1.179790541079198
 40
1.771725346678782
 40
2.365928389391083
 40
2.963054206943358
 40
3.56367942854171
 40
4.168281726368679
 40
4.777234562424272
 40
5.390806270667778
 40
6.009119932596676
 40
6.632207668849522
 40
7.259973746737163
 40
7.892212608053084
 40
8.52861341801536
 40
9.168769217093196
 40
9.812189404150775
 40
10.45831090818786
 40
11.10651107820319
 40
11.75612220391373
 40
12.40644563990894
 40
13.05676907590468
 40
13.70638020161522
 40
14.35458037163002
 40
15.0007018756671
 40
15.64412206272522
 40
16.2842778618023
 40
16.92067867176477
 40
17.55292168272609
 40
18.18068776061372
 40
18.80377549686656
 40
19.42208915879528
 40
20.03565231513328
 40
20.64460515118887
 40
21.24920744901584
 40
21.84983224434128
 40
22.44695841635482
 40
23.04117028960381
 40
23.63310489365484
 40
24.22349090745283
 40
24.81309134934786
 40
24.81309134934786
 40
24.81309134934786
 40
24.81309134934786
 10
-21.16125453366743
 20
-3.25000747607827
 30
0.0
 10
-21.52652643364386
 20
-3.242603724850297
 30
0.0
 10
-22.07506573878677
 20
-3.231485298948097
 30
0.0
 10
-22.80448237366732
 20
-3.16303119323177
 30
0.0
 10
-23.35217913640339
 20
-3.094011245070381
 30
0.0
 10
-23.89982908410441
 20
-3.005401355765618
 30
0.0
 10
-24.4474307740729
 20
-2.898379803110865
 30
0.0
 10
-24.99498139317157
 20
-2.773458241301681
 30
0.0
 10
-25.54248002433542
 20
-2.631450455013515
 30
0.0
 10
-26.08992423100214
 20
-2.473228393075833
 30
0.0
 10
-26.63731510738143
 20
-2.299773407392408
 30
0.0
 10
-27.18465118115826
 20
-2.112155082310064
 30
0.0
 10
-27.73194124557949
 20
-1.911538873805634
 30
0.0
 10
-28.27918796058423
 20
-1.699158076687511
 30
0.0
 10
-28.82639635861643
 20
-1.476322337776105
 30
0.0
 10
-29.37357252060104
 20
-1.244406411888646
 30
0.0
 10
-29.92072124201767
 20
-1.004836454917519
 30
0.0
 10
-30.46784784800387
 20
-0.7590859482077789
 30
0.0
 10
-31.01495813966137
 20
-0.5086673421284076
 30
0.0
 10
-31.56205711487842
 20
-0.2551205350779337
 30
0.0
 10
-32.10915149108489
 20
-0.0000074761298463
 30
0.0
 10
-32.65624586717116
 20
0.255105583128255
 30
0.0
 10
-33.20334484274872
 20
0.5086523892491398
 30
0.0
 10
-33.75045513308851
 20
0.7590709987257453
 30
0.0
 10
-34.29758174396086
 20
1.004821492836385
 30
0.0
 10
-34.84473044726007
 20
1.244391496523686
 30
0.0
 10
-35.39190667633963
 20
1.476307249404736
 30
0.0
 10
-35.9391160157964
 20
1.69914411270382
 30
0.0
 10
-36.48636485713788
 20
1.911522980234735
 30
0.0
 10
-37.03365589784069
 20
2.112140217430382
 30
0.0
 10
-37.58099195887399
 20
2.29975859833916
 30
0.0
 10
-38.12838058663374
 20
2.473211990119501
 30
0.0
 10
-38.6758211457923
 20
2.63143649961845
 30
0.0
 10
-39.22331754210345
 20
2.773444866023965
 30
0.0
 10
-39.77086784430859
 20
2.898358254808747
 30
0.0
 10
-40.31846993574512
 20
3.005410847931074
 30
0.0
 10
-40.86612337859036
 20
3.093894201177691
 30
0.0
 10
-41.41381731918385
 20
3.163400036916301
 30
0.0
 10
-41.96154514533495
 20
3.212988790808177
 30
0.0
 10
-42.50929285359869
 20
3.244193092501168
 30
0.0
 10
-42.87454706080871
 20
3.248060238294578
 30
0.0
 10
-43.05705258105095
 20
3.249992523921814
 30
0.0
  0
SPLINE
  5
1F04
330
1F
100
AcDbEntity
  8
AM_0
100
AcDbSpline
210
0.0
220
0.0
230
1.0
 70
     8
 71
     3
 72
    22
 73
    18
 74
     0
 42
0.0000000001
 43
0.0000000001
 40
17.17441611292
 40
17.17441611292
 40
17.17441611292
 40
17.17441611292
 40
17.38177636558528
 40
18.41823744757437
 40
19.46215659509824
 40
20.51397914882054
 40
21.57394542641293
 40
22.64209583141747
 40
23.71826625065247
 40
24.80210429862395
 40
25.8930771157021
 40
26.99048705697709
 40
28.09349309193389
 40
29.20112995599786
 40
30.31233024745139
 40
31.42594771747373
 40
32.5407895042663
 40
32.54078950426994
 40
32.54078950426994
 40
32.54078950426994
 10
-35.10337539025302
 20
-2.918530998437657
 30
0.0
 10
-35.14005338703192
 20
-2.911007567203409
 30
0.0
 10
-35.35991794670075
 20
-2.865181525224301
 30
0.0
 10
-35.76269743069544
 20
-2.77329434666403
 30
0.0
 10
-36.31019378549808
 20
-2.63128619607978
 30
0.0
 10
-36.85763435157141
 20
-2.473061616917873
 30
0.0
 10
-37.40502299381517
 20
-2.29960828623371
 30
0.0
 10
-37.95235898916701
 20
-2.111989729398354
 30
0.0
 10
-38.49964907469836
 20
-1.911373583388515
 30
0.0
 10
-39.04689578451614
 20
-1.698992770489183
 30
0.0
 10
-39.59410418195374
 20
-1.476157031536387
 30
0.0
 10
-40.14128035162163
 20
-1.244241121892952
 30
0.0
 10
-40.68842904267881
 20
-1.004671099500588
 30
0.0
 10
-41.23555576306144
 20
-0.7589208396195235
 30
0.0
 10
-41.78266536257174
 20
-0.5085014281747271
 30
0.0
 10
-42.32976594616259
 20
-0.2549580882885086
 30
0.0
 10
-42.69442807569464
 20
-0.0849119484202771
 30
0.0
 10
-42.87685931577306
 20
0.0001578274704064
 30
0.0
  0
SPLINE
  5
1F05
330
1F
100
AcDbEntity
  8
AM_0
100
AcDbSpline
210
0.0
220
0.0
230
1.0
 70
     8
 71
     3
 72
    17
 73
    13
 74
     0
 42
0.0000000001
 43
0.0000000001
 40
1.580019955310467
 40
1.580019955310467
 40
1.580019955310467
 40
1.580019955310467
 40
2.030549285115227
 40
3.082371838836284
 40
4.126290986361125
 40
5.162752068350215
 40
6.192395305374981
 40
7.216039564037012
 40
8.234688489606833
 40
9.249433870634691
 40
10.26152376260694
 40
11.27226744710342
 40
11.27226744710342
 40
11.27226744710342
 40
11.27226744710352
 10
-27.85325709004977
 20
-2.398603177496914
 30
0.0
 10
-27.9307543117234
 20
-2.423306720617179
 30
0.0
 10
-28.18962106825006
 20
-2.504275882823689
 30
0.0
 10
-28.63157081791019
 20
-2.631278910871494
 30
0.0
 10
-29.1789909624729
 20
-2.773505454180893
 30
0.0
 10
-29.7265618112889
 20
-2.898361475554393
 30
0.0
 10
-30.27415774961002
 20
-3.005427680410435
 30
0.0
 10
-30.82181334752721
 20
-3.093925264004364
 30
0.0
 10
-31.36950678139816
 20
-3.163349209648644
 30
0.0
 10
-31.91723431904654
 20
-3.213249626945965
 30
0.0
 10
-32.46498246588427
 20
-3.243305301115154
 30
0.0
 10
-32.83023652591834
 20
-3.250007494674896
 30
0.0
 10
-33.01274201128774
 20
-3.250007476078225
 30
0.0
  0
SPLINE
  5
1F06
330
1F
100
AcDbEntity
  8
AM_0
100
AcDbSpline
210
0.0
220
0.0
230
1.0
 70
     8
 71
     3
 72
    11
 73
     7
 74
     0
 42
0.0000000001
 43
0.0000000001
 40
11.27226913003534
 40
11.27226913003534
 40
11.27226913003534
 40
11.2722691300354
 40
12.28301561507924
 40
13.29510212255852
 40
14.30984805882082
 40
15.18258238371378
 40
15.18258238371378
 40
15.18258238371378
 40
15.18258238371378
 10
-33.01274201128777
 20
-3.250007476078225
 30
0.0
 10
-33.19455352095236
 20
-3.234101031634392
 30
0.0
 10
-33.55783360920162
 20
-3.1955922219126
 30
0.0
 10
-34.10087783092496
 20
-3.117910427572245
 30
0.0
 10
-34.6162363727011
 20
-3.025128041709253
 30
0.0
 10
-34.94954002658241
 20
-2.953803460315429
 30
0.0
 10
-35.10313584110377
 20
-2.918571087162805
 30
0.0
  0
SPLINE
  5
1F07
330
1F
100
AcDbEntity
  8
AM_0
100
AcDbSpline
210
0.0
220
0.0
230
1.0
 70
     8
 71
     3
 72
    23
 73
    19
 74
     0
 42
0.0000000001
 43
0.0000000001
 40
16.03460024169435
 40
16.03460024169435
 40
16.03460024169435
 40
16.03460024169435
 40
16.35212704903564
 40
17.38177054169784
 40
18.41822485651776
 40
19.46214173629503
 40
20.51396345435107
 40
21.57393551351153
 40
22.64208202342361
 40
23.7182574881101
 40
24.80209208578934
 40
25.89306333925047
 40
26.99048218457928
 40
28.09348763352352
 40
29.20111863782268
 40
30.31232390128032
 40
31.42594612798585
 40
32.5407912310448
 40
32.5407912310486
 40
32.5407912310486
 40
32.5407912310486
 10
-31.6752929995647
 20
3.250454245403222
 30
0.0
 10
-31.61901860784346
 20
3.239482817726971
 30
0.0
 10
-31.38050300787085
 20
3.191705338172833
 30
0.0
 10
-30.96035520988211
 20
3.098092658749114
 30
0.0
 10
-30.41626271160383
 20
2.958891628184335
 30
0.0
 10
-29.87267559203033
 20
2.802592073322821
 30
0.0
 10
-29.32956173016519
 20
2.630098576267031
 30
0.0
 10
-28.78690184993499
 20
2.442372792124667
 30
0.0
 10
-28.24466458689921
 20
2.240487840644319
 30
0.0
 10
-27.70281218171581
 20
2.025618641603635
 30
0.0
 10
-27.16131384438499
 20
1.798981986749115
 30
0.0
 10
-26.62012616102154
 20
1.56189662196783
 30
0.0
 10
-26.07920527441561
 20
1.31574058983223
 30
0.0
 10
-25.53851514455135
 20
1.061929184331873
 30
0.0
 10
-24.99801053254225
 20
0.8019382840316863
 30
0.0
 10
-24.45764137621413
 20
0.5372860450452541
 30
0.0
 10
-23.91736367426379
 20
0.2695060554322041
 30
0.0
 10
-23.55727528523176
 20
0.0899742144551529
 30
0.0
 10
-23.37713289239077
 20
0.0001578274692313
 30
0.0
  0
ELLIPSE
  5
1F09
330
1F
100
AcDbEntity
  8
AM_0
 48
0.5
100
AcDbEllipse
 10
3.127152238388559
 20
-0.9244822336939563
 30
0.0
 11
5.12697140982303
 21
0.997665088647215
 31
0.0
210
0.0
220
0.0
230
1.0
 40
0.7540697031615073
 41
3.003888070756737
 42
3.510771491126569
  0
LINE
  5
1F64
330
1F
100
AcDbEntity
  8
AM_0
100
AcDbLine
 10
-52.257354481299
 20
-3.250007476078151
 30
0.0
 11
-56.94992165249958
 21
-3.25000747607816
 31
0.0
  0
LINE
  5
1F71
330
1F
100
AcDbEntity
  8
AM_0
100
AcDbLine
 10
-57.38291372732274
 20
3.500004432965726
 30
0.0
 11
-56.94992165249959
 21
3.250016342009605
 31
0.0
  0
LINE
  5
1F72
330
1F
100
AcDbEntity
  8
AM_0
100
AcDbLine
 10
-57.38291372732271
 20
-3.499995567034273
 30
0.0
 11
-56.94992165249958
 21
-3.250007476078167
 31
0.0
  0
LINE
  5
1F73
330
1F
100
AcDbEntity
  8
AM_0
100
AcDbLine
 10
-56.94992165249958
 20
-3.25000747607816
 30
0.0
 11
-56.9499216524996
 21
3.250016342009608
 31
0.0
  0
LINE
  5
1F76
330
1F
100
AcDbEntity
  8
AM_0
100
AcDbLine
 10
-51.17509463530716
 20
3.250454245403227
 30
0.0
 11
-56.94992165333697
 21
3.250027678510305
 31
0.0
  0
DIMENSION
  5
1F93
330
1F
100
AcDbEntity
  8
AM_5
100
AcDbDimension
  2
*D12
 10
-118.2720030296784
 20
3.500004432965579
 30
0.0
 11
-118.2720030296784
 21
0.0000044329655743
 31
0.0
 70
   160
  1
%%c<>
 51
359.9999999999998
  3
AM_JIS$0
100
AcDbAlignedDimension
 13
-110.2864130319866
 23
-3.499995567034422
 33
0.0
 14
-110.2864130319866
 24
3.500004432965577
 34
0.0
 50
270.0000000000002
100
AcDbRotatedDimension
1001
ACAD
1000
DSTYLE
1002
{
1070
   271
1070
     0
1002
}
1001
GENIUS_GENDTOL_13
1000

1000
h7
1000

1040
0.0
  0
LINE
  5
21E4
330
1F
100
AcDbEntity
  8
AM_0
100
AcDbLine
 10
-1.382913727322727
 20
-3.250007476078277
 30
0.0
 11
-0.2000065942320548
 21
0.0000031614001678
 31
0.0
  0
LINE
  5
2240
330
1F
100
AcDbEntity
  8
AM_0
100
AcDbLine
 10
-1.38291372732274
 20
3.250016342009927
 30
0.0
 11
-0.2000065942320548
 21
0.000005704531487
 31
0.0
  0
ELLIPSE
  5
22C1
330
1F
100
AcDbEntity
  8
AM_0
 48
0.5
100
AcDbEllipse
 10
-52.57242657777787
 20
-2.199681128727025
 30
0.0
 11
-0.0000000000007456
 21
0.8124999999999992
 31
0.0
210
0.0
220
0.0
230
1.0
 40
0.9942568865860204
 41
-0.3953601559025204
 42
1.570796326793977
  0
ELLIPSE
  5
22C2
330
1F
100
AcDbEntity
  8
AM_0
 48
0.5
100
AcDbEllipse
 10
-52.30295144596503
 20
-2.166674142744813
 30
0.0
 11
-0.0000000000002138
 21
1.083333333333331
 31
0.0
210
0.0
220
0.0
230
1.0
 40
0.9942568865860149
 41
1.570796326794694
 42
3.141592339673085
  0
LINE
  5
22C3
330
1F
100
AcDbEntity
  8
AM_0
 48
0.5
100
AcDbLine
 10
-46.29442107529256
 20
1.646707211268999
 30
0.0
 11
-53.38005896424483
 21
-0.262850449151541
 31
0.0
  0
SPLINE
  5
22C4
330
1F
100
AcDbEntity
  8
AM_0
100
AcDbSpline
210
0.0
220
0.0
230
1.0
 70
     8
 71
     3
 72
    23
 73
    19
 74
     0
 42
0.0000000001
 43
0.0000000001
 40
16.03460024169435
 40
16.03460024169435
 40
16.03460024169435
 40
16.03460024169435
 40
16.35212704903564
 40
17.38177054169784
 40
18.41822485651776
 40
19.46214173629503
 40
20.51396345435107
 40
21.57393551351153
 40
22.64208202342361
 40
23.7182574881101
 40
24.80209208578934
 40
25.89306333925047
 40
26.99048218457928
 40
28.09348763352352
 40
29.20111863782268
 40
30.31232390128032
 40
31.42594612798585
 40
32.5407912310448
 40
32.5407912310486
 40
32.5407912310486
 40
32.5407912310486
 10
-51.12743736068424
 20
3.250454245403243
 30
0.0
 10
-51.07148615917695
 20
3.239482817726992
 30
0.0
 10
-50.834340381346
 20
3.191705338172854
 30
0.0
 10
-50.41660553981174
 20
3.098092658749134
 30
0.0
 10
-49.87563782645878
 20
2.958891628184354
 30
0.0
 10
-49.33517258936337
 20
2.802592073322839
 30
0.0
 10
-48.79517789200361
 20
2.630098576267048
 30
0.0
 10
-48.25563456901079
 20
2.442372792124683
 30
0.0
 10
-47.71651143607392
 20
2.240487840644334
 30
0.0
 10
-47.17777095070712
 20
2.025618641603648
 30
0.0
 10
-46.63938249974108
 20
1.798981986749128
 30
0.0
 10
-46.10130291862147
 20
1.561896621967842
 30
0.0
 10
-45.56348860201532
 20
1.315740589832241
 30
0.0
 10
-45.02590371688868
 20
1.061929184331882
 30
0.0
 10
-44.48850328416712
 20
0.8019382840316946
 30
0.0
 10
-43.95123752918922
 20
0.5372860450452615
 30
0.0
 10
-43.41406270335623
 20
0.2695060554322104
 30
0.0
 10
-43.05604234278146
 20
0.0899742144551585
 30
0.0
 10
-42.87693452813324
 20
0.0001578274692366
 30
0.0
  0
SPLINE
  5
22C5
330
1F
100
AcDbEntity
  8
AM_0
100
AcDbSpline
210
0.0
220
0.0
230
1.0
 70
     8
 71
     3
 72
    13
 73
     9
 74
     0
 42
0.0000000001
 43
0.0000000001
 40
16.03460056234195
 40
16.03460056234195
 40
16.03460056234195
 40
16.03460056234195
 40
16.35212717791071
 40
17.38177067057215
 40
18.41822498539278
 40
19.46214186516937
 40
20.5139635832251
 40
21.34083983469381
 40
21.34083983469381
 40
21.34083983469381
 40
21.34083983469381
 10
-52.20498868004579
 20
-3.250303049254617
 30
0.0
 10
-52.14903745586471
 20
-3.239331944696914
 30
0.0
 10
-51.91189148180048
 20
-3.191555776002769
 30
0.0
 10
-51.49415686797993
 20
-3.09794200362904
 30
0.0
 10
-50.95318908654864
 20
-2.958741359035371
 30
0.0
 10
-50.4127238678902
 20
-2.802441699646342
 30
0.0
 10
-49.91261574417756
 20
-2.642689419441734
 30
0.0
 10
-49.59355556810525
 20
-2.532688605541146
 30
0.0
 10
-49.4535857811241
 20
-2.482967235330481
 30
0.0
  0
SPLINE
  5
22C6
330
1F
100
AcDbEntity
  8
AM_0
 48
0.5
100
AcDbSpline
210
0.0
220
0.0
230
1.0
 70
     8
 71
     3
 72
    22
 73
    18
 74
     0
 42
0.0000000001
 43
0.0000000001
 40
0.0
 40
0.0
 40
0.0
 40
0.0
 40
1.010743684496582
 40
2.022833993863546
 40
3.037578683882831
 40
4.056212471389632
 40
5.079857945358201
 40
6.109499720892564
 40
7.145961650132166
 40
8.189873411961459
 40
9.241710626092514
 40
10.30166235592959
 40
11.36982472628033
 40
12.44598212828784
 40
13.52983440361964
 40
14.62080578343036
 40
14.90544694398022
 40
14.90544694398022
 40
14.90544694398022
 40
14.90544694398022
 10
-44.58060952934405
 20
-3.250007476078177
 30
0.0
 10
-44.76206690207966
 20
-3.24807438250245
 30
0.0
 10
-45.12522340519409
 20
-3.244205619869298
 30
0.0
 10
-45.66982521321253
 20
-3.213001046444018
 30
0.0
 10
-46.21440493414205
 20
-3.163416090237432
 30
0.0
 10
-46.75895065123149
 20
-3.093909122445998
 30
0.0
 10
-47.30345545790521
 20
-3.005422317574173
 30
0.0
 10
-47.84791367372609
 20
-2.898374569920872
 30
0.0
 10
-48.39231732044887
 20
-2.773457823234064
 30
0.0
 10
-48.93667014158298
 20
-2.631447010078969
 30
0.0
 10
-49.48096723443012
 20
-2.47322882223194
 30
0.0
 10
-50.02521144343344
 20
-2.299766193406453
 30
0.0
 10
-50.56940627696834
 20
-2.112162945617807
 30
0.0
 10
-51.11355132628069
 20
-1.911534372232256
 30
0.0
 10
-51.65765678528694
 20
-1.69915856809753
 30
0.0
 10
-52.06659006222849
 20
-1.53167726832516
 30
0.0
 10
-52.29446195442765
 20
-1.435950340916831
 30
0.0
 10
-52.34157828441716
 20
-1.416059137470925
 30
0.0
  0
SPLINE
  5
22C7
330
1F
100
AcDbEntity
  8
AM_0
 48
0.5
100
AcDbSpline
210
0.0
220
0.0
230
1.0
 70
     8
 71
     3
 72
    26
 73
    22
 74
     0
 42
0.0000000001
 43
0.0000000001
 40
0.0
 40
0.0
 40
0.0
 40
0.0
 40
0.5896004826229707
 40
1.179986252940122
 40
1.771921058539713
 40
2.366124101252007
 40
2.963249918804864
 40
3.563875140402651
 40
4.168477438229614
 40
4.777430274285771
 40
5.390993430623067
 40
6.009307092551945
 40
6.63239903939448
 40
7.260156758871202
 40
7.892403919481949
 40
8.528804729444196
 40
9.168960528521511
 40
9.812380715579642
 40
10.45850221961671
 40
11.10670238963151
 40
11.73624999718734
 40
11.73624999718734
 40
11.73624999718734
 40
11.73624999718734
 10
-43.05609292305464
 20
-3.250007476078186
 30
0.0
 10
-43.23755026113868
 20
-3.248073804898511
 30
0.0
 10
-43.60070661996954
 20
-3.244203887086415
 30
0.0
 10
-44.14530899830069
 20
-3.213008002366435
 30
0.0
 10
-44.68988813119064
 20
-3.163414701785269
 30
0.0
 10
-45.23443355401775
 20
-3.093907779894842
 30
0.0
 10
-45.77893986145116
 20
-3.005429298029561
 30
0.0
 10
-46.32339620481299
 20
-2.898372294015367
 30
0.0
 10
-46.86780222190058
 20
-2.773460086509775
 30
0.0
 10
-47.41215419987696
 20
-2.631451329350348
 30
0.0
 10
-47.95645085184134
 20
-2.473227163148251
 30
0.0
 10
-48.50069665737549
 20
-2.299772388274497
 30
0.0
 10
-49.04488936130256
 20
-2.112158032053566
 30
0.0
 10
-49.58903512947908
 20
-1.911534967469925
 30
0.0
 10
-50.13314123750906
 20
-1.69916027553018
 30
0.0
 10
-50.67720886100129
 20
-1.476322275845323
 30
0.0
 10
-51.22124205569409
 20
-1.244405409898884
 30
0.0
 10
-51.76525081211698
 20
-1.004840554682592
 30
0.0
 10
-52.30922613992126
 20
-0.7590704683355596
 30
0.0
 10
-52.8476136592571
 20
-0.5113092250899244
 30
0.0
 10
-53.20431564706234
 20
-0.3448614839345597
 30
0.0
 10
-53.38006307309986
 20
-0.2628525154457546
 30
0.0
  0
LINE
  5
22C8
330
1F
100
AcDbEntity
  8
AM_11
 48
0.2
100
AcDbLine
 10
-51.12743736068424
 20
3.250454245403243
 30
0.0
 11
-44.58060542048898
 21
3.249992523921823
 31
0.0
  0
LINE
  5
22C9
330
1F
100
AcDbEntity
  8
AM_11
 48
0.2
100
AcDbLine
 10
-52.20523466161563
 20
-3.250007476078133
 30
0.0
 11
-44.58060542048903
 21
-3.250007476078177
 31
0.0
  0
VIEWPORT
  5
110
330
101
100
AcDbEntity
 67
     1
  8
0
100
AcDbViewport
 10
420.5
 20
297.0
 30
0.0
 40
948.9782706766916
 41
628.452
 68
     1
 69
     1
1001
ACAD
1000
MVIEW
1002
{
1070
    16
1010
0.0
1020
0.0
1030
0.0
1010
0.0
1020
0.0
1030
1.0
1040
0.0
1040
628.452
1040
420.5
1040
297.0
1040
50.0
1040
0.0
1040
0.0
1070
     0
1070
   100
1070
     1
1070
     1
1070
     0
1070
     0
1070
     0
1070
     0
1040
0.0
1040
0.0
1040
0.0
1040
10.0
1040
10.0
1040
10.0
1040
10.0
1070
     0
1002
{
1002
}
1002
}
  0
ENDSEC
  0
SECTION
  2
OBJECTS
  0
DICTIONARY
  5
C
330
0
100
AcDbDictionary
  3
ACAD_GROUP
350
D
  3
ACAD_LAYOUT
350
1A
  3
ACAD_MLINESTYLE
350
17
  3
ACAD_PLOTSETTINGS
350
19
  3
ACAD_PLOTSTYLENAME
350
E
  3
ACDBVARIABLEDICTIONARY
350
34
  3
ACMDICTIONARY
350
43
  3
AMG
350
2B
  3
AMGSNAPSETTINGS
350
6E
  3
DWGPROPS
350
232F
  3
ACDBHEADERROUNDTRIPXREC
350
233C
  0
DICTIONARY
  5
74
330
1F
100
AcDbDictionary
280
     1
  3
ACAD_INDEX
360
2331
  3
ACAD_LAYOUTSELFREF
360
235F
  0
DICTIONARY
  5
2364
330
101
100
AcDbDictionary
280
     1
  3
ACAD_LAYOUTSELFREF
360
2365
  0
DICTIONARY
  5
D
102
{ACAD_REACTORS
330
C
102
}
330
C
100
AcDbDictionary
  0
DICTIONARY
  5
1A
102
{ACAD_REACTORS
330
C
102
}
330
C
100
AcDbDictionary
  0
DICTIONARY
  5
17
102
{ACAD_REACTORS
330
C
102
}
330
C
100
AcDbDictionary
  3
STANDARD
350
18
  0
DICTIONARY
  5
19
102
{ACAD_REACTORS
330
C
102
}
330
C
100
AcDbDictionary
  0
ACDBDICTIONARYWDFLT
  5
E
102
{ACAD_REACTORS
330
C
102
}
330
C
100
AcDbDictionary
281
     1
  3
Normal
350
F
100
AcDbDictionaryWithDefault
340
F
  0
DICTIONARY
  5
34
102
{ACAD_REACTORS
330
C
102
}
330
C
100
AcDbDictionary
  3
INDEXCTL
350
35
  3
SORTENTS
350
B5E
  0
DICTIONARY
  5
43
102
{ACAD_REACTORS
330
C
102
}
330
C
100
AcDbDictionary
  3
ACMSTDDICTIONARY
350
260
  0
DICTIONARY
  5
2B
102
{ACAD_REACTORS
330
C
102
}
330
C
100
AcDbDictionary
  3
ACMGSETTINGS
350
2C
  0
DICTIONARY
  5
6E
102
{ACAD_REACTORS
330
C
102
}
330
C
100
AcDbDictionary
  0
XRECORD
  5
232F
102
{ACAD_REACTORS
330
C
102
}
330
C
100
AcDbXrecord
  1
DWGPROPS COOKIE
  2

  3

  4

  6

  7

  8

  9

300
AmdtFileType=82
301
=
302
=
303
=
304
=
305
=
306
=
307
=
308
=
309
=
 40
0.0459498032407408
 41
2452800.443498622
 42
2452982.689615498
  1

 90
        1
  0
DICTIONARY
  5
233C
102
{ACAD_REACTORS
330
C
102
}
330
C
100
AcDbDictionary
  3
TSTACKALIGN
350
233D
  3
TSTACKSIZE
350
233E
  3
HYPERLINKBASE
350
233F
  3
STYLESHEET
350
2340
  3
LAYOUTDICT
350
2341
  3
PLOTSETDICT
350
2342
  3
PLOTSTYLNAMDICT
350
2343
  3
LWETCUNION
350
2344
  3
INSUNITS
350
2345
  3
CEPSNTYPE
350
2346
  3
FINGERPRINTGUID
350
2347
  3
VERSIONGUID
350
2348
  3
PSVPSCALE
350
2349
  3
DIMSTYLEDATA
350
234A
  3
PUCSORTHOREF
350
234B
  3
PUCSORTHOVIEW
350
234C
  3
PUCSBASE
350
234D
  3
PUCSORGTOP
350
234E
  3
PUCSORGBOTTOM
350
234F
  3
PUCSORGLEFT
350
2350
  3
PUCSORGRIGHT
350
2351
  3
PUCSORGFRONT
350
2352
  3
PUCSORGBACK
350
2353
  3
UCSORTHOREF
350
2354
  3
UCSORTHOVIEW
350
2355
  3
UCSBASE
350
2356
  3
UCSORGTOP
350
2357
  3
UCSORGBOTTOM
350
2358
  3
UCSORGLEFT
350
2359
  3
UCSORGRIGHT
350
235A
  3
UCSORGFRONT
350
235B
  3
UCSORGBACK
350
235C
  0
DICTIONARY
  5
2331
102
{ACAD_REACTORS
330
74
102
}
330
74
100
AcDbDictionary
  3
*A1
350
2332
  0
XRECORD
  5
235F
102
{ACAD_REACTORS
330
74
102
}
330
74
100
AcDbXrecord
340
1F
  0
XRECORD
  5
2365
102
{ACAD_REACTORS
330
2364
102
}
330
2364
100
AcDbXrecord
340
101
  0
MLINESTYLE
  5
18
102
{ACAD_REACTORS
330
17
102
}
330
17
100
AcDbMlineStyle
  2
STANDARD
 70
     0
  3

 62
   256
 51
90.0
 52
90.0
 71
     2
 49
0.5
 62
   256
  6
BYLAYER
 49
-0.5
 62
   256
  6
BYLAYER
  0
ACDBPLACEHOLDER
  5
F
102
{ACAD_REACTORS
330
E
102
}
330
E
100
AcDbPlaceHolder
280
     0
  0
DICTIONARYVAR
  5
35
102
{ACAD_REACTORS
330
34
102
}
330
34
100
DictionaryVariables
280
     0
  1
1
  0
DICTIONARYVAR
  5
B5E
102
{ACAD_REACTORS
330
34
102
}
330
34
100
DictionaryVariables
280
     0
  1
96
  0
DICTIONARY
  5
260
102
{ACAD_REACTORS
330
43
102
}
330
43
100
AcDbDictionary
  0
DICTIONARY
  5
2C
102
{ACAD_REACTORS
330
2B
102
}
330
2B
100
AcDbDictionary
  3
DWGSETTINGS
350
2D
  0
XRECORD
  5
233D
102
{ACAD_REACTORS
330
233C
102
}
330
233C
100
AcDbXrecord
 90
        1
  0
XRECORD
  5
233E
102
{ACAD_REACTORS
330
233C
102
}
330
233C
100
AcDbXrecord
 90
       70
  0
XRECORD
  5
233F
102
{ACAD_REACTORS
330
233C
102
}
330
233C
100
AcDbXrecord
  1

  0
XRECORD
  5
2340
102
{ACAD_REACTORS
330
233C
102
}
330
233C
100
AcDbXrecord
  1
ASAMI.ctb
  0
XRECORD
  5
2341
102
{ACAD_REACTORS
330
233C
102
}
330
233C
100
AcDbXrecord
340
1A
  0
XRECORD
  5
2342
102
{ACAD_REACTORS
330
233C
102
}
330
233C
100
AcDbXrecord
340
19
  0
XRECORD
  5
2343
102
{ACAD_REACTORS
330
233C
102
}
330
233C
100
AcDbXrecord
340
E
  0
XRECORD
  5
2344
102
{ACAD_REACTORS
330
233C
102
}
330
233C
100
AcDbXrecord
 90
    10781
  0
XRECORD
  5
2345
102
{ACAD_REACTORS
330
233C
102
}
330
233C
100
AcDbXrecord
 90
        4
  0
XRECORD
  5
2346
102
{ACAD_REACTORS
330
233C
102
}
330
233C
100
AcDbXrecord
 90
        0
  0
XRECORD
  5
2347
102
{ACAD_REACTORS
330
233C
102
}
330
233C
100
AcDbXrecord
  1
{AFB28963-8C59-40AE-9337-C84526B81ACE}
  0
XRECORD
  5
2348
102
{ACAD_REACTORS
330
233C
102
}
330
233C
100
AcDbXrecord
  1
{753F9FE2-D610-46D1-B56D-E71355C5CCC0}
  0
XRECORD
  5
2349
102
{ACAD_REACTORS
330
233C
102
}
330
233C
100
AcDbXrecord
 40
0.0
  0
XRECORD
  5
234A
102
{ACAD_REACTORS
330
233C
102
}
330
233C
100
AcDbXrecord
1000
DSTYLE
1002
{
1070
    79
 70
     2
1070
   341
340
59
1070
   342
340
59
1070
   371
 70
    -1
1070
   372
 70
    -1
1002
}
  0
XRECORD
  5
234B
102
{ACAD_REACTORS
330
233C
102
}
330
233C
100
AcDbXrecord
340
0
  0
XRECORD
  5
234C
102
{ACAD_REACTORS
330
233C
102
}
330
233C
100
AcDbXrecord
 70
     0
  0
XRECORD
  5
234D
102
{ACAD_REACTORS
330
233C
102
}
330
233C
100
AcDbXrecord
340
0
  0
XRECORD
  5
234E
102
{ACAD_REACTORS
330
233C
102
}
330
233C
100
AcDbXrecord
 10
0.0
 20
0.0
 30
0.0
  0
XRECORD
  5
234F
102
{ACAD_REACTORS
330
233C
102
}
330
233C
100
AcDbXrecord
 10
0.0
 20
0.0
 30
0.0
  0
XRECORD
  5
2350
102
{ACAD_REACTORS
330
233C
102
}
330
233C
100
AcDbXrecord
 10
0.0
 20
0.0
 30
0.0
  0
XRECORD
  5
2351
102
{ACAD_REACTORS
330
233C
102
}
330
233C
100
AcDbXrecord
 10
0.0
 20
0.0
 30
0.0
  0
XRECORD
  5
2352
102
{ACAD_REACTORS
330
233C
102
}
330
233C
100
AcDbXrecord
 10
0.0
 20
0.0
 30
0.0
  0
XRECORD
  5
2353
102
{ACAD_REACTORS
330
233C
102
}
330
233C
100
AcDbXrecord
 10
0.0
 20
0.0
 30
0.0
  0
XRECORD
  5
2354
102
{ACAD_REACTORS
330
233C
102
}
330
233C
100
AcDbXrecord
340
0
  0
XRECORD
  5
2355
102
{ACAD_REACTORS
330
233C
102
}
330
233C
100
AcDbXrecord
 70
     0
  0
XRECORD
  5
2356
102
{ACAD_REACTORS
330
233C
102
}
330
233C
100
AcDbXrecord
340
0
  0
XRECORD
  5
2357
102
{ACAD_REACTORS
330
233C
102
}
330
233C
100
AcDbXrecord
 10
0.0
 20
0.0
 30
0.0
  0
XRECORD
  5
2358
102
{ACAD_REACTORS
330
233C
102
}
330
233C
100
AcDbXrecord
 10
0.0
 20
0.0
 30
0.0
  0
XRECORD
  5
2359
102
{ACAD_REACTORS
330
233C
102
}
330
233C
100
AcDbXrecord
 10
0.0
 20
0.0
 30
0.0
  0
XRECORD
  5
235A
102
{ACAD_REACTORS
330
233C
102
}
330
233C
100
AcDbXrecord
 10
0.0
 20
0.0
 30
0.0
  0
XRECORD
  5
235B
102
{ACAD_REACTORS
330
233C
102
}
330
233C
100
AcDbXrecord
 10
0.0
 20
0.0
 30
0.0
  0
XRECORD
  5
235C
102
{ACAD_REACTORS
330
233C
102
}
330
233C
100
AcDbXrecord
 10
0.0
 20
0.0
 30
0.0
  0
LAYER_INDEX
  5
2332
102
{ACAD_REACTORS
330
2331
102
}
330
2331
100
AcDbIndex
 40
2453151.584610266
100
AcDbLayerIndex
  8
0
360
2333
 90
        0
  8
AM_0
360
2334
 90
       49
  8
AM_7
360
2335
 90
        1
  8
AM_11
360
2336
 90
        6
  8
AM_5
360
2337
 90
        5
  8
Defpoints
360
2338
 90
        0
  8
AM_6
360
2339
 90
        1
  8
AM_CL
360
233A
 90
        0
  0
XRECORD
  5
2D
102
{ACAD_REACTORS
330
2C
102
}
330
2C
100
AcDbXrecord
  1
VERSION
140
15.0
  1
PRODUCT
  2
AutoCAD Mechanical 2000
  0
IDBUFFER
  5
2333
330
0
100
AcDbIdBuffer
  0
IDBUFFER
  5
2334
330
0
100
AcDbIdBuffer
330
22C7
330
1D9D
330
1D9E
330
1D9F
330
1DA1
330
1DA2
330
1DA4
330
1DA5
330
1EE0
330
1EE1
330
1EE2
330
1EE3
330
1EE5
330
1EEA
330
1EEB
330
1EEE
330
1EEF
330
1EF0
330
1EF3
330
1EF4
330
1EF5
330
1EF6
330
1EF7
330
1EF8
330
1EF9
330
1EFA
330
1EFB
330
1EFC
330
1EFD
330
1F02
330
1F03
330
1F04
330
1F05
330
1F06
330
1F07
330
1F09
330
1F64
330
1F71
330
1F72
330
1F73
330
1F76
330
21E4
330
2240
330
22C1
330
22C2
330
22C3
330
22C4
330
22C5
330
22C6
  0
IDBUFFER
  5
2335
330
0
100
AcDbIdBuffer
330
1D14
  0
IDBUFFER
  5
2336
330
0
100
AcDbIdBuffer
330
1EE4
330
1EE6
330
1EEC
330
1EED
330
22C8
330
22C9
  0
IDBUFFER
  5
2337
330
0
100
AcDbIdBuffer
330
CC6
330
DF5
330
11B2
330
1ECF
330
1F93
  0
IDBUFFER
  5
2338
330
0
100
AcDbIdBuffer
  0
IDBUFFER
  5
2339
330
0
100
AcDbIdBuffer
330
19BD
  0
IDBUFFER
  5
233A
330
0
100
AcDbIdBuffer
  0
ENDSEC
  0
EOF
