  0
SECTION
  2
HEADER
  9
$ACADVER
  1
AC1014
  9
$ACADMAINTVER
 70
     9
  9
$DWGCODEPAGE
  3
ANSI_932
  9
$INSBASE
 10
0.0
 20
0.0
 30
0.0
  9
$EXTMIN
 10
-141.400001
 20
-26.75000147319567
 30
-0.00000001
  9
$EXTMAX
 10
12.80143796120893
 20
12.4992630979896
 30
0.00000001
  9
$LIMMIN
 10
-141.9290058179427
 20
-44.89935156412108
  9
$LIMMAX
 10
24.60091108545197
 20
29.62867650452114
  9
$ORTHOMODE
 70
     0
  9
$REGENMODE
 70
     1
  9
$FILLMODE
 70
     1
  9
$QTEXTMODE
 70
     0
  9
$MIRRTEXT
 70
     0
  9
$DRAGMODE
 70
     2
  9
$LTSCALE
 40
1.0
  9
$OSMODE
 70
    55
  9
$ATTMODE
 70
     1
  9
$TEXTSIZE
 40
2.5
  9
$TRACEWID
 40
1.0
  9
$TEXTSTYLE
  7
STANDARD
  9
$CLAYER
  8
AM_0
  9
$CELTYPE
  6
BYLAYER
  9
$CECOLOR
 62
   256
  9
$CELTSCALE
 40
1.0
  9
$DELOBJ
 70
     1
  9
$DISPSILH
 70
     0
  9
$DIMSCALE
 40
0.5
  9
$DIMASZ
 40
2.5
  9
$DIMEXO
 40
1.0
  9
$DIMDLI
 40
12.0
  9
$DIMRND
 40
0.0
  9
$DIMDLE
 40
0.0
  9
$DIMEXE
 40
1.0
  9
$DIMTP
 40
0.1
  9
$DIMTM
 40
0.1
  9
$DIMTXT
 40
3.2
  9
$DIMCEN
 40
0.0
  9
$DIMTSZ
 40
0.0
  9
$DIMTOL
 70
     0
  9
$DIMLIM
 70
     0
  9
$DIMTIH
 70
     0
  9
$DIMTOH
 70
     0
  9
$DIMSE1
 70
     0
  9
$DIMSE2
 70
     0
  9
$DIMTAD
 70
     3
  9
$DIMZIN
 70
     8
  9
$DIMBLK
  1
OPEN30
  9
$DIMASO
 70
     1
  9
$DIMSHO
 70
     1
  9
$DIMPOST
  1

  9
$DIMAPOST
  1
"
  9
$DIMALT
 70
     0
  9
$DIMALTD
 70
     2
  9
$DIMALTF
 40
0.0393701
  9
$DIMLFAC
 40
1.0
  9
$DIMTOFL
 70
     1
  9
$DIMTVP
 40
0.0
  9
$DIMTIX
 70
     0
  9
$DIMSOXD
 70
     0
  9
$DIMSAH
 70
     0
  9
$DIMBLK1
  1

  9
$DIMBLK2
  1

  9
$DIMSTYLE
  2
AM_JIS
  9
$DIMCLRD
 70
   256
  9
$DIMCLRE
 70
   256
  9
$DIMCLRT
 70
     2
  9
$DIMTFAC
 40
0.71
  9
$DIMGAP
 40
1.5
  9
$DIMJUST
 70
     0
  9
$DIMSD1
 70
     0
  9
$DIMSD2
 70
     0
  9
$DIMTOLJ
 70
     0
  9
$DIMTZIN
 70
     0
  9
$DIMALTZ
 70
     0
  9
$DIMALTTZ
 70
     0
  9
$DIMFIT
 70
     3
  9
$DIMUPT
 70
     0
  9
$DIMUNIT
 70
     2
  9
$DIMDEC
 70
     3
  9
$DIMTDEC
 70
     3
  9
$DIMALTU
 70
     2
  9
$DIMALTTD
 70
     2
  9
$DIMTXSTY
  7
ASAMI
  9
$DIMAUNIT
 70
     0
  9
$LUNITS
 70
     2
  9
$LUPREC
 70
     2
  9
$SKETCHINC
 40
1.0
  9
$FILLETRAD
 40
2.5
  9
$AUNITS
 70
     0
  9
$AUPREC
 70
     0
  9
$MENU
  1
.
  9
$ELEVATION
 40
0.0
  9
$PELEVATION
 40
0.0
  9
$THICKNESS
 40
0.0
  9
$LIMCHECK
 70
     0
  9
$BLIPMODE
 70
     0
  9
$CHAMFERA
 40
0.5
  9
$CHAMFERB
 40
0.5
  9
$CHAMFERC
 40
20.0
  9
$CHAMFERD
 40
0.0
  9
$SKPOLY
 70
     0
  9
$TDCREATE
 40
2452800.443498622
  9
$TDUPDATE
 40
2453151.722529641
  9
$TDINDWG
 40
0.1415527199
  9
$TDUSRTIMER
 40
0.1415527199
  9
$USRTIMER
 70
     1
  9
$ANGBASE
 50
0.0
  9
$ANGDIR
 70
     0
  9
$PDMODE
 70
     0
  9
$PDSIZE
 40
0.0
  9
$PLINEWID
 40
0.0
  9
$COORDS
 70
     1
  9
$SPLFRAME
 70
     0
  9
$SPLINETYPE
 70
     6
  9
$SPLINESEGS
 70
     8
  9
$ATTDIA
 70
     1
  9
$ATTREQ
 70
     1
  9
$HANDLING
 70
 12289
  9
$HANDSEED
  5
514F
  9
$SURFTAB1
 70
     6
  9
$SURFTAB2
 70
     6
  9
$SURFTYPE
 70
     6
  9
$SURFU
 70
     6
  9
$SURFV
 70
     6
  9
$UCSNAME
  2

  9
$UCSORG
 10
0.0
 20
0.0
 30
0.0
  9
$UCSXDIR
 10
1.0
 20
0.000000000000002
 30
0.0
  9
$UCSYDIR
 10
-0.000000000000002
 20
1.0
 30
0.0
  9
$PUCSNAME
  2

  9
$PUCSORG
 10
0.0
 20
0.0
 30
0.0
  9
$PUCSXDIR
 10
1.0
 20
0.0
 30
0.0
  9
$PUCSYDIR
 10
0.0
 20
1.0
 30
0.0
  9
$USERI1
 70
     0
  9
$USERI2
 70
     0
  9
$USERI3
 70
     0
  9
$USERI4
 70
     0
  9
$USERI5
 70
     0
  9
$USERR1
 40
0.0
  9
$USERR2
 40
0.0
  9
$USERR3
 40
0.0
  9
$USERR4
 40
0.0
  9
$USERR5
 40
0.0
  9
$WORLDVIEW
 70
     1
  9
$SHADEDGE
 70
     3
  9
$SHADEDIF
 70
    70
  9
$TILEMODE
 70
     1
  9
$MAXACTVP
 70
    64
  9
$PINSBASE
 10
0.0
 20
0.0
 30
0.0
  9
$PLIMCHECK
 70
     0
  9
$PEXTMIN
 10
1.000000000000000E+20
 20
1.000000000000000E+20
 30
1.000000000000000E+20
  9
$PEXTMAX
 10
-1.000000000000000E+20
 20
-1.000000000000000E+20
 30
-1.000000000000000E+20
  9
$PLIMMIN
 10
0.0
 20
0.0
  9
$PLIMMAX
 10
841.0
 20
594.0
  9
$UNITMODE
 70
     0
  9
$VISRETAIN
 70
     1
  9
$PLINEGEN
 70
     0
  9
$PSLTSCALE
 70
     0
  9
$TREEDEPTH
 70
  3020
  9
$PICKSTYLE
 70
     0
  9
$CMLSTYLE
  2
STANDARD
  9
$CMLJUST
 70
     0
  9
$CMLSCALE
 40
20.0
  9
$PROXYGRAPHICS
 70
     1
  9
$MEASUREMENT
 70
     1
  0
ENDSEC
  0
SECTION
  2
CLASSES
  0
CLASS
  1
ACDBDICTIONARYWDFLT
  2
AcDbDictionaryWithDefault
  3
AutoCAD 2000
 90
        0
280
     0
281
     0
  0
CLASS
  1
ACDBPLACEHOLDER
  2
AcDbPlaceHolder
  3
AutoCAD 2000
 90
        0
280
     0
281
     0
  0
CLASS
  1
LAYOUT
  2
AcDbLayout
  3
AutoCAD 2000
 90
        0
280
     0
281
     0
  0
CLASS
  1
AMGSETTINGSOBJ
  2
AmgSettingsObj
  3
"AcadM|Product Description: AutoCAD Mechanical 2000|Company: Autodesk"
 90
        0
280
     0
281
     0
  0
CLASS
  1
ACME_DOCUMENT
  2
AcMeDbDoc
  3
AcMeServices
 90
        0
280
     0
281
     0
  0
CLASS
  1
ACMESCOPE
  2
AcMeScope
  3
AcMeServices
 90
        0
280
     0
281
     0
  0
CLASS
  1
ACMECOMMANDHISTORY
  2
AcMeCommandHistory
  3
AcMeServices
 90
        0
280
     0
281
     0
  0
CLASS
  1
DICTIONARYVAR
  2
AcDbDictionaryVar
  3
AutoCAD 2000
 90
        0
280
     0
281
     0
  0
CLASS
  1
ACIMSYSVARMAN
  2
AcImSysVarManager
  3
AcMeServices
 90
        0
280
     0
281
     0
  0
CLASS
  1
ACIMREALSYSVAR
  2
AcImRealSysVar
  3
AcMeServices
 90
        0
280
     0
281
     0
  0
CLASS
  1
ACIMINTSYSVAR
  2
AcImIntSysVar
  3
AcMeServices
 90
        0
280
     0
281
     0
  0
CLASS
  1
ACMEDRAWINGMAN
  2
AcMeDrawingMan
  3
AcMeServices
 90
        0
280
     0
281
     0
  0
CLASS
  1
ACMEVIEW
  2
AcMeView
  3
AcMeServices
 90
        0
280
     0
281
     0
  0
CLASS
  1
ACDBENTITYCACHE
  2
AcMeEntityCache
  3
AcMeServices
 90
        0
280
     0
281
     0
  0
CLASS
  1
GSMANAGER
  2
AcMeGSManager
  3
AcMeServices
 90
        0
280
     0
281
     0
  0
CLASS
  1
AmdtInternalReactor
  2
AmdtInternalReactor
  3
AcMeServices
 90
        0
280
     0
281
     0
  0
CLASS
  1
ACMESTATEMGR
  2
AcMeStateMgr
  3
AcMeServices
 90
        0
280
     0
281
     0
  0
CLASS
  1
ACME_DATABASE
  2
AcMeDbDatabase
  3
AcMeServices
 90
        0
280
     0
281
     0
  0
CLASS
  1
ACRFINSADJUSTERMGR
  2
AcRfInsAdjusterMgr
  3
AcMeServices
 90
        0
280
     0
281
     0
  0
CLASS
  1
ACMDATADICTIONARY
  2
AcmDataDictionary
  3
"AcmSymBB|Product Description: AutoCAD Mechanical 2000|Company: Autodesk"
 90
        0
280
     0
281
     0
  0
CLASS
  1
ACMDATAENTRYBLOCK
  2
AcmDataEntryBlock
  3
"AcmSymBB|Product Description: AutoCAD Mechanical 2000|Company: Autodesk"
 90
        0
280
     0
281
     0
  0
CLASS
  1
AMGOBJPROPCFG
  2
AmgObjPropCfg
  3
"AmgLay|Product Description: AutoCAD Mechanical 2000|Company: Autodesk"
 90
        1
280
     0
281
     0
  0
CLASS
  1
ACAMGFILTERDAT
  2
AcAmgFilterDat
  3
"AcadM|Product Description: AutoCAD Mechanical 2000|Company: Autodesk"
 90
        0
280
     0
281
     0
  0
CLASS
  1
LAYER_INDEX
  2
AcDbLayerIndex
  3
AutoCAD 2000
 90
        0
280
     0
281
     0
  0
CLASS
  1
IDBUFFER
  2
AcDbIdBuffer
  3
AutoCAD 2000
 90
        0
280
     0
281
     0
  0
CLASS
  1
ACIMSTRSYSVAR
  2
AcImStrSysVar
  3
AcMeServices
 90
        0
280
     0
281
     0
  0
CLASS
  1
ACMSTANDARDJIS
  2
AcmStandardJIS
  3
"AcmSymBB|Product Description: AutoCAD Mechanical 2000|Company: Autodesk"
 90
        0
280
     0
281
     0
  0
CLASS
  1
ACMSURFSTANDARDJIS
  2
AcmSurfTextStdJIS
  3
"AcmSymBB|Product Description: AutoCAD Mechanical 2000|Company: Autodesk"
 90
        0
280
     0
281
     0
  0
CLASS
  1
ACMFCFSTANDARDJIS
  2
AcmFCFStdJIS
  3
"AcmSymBB|Product Description: AutoCAD Mechanical 2000|Company: Autodesk"
 90
        0
280
     0
281
     0
  0
CLASS
  1
ACMWELDSTANDARDJIS
  2
AcmWeldingStdJIS
  3
"AcmSymBB|Product Description: AutoCAD Mechanical 2000|Company: Autodesk"
 90
        0
280
     0
281
     0
  0
CLASS
  1
ACMIDSTANDARDJIS
  2
AcmIdStdJIS
  3
"AcmSymBB|Product Description: AutoCAD Mechanical 2000|Company: Autodesk"
 90
        0
280
     0
281
     0
  0
CLASS
  1
ACMDATUMSTANDARDJIS
  2
AcmDatumStdJIS
  3
"AcmSymBB|Product Description: AutoCAD Mechanical 2000|Company: Autodesk"
 90
        0
280
     0
281
     0
  0
CLASS
  1
ACMBOMSTANDARDJIS
  2
AcmBOMStdJIS
  3
"AcmSymBB|Product Description: AutoCAD Mechanical 2000|Company: Autodesk"
 90
        0
280
     0
281
     0
  0
CLASS
  1
ACMSTANDARDANSI
  2
AcmStandardANSI
  3
"AcmSymBB|Product Description: AutoCAD Mechanical 2000|Company: Autodesk"
 90
        0
280
     0
281
     0
  0
CLASS
  1
ACMSURFSTANDARDANSI
  2
AcmSurfTextStdANSI
  3
"AcmSymBB|Product Description: AutoCAD Mechanical 2000|Company: Autodesk"
 90
        0
280
     0
281
     0
  0
CLASS
  1
ACMFCFSTANDARDANSI
  2
AcmFCFStdANSI
  3
"AcmSymBB|Product Description: AutoCAD Mechanical 2000|Company: Autodesk"
 90
        0
280
     0
281
     0
  0
CLASS
  1
ACMWELDSTANDARDANSI
  2
AcmWeldingStdANSI
  3
"AcmSymBB|Product Description: AutoCAD Mechanical 2000|Company: Autodesk"
 90
        0
280
     0
281
     0
  0
CLASS
  1
ACMIDSTANDARDANSI
  2
AcmIdStdANSI
  3
"AcmSymBB|Product Description: AutoCAD Mechanical 2000|Company: Autodesk"
 90
        0
280
     0
281
     0
  0
CLASS
  1
ACMDATUMSTANDARDANSI
  2
AcmDatumStdANSI
  3
"AcmSymBB|Product Description: AutoCAD Mechanical 2000|Company: Autodesk"
 90
        0
280
     0
281
     0
  0
CLASS
  1
ACMBOMSTANDARDANSI
  2
AcmBOMStdANSI
  3
"AcmSymBB|Product Description: AutoCAD Mechanical 2000|Company: Autodesk"
 90
        0
280
     0
281
     0
  0
CLASS
  1
ACMSTANDARDBSI
  2
AcmStandardBSI
  3
"AcmSymBB|Product Description: AutoCAD Mechanical 2000|Company: Autodesk"
 90
        0
280
     0
281
     0
  0
CLASS
  1
ACMSURFSTANDARDBSI
  2
AcmSurfTextStdBSI
  3
"AcmSymBB|Product Description: AutoCAD Mechanical 2000|Company: Autodesk"
 90
        0
280
     0
281
     0
  0
CLASS
  1
ACMFCFSTANDARDBSI
  2
AcmFCFStdBSI
  3
"AcmSymBB|Product Description: AutoCAD Mechanical 2000|Company: Autodesk"
 90
        0
280
     0
281
     0
  0
CLASS
  1
ACMWELDSTANDARDBSI
  2
AcmWeldingStdBSI
  3
"AcmSymBB|Product Description: AutoCAD Mechanical 2000|Company: Autodesk"
 90
        0
280
     0
281
     0
  0
CLASS
  1
ACMIDSTANDARDBSI
  2
AcmIdStdBSI
  3
"AcmSymBB|Product Description: AutoCAD Mechanical 2000|Company: Autodesk"
 90
        0
280
     0
281
     0
  0
CLASS
  1
ACMDATUMSTANDARDBSI
  2
AcmDatumStdBSI
  3
"AcmSymBB|Product Description: AutoCAD Mechanical 2000|Company: Autodesk"
 90
        0
280
     0
281
     0
  0
CLASS
  1
ACMBOMSTANDARDBSI
  2
AcmBOMStdBSI
  3
"AcmSymBB|Product Description: AutoCAD Mechanical 2000|Company: Autodesk"
 90
        0
280
     0
281
     0
  0
CLASS
  1
LONG_TRANSACTION
  2
AcDbLongTransaction
  3
AutoCAD 2000
 90
        0
280
     0
281
     0
  0
CLASS
  1
LWPOLYLINE
  2
AcDbPolyline
  3
AutoCAD 2000
 90
        0
280
     0
281
     1
  0
CLASS
  1
HATCH
  2
AcDbHatch
  3
AutoCAD 2000
 90
        0
280
     0
281
     1
  0
CLASS
  1
XRECORD
  2
AcDbXrecord
  3
AutoCAD 2000
 90
        0
280
     0
281
     0
  0
ENDSEC
  0
SECTION
  2
TABLES
  0
TABLE
  2
VPORT
  5
8
330
0
100
AcDbSymbolTable
 70
     3
  0
VPORT
  5
5124
330
8
100
AcDbSymbolTableRecord
100
AcDbViewportTableRecord
  2
*ACTIVE
 70
     0
 10
0.0
 20
0.0
 11
1.0
 21
1.0
 12
-59.45492051161028
 22
-18.9076029946863
 13
0.0
 23
0.0
 14
2.5
 24
2.5
 15
10.0
 25
10.0
 16
0.0
 26
0.0
 36
1.0
 17
0.0
 27
0.0
 37
0.0
 40
156.4987424383765
 41
1.56570841889117
 42
50.0
 43
0.0
 44
0.0
 50
0.0
 51
0.0
 71
     0
 72
   100
 73
     1
 74
     1
 75
     0
 76
     0
 77
     0
 78
     0
  0
ENDTAB
  0
TABLE
  2
LTYPE
  5
5
330
0
100
AcDbSymbolTable
 70
    10
  0
LTYPE
  5
14
330
5
100
AcDbSymbolTableRecord
100
AcDbLinetypeTableRecord
  2
BYBLOCK
 70
     0
  3

 72
    65
 73
     0
 40
0.0
  0
LTYPE
  5
15
330
5
100
AcDbSymbolTableRecord
100
AcDbLinetypeTableRecord
  2
BYLAYER
 70
     0
  3

 72
    65
 73
     0
 40
0.0
  0
LTYPE
  5
16
330
5
100
AcDbSymbolTableRecord
100
AcDbLinetypeTableRecord
  2
CONTINUOUS
 70
     0
  3
Solid line
 72
    65
 73
     0
 40
0.0
  0
LTYPE
  5
4B
330
5
100
AcDbSymbolTableRecord
100
AcDbLinetypeTableRecord
  2
AM_ISO02W050
 70
     0
  3
__ __ __ __ __ __ __ __ __ __ __ __ __ __ __
 72
    65
 73
     2
 40
7.5
 49
6.0
 74
     0
 49
-1.5
 74
     0
  0
LTYPE
  5
4C
330
5
100
AcDbSymbolTableRecord
100
AcDbLinetypeTableRecord
  2
AM_ISO08W050
 70
     0
  3
____ . ____ . ____ . ____ . ____ . ____ . ____
 72
    65
 73
     4
 40
18.0
 49
12.0
 74
     0
 49
-1.5
 74
     0
 49
3.0
 74
     0
 49
-1.5
 74
     0
  0
LTYPE
  5
4D
330
5
100
AcDbSymbolTableRecord
100
AcDbLinetypeTableRecord
  2
AM_ISO09W050
 70
     0
  3
_____ . . _____ . . _____ . . ____ .. ____
 72
    65
 73
     6
 40
22.5
 49
12.0
 74
     0
 49
-1.5
 74
     0
 49
3.0
 74
     0
 49
-1.5
 74
     0
 49
3.0
 74
     0
 49
-1.5
 74
     0
  0
LTYPE
  5
4E
330
5
100
AcDbSymbolTableRecord
100
AcDbLinetypeTableRecord
  2
AMCONSTR
 70
     0
  3
_______________________
 72
    65
 73
     2
 40
9999.0
 49
9999.0
 74
     0
 49
0.0
 74
     0
  0
LTYPE
  5
4F
330
5
100
AcDbSymbolTableRecord
100
AcDbLinetypeTableRecord
  2
AM_ISO02W050X2
 70
     0
  3
 _ _ _ _ _ _ _ _ _ _ _ _
 72
    65
 73
     2
 40
3.75
 49
3.0
 74
     0
 49
-0.75
 74
     0
  0
LTYPE
  5
50
330
5
100
AcDbSymbolTableRecord
100
AcDbLinetypeTableRecord
  2
AM_ISO08W050X2
 70
     0
  3
__ . __ . __ . __ . __ . __
 72
    65
 73
     4
 40
9.0
 49
6.0
 74
     0
 49
-0.75
 74
     0
 49
1.5
 74
     0
 49
-0.75
 74
     0
  0
LTYPE
  5
53
330
5
100
AcDbSymbolTableRecord
100
AcDbLinetypeTableRecord
  2
AMZIGZAG
 70
     0
  3
/\/-/\/-/\/-/\/-/\/-/\/
 72
    65
 73
     2
 40
11.00009999999999
 49
0.0001
 74
     4
 75
   135
340
52
 46
0.04
 50
0.0
 44
0.0
 45
0.0
 49
-11.0
 74
     0
  0
LTYPE
  5
166
330
5
100
AcDbSymbolTableRecord
100
AcDbLinetypeTableRecord
  2
ACJISTGL
 70
     0
  3
_ _ _ _ _
 72
    65
 73
     2
 40
3.0
 49
2.0
 74
     0
 49
-1.0
 74
     0
  0
LTYPE
  5
26A
330
5
100
AcDbSymbolTableRecord
100
AcDbLinetypeTableRecord
  2
ACJISTGB
 70
     0
  3
__ . . __ . .
 72
    65
 73
     6
 40
9.0
 49
4.0
 74
     0
 49
-1.0
 74
     0
 49
1.0
 74
     0
 49
-1.0
 74
     0
 49
1.0
 74
     0
 49
-1.0
 74
     0
  0
ENDTAB
  0
TABLE
  2
LAYER
  5
2
330
0
100
AcDbSymbolTable
 70
     7
  0
LAYER
  5
10
330
2
100
AcDbSymbolTableRecord
100
AcDbLayerTableRecord
  2
0
 70
     0
 62
     7
  6
CONTINUOUS
  0
LAYER
  5
3F9
330
2
100
AcDbSymbolTableRecord
100
AcDbLayerTableRecord
  2
AM_0
 70
     0
 62
     7
  6
CONTINUOUS
  0
LAYER
  5
C7C
330
2
100
AcDbSymbolTableRecord
100
AcDbLayerTableRecord
  2
AM_7
 70
     0
 62
     4
  6
AM_ISO08W050
  0
LAYER
  5
C97
330
2
100
AcDbSymbolTableRecord
100
AcDbLayerTableRecord
  2
AM_11
 70
     0
 62
     3
  6
AM_ISO09W050
  0
LAYER
  5
CC5
330
2
100
AcDbSymbolTableRecord
100
AcDbLayerTableRecord
  2
AM_5
 70
     0
 62
     3
  6
CONTINUOUS
  0
LAYER
  5
CC7
330
2
100
AcDbSymbolTableRecord
100
AcDbLayerTableRecord
  2
DEFPOINTS
 70
     0
 62
     7
  6
CONTINUOUS
  0
LAYER
  5
19BC
330
2
100
AcDbSymbolTableRecord
100
AcDbLayerTableRecord
  2
AM_6
 70
     0
 62
     2
  6
CONTINUOUS
  0
ENDTAB
  0
TABLE
  2
STYLE
  5
3
330
0
100
AcDbSymbolTable
 70
     5
  0
STYLE
  5
11
330
3
100
AcDbSymbolTableRecord
100
AcDbTextStyleTableRecord
  2
STANDARD
 70
     0
 40
0.0
 41
1.0
 50
0.0
 71
     0
 42
2.5
  3
simplex.shx
  4
EXTFONT.SHX
  0
STYLE
  5
52
330
3
100
AcDbSymbolTableRecord
100
AcDbTextStyleTableRecord
  2

 70
     1
 40
0.0
 41
1.0
 50
0.0
 71
     0
 42
2.5
  3
ltypeshp.shx
  4

  0
STYLE
  5
6B
330
3
100
AcDbSymbolTableRecord
100
AcDbTextStyleTableRecord
  2
ASAMI
 70
     0
 40
0.0
 41
1.0
 50
0.0
 71
     0
 42
2.5
  3
simplex.shx
  4
EXTFONT.SHX
  0
STYLE
  5
262
330
3
100
AcDbSymbolTableRecord
100
AcDbTextStyleTableRecord
  2
ACJISTS
 70
     0
 40
1.0
 41
1.0
 50
0.0
 71
     0
 42
2.5
  3
simplex.shx
  4
bigfont.shx
  0
STYLE
  5
269
330
3
100
AcDbSymbolTableRecord
100
AcDbTextStyleTableRecord
  2
ACJISGDT
 70
     0
 40
0.0
 41
1.0
 50
0.0
 71
     0
 42
2.5
  3
amgdtans.shx
  4

  0
ENDTAB
  0
TABLE
  2
VIEW
  5
6
330
0
100
AcDbSymbolTable
 70
     0
  0
ENDTAB
  0
TABLE
  2
UCS
  5
7
330
0
100
AcDbSymbolTable
 70
     0
  0
ENDTAB
  0
TABLE
  2
APPID
  5
9
330
0
100
AcDbSymbolTable
 70
    18
  0
APPID
  5
12
330
9
100
AcDbSymbolTableRecord
100
AcDbRegAppTableRecord
  2
ACAD
 70
     0
  0
APPID
  5
30
330
9
100
AcDbSymbolTableRecord
100
AcDbRegAppTableRecord
  2
MCAD_NO_VIS
 70
     0
  0
APPID
  5
31
330
9
100
AcDbSymbolTableRecord
100
AcDbRegAppTableRecord
  2
ACAD_TEMP_GRAPHIC
 70
     0
  0
APPID
  5
2C2
330
9
100
AcDbSymbolTableRecord
100
AcDbRegAppTableRecord
  2
GENIUS_GENDTOL_13
 70
     0
  0
APPID
  5
339
330
9
100
AcDbSymbolTableRecord
100
AcDbRegAppTableRecord
  2
GENIUS_GENODEF_13
 70
     0
  0
APPID
  5
33A
330
9
100
AcDbSymbolTableRecord
100
AcDbRegAppTableRecord
  2
GENIUS_GENOBJ-N-RSBK_13
 70
     0
  0
APPID
  5
33B
330
9
100
AcDbSymbolTableRecord
100
AcDbRegAppTableRecord
  2
GENIUS_GENOBJ-N-LIB_13
 70
     0
  0
APPID
  5
33C
330
9
100
AcDbSymbolTableRecord
100
AcDbRegAppTableRecord
  2
GENIUS_GENSCALE_13
 70
     0
  0
APPID
  5
378
330
9
100
AcDbSymbolTableRecord
100
AcDbRegAppTableRecord
  2
GENIUS_GENDIMSH_14
 70
     0
  0
APPID
  5
C82
330
9
100
AcDbSymbolTableRecord
100
AcDbRegAppTableRecord
  2
GENIUS_GENOBJ-N-CRS_13
 70
     0
  0
APPID
  5
C83
330
9
100
AcDbSymbolTableRecord
100
AcDbRegAppTableRecord
  2
GENIUS_GENOENT_13
 70
     0
  0
APPID
  5
C84
330
9
100
AcDbSymbolTableRecord
100
AcDbRegAppTableRecord
  2
GENIUS_GENOREF_13
 70
     0
  0
APPID
  5
C85
330
9
100
AcDbSymbolTableRecord
100
AcDbRegAppTableRecord
  2
GENIUS_GENOLIS_13
 70
     0
  0
APPID
  5
CA0
330
9
100
AcDbSymbolTableRecord
100
AcDbRegAppTableRecord
  2
GENIUS_GENOBJ-N-CEN_13
 70
     0
  0
APPID
  5
1B5D
330
9
100
AcDbSymbolTableRecord
100
AcDbRegAppTableRecord
  2
GENIUS_GENFIL_13
 70
     0
  0
APPID
  5
1B5E
330
9
100
AcDbSymbolTableRecord
100
AcDbRegAppTableRecord
  2
GENIUS_GENOBJ-N-CHA_13
 70
     0
  0
APPID
  5
1FBC
330
9
100
AcDbSymbolTableRecord
100
AcDbRegAppTableRecord
  2
GENIUS_GENREC_14
 70
     0
  0
APPID
  5
1FBD
330
9
100
AcDbSymbolTableRecord
100
AcDbRegAppTableRecord
  2
GENIUS_GENOBJ-N-REC_13
 70
     0
  0
ENDTAB
  0
TABLE
  2
DIMSTYLE
  5
A
330
0
100
AcDbSymbolTable
 70
     9
  0
DIMSTYLE
105
58
330
A
100
AcDbSymbolTableRecord
100
AcDbDimStyleTableRecord
  2
AM_JIS
 70
     0
  3

  4
"
  5
OPEN30
  6

  7

 40
0.5
 41
2.5
 42
1.0
 43
12.0
 44
1.0
 45
0.0
 46
0.0
 47
0.1
 48
0.1
140
3.2
141
0.0
142
0.0
143
0.0393701
144
1.0
145
0.0
146
0.71
147
1.5
 71
     0
 72
     0
 73
     0
 74
     0
 75
     0
 76
     0
 77
     3
 78
     8
170
     0
171
     2
172
     1
173
     0
174
     0
175
     0
176
   256
177
   256
178
     2
270
     2
271
     3
272
     3
273
     2
274
     2
340
6B
275
     0
280
     0
281
     0
282
     0
283
     0
284
     0
285
     0
286
     0
287
     3
288
     0
  0
DIMSTYLE
105
5F
330
A
100
AcDbSymbolTableRecord
100
AcDbDimStyleTableRecord
  2
AM_JIS$3
 70
     0
  3

  4
"
  5
OPEN30
  6

  7

 40
0.5
 41
2.5
 42
1.0
 43
10.0
 44
1.0
 45
0.0
 46
0.0
 47
0.1
 48
0.1
140
3.2
141
0.0
142
0.0
143
0.0393701
144
1.0
145
0.0
146
0.71
147
1.5
 71
     0
 72
     0
 73
     0
 74
     1
 75
     0
 76
     0
 77
     3
 78
     8
170
     0
171
     2
172
     0
173
     0
174
     0
175
     0
176
   256
177
   256
178
     2
270
     2
271
     2
272
     3
273
     2
274
     2
340
6B
275
     0
280
     0
281
     0
282
     0
283
     0
284
     0
285
     0
286
     0
287
     0
288
     1
  0
DIMSTYLE
105
60
330
A
100
AcDbSymbolTableRecord
100
AcDbDimStyleTableRecord
  2
AM_JIS$4
 70
     0
  3

  4
"
  5
OPEN30
  6

  7

 40
0.5
 41
2.5
 42
1.0
 43
10.0
 44
1.0
 45
0.0
 46
0.0
 47
0.1
 48
0.1
140
3.2
141
0.0
142
0.0
143
0.0393701
144
1.0
145
0.0
146
0.71
147
1.5
 71
     0
 72
     0
 73
     0
 74
     1
 75
     0
 76
     0
 77
     3
 78
     8
170
     0
171
     2
172
     0
173
     0
174
     0
175
     0
176
   256
177
   256
178
     2
270
     2
271
     2
272
     3
273
     2
274
     2
340
6B
275
     0
280
     0
281
     0
282
     0
283
     0
284
     0
285
     0
286
     0
287
     0
288
     1
  0
DIMSTYLE
105
61
330
A
100
AcDbSymbolTableRecord
100
AcDbDimStyleTableRecord
  2
AM_JIS$6
 70
     0
  3

  4
"
  5
OPEN30
  6

  7

 40
0.5
 41
2.5
 42
1.0
 43
10.0
 44
1.0
 45
0.0
 46
0.0
 47
0.1
 48
0.1
140
3.2
141
0.0
142
0.0
143
0.0393701
144
1.0
145
0.0
146
0.71
147
1.5
 71
     0
 72
     0
 73
     0
 74
     0
 75
     0
 76
     0
 77
     0
 78
     8
170
     0
171
     2
172
     1
173
     0
174
     0
175
     0
176
   256
177
   256
178
     2
270
     2
271
     2
272
     2
273
     2
274
     2
340
6B
275
     0
280
     0
281
     0
282
     0
283
     0
284
     0
285
     0
286
     0
287
     3
288
     0
  0
DIMSTYLE
105
62
330
A
100
AcDbSymbolTableRecord
100
AcDbDimStyleTableRecord
  2
AM_JIS$7
 70
     0
  3

  4
"
  5
OPEN30
  6

  7

 40
0.5
 41
2.5
 42
1.0
 43
10.0
 44
1.0
 45
0.0
 46
0.0
 47
0.1
 48
0.1
140
3.2
141
0.0
142
0.0
143
0.0393701
144
1.0
145
0.0
146
0.71
147
1.5
 71
     0
 72
     0
 73
     0
 74
     0
 75
     0
 76
     0
 77
     3
 78
     8
170
     0
171
     2
172
     1
173
     0
174
     0
175
     0
176
   256
177
   256
178
     2
270
     2
271
     2
272
     3
273
     2
274
     2
340
6B
275
     0
280
     0
281
     0
282
     0
283
     0
284
     0
285
     0
286
     0
287
     3
288
     0
  0
DIMSTYLE
105
63
330
A
100
AcDbSymbolTableRecord
100
AcDbDimStyleTableRecord
  2
AM_JIS$SF
 70
     0
  3

  4
"
  5
OPEN30
  6

  7

 40
0.5
 41
2.5
 42
1.0
 43
10.0
 44
1.0
 45
0.0
 46
0.0
 47
0.1
 48
0.1
140
3.2
141
0.0
142
0.0
143
0.0393701
144
1.0
145
0.0
146
0.71
147
1.5
 71
     0
 72
     0
 73
     0
 74
     0
 75
     1
 76
     1
 77
     3
 78
     8
170
     0
171
     2
172
     1
173
     0
174
     0
175
     0
176
   256
177
   256
178
     2
270
     2
271
     2
272
     2
273
     2
274
     2
340
6B
275
     0
280
     0
281
     0
282
     0
283
     0
284
     0
285
     0
286
     0
287
     3
288
     0
  0
DIMSTYLE
105
68
330
A
100
AcDbSymbolTableRecord
100
AcDbDimStyleTableRecord
  2
AM_JIS$SH
 70
     0
  3

  4
"
  5

  6
GENAXEH
  7
OPEN30
 40
0.5
 41
2.5
 42
1.0
 43
10.0
 44
1.0
 45
0.0
 46
0.0
 47
0.1
 48
0.1
140
3.2
141
0.0
142
0.0
143
0.0393701
144
2.0
145
0.0
146
0.71
147
1.5
 71
     0
 72
     0
 73
     0
 74
     0
 75
     1
 76
     1
 77
     3
 78
     8
170
     0
171
     2
172
     1
173
     1
174
     0
175
     0
176
   256
177
   256
178
     2
270
     2
271
     2
272
     2
273
     2
274
     2
340
6B
275
     0
280
     0
281
     0
282
     0
283
     0
284
     0
285
     0
286
     0
287
     3
288
     0
  0
DIMSTYLE
105
B34
102
{ACAD_REACTORS
330
48D2
102
}
330
A
100
AcDbSymbolTableRecord
100
AcDbDimStyleTableRecord
  2
AM_JIS$2
 70
     0
  3

  4
"
  5
OPEN30
  6

  7

 40
0.5
 41
2.5
 42
1.0
 43
12.0
 44
1.0
 45
0.0
 46
0.0
 47
0.1
 48
0.1
140
3.2
141
0.0
142
0.0
143
0.0393701
144
1.0
145
0.0
146
0.71
147
1.5
 71
     0
 72
     0
 73
     0
 74
     0
 75
     0
 76
     0
 77
     3
 78
     8
170
     0
171
     2
172
     1
173
     0
174
     0
175
     0
176
   256
177
   256
178
     2
270
     2
271
     3
272
     3
273
     2
274
     2
340
6B
275
     0
280
     0
281
     0
282
     0
283
     0
284
     0
285
     0
286
     0
287
     3
288
     0
  0
DIMSTYLE
105
BA5
102
{ACAD_REACTORS
330
CC6
330
DF5
330
46D1
330
4A9C
102
}
330
A
100
AcDbSymbolTableRecord
100
AcDbDimStyleTableRecord
  2
AM_JIS$0
 70
     0
  3

  4
"
  5
OPEN30
  6

  7

 40
0.5
 41
2.5
 42
0.0
 43
10.0
 44
1.0
 45
0.0
 46
0.0
 47
0.1
 48
0.1000000001
140
3.799999999999999
141
0.0
142
0.0
143
0.0393701
144
1.0
145
0.0
146
0.71
147
1.5
 71
     0
 72
     0
 73
     0
 74
     0
 75
     0
 76
     0
 77
     3
 78
     1
170
     0
171
     2
172
     1
173
     0
174
     0
175
     0
176
     3
177
     3
178
     2
270
     2
271
     2
272
     2
273
     2
274
     2
340
11
275
     1
280
     0
281
     0
282
     0
283
     0
284
     8
285
     0
286
     0
287
     0
288
     0
  0
ENDTAB
  0
TABLE
  2
BLOCK_RECORD
  5
1
330
0
100
AcDbSymbolTable
 70
    10
  0
BLOCK_RECORD
  5
1F
102
{ACAD_XDICTIONARY
360
74
102
}
330
1
100
AcDbSymbolTableRecord
100
AcDbBlockTableRecord
  2
*MODEL_SPACE
  0
BLOCK_RECORD
  5
101
102
{ACAD_XDICTIONARY
360
514D
102
}
330
1
100
AcDbSymbolTableRecord
100
AcDbBlockTableRecord
  2
*PAPER_SPACE
  0
BLOCK_RECORD
  5
59
330
1
100
AcDbSymbolTableRecord
100
AcDbBlockTableRecord
  2
_OPEN30
  0
BLOCK_RECORD
  5
64
330
1
100
AcDbSymbolTableRecord
100
AcDbBlockTableRecord
  2
GENAXEH
  0
BLOCK_RECORD
  5
CC8
330
1
100
AcDbSymbolTableRecord
100
AcDbBlockTableRecord
  2
*D5
  0
BLOCK_RECORD
  5
DF6
330
1
100
AcDbSymbolTableRecord
100
AcDbBlockTableRecord
  2
*D6
  0
BLOCK_RECORD
  5
46D2
330
1
100
AcDbSymbolTableRecord
100
AcDbBlockTableRecord
  2
*D7
  0
BLOCK_RECORD
  5
48D3
330
1
100
AcDbSymbolTableRecord
100
AcDbBlockTableRecord
  2
*D8
  0
BLOCK_RECORD
  5
4A9D
330
1
100
AcDbSymbolTableRecord
100
AcDbBlockTableRecord
  2
*D9
  0
ENDTAB
  0
ENDSEC
  0
SECTION
  2
BLOCKS
  0
BLOCK
  5
20
330
1F
100
AcDbEntity
  8
0
100
AcDbBlockBegin
  2
*MODEL_SPACE
 70
     0
 10
0.0
 20
0.0
 30
0.0
  3
*MODEL_SPACE
  1

  0
ENDBLK
  5
21
330
1F
100
AcDbEntity
  8
0
100
AcDbBlockEnd
  0
BLOCK
  5
103
330
101
100
AcDbEntity
 67
     1
  8
0
100
AcDbBlockBegin
  2
*PAPER_SPACE
 70
     0
 10
0.0
 20
0.0
 30
0.0
  3
*PAPER_SPACE
  1

  0
ENDBLK
  5
104
330
101
100
AcDbEntity
 67
     1
  8
0
100
AcDbBlockEnd
  0
BLOCK
  5
5D
330
59
100
AcDbEntity
  8
0
100
AcDbBlockBegin
  2
_OPEN30
 70
     0
 10
0.0
 20
0.0
 30
0.0
  3
_OPEN30
  1

  0
LINE
  5
5A
330
59
100
AcDbEntity
  8
0
 62
     0
100
AcDbLine
 10
-1.0
 20
0.26794919
 30
0.0
 11
0.0
 21
0.0
 31
0.0
  0
LINE
  5
5B
330
59
100
AcDbEntity
  8
0
 62
     0
100
AcDbLine
 10
0.0
 20
0.0
 30
0.0
 11
-1.0
 21
-0.26794919
 31
0.0
  0
LINE
  5
5C
330
59
100
AcDbEntity
  8
0
 62
     0
100
AcDbLine
 10
0.0
 20
0.0
 30
0.0
 11
-1.0
 21
0.0
 31
0.0
  0
ENDBLK
  5
5E
330
59
100
AcDbEntity
  8
0
100
AcDbBlockEnd
  0
BLOCK
  5
66
330
64
100
AcDbEntity
  8
0
100
AcDbBlockBegin
  2
GENAXEH
 70
     0
 10
0.0
 20
0.0
 30
0.0
  3
GENAXEH
  1

  0
LINE
  5
65
330
64
100
AcDbEntity
  8
0
100
AcDbLine
 10
-1.0
 20
0.0
 30
0.0
 11
1.0
 21
0.0
 31
0.0
  0
ENDBLK
  5
67
330
64
100
AcDbEntity
  8
0
100
AcDbBlockEnd
  0
BLOCK
  5
CD2
330
CC8
100
AcDbEntity
  8
0
100
AcDbBlockBegin
  2
*D5
 70
     1
 10
0.0
 20
0.0
 30
0.0
  3
*D5
  1

  0
LINE
  5
50D7
330
CC8
100
AcDbEntity
  8
AM_5
 62
     3
100
AcDbLine
 10
-131.0000000000002
 20
-3.000000517103929
 30
0.0
 11
-131.0000000000002
 21
-16.00000147319565
 31
0.0
  0
LINE
  5
50D8
330
CC8
100
AcDbEntity
  8
AM_5
 62
     3
100
AcDbLine
 10
-0.9999999999999797
 20
-3.25
 30
0.0
 11
-0.9999999999999806
 21
-16.00000147319564
 31
0.0
  0
LINE
  5
50D9
330
CC8
100
AcDbEntity
  8
AM_5
 62
     3
100
AcDbLine
 10
-129.7500000000002
 20
-15.50000147319564
 30
0.0
 11
-2.24999999999998
 21
-15.50000147319564
 31
0.0
  0
INSERT
  5
50DA
330
CC8
100
AcDbEntity
  8
AM_5
 62
     3
100
AcDbBlockReference
  2
_OPEN30
 10
-131.0000000000002
 20
-15.50000147319564
 30
0.0
 41
1.25
 42
1.25
 43
1.25
 50
180.0
  0
INSERT
  5
50DB
330
CC8
100
AcDbEntity
  8
AM_5
 62
     3
100
AcDbBlockReference
  2
_OPEN30
 10
-0.9999999999999806
 20
-15.50000147319564
 30
0.0
 41
1.25
 42
1.25
 43
1.25
  0
MTEXT
  5
50DC
330
CC8
100
AcDbEntity
  8
AM_5
 62
     2
100
AcDbMText
 10
-66.00000000000012
 20
-13.80000147319564
 30
0.0
 40
1.9
 41
0.0
 71
     5
 72
     1
  1
130
1001
ACAD
1000
MTEXTBEGIN
1070
    73
1070
     1
1070
    44
1040
1.0
1070
    74
1070
     0
1000
MTEXTEND
  0
POINT
  5
50DD
330
CC8
100
AcDbEntity
  8
DEFPOINTS
 62
     0
100
AcDbPoint
 10
-131.0000000000002
 20
-3.000000517103929
 30
0.0
  0
POINT
  5
50DE
330
CC8
100
AcDbEntity
  8
DEFPOINTS
 62
     0
100
AcDbPoint
 10
-0.9999999999999797
 20
-3.25
 30
0.0
  0
POINT
  5
50DF
330
CC8
100
AcDbEntity
  8
DEFPOINTS
 62
     0
100
AcDbPoint
 10
-0.9999999999999806
 20
-15.50000147319564
 30
0.0
  0
ENDBLK
  5
CD3
330
CC8
100
AcDbEntity
  8
0
100
AcDbBlockEnd
  0
BLOCK
  5
E00
330
DF6
100
AcDbEntity
  8
0
100
AcDbBlockBegin
  2
*D6
 70
     1
 10
0.0
 20
0.0
 30
0.0
  3
*D6
  1

  0
LINE
  5
50E0
330
DF6
100
AcDbEntity
  8
AM_5
 62
     3
100
AcDbLine
 10
-78.00000000000014
 20
-3.500000473195787
 30
0.0
 11
-78.00000000000014
 21
-11.00000147319559
 31
0.0
  0
LINE
  5
50E1
330
DF6
100
AcDbEntity
  8
AM_5
 62
     3
100
AcDbLine
 10
-0.9999999999999797
 20
-3.25
 30
0.0
 11
-0.9999999999999802
 21
-11.00000147319559
 31
0.0
  0
LINE
  5
50E2
330
DF6
100
AcDbEntity
  8
AM_5
 62
     3
100
AcDbLine
 10
-76.75000000000014
 20
-10.50000147319559
 30
0.0
 11
-2.24999999999998
 21
-10.50000147319559
 31
0.0
  0
INSERT
  5
50E3
330
DF6
100
AcDbEntity
  8
AM_5
 62
     3
100
AcDbBlockReference
  2
_OPEN30
 10
-78.00000000000014
 20
-10.50000147319559
 30
0.0
 41
1.25
 42
1.25
 43
1.25
 50
180.0
  0
INSERT
  5
50E4
330
DF6
100
AcDbEntity
  8
AM_5
 62
     3
100
AcDbBlockReference
  2
_OPEN30
 10
-0.9999999999999802
 20
-10.50000147319559
 30
0.0
 41
1.25
 42
1.25
 43
1.25
  0
MTEXT
  5
50E5
330
DF6
100
AcDbEntity
  8
AM_5
 62
     2
100
AcDbMText
 10
-39.50000000000006
 20
-8.800001473195594
 30
0.0
 40
1.9
 41
0.0
 71
     5
 72
     1
  1
77
1001
ACAD
1000
MTEXTBEGIN
1070
    73
1070
     1
1070
    44
1040
1.0
1070
    74
1070
     0
1000
MTEXTEND
  0
POINT
  5
50E6
330
DF6
100
AcDbEntity
  8
DEFPOINTS
 62
     0
100
AcDbPoint
 10
-78.00000000000014
 20
-3.500000473195787
 30
0.0
  0
POINT
  5
50E7
330
DF6
100
AcDbEntity
  8
DEFPOINTS
 62
     0
100
AcDbPoint
 10
-0.9999999999999797
 20
-3.25
 30
0.0
  0
POINT
  5
50E8
330
DF6
100
AcDbEntity
  8
DEFPOINTS
 62
     0
100
AcDbPoint
 10
-0.9999999999999802
 20
-10.50000147319559
 30
0.0
  0
ENDBLK
  5
E01
330
DF6
100
AcDbEntity
  8
0
100
AcDbBlockEnd
  0
BLOCK
  5
46DE
330
46D2
100
AcDbEntity
  8
0
100
AcDbBlockBegin
  2
*D7
 70
     1
 10
0.0
 20
0.0
 30
0.0
  3
*D7
  1

  0
LINE
  5
50C1
330
46D2
100
AcDbEntity
  8
AM_5
 62
     3
100
AcDbLine
 10
-0.9999999999999859
 20
-3.250000000000007
 30
0.0
 11
8.225249504141128
 21
-3.250000000000009
 31
0.0
  0
LINE
  5
50C2
330
46D2
100
AcDbEntity
  8
AM_5
 62
     3
100
AcDbLine
 10
-1.000000000000007
 20
3.249999999999999
 30
0.0
 11
8.225249504141128
 21
3.249999999999996
 31
0.0
  0
LINE
  5
50C3
330
46D2
100
AcDbEntity
  8
AM_5
 62
     3
100
AcDbLine
 10
7.725249504141127
 20
-2.000000000000009
 30
0.0
 11
7.725249504141128
 21
1.999999999999996
 31
0.0
  0
INSERT
  5
50C4
330
46D2
100
AcDbEntity
  8
AM_5
 62
     3
100
AcDbBlockReference
  2
_OPEN30
 10
7.725249504141127
 20
-3.250000000000009
 30
0.0
 41
1.25
 42
1.25
 43
1.25
 50
270.0
  0
INSERT
  5
50C5
330
46D2
100
AcDbEntity
  8
AM_5
 62
     3
100
AcDbBlockReference
  2
_OPEN30
 10
7.725249504141129
 20
3.249999999999996
 30
0.0
 41
1.25
 42
1.25
 43
1.25
 50
90.0
  0
MTEXT
  5
50C6
330
46D2
100
AcDbEntity
  8
AM_5
 62
     2
100
AcDbMText
 10
6.025249504141128
 20
-0.0000000000000051
 30
0.0
 40
1.9
 41
0.0
 71
     5
 72
     1
  1
%%c6.5
 11
0.0000000000000001
 21
1.0
 31
0.0
1001
ACAD
1000
MTEXTBEGIN
1070
    73
1070
     1
1070
    44
1040
1.0
1070
    74
1070
     0
1000
MTEXTEND
  0
POINT
  5
50C7
330
46D2
100
AcDbEntity
  8
DEFPOINTS
 62
     0
100
AcDbPoint
 10
-0.9999999999999859
 20
-3.250000000000007
 30
0.0
  0
POINT
  5
50C8
330
46D2
100
AcDbEntity
  8
DEFPOINTS
 62
     0
100
AcDbPoint
 10
-1.000000000000007
 20
3.249999999999999
 30
0.0
  0
POINT
  5
50C9
330
46D2
100
AcDbEntity
  8
DEFPOINTS
 62
     0
100
AcDbPoint
 10
7.725249504141129
 20
3.249999999999996
 30
0.0
  0
ENDBLK
  5
46DF
330
46D2
100
AcDbEntity
  8
0
100
AcDbBlockEnd
  0
BLOCK
  5
48E1
330
48D3
100
AcDbEntity
  8
0
100
AcDbBlockBegin
  2
*D8
 70
     1
 10
0.0
 20
0.0
 30
0.0
  3
*D8
  1

  0
LINE
  5
50FD
330
48D3
100
AcDbEntity
  8
AM_5
100
AcDbLine
 10
0.1710100716628361
 20
-0.4698463103929536
 30
0.0
 11
4.549359717930213
 21
-12.49926309798957
 31
0.0
  0
LINE
  5
50FE
330
48D3
100
AcDbEntity
  8
AM_5
100
AcDbLine
 10
0.1710100716628325
 20
0.4698463103929581
 30
0.0
 11
4.549359717930118
 21
12.4992630979896
 31
0.0
  0
ARC
  5
50FF
330
48D3
100
AcDbEntity
  8
AM_5
100
AcDbCircle
 10
-0.0000000000000006
 20
0.0000000000000016
 30
0.0
 40
12.80143796120892
100
AcDbArc
 50
295.5968874668477
 51
64.40311253315266
  0
INSERT
  5
5100
330
48D3
100
AcDbEntity
  8
AM_5
100
AcDbBlockReference
  2
_OPEN30
 10
4.378349646267377
 20
-12.02941678759661
 30
0.0
 41
1.25
 42
1.25
 43
1.25
 50
202.7984437334239
  0
INSERT
  5
5101
330
48D3
100
AcDbEntity
  8
AM_5
100
AcDbBlockReference
  2
_OPEN30
 10
4.378349646267285
 20
12.02941678759665
 30
0.0
 41
1.25
 42
1.25
 43
1.25
 50
157.2015562665764
  0
MTEXT
  5
5102
330
48D3
100
AcDbEntity
  8
AM_5
 62
     2
100
AcDbMText
 10
11.25143796120892
 20
0.0000000000000441
 30
0.0
 40
1.6
 41
0.0
 71
     5
 72
     1
  1
140°
  7
ASAMI
 11
-0.000000000000002
 21
1.0
 31
0.0
1001
ACAD
1000
MTEXTBEGIN
1070
    73
1070
     1
1070
    44
1040
1.0
1070
    74
1070
     0
1000
MTEXTEND
  0
POINT
  5
5103
330
48D3
100
AcDbEntity
  8
DEFPOINTS
 62
     0
100
AcDbPoint
 10
11.75448652721062
 20
-5.070390552640392
 30
0.0
  0
POINT
  5
5104
330
48D3
100
AcDbEntity
  8
DEFPOINTS
 62
     0
100
AcDbPoint
 10
0.0
 20
0.0000000000000031
 30
0.0
  0
POINT
  5
5105
330
48D3
100
AcDbEntity
  8
DEFPOINTS
 62
     0
100
AcDbPoint
 10
0.0
 20
0.0
 30
0.0
  0
POINT
  5
5106
330
48D3
100
AcDbEntity
  8
DEFPOINTS
 62
     0
100
AcDbPoint
 10
-0.2431446527750273
 20
0.6680344431605185
 30
0.0
  0
POINT
  5
5107
330
48D3
100
AcDbEntity
  8
DEFPOINTS
 62
     0
100
AcDbPoint
 10
-0.2431446527750246
 20
-0.6680344431605163
 30
0.0
  0
ENDBLK
  5
48E2
330
48D3
100
AcDbEntity
  8
0
100
AcDbBlockEnd
  0
BLOCK
  5
4AA7
330
4A9D
100
AcDbEntity
  8
0
100
AcDbBlockBegin
  2
*D9
 70
     1
 10
0.0
 20
0.0
 30
0.0
  3
*D9
  1

  0
LINE
  5
50E9
330
4A9D
100
AcDbEntity
  8
AM_5
 62
     3
100
AcDbLine
 10
-130.5
 20
3.499999526803807
 30
0.0
 11
-139.250001
 21
3.499999526803789
 31
0.0
  0
LINE
  5
50EA
330
4A9D
100
AcDbEntity
  8
AM_5
 62
     3
100
AcDbLine
 10
-130.4999999999995
 20
-3.500000473196192
 30
0.0
 11
-139.250001
 21
-3.50000047319621
 31
0.0
  0
LINE
  5
50EB
330
4A9D
100
AcDbEntity
  8
AM_5
 62
     3
100
AcDbLine
 10
-138.750001
 20
2.249999526803791
 30
0.0
 11
-138.750001
 21
-2.250000473196208
 31
0.0
  0
INSERT
  5
50EC
330
4A9D
100
AcDbEntity
  8
AM_5
 62
     3
100
AcDbBlockReference
  2
_OPEN30
 10
-138.750001
 20
3.499999526803791
 30
0.0
 41
1.25
 42
1.25
 43
1.25
 50
90.0000000000001
  0
INSERT
  5
50ED
330
4A9D
100
AcDbEntity
  8
AM_5
 62
     3
100
AcDbBlockReference
  2
_OPEN30
 10
-138.750001
 20
-3.500000473196208
 30
0.0
 41
1.25
 42
1.25
 43
1.25
 50
270.0000000000001
  0
MTEXT
  5
50EE
330
4A9D
100
AcDbEntity
  8
AM_5
 62
     2
100
AcDbMText
 10
-140.450001
 20
-0.000000473196207
 30
0.0
 40
1.9
 41
0.0
 71
     5
 72
     1
  1
%%c7
 11
-0.000000000000002
 21
1.0
 31
0.0
1001
ACAD
1000
MTEXTBEGIN
1070
    73
1070
     1
1070
    44
1040
1.0
1070
    74
1070
     0
1000
MTEXTEND
  0
POINT
  5
50EF
330
4A9D
100
AcDbEntity
  8
DEFPOINTS
 62
     0
100
AcDbPoint
 10
-130.5
 20
3.499999526804096
 30
0.0
  0
POINT
  5
50F0
330
4A9D
100
AcDbEntity
  8
DEFPOINTS
 62
     0
100
AcDbPoint
 10
-130.4999999999995
 20
-3.500000473195903
 30
0.0
  0
POINT
  5
50F1
330
4A9D
100
AcDbEntity
  8
DEFPOINTS
 62
     0
100
AcDbPoint
 10
-138.750001
 20
-3.500000473195901
 30
0.0
  0
ENDBLK
  5
4AA8
330
4A9D
100
AcDbEntity
  8
0
100
AcDbBlockEnd
  0
ENDSEC
  0
SECTION
  2
ENTITIES
  0
LINE
  5
C1D
330
1F
100
AcDbEntity
  8
AM_0
 48
0.5
100
AcDbLine
 10
0.0
 20
0.0
 30
0.0
 11
-0.2431446527750273
 21
0.6680344431605185
 31
0.0
  0
LINE
  5
C9F
330
1F
100
AcDbEntity
  8
AM_7
100
AcDbLine
 10
-131.7499999999999
 20
-0.0000000000002505
 30
0.0
 11
0.7252484813720008
 21
0.0000000000000025
 31
0.0
1001
GENIUS_GENODEF_13
1002
{
1000
HIER
1070
     0
1002
}
1002
{
1000
MANEDIT
1070
     0
1002
}
1002
{
1000
NOSEL
1070
     0
1002
}
1002
{
1000
BEHIND
1070
     0
1002
}
1002
{
1000
REACTOR
1002
}
1001
GENIUS_GENOBJ-N-CEN_13
1002
{
1000
OWNER
1000
GEN
1002
}
  0
DIMENSION
  5
CC6
330
1F
100
AcDbEntity
  8
AM_5
100
AcDbDimension
  2
*D5
 10
-0.9999999999999806
 20
-15.50000147319564
 30
0.0
 11
-66.00000000000012
 21
-13.80000147319564
 31
0.0
 70
    32
  1
<>
  3
AM_JIS$0
100
AcDbAlignedDimension
 13
-131.0000000000002
 23
-3.000000517103929
 33
0.0
 14
-0.9999999999999797
 24
-3.25
 34
0.0
 50
0.0000000000001132
100
AcDbRotatedDimension
1001
GENIUS_GENDTOL_13
1000

1000
h7
1000

1040
0.0
1001
ACAD
1000
DSTYLE
1002
{
1070
   271
1070
     0
1002
}
  0
DIMENSION
  5
DF5
330
1F
100
AcDbEntity
  8
AM_5
100
AcDbDimension
  2
*D6
 10
-0.9999999999999802
 20
-10.50000147319559
 30
0.0
 11
-39.50000000000006
 21
-8.800001473195594
 31
0.0
 70
    32
  1
<>
  3
AM_JIS$0
100
AcDbAlignedDimension
 13
-78.00000000000014
 23
-3.500000473195787
 33
0.0
 14
-0.9999999999999797
 24
-3.25
 34
0.0
 50
0.0000000000001527
100
AcDbRotatedDimension
1001
GENIUS_GENDTOL_13
1000

1000
h7
1000

1040
0.0
1001
ACAD
1000
DSTYLE
1002
{
1070
   271
1070
     0
1002
}
  0
TEXT
  5
19BD
330
1F
100
AcDbEntity
  8
AM_6
100
AcDbText
 10
-77.07142857142867
 20
-26.75000147319567
 30
0.0
 40
2.5
  1
MDW065DHK
 50
0.0000000000001527
 72
     4
 11
-66.0000000000001
 21
-25.50000147319564
 31
0.0
100
AcDbText
  0
LINE
  5
4347
330
1F
100
AcDbEntity
  8
AM_0
100
AcDbLine
 10
-78.00000000000015
 20
3.499999526804213
 30
0.0
 11
-78.00000000000015
 21
-3.500000473195786
 31
0.0
  0
LINE
  5
44BC
330
1F
100
AcDbEntity
  8
AM_0
100
AcDbLine
 10
-78.00000000000014
 20
3.499999526804213
 30
0.0
 11
-77.56698818735753
 21
3.250000040212721
 31
0.0
  0
LINE
  5
44BD
330
1F
100
AcDbEntity
  8
AM_0
100
AcDbLine
 10
-77.56698834270737
 20
3.25000002011394
 30
0.0
 11
-77.5669863231614
 21
-3.249992993485203
 31
0.0
  0
LINE
  5
44BE
330
1F
100
AcDbEntity
  8
AM_0
100
AcDbLine
 10
-77.56698647850908
 20
-3.250000000000152
 30
0.0
 11
-78.00000000000015
 21
-3.500000473195786
 31
0.0
  0
LINE
  5
4522
330
1F
100
AcDbEntity
  8
AM_0
 48
0.5
100
AcDbLine
 10
-78.00000000000015
 20
-3.500000473195786
 30
0.0
 11
-130.4999999999995
 21
-3.500000473195903
 31
0.0
  0
LINE
  5
4525
330
1F
100
AcDbEntity
  8
AM_0
 48
0.5
100
AcDbLine
 10
-130.4999999999995
 20
-3.500000473195899
 30
0.0
 11
-130.4999999999997
 21
3.499999526804053
 31
0.0
  0
LINE
  5
4526
330
1F
100
AcDbEntity
  8
AM_0
 48
0.5
100
AcDbLine
 10
-131.0000000000002
 20
-3.000000517103931
 30
0.0
 11
-131.0
 21
2.999999480851437
 31
0.0
  0
LINE
  5
4536
330
1F
100
AcDbEntity
  8
AM_0
 48
0.5
100
AcDbLine
 10
-78.00000000000015
 20
3.499999526804213
 30
0.0
 11
-130.5
 21
3.499999526804096
 31
0.0
  0
LINE
  5
4544
330
1F
100
AcDbEntity
  8
AM_0
 48
0.5
100
AcDbLine
 10
-130.4999999999997
 20
3.499999526804096
 30
0.0
 11
-130.9999999999997
 21
2.999999480851736
 31
0.0
1001
GENIUS_GENFIL_13
1070
     0
1040
0.5
1040
0.5
1040
20.0
1040
0.0
1002
{
1002
}
1001
GENIUS_GENODEF_13
1002
{
1000
HIER
1070
     0
1002
}
1002
{
1000
MANEDIT
1070
     0
1002
}
1002
{
1000
NOSEL
1070
     0
1002
}
1002
{
1000
BEHIND
1070
     0
1002
}
1002
{
1000
REACTOR
1002
}
1001
GENIUS_GENOBJ-N-CHA_13
1002
{
1000
OWNER
1000
GEN
1002
}
  0
LINE
  5
4547
330
1F
100
AcDbEntity
  8
AM_0
 48
0.5
100
AcDbLine
 10
-131.0000000000002
 20
-3.000000517103929
 30
0.0
 11
-130.5000000000002
 21
-3.500000473195215
 31
0.0
1001
GENIUS_GENFIL_13
1070
     0
1040
0.5
1040
0.5
1040
20.0
1040
0.0
1002
{
1002
}
1001
GENIUS_GENODEF_13
1002
{
1000
HIER
1070
     0
1002
}
1002
{
1000
MANEDIT
1070
     0
1002
}
1002
{
1000
NOSEL
1070
     0
1002
}
1002
{
1000
BEHIND
1070
     0
1002
}
1002
{
1000
REACTOR
1002
}
1001
GENIUS_GENOBJ-N-CHA_13
1002
{
1000
OWNER
1000
GEN
1002
}
  0
LINE
  5
4658
330
1F
100
AcDbEntity
  8
AM_0
 48
0.5
100
AcDbLine
 10
0.0
 20
0.0000000000000031
 30
0.0
 11
-0.2431446527750246
 21
-0.6680344431605163
 31
0.0
  0
DIMENSION
  5
46D1
330
1F
100
AcDbEntity
  8
AM_5
100
AcDbDimension
  2
*D7
 10
7.725249504141129
 20
3.249999999999996
 30
0.0
 11
7.725249504141128
 21
-0.0000000000000054
 31
0.0
 70
   160
  1
%%c<>
  3
AM_JIS$0
100
AcDbAlignedDimension
 13
-0.9999999999999859
 23
-3.250000000000007
 33
0.0
 14
-1.000000000000007
 24
3.249999999999999
 34
0.0
 50
89.99999999999982
100
AcDbRotatedDimension
1001
GENIUS_GENDTOL_13
1000

1000
h7
1000

1040
0.0
1001
ACAD
1000
DSTYLE
1002
{
1070
   271
1070
     1
1002
}
  0
ELLIPSE
  5
46F0
330
1F
100
AcDbEntity
  8
AM_0
 48
0.5
100
AcDbEllipse
 10
-1.57451865516046
 20
-0.6546480636729225
 30
0.0
 11
-0.2579654916469865
 21
0.5009761511419427
 31
0.0
210
0.0
220
0.0
230
1.0
 40
0.7333554632541509
 41
1.532727865088391
 42
4.668069754800364
  0
ELLIPSE
  5
46F1
330
1F
100
AcDbEntity
  8
AM_0
 48
0.5
100
AcDbEllipse
 10
-1.57451865516046
 20
-0.6546480636729225
 30
0.0
 11
-0.7707096554890431
 21
0.2256639799044235
 31
0.0
210
0.0
220
0.0
230
1.0
 40
0.3610699180828819
 41
4.30813249169542
 42
7.451572833024931
  0
ELLIPSE
  5
46F2
330
1F
100
AcDbEntity
  8
AM_0
 48
0.5
100
AcDbEllipse
 10
-8.930012858462525
 20
5.454680634878397
 30
0.0
 11
-11.27070067139966
 21
2.864260534685451
 31
0.0
210
0.0
220
0.0
230
1.0
 40
0.5198613069925725
 41
2.450258174234317
 42
2.605646225739912
  0
DIMENSION
  5
48D2
330
1F
100
AcDbEntity
  8
AM_5
100
AcDbDimension
  2
*D8
 10
-0.2431446527750246
 20
-0.6680344431605163
 30
0.0
 11
11.25143796120892
 21
0.0000000000000196
 31
0.0
 70
    34
  1
<>
 51
359.9999999999998
  3
AM_JIS$2
100
AcDb2LineAngularDimension
 13
0.0
 23
0.0
 33
0.0
 14
-0.2431446527750273
 24
0.6680344431605185
 34
0.0
 15
0.0
 25
0.0000000000000031
 35
0.0
 16
11.75448652721062
 26
-5.070390552640392
 36
0.0
1001
ACAD
1000
DSTYLE
1002
{
1070
   179
1070
     3
1002
}
1001
GENIUS_GENDTOL_13
1000

1000
h7
1000

1040
0.0
  0
DIMENSION
  5
4A9C
330
1F
100
AcDbEntity
  8
AM_5
100
AcDbDimension
  2
*D9
 10
-138.750001
 20
-3.500000473195901
 30
0.0
 11
-140.450001
 21
-0.0000004731959231
 31
0.0
 70
    32
  1
%%c<>
 51
359.9999999999998
  3
AM_JIS$0
100
AcDbAlignedDimension
 13
-130.5
 23
3.499999526804096
 33
0.0
 14
-130.4999999999995
 24
-3.500000473195903
 34
0.0
 50
270.000004170476
100
AcDbRotatedDimension
1001
ACAD
1000
DSTYLE
1002
{
1070
   271
1070
     0
1002
}
1001
GENIUS_GENDTOL_13
1000

1000
h7
1000

1040
0.0
  0
ELLIPSE
  5
4BB1
330
1F
100
AcDbEntity
  8
AM_0
 48
0.5
100
AcDbEllipse
 10
1.289456593414633
 20
-5.481799860350244
 30
0.0
 11
-0.7834541816497217
 21
5.457177450907324
 31
0.0
210
0.0
220
0.0
230
-1.0
 40
0.3530315924421318
 41
-1.003307944949282
 42
-0.4422545206818754
  0
LINE
  5
4BB2
330
1F
100
AcDbEntity
  8
AM_0
 48
0.5
100
AcDbLine
 10
-0.756237871700388
 20
-2.781711212269753
 30
0.0
 11
-0.9999999999999797
 21
-3.25
 31
0.0
  0
ELLIPSE
  5
4D8F
330
1F
100
AcDbEntity
  8
AM_0
 48
0.5
100
AcDbEllipse
 10
1.289456593414612
 20
5.481799860350251
 30
0.0
 11
-0.783454181649701
 21
-5.457177450907328
 31
0.0
210
0.0
220
0.0
230
0.9999999999999998
 40
0.3530315924421318
 41
-1.003307944949282
 42
-0.4422545206818754
  0
LINE
  5
4D90
330
1F
100
AcDbEntity
  8
AM_0
 48
0.5
100
AcDbLine
 10
-0.7562378717003986
 20
2.781711212269753
 30
0.0
 11
-1.000000000000147
 21
3.249999999999999
 31
0.0
  0
LINE
  5
4E4E
330
1F
100
AcDbEntity
  8
AM_0
100
AcDbLine
 10
-72.99999999999997
 20
-3.249953735852108
 30
0.0
 11
-77.56698632316141
 21
-3.249992993485203
 31
0.0
  0
ELLIPSE
  5
4F1F
330
1F
100
AcDbEntity
  8
AM_0
 48
0.5
100
AcDbEllipse
 10
-27.05234409342786
 20
95.25300564818985
 30
0.0
 11
-22.70392814156831
 21
96.89126541879231
 31
0.0
210
0.0
220
0.0
230
1.0
 40
0.3631094156636565
 41
3.170523032177369
 42
3.211728751532398
  0
ELLIPSE
  5
4F20
330
1F
100
AcDbEntity
  8
AM_0
 48
0.5
100
AcDbEllipse
 10
1.588114673762561
 20
3.901827509963567
 30
0.0
 11
8.505922951574609
 21
1.868226645112608
 31
0.0
210
0.0
220
0.0
230
1.0
 40
0.6410759489917635
 41
3.242951334009885
 42
3.961437023938481
  0
ELLIPSE
  5
4F21
330
1F
100
AcDbEntity
  8
AM_0
 48
0.5
100
AcDbEllipse
 10
-0.7445383471696488
 20
-1.043754137592207
 30
0.0
 11
-2.829884127041001
 21
1.82187539203365
 31
0.0
210
0.0
220
0.0
230
0.9999999999999998
 40
0.61905827523907
 41
0.9301366030737124
 42
1.866094365770574
  0
LINE
  5
4F22
330
1F
100
AcDbEntity
  8
AM_0
 48
0.5
100
AcDbLine
 10
-0.0000000000000012
 20
0.0000000000000059
 30
0.0
 11
-3.081519322302402
 21
0.9886664254185021
 31
0.0
  0
SPLINE
  5
4F23
330
1F
100
AcDbEntity
  8
AM_0
 48
0.5
100
AcDbSpline
210
0.0
220
0.0
230
1.0
 70
     8
 71
     3
 72
    10
 73
     6
 74
     0
 42
0.0000000001
 43
0.0000000001
 40
0.0
 40
0.0
 40
0.0
 40
0.0
 40
2.69986029516136
 40
4.147722969032201
 40
6.201687855798567
 40
6.201687855798567
 40
6.201687855798567
 40
6.201687855798567
 10
-6.7529655015953
 20
1.491432159714303
 30
0.0
 10
-5.400424166920378
 20
0.0648756112926601
 30
0.0
 10
-4.528576395405758
 20
-0.3989981718643939
 30
0.0
 10
-2.494346946028267
 20
-0.1774320145225278
 30
0.0
 10
-2.837725450663944
 20
0.5468332299436712
 30
0.0
 10
-3.0815193223024
 20
0.9886664254185008
 30
0.0
  0
ELLIPSE
  5
4F24
330
1F
100
AcDbEntity
  8
AM_0
100
AcDbEllipse
 10
-71.90393882023229
 20
-1.262109500160287
 30
0.0
 11
-0.0000000000078212
 21
1.469682251807389
 31
0.0
210
0.0
220
0.0
230
1.0
 40
0.9935383976031332
 41
2.542031073029157
 42
2.823851770163464
  0
ELLIPSE
  5
4F25
330
1F
100
AcDbEntity
  8
AM_0
100
AcDbEllipse
 10
-72.21158558427589
 20
-1.697968093285388
 30
0.0
 11
-0.0000000000296255
 21
0.9351668907800469
 31
0.0
210
0.0
220
0.0
230
1.0
 40
0.9935383976030554
 41
2.222165445262238
 42
2.552396541783673
  0
ELLIPSE
  5
4F26
330
1F
100
AcDbEntity
  8
AM_0
100
AcDbEllipse
 10
-72.73892829930334
 20
-2.110923532298367
 30
0.0
 11
0.0000000000041199
 21
0.2627860717083336
 31
0.0
210
0.0
220
0.0
230
1.0
 40
0.9935383976032488
 41
1.581988331620268
 42
2.197008321705626
  0
ELLIPSE
  5
4F27
330
1F
100
AcDbEntity
  8
AM_0
100
AcDbEllipse
 10
-72.76665056204715
 20
-2.128263894229701
 30
0.0
 11
-0.000000000009774
 21
0.2353080410379872
 31
0.0
210
0.0
220
0.0
230
1.0
 40
0.9935383976035684
 41
0.85051619070374
 42
1.509564580542459
  0
ELLIPSE
  5
4F28
330
1F
100
AcDbEntity
  8
AM_0
100
AcDbEllipse
 10
-72.43328332760873
 20
-2.438595293392725
 30
0.0
 11
-0.0000000000158823
 21
0.6922994230344935
 31
0.0
210
0.0
220
0.0
230
1.0
 40
0.9935383976029354
 41
0.442633249456673
 42
0.8332770159377522
  0
ELLIPSE
  5
4F29
330
1F
100
AcDbEntity
  8
AM_0
100
AcDbEllipse
 10
-72.29574640056617
 20
-2.677002308812475
 30
0.0
 11
-0.0000000000063923
 21
0.967296328291515
 31
0.0
210
0.0
220
0.0
230
0.9999999999999998
 40
0.9935383976028946
 41
0.1000113452895048
 42
0.4663880400637766
  0
SPLINE
  5
4F2A
330
1F
100
AcDbEntity
  8
AM_0
100
AcDbSpline
210
0.0
220
0.0
230
1.0
 70
     8
 71
     3
 72
    15
 73
    11
 74
     0
 42
0.0000000001
 43
0.0000000001
 40
10.32789992158508
 40
10.32789992158508
 40
10.32789992158508
 40
10.32789992158508
 40
10.37139106676736
 40
11.27458944007584
 40
12.18373345430765
 40
13.09824173870457
 40
14.01741343450111
 40
14.9404441545541
 40
15.86644439743314
 40
16.55140071192301
 40
16.55140071192301
 40
16.55140071192301
 40
16.55140071192301
 10
-68.74821229848362
 20
1.504206752389051
 30
0.0
 10
-68.96494328866899
 20
1.441089626904102
 30
0.0
 10
-69.17922353528938
 20
1.368776465333554
 30
0.0
 10
-69.59771211139218
 20
1.223290519817909
 30
0.0
 10
-70.20858015064594
 20
1.000454780906483
 30
0.0
 10
-70.81941220366252
 20
0.7685388550190453
 30
0.0
 10
-71.43021362380506
 20
0.5289688980479115
 30
0.0
 10
-72.04099035571238
 20
0.2832183913381772
 30
0.0
 10
-72.5982925541141
 20
0.0547175432951989
 30
0.0
 10
-72.8098781592286
 20
-0.048071764716105
 30
0.0
 10
-72.99999999999968
 20
-0.1532023979327534
 30
0.0
  0
LINE
  5
4F2B
330
1F
100
AcDbEntity
  8
AM_0
 48
0.5
100
AcDbLine
 10
-5.710896044950138
 20
-3.249997441208008
 30
0.0
 11
-0.9999999989037487
 21
-3.25000000000032
 31
0.0
  0
LINE
  5
4F2C
330
1F
100
AcDbEntity
  8
AM_0
 48
0.5
100
AcDbLine
 10
-24.9899684027513
 20
-3.249997441207104
 30
0.0
 11
-15.19304465368408
 21
-3.249997441207511
 31
0.0
  0
LINE
  5
4F2D
330
1F
100
AcDbEntity
  8
AM_11
 48
0.5
100
AcDbLine
 10
-54.20778822096781
 20
-3.250296349127083
 30
0.0
 11
-45.81357114431328
 21
-3.249829578865247
 31
0.0
  0
LINE
  5
4F2E
330
1F
100
AcDbEntity
  8
AM_0
 48
0.5
100
AcDbLine
 10
-45.81357114431328
 20
-3.249829578865247
 30
0.0
 11
-35.99967224744549
 21
-3.249997441206505
 31
0.0
  0
LINE
  5
4F2F
330
1F
100
AcDbEntity
  8
AM_11
 48
0.5
100
AcDbLine
 10
-35.99967224744328
 20
-3.249997441206569
 30
0.0
 11
-24.9899684027513
 21
-3.250459162688479
 31
0.0
  0
LINE
  5
4F30
330
1F
100
AcDbEntity
  8
AM_11
 48
0.5
100
AcDbLine
 10
-15.19304303159208
 20
-3.249997441207501
 30
0.0
 11
-5.710896044950042
 21
-3.249997441208031
 31
0.0
  0
SPLINE
  5
4F31
330
1F
100
AcDbEntity
  8
AM_0
100
AcDbSpline
210
0.0
220
0.0
230
1.0
 70
     8
 71
     3
 72
    15
 73
    11
 74
     0
 42
0.0000000001
 43
0.0000000001
 40
4.116313036328508
 40
4.116313036328508
 40
4.116313036328508
 40
4.116313036328508
 40
4.126290986361125
 40
5.162752068350215
 40
6.192395305374981
 40
7.216039564037012
 40
8.234688489606833
 40
9.249433870634691
 40
10.26152376260694
 40
11.27226744710342
 40
11.27226744710342
 40
11.27226744710342
 40
11.27226744710352
 10
-49.79735341299143
 20
-2.790953290593335
 30
0.0
 10
-49.79930724723422
 20
-2.79138052728077
 30
0.0
 10
-50.00422316104605
 20
-2.836160672375908
 30
0.0
 10
-50.41227549120295
 20
-2.919507751568753
 30
0.0
 10
-51.02357615535296
 20
-3.026573956424793
 30
0.0
 10
-51.63494341961474
 20
-3.115071540018721
 30
0.0
 10
-52.24635292148647
 20
-3.184495485662999
 30
0.0
 10
-52.85780049460809
 20
-3.234395902960319
 30
0.0
 10
-53.4414228869296
 20
-3.236422275360783
 30
0.0
 10
-53.79412901233664
 20
-3.239560103017934
 30
0.0
 10
-54.06878572884417
 20
-3.250288619730873
 30
0.0
  0
SPLINE
  5
4F32
330
1F
100
AcDbEntity
  8
AM_0
100
AcDbSpline
210
0.0
220
0.0
230
1.0
 70
     8
 71
     3
 72
    11
 73
     7
 74
     0
 42
0.0000000001
 43
0.0000000001
 40
11.27226913003534
 40
11.27226913003534
 40
11.27226913003534
 40
11.2722691300354
 40
12.28301561507924
 40
13.29510212255852
 40
14.30984805882082
 40
15.18258238371378
 40
15.18258238371378
 40
15.18258238371378
 40
15.18258238371378
 10
-54.06878572884419
 20
-3.250288619730873
 30
0.0
 10
-54.28371698122505
 20
-3.255247307648743
 30
0.0
 10
-54.68925935960737
 20
-3.216738497926951
 30
0.0
 10
-55.29547878194287
 20
-3.139056703586593
 30
0.0
 10
-55.87079170305219
 20
-3.046274317723601
 30
0.0
 10
-56.24287033023476
 20
-2.974949736329774
 30
0.0
 10
-56.41433475656969
 20
-2.93971736317715
 30
0.0
  0
SPLINE
  5
4F33
330
1F
100
AcDbEntity
  8
AM_0
100
AcDbSpline
210
0.0
220
0.0
230
1.0
 70
     8
 71
     3
 72
    22
 73
    18
 74
     0
 42
0.0000000001
 43
0.0000000001
 40
17.17441611292
 40
17.17441611292
 40
17.17441611292
 40
17.17441611292
 40
17.38177636558528
 40
18.41823744757437
 40
19.46215659509824
 40
20.51397914882054
 40
21.57394542641293
 40
22.64209583141747
 40
23.71826625065247
 40
24.80210429862395
 40
25.8930771157021
 40
26.99048705697709
 40
28.09349309193389
 40
29.20112995599786
 40
30.31233024745139
 40
31.42594771747373
 40
32.5407895042663
 40
32.54078950426994
 40
32.54078950426994
 40
32.54078950426994
 10
-38.23042303885378
 20
-2.918520963565904
 30
0.0
 10
-38.26955925047511
 20
-2.910997532331654
 30
0.0
 10
-38.50415946561508
 20
-2.865171490352535
 30
0.0
 10
-38.93393384008202
 20
-2.773284311792244
 30
0.0
 10
-39.51812422901289
 20
-2.63127616120797
 30
0.0
 10
-40.10225509016939
 20
-2.473051582046034
 30
0.0
 10
-40.68633054748266
 20
-2.299598251361847
 30
0.0
 10
-41.2703498294297
 20
-2.111979694526464
 30
0.0
 10
-41.85432012461057
 20
-1.911363548516598
 30
0.0
 10
-42.43824413697196
 20
-1.698982735617241
 30
0.0
 10
-43.02212726919946
 20
-1.47614699666442
 30
0.0
 10
-43.60597601370337
 20
-1.244231087020958
 30
0.0
 10
-44.18979543793851
 20
-1.004661064628568
 30
0.0
 10
-44.77359141899125
 20
-0.7589108047474774
 30
0.0
 10
-45.35736913170488
 20
-0.508491393302656
 30
0.0
 10
-45.9411372242385
 20
-0.2549480534164116
 30
0.0
 10
-46.33023956147048
 20
-0.0849019135481623
 30
0.0
 10
-46.52489761929984
 20
0.0001678623425298
 30
0.0
  0
SPLINE
  5
4F34
330
1F
100
AcDbEntity
  8
AM_0
100
AcDbSpline
210
0.0
220
0.0
230
1.0
 70
     8
 71
     3
 72
    22
 73
    18
 74
     0
 42
0.0000000001
 43
0.0000000001
 40
17.17441611292
 40
17.17441611292
 40
17.17441611292
 40
17.17441611292
 40
17.38177636558528
 40
18.41823744757437
 40
19.46215659509824
 40
20.51397914882054
 40
21.57394542641293
 40
22.64209583141747
 40
23.71826625065247
 40
24.80210429862395
 40
25.8930771157021
 40
26.99048705697709
 40
28.09349309193389
 40
29.20112995599786
 40
30.31233024745139
 40
31.42594771747373
 40
32.5407895042663
 40
32.54078950426994
 40
32.54078950426994
 40
32.54078950426994
 10
-17.42379544509314
 20
-2.918520963566842
 30
0.0
 10
-17.46293165671448
 20
-2.910997532332591
 30
0.0
 10
-17.69753187185445
 20
-2.865171490353476
 30
0.0
 10
-18.12730624632138
 20
-2.773284311793184
 30
0.0
 10
-18.71149663525224
 20
-2.631276161208907
 30
0.0
 10
-19.29562749640878
 20
-2.473051582046976
 30
0.0
 10
-19.87970295372208
 20
-2.299598251362786
 30
0.0
 10
-20.46372223566911
 20
-2.111979694527404
 30
0.0
 10
-21.04769253085002
 20
-1.911363548517539
 30
0.0
 10
-21.63161654321142
 20
-1.698982735618181
 30
0.0
 10
-22.21549967543894
 20
-1.476146996665359
 30
0.0
 10
-22.79934841994285
 20
-1.244231087021898
 30
0.0
 10
-23.38316784417794
 20
-1.004661064629508
 30
0.0
 10
-23.96696382523067
 20
-0.7589108047484165
 30
0.0
 10
-24.55074153794429
 20
-0.5084913933035944
 30
0.0
 10
-25.13450963047791
 20
-0.2549480534173504
 30
0.0
 10
-25.52361196770988
 20
-0.0849019135491014
 30
0.0
 10
-25.71827002553928
 20
0.0001678623415907
 30
0.0
  0
SPLINE
  5
4F35
330
1F
100
AcDbEntity
  8
AM_0
100
AcDbSpline
210
0.0
220
0.0
230
1.0
 70
     8
 71
     3
 72
    17
 73
    13
 74
     0
 42
0.0000000001
 43
0.0000000001
 40
1.580019955310467
 40
1.580019955310467
 40
1.580019955310467
 40
1.580019955310467
 40
2.030549285115227
 40
3.082371838836284
 40
4.126290986361125
 40
5.162752068350215
 40
6.192395305374981
 40
7.216039564037012
 40
8.234688489606833
 40
9.249433870634691
 40
10.26152376260694
 40
11.27226744710342
 40
11.27226744710342
 40
11.27226744710342
 40
11.27226744710352
 10
-9.687763246089019
 20
-2.398593142626448
 30
0.0
 10
-9.77045444882205
 20
-2.423296685746707
 30
0.0
 10
-10.0466708470684
 20
-2.504265847953207
 30
0.0
 10
-10.51824073767511
 20
-2.63126887600099
 30
0.0
 10
-11.10234980864047
 20
-2.77349541931036
 30
0.0
 10
-11.68661968428619
 20
-2.898351440683836
 30
0.0
 10
-12.27091633097365
 20
-3.005417645539853
 30
0.0
 10
-12.85527663573358
 20
-3.093915229133755
 30
0.0
 10
-13.43967731227013
 20
-3.163339174778009
 30
0.0
 10
-14.02411437827088
 20
-3.213239592075301
 30
0.0
 10
-14.60857343472002
 20
-3.243295266244467
 30
0.0
 10
-14.99830737453192
 20
-3.24999745980419
 30
0.0
 10
-15.19304465368404
 20
-3.249997441207511
 30
0.0
  0
SPLINE
  5
4F36
330
1F
100
AcDbEntity
  8
AM_0
100
AcDbSpline
210
0.0
220
0.0
230
1.0
 70
     8
 71
     3
 72
    11
 73
     7
 74
     0
 42
0.0000000001
 43
0.0000000001
 40
11.27226913003534
 40
11.27226913003534
 40
11.27226913003534
 40
11.2722691300354
 40
12.28301561507924
 40
13.29510212255852
 40
14.30984805882082
 40
15.18258238371378
 40
15.18258238371378
 40
15.18258238371378
 40
15.18258238371378
 10
-15.19304465368407
 20
-3.249997441207511
 30
0.0
 10
-15.38704144582956
 20
-3.234090996763668
 30
0.0
 10
-15.77466911528077
 20
-3.19558218704186
 30
0.0
 10
-16.35410898243675
 20
-3.117900392701479
 30
0.0
 10
-16.90400763348361
 20
-3.025118006838463
 30
0.0
 10
-17.25964980257749
 20
-2.953793425444624
 30
0.0
 10
-17.42353984099743
 20
-2.918561052291991
 30
0.0
  0
SPLINE
  5
4F37
330
1F
100
AcDbEntity
  8
AM_0
100
AcDbSpline
210
0.0
220
0.0
230
1.0
 70
     8
 71
     3
 72
    17
 73
    13
 74
     0
 42
0.0000000001
 43
0.0000000001
 40
1.580019955310467
 40
1.580019955310467
 40
1.580019955310467
 40
1.580019955310467
 40
2.030549285115227
 40
3.082371838836284
 40
4.126290986361125
 40
5.162752068350215
 40
6.192395305374981
 40
7.216039564037012
 40
8.234688489606833
 40
9.249433870634691
 40
10.26152376260694
 40
11.27226744710342
 40
11.27226744710342
 40
11.27226744710342
 40
11.27226744710352
 10
-30.49439083984964
 20
-2.398593142625507
 30
0.0
 10
-30.57708204258266
 20
-2.423296685745768
 30
0.0
 10
-30.85329844082901
 20
-2.504265847952267
 30
0.0
 10
-31.3248683314357
 20
-2.63126887600005
 30
0.0
 10
-31.90897740240107
 20
-2.773495419309421
 30
0.0
 10
-32.49324727804678
 20
-2.898351440682898
 30
0.0
 10
-33.07754392473425
 20
-3.005417645538913
 30
0.0
 10
-33.66190422949418
 20
-3.093915229132813
 30
0.0
 10
-34.24630490603072
 20
-3.16333917477707
 30
0.0
 10
-34.83074197203146
 20
-3.213239592074363
 30
0.0
 10
-35.4152010284806
 20
-3.243295266243526
 30
0.0
 10
-35.8049349682925
 20
-3.249997459803251
 30
0.0
 10
-35.99967224744462
 20
-3.249997441206569
 30
0.0
  0
SPLINE
  5
4F38
330
1F
100
AcDbEntity
  8
AM_0
100
AcDbSpline
210
0.0
220
0.0
230
1.0
 70
     8
 71
     3
 72
    11
 73
     7
 74
     0
 42
0.0000000001
 43
0.0000000001
 40
11.27226913003534
 40
11.27226913003534
 40
11.27226913003534
 40
11.2722691300354
 40
12.28301561507924
 40
13.29510212255852
 40
14.30984805882082
 40
15.18258238371378
 40
15.18258238371378
 40
15.18258238371378
 40
15.18258238371378
 10
-35.99967224744466
 20
-3.249997441206569
 30
0.0
 10
-36.19366903959017
 20
-3.234090996762729
 30
0.0
 10
-36.58129670904136
 20
-3.19558218704092
 30
0.0
 10
-37.16073657619735
 20
-3.117900392700539
 30
0.0
 10
-37.71063522724422
 20
-3.025118006837524
 30
0.0
 10
-38.06627739633812
 20
-2.953793425443683
 30
0.0
 10
-38.23016743475806
 20
-2.918561052291054
 30
0.0
  0
LINE
  5
4F39
330
1F
100
AcDbEntity
  8
AM_11
100
AcDbLine
 10
-64.25579934122571
 20
-3.24999999999988
 30
0.0
 11
-72.99999999999997
 21
-3.249953735852108
 31
0.0
  0
ELLIPSE
  5
4F3A
330
1F
100
AcDbEntity
  8
AM_0
100
AcDbEllipse
 10
-71.21904206149742
 20
0.3990005185967993
 30
0.0
 11
0.0000000000001304
 21
3.283631210481057
 31
0.0
210
0.0
220
0.0
230
1.0
 40
0.9935383976029593
 41
3.119508111767986
 42
3.205549794956236
  0
ELLIPSE
  5
4F3B
330
1F
100
AcDbEntity
  8
AM_0
100
AcDbEllipse
 10
-71.28433527830889
 20
-1.048277671596692
 30
0.0
 11
0.0000000000046867
 21
1.835564867482259
 31
0.0
210
0.0
220
0.0
230
1.0
 40
0.9935383976028326
 41
2.945609816914241
 42
3.137891475665663
  0
ELLIPSE
  5
4F3C
330
1F
100
AcDbEntity
  8
AM_0
100
AcDbEllipse
 10
-70.79981696499269
 20
1.845838888880168
 30
0.0
 11
0.0000000000053461
 21
4.770004501146503
 31
0.0
210
0.0
220
0.0
230
1.0
 40
0.993538397603004
 41
2.806097075229548
 42
2.963480633383353
  0
ELLIPSE
  5
4F3D
330
1F
100
AcDbEntity
  8
AM_0
100
AcDbEllipse
 10
-71.83154812324189
 20
-6.106913675104153
 30
0.0
 11
-0.0000000000001241
 21
4.428410247738126
 31
0.0
210
0.0
220
0.0
230
1.0
 40
0.9935383976030907
 41
-0.0436708493381988
 42
0.1276600234897829
  0
ELLIPSE
  5
4F3E
330
1F
100
AcDbEntity
  8
AM_0
100
AcDbEllipse
 10
-71.77980372536578
 20
-3.598856115814344
 30
0.0
 11
0.0000000000016706
 21
1.921329715093838
 31
0.0
210
0.0
220
0.0
230
1.0
 40
0.9935383976030223
 41
-0.2681948460322874
 42
-0.0735832027600598
  0
ELLIPSE
  5
4F3F
330
1F
100
AcDbEntity
  8
AM_0
100
AcDbEllipse
 10
-71.60104196729159
 20
-3.479173934067556
 30
0.0
 11
0.000000000026872
 21
1.763954592588841
 31
0.0
210
0.0
220
0.0
230
1.0
 40
0.9935383976027134
 41
-0.3424012338040008
 42
-0.1877332661558644
  0
SPLINE
  5
4F40
330
1F
100
AcDbEntity
  8
AM_0
100
AcDbSpline
210
0.0
220
0.0
230
1.0
 70
     8
 71
     3
 72
    14
 73
    10
 74
     0
 42
0.0000000001
 43
0.0000000001
 40
1.580019955310467
 40
1.580019955310467
 40
1.580019955310467
 40
1.580019955310467
 40
2.030549285115227
 40
3.082371838836284
 40
4.126290986361125
 40
5.162752068350215
 40
6.192395305374981
 40
7.216039564037012
 40
8.092146932806128
 40
8.092146932806128
 40
8.092146932806128
 40
8.092146932806128
 10
-69.12048285430221
 20
-2.420251263717812
 30
0.0
 10
-69.20699573681942
 20
-2.444954806838077
 30
0.0
 10
-69.49597782948481
 20
-2.525923969044593
 30
0.0
 10
-69.98934192622458
 20
-2.652926997092391
 30
0.0
 10
-70.60044634560036
 20
-2.79515354040179
 30
0.0
 10
-71.21171900145068
 20
-2.92000956177529
 30
0.0
 10
-71.82301966560068
 20
-3.027075766631325
 30
0.0
 10
-72.40601875107405
 20
-3.111466955557938
 30
0.0
 10
-72.81728036961057
 20
-3.209620002532049
 30
0.0
 10
-73.0
 20
-3.249953735852114
 30
0.0
  0
SPLINE
  5
4F41
330
1F
100
AcDbEntity
  8
AM_0
100
AcDbSpline
210
0.0
220
0.0
230
1.0
 70
     8
 71
     3
 72
    19
 73
    15
 74
     0
 42
0.0000000001
 43
0.0000000001
 40
1.479671614733745
 40
1.479671614733745
 40
1.479671614733745
 40
1.479671614733745
 40
2.022833576467832
 40
3.037578957496688
 40
4.056212745003489
 40
5.079857003664532
 40
6.109500240690281
 40
7.145961322679372
 40
8.189895241603872
 40
9.241717795325891
 40
10.30168407291828
 40
11.36983447792315
 40
12.44600489715814
 40
13.01371853178965
 40
13.01371853178965
 40
13.01371853178965
 40
13.01371853178965
 10
-64.25575025370649
 20
-3.24999999999988
 30
0.0
 10
-64.36508006849002
 20
-3.244725669479277
 30
0.0
 10
-64.67849880095602
 20
-3.226558209091702
 30
0.0
 10
-65.1957957591194
 20
-3.18460106270408
 30
0.0
 10
-65.80720240819063
 20
-3.115094158987956
 30
0.0
 10
-66.41856511397495
 20
-3.02661560877993
 30
0.0
 10
-67.02987181565305
 20
-2.919558862092738
 30
0.0
 10
-67.64112455801875
 20
-2.794645091330342
 30
0.0
 10
-68.25231792049551
 20
-2.652639208658221
 30
0.0
 10
-68.86344773974267
 20
-2.494413121581354
 30
0.0
 10
-69.47451706190452
 20
-2.320959998892276
 30
0.0
 10
-70.08552752354657
 20
-2.133341385593016
 30
0.0
 10
-70.59880539010847
 20
-1.964800158180548
 30
0.0
 10
-70.89250007302599
 20
-1.849508813067262
 30
0.0
 10
-71.01262125247561
 20
-1.817614845474467
 30
0.0
  0
SPLINE
  5
4F42
330
1F
100
AcDbEntity
  8
AM_0
100
AcDbSpline
210
0.0
220
0.0
230
1.0
 70
     8
 71
     3
 72
    25
 73
    21
 74
     0
 42
0.0000000001
 43
0.0000000001
 40
1.163660092745933
 40
1.163660092745933
 40
1.163660092745933
 40
1.163660092745933
 40
1.685415058684573
 40
2.531036209541122
 40
3.379897699130124
 40
4.232934581347659
 40
5.09097061220244
 40
5.954688180526682
 40
6.824620803463244
 40
7.701151815239697
 40
8.58445704656667
 40
9.47458238407075
 40
10.37139106676736
 40
11.27458944007584
 40
12.18373345430765
 40
13.09824173870457
 40
14.01741343450111
 40
14.9404441545541
 40
15.86644439743314
 40
16.55140071192301
 40
16.55140071192301
 40
16.55140071192301
 40
16.55140071192301
 10
-62.1677570431118
 20
-3.249999999999889
 30
0.0
 10
-62.29382022586291
 20
-3.245081199721544
 30
0.0
 10
-62.62399834902593
 20
-3.229103698589927
 30
0.0
 10
-63.15792681729408
 20
-3.184217557971239
 30
0.0
 10
-63.76934003529539
 20
-3.115197609809847
 30
0.0
 10
-64.3807009920215
 20
-3.02658772050508
 30
0.0
 10
-64.99200807693838
 20
-2.919566167850329
 30
0.0
 10
-65.60325814964158
 20
-2.79464460604114
 30
0.0
 10
-66.21445018637908
 20
-2.652636819752973
 30
0.0
 10
-66.82558146713045
 20
-2.494414757815295
 30
0.0
 10
-67.43665321340059
 20
-2.320959772131858
 30
0.0
 10
-68.04766378159221
 20
-2.133341447049525
 30
0.0
 10
-68.65862298791707
 20
-1.932725238545079
 30
0.0
 10
-69.26953380175906
 20
-1.720344441426974
 30
0.0
 10
-69.88040184101279
 20
-1.497508702515549
 30
0.0
 10
-70.49123389402939
 20
-1.265592776628105
 30
0.0
 10
-71.1020353141719
 20
-1.026022819656961
 30
0.0
 10
-71.71281204607922
 20
-0.7802723129472278
 30
0.0
 10
-72.27011424448099
 20
-0.5517714649042452
 30
0.0
 10
-72.56887561506573
 20
-0.4052032728869183
 30
0.0
 10
-73.0
 20
-0.1532023979325678
 30
0.0
  0
SPLINE
  5
4F43
330
1F
100
AcDbEntity
  8
AM_0
100
AcDbSpline
210
0.0
220
0.0
230
1.0
 70
     8
 71
     3
 72
    22
 73
    18
 74
     0
 42
0.0000000001
 43
0.0000000001
 40
17.17441611292
 40
17.17441611292
 40
17.17441611292
 40
17.17441611292
 40
17.38177636558528
 40
18.41823744757437
 40
19.46215659509824
 40
20.51397914882054
 40
21.57394542641293
 40
22.64209583141747
 40
23.71826625065247
 40
24.80210429862395
 40
25.8930771157021
 40
26.99048705697709
 40
28.09349309193389
 40
29.20112995599786
 40
30.31233024745139
 40
31.42594771747373
 40
32.5407895042663
 40
32.54078950426994
 40
32.54078950426994
 40
32.54078950426994
 10
-56.41433475656969
 20
-2.93971736317715
 30
0.0
 10
-56.4552796983079
 20
-2.932193931942901
 30
0.0
 10
-56.70072226269336
 20
-2.886367889963788
 30
0.0
 10
-57.15035921001411
 20
-2.794480711403522
 30
0.0
 10
-57.76154870556929
 20
-2.652472560819267
 30
0.0
 10
-58.37267592219784
 20
-2.494247981657359
 30
0.0
 10
-58.98374517442365
 20
-2.320794650973196
 30
0.0
 10
-59.59475565506672
 20
-2.13317609413784
 30
0.0
 10
-60.20571488495755
 20
-1.932559948127996
 30
0.0
 10
-60.81662569300911
 20
-1.720179135228663
 30
0.0
 10
-61.42749373159909
 20
-1.497343396275867
 30
0.0
 10
-62.03832579319281
 20
-1.265427486632427
 30
0.0
 10
-62.64912717944397
 20
-1.025857464240063
 30
0.0
 10
-63.2599040390561
 20
-0.7801072043589973
 30
0.0
 10
-63.87066178603441
 20
-0.5296877929142056
 30
0.0
 10
-64.48140946822377
 20
-0.2761444530279869
 30
0.0
 10
-64.88849466804602
 20
-0.1060983131597501
 30
0.0
 10
-65.09214909719237
 20
-0.0210285372690665
 30
0.0
  0
LINE
  5
4F44
330
1F
100
AcDbEntity
  8
AM_0
100
AcDbLine
 10
-54.20778822096781
 20
-3.250296349127083
 30
0.0
 11
-64.25579934122571
 21
-3.24999999999988
 31
0.0
  0
LINE
  5
4F45
330
1F
100
AcDbEntity
  8
AM_0
100
AcDbLine
 10
-1.000000001561308
 20
3.250000002999129
 30
0.0
 11
-4.30729164777539
 21
3.250002558791948
 31
0.0
  0
LINE
  5
4F46
330
1F
100
AcDbEntity
  8
AM_0
 48
0.5
100
AcDbLine
 10
-27.54662396298542
 20
3.250002558793088
 30
0.0
 11
-15.19304465368384
 21
3.250002558792488
 31
0.0
  0
LINE
  5
4F47
330
1F
100
AcDbEntity
  8
AM_11
 48
0.5
100
AcDbLine
 10
-55.91776020289792
 20
3.250002558794149
 30
0.0
 11
-48.35333180995494
 21
3.250002558794025
 31
0.0
  0
LINE
  5
4F48
330
1F
100
AcDbEntity
  8
AM_0
100
AcDbLine
 10
-48.35333180995494
 20
3.250002558794025
 30
0.0
 11
-34.57258537923078
 21
3.250464280274811
 31
0.0
  0
LINE
  5
4F49
330
1F
100
AcDbEntity
  8
AM_11
 48
0.5
100
AcDbLine
 10
-34.57258537923078
 20
3.250464280274811
 30
0.0
 11
-27.54661448039226
 21
3.250002558793088
 31
0.0
  0
LINE
  5
4F4A
330
1F
100
AcDbEntity
  8
AM_11
 48
0.5
100
AcDbLine
 10
-15.19304465367101
 20
3.250002558792382
 30
0.0
 11
-4.183340808993389
 21
3.250002558791929
 31
0.0
  0
SPLINE
  5
4F4B
330
1F
100
AcDbEntity
  8
AM_0
 48
0.5
100
AcDbSpline
210
0.0
220
0.0
230
1.0
 70
     8
 71
     3
 72
    17
 73
    13
 74
     0
 42
0.0000000001
 43
0.0000000001
 40
0.0
 40
0.0
 40
0.0
 40
0.0
 40
1.010743614677189
 40
2.022833924044153
 40
3.037578959561199
 40
4.056212747067873
 40
5.079857613375832
 40
6.109500119648989
 40
7.14596120163808
 40
8.18989512056258
 40
9.241717674284874
 40
9.693948937866434
 40
9.693948937866434
 40
9.693948937866434
 40
9.693948937866434
 10
-4.18334080899048
 20
3.250002558791957
 30
0.0
 10
-4.378078126151621
 20
3.248070281025569
 30
0.0
 10
-4.767812224602235
 20
3.244203150964353
 30
0.0
 10
-5.352270801068168
 20
3.212998731056385
 30
0.0
 10
-5.936705315713766
 20
3.163410674707192
 30
0.0
 10
-6.521103483506257
 20
3.09390363458013
 30
0.0
 10
-7.105458344432775
 20
3.00542028568295
 30
0.0
 10
-7.689762761176357
 20
2.898370868488035
 30
0.0
 10
-8.274008891389701
 20
2.773444495496357
 30
0.0
 10
-8.85821940616789
 20
2.631482203224443
 30
0.0
 10
-9.329809367732311
 20
2.503595637126674
 30
0.0
 10
-9.606754642991569
 20
2.423648142422661
 30
0.0
 10
-9.689878756326697
 20
2.399176749485781
 30
0.0
  0
SPLINE
  5
4F4C
330
1F
100
AcDbEntity
  8
AM_0
100
AcDbSpline
210
0.0
220
0.0
230
1.0
 70
     8
 71
     3
 72
    23
 73
    19
 74
     0
 42
0.0000000001
 43
0.0000000001
 40
16.03460024169435
 40
16.03460024169435
 40
16.03460024169435
 40
16.03460024169435
 40
16.35212704903564
 40
17.38177054169784
 40
18.41822485651776
 40
19.46214173629503
 40
20.51396345435107
 40
21.57393551351153
 40
22.64208202342361
 40
23.7182574881101
 40
24.80209208578934
 40
25.89306333925047
 40
26.99048218457928
 40
28.09348763352352
 40
29.20111863782268
 40
30.31232390128032
 40
31.42594612798585
 40
32.5407912310448
 40
32.5407912310486
 40
32.5407912310486
 40
32.5407912310486
 10
-55.9177602028979
 20
3.250002558794149
 30
0.0
 10
-55.3229499329474
 20
3.203545517352253
 30
0.0
 10
-55.03981700059854
 20
3.161135605564305
 30
0.0
 10
-54.61643922406432
 20
3.098102693621606
 30
0.0
 10
-54.03588082327253
 20
2.9589016630568
 30
0.0
 10
-53.455861672431
 20
2.80260210819526
 30
0.0
 10
-52.87634749774557
 20
2.630108611139444
 30
0.0
 10
-52.29731773123116
 20
2.442382826997052
 30
0.0
 10
-51.71873890635506
 20
2.240497875516681
 30
0.0
 10
-51.1405707330869
 20
2.025628676475971
 30
0.0
 10
-50.56278035783457
 20
1.798992021621425
 30
0.0
 10
-49.98532145704855
 20
1.561906656840114
 30
0.0
 10
-49.40814723414244
 20
1.315750624704487
 30
0.0
 10
-48.83121923364394
 20
1.061939219204105
 30
0.0
 10
-48.25448918468799
 20
0.8019483189038931
 30
0.0
 10
-47.67790366985773
 20
0.5372960799174347
 30
0.0
 10
-47.10141573881602
 20
0.2695160903043586
 30
0.0
 10
-46.717193681093
 20
0.0899842493272903
 30
0.0
 10
-46.52497787250623
 20
0.0001678623413601
 30
0.0
  0
SPLINE
  5
4F4D
330
1F
100
AcDbEntity
  8
AM_0
100
AcDbSpline
210
0.0
220
0.0
230
1.0
 70
     8
 71
     3
 72
    55
 73
    51
 74
     0
 42
0.0000000001
 43
0.0000000001
 40
0.0
 40
0.0
 40
0.0
 40
0.0
 40
1.010743684496582
 40
2.022833576467832
 40
3.037578957496688
 40
4.056212745003489
 40
5.079857003664532
 40
6.109500240690281
 40
7.145961322679372
 40
8.189895241603872
 40
9.241717795325891
 40
10.30168407291828
 40
11.36983447792315
 40
12.44600489715814
 40
13.52984294512926
 40
14.62081576220742
 40
15.7182257034828
 40
16.82123173843959
 40
17.92886860250316
 40
19.0400688939571
 40
20.15368796660465
 40
21.26852814259644
 40
22.38336992938901
 40
23.49698739941135
 40
24.6081876908653
 40
25.71582455492886
 40
26.81883757994213
 40
27.91624752121713
 40
29.00722033829659
 40
30.09105838626677
 40
31.16722880550176
 40
32.23537921050758
 40
33.29534548809967
 40
34.347168041821
 40
35.39108718934584
 40
36.42754827133493
 40
37.45720575381954
 40
38.48085062012849
 40
39.49948440763516
 40
40.51422944315121
 40
41.52631975251916
 40
42.53706336719636
 40
43.54780698187354
 40
44.55989729124051
 40
45.57464232675757
 40
46.59327611426424
 40
47.6169209805722
 40
48.64656348684535
 40
49.68302456883444
 40
50.58557219878025
 40
50.58557219878025
 40
50.58557219878025
 40
50.58557219878025
 10
-24.9899684027513
 20
-3.249997441207104
 30
0.0
 10
-25.18470568447259
 20
-3.248063769943156
 30
0.0
 10
-25.57443961810788
 20
-3.24419385196242
 30
0.0
 10
-26.15889868695374
 20
-3.212997968509524
 30
0.0
 10
-26.7433328074456
 20
-3.163404663093381
 30
0.0
 10
-27.32773075720322
 20
-3.093897759377235
 30
0.0
 10
-27.91208670485501
 20
-3.005419209169179
 30
0.0
 10
-28.49638912236459
 20
-2.898362462481964
 30
0.0
 10
-29.0806399641977
 20
-2.773448691719537
 30
0.0
 10
-29.66483404923009
 20
-2.631442809047396
 30
0.0
 10
-30.24896739803536
 20
-2.473216721970503
 30
0.0
 10
-30.83304292219533
 20
-2.299763599281404
 30
0.0
 10
-31.41706218598072
 20
-2.112144985982117
 30
0.0
 10
-32.00103248624442
 20
-1.911528855598813
 30
0.0
 10
-32.58495649662004
 20
-1.699148037235966
 30
0.0
 10
-33.16883963168179
 20
-1.476312304405296
 30
0.0
 10
-33.75268836677267
 20
-1.244396375625042
 30
0.0
 10
-34.33650782606096
 20
-1.004826424129717
 30
0.0
 10
-34.92030367558101
 20
-0.7590758983160281
 30
0.0
 10
-35.50408216219649
 20
-0.5086573634737369
 30
0.0
 10
-36.08784840620044
 20
-0.2551102898420544
 30
0.0
 10
-36.67161065127642
 20
0.0000018956754024
 30
0.0
 10
-37.25537027574836
 20
0.2551186733711855
 30
0.0
 10
-37.83913847640952
 20
0.5086617986042857
 30
0.0
 10
-38.42291624234262
 20
0.7590810914492259
 30
0.0
 10
-39.0067131327642
 20
1.00483255346288
 30
0.0
 10
-39.59053501401567
 20
1.244400460426173
 30
0.0
 10
-40.17438467057416
 20
1.476317565342867
 30
0.0
 10
-40.75826788992923
 20
1.699153117476734
 30
0.0
 10
-41.3421918790577
 20
1.911533980502466
 30
0.0
 10
-41.9261621808167
 20
2.112150111179236
 30
0.0
 10
-42.5101814594775
 20
2.299768679616083
 30
0.0
 10
-43.09425692335445
 20
2.473221979416778
 30
0.0
 10
-43.67838776176915
 20
2.631446669359349
 30
0.0
 10
-44.26257823423591
 20
2.773454411954255
 30
0.0
 10
-44.84682885934225
 20
2.898370694575467
 30
0.0
 10
-45.43113544896693
 20
3.005415213896103
 30
0.0
 10
-46.01549332716564
 20
3.093921150085854
 30
0.0
 10
-46.59989145016496
 20
3.163345662339083
 30
0.0
 10
-47.18432597673944
 20
3.213240129833014
 30
0.0
 10
-47.76878455003364
 20
3.243305234740624
 30
0.0
 10
-48.35325596645052
 20
3.253348991464477
 30
0.0
 10
-48.93772738200747
 20
3.243305234724932
 30
0.0
 10
-49.52218595788658
 20
3.213240129896294
 30
0.0
 10
-50.10662047494413
 20
3.163345662101153
 30
0.0
 10
-50.69101863362465
 20
3.09392115098072
 30
0.0
 10
-51.27537352882814
 20
3.005415642012895
 30
0.0
 10
-51.85967781650731
 20
2.898371789048134
 30
0.0
 10
-52.41736383361459
 20
2.779124820335804
 30
0.0
 10
-52.7791968726227
 20
2.691918384794565
 30
0.0
 10
-52.94706631356768
 20
2.6494184345692
 30
0.0
  0
SPLINE
  5
4F4E
330
1F
100
AcDbEntity
  8
AM_0
100
AcDbSpline
210
0.0
220
0.0
230
1.0
 70
     8
 71
     3
 72
    52
 73
    48
 74
     0
 42
0.0000000001
 43
0.0000000001
 40
3.537595802313026
 40
3.537595802313026
 40
3.537595802313026
 40
3.537595802313026
 40
4.056212745003489
 40
5.079857003664532
 40
6.109500240690281
 40
7.145961322679372
 40
8.189895241603872
 40
9.241717795325891
 40
10.30168407291828
 40
11.36983447792315
 40
12.44600489715814
 40
13.52984294512926
 40
14.62081576220742
 40
15.7182257034828
 40
16.82123173843959
 40
17.92886860250316
 40
19.0400688939571
 40
20.15368796660465
 40
21.26852814259644
 40
22.38336992938901
 40
23.49698739941135
 40
24.6081876908653
 40
25.71582455492886
 40
26.81883757994213
 40
27.91624752121713
 40
29.00722033829659
 40
30.09105838626677
 40
31.16722880550176
 40
32.23537921050758
 40
33.29534548809967
 40
34.347168041821
 40
35.39108718934584
 40
36.42754827133493
 40
37.45720575381954
 40
38.48085062012849
 40
39.49948440763516
 40
40.51422944315121
 40
41.52631975251916
 40
42.53706336719636
 40
43.54780698187354
 40
44.55989729124051
 40
45.57464232675757
 40
46.59327611426424
 40
47.6169209805722
 40
48.64656348684535
 40
49.68302456883444
 40
50.58557219878025
 40
50.58557219878025
 40
50.58557219878025
 40
50.58557219878025
 10
-5.710896044950041
 20
-3.249997441208031
 30
0.0
 10
-6.321746647374064
 20
-3.164386363034282
 30
0.0
 10
-6.616218822425516
 20
-3.079496099494829
 30
0.0
 10
-7.105459111094401
 20
-3.005419209170117
 30
0.0
 10
-7.689761528603995
 20
-2.898362462482904
 30
0.0
 10
-8.2740123704371
 20
-2.773448691720478
 30
0.0
 10
-8.858206455469499
 20
-2.631442809048336
 30
0.0
 10
-9.442339804274766
 20
-2.473216721971442
 30
0.0
 10
-10.02641532843472
 20
-2.299763599282344
 30
0.0
 10
-10.61043459222011
 20
-2.112144985983057
 30
0.0
 10
-11.19440489248382
 20
-1.911528855599751
 30
0.0
 10
-11.7783289028594
 20
-1.699148037236905
 30
0.0
 10
-12.36221203792117
 20
-1.476312304406235
 30
0.0
 10
-12.94606077301209
 20
-1.244396375625981
 30
0.0
 10
-13.5298802323004
 20
-1.004826424130656
 30
0.0
 10
-14.11367608182046
 20
-0.7590758983169664
 30
0.0
 10
-14.69745456843591
 20
-0.5086573634746762
 30
0.0
 10
-15.28122081243983
 20
-0.2551102898429934
 30
0.0
 10
-15.86498305751582
 20
0.0000018956744633
 30
0.0
 10
-16.44874268198777
 20
0.2551186733702464
 30
0.0
 10
-17.03251088264891
 20
0.5086617986033463
 30
0.0
 10
-17.61628864858201
 20
0.7590810914482861
 30
0.0
 10
-18.20008553900357
 20
1.004832553461942
 30
0.0
 10
-18.78390742025505
 20
1.244400460425233
 30
0.0
 10
-19.36775707681354
 20
1.476317565341927
 30
0.0
 10
-19.9516402961686
 20
1.699153117475796
 30
0.0
 10
-20.53556428529707
 20
1.911533980501529
 30
0.0
 10
-21.11953458705609
 20
2.112150111178298
 30
0.0
 10
-21.70355386571691
 20
2.29976867961514
 30
0.0
 10
-22.28762932959391
 20
2.473221979415836
 30
0.0
 10
-22.87176016800861
 20
2.63144666935841
 30
0.0
 10
-23.45595064047535
 20
2.773454411953315
 30
0.0
 10
-24.04020126558171
 20
2.898370694574527
 30
0.0
 10
-24.6245078552064
 20
3.005415213895161
 30
0.0
 10
-25.20886573340508
 20
3.093921150084915
 30
0.0
 10
-25.7932638564044
 20
3.163345662338142
 30
0.0
 10
-26.37769838297886
 20
3.213240129832072
 30
0.0
 10
-26.96215695627308
 20
3.243305234739687
 30
0.0
 10
-27.54662837268998
 20
3.253348991463538
 30
0.0
 10
-28.13109978824691
 20
3.243305234723993
 30
0.0
 10
-28.71555836412603
 20
3.213240129895351
 30
0.0
 10
-29.29999288118357
 20
3.163345662100213
 30
0.0
 10
-29.8843910398641
 20
3.093921150979779
 30
0.0
 10
-30.46874593506758
 20
3.005415642011954
 30
0.0
 10
-31.05305022274672
 20
2.898371789047194
 30
0.0
 10
-31.61073623985402
 20
2.779124820334866
 30
0.0
 10
-31.9725692788621
 20
2.691918384793625
 30
0.0
 10
-32.14043871980707
 20
2.649418434568262
 30
0.0
  0
SPLINE
  5
4F4F
330
1F
100
AcDbEntity
  8
AM_0
100
AcDbSpline
210
0.0
220
0.0
230
1.0
 70
     8
 71
     3
 72
    23
 73
    19
 74
     0
 42
0.0000000001
 43
0.0000000001
 40
16.03460024169435
 40
16.03460024169435
 40
16.03460024169435
 40
16.03460024169435
 40
16.35212704903564
 40
17.38177054169784
 40
18.41822485651776
 40
19.46214173629503
 40
20.51396345435107
 40
21.57393551351153
 40
22.64208202342361
 40
23.7182574881101
 40
24.80209208578934
 40
25.89306333925047
 40
26.99048218457928
 40
28.09348763352352
 40
29.20111863782268
 40
30.31232390128032
 40
31.42594612798585
 40
32.5407912310448
 40
32.5407912310486
 40
32.5407912310486
 40
32.5407912310486
 10
-34.57258537923076
 20
3.25046428027481
 30
0.0
 10
-34.51253939262628
 20
3.239492852598558
 30
0.0
 10
-34.25803811624006
 20
3.191715373044408
 30
0.0
 10
-33.80973137709479
 20
3.098102693620667
 30
0.0
 10
-33.22917297630301
 20
2.958901663055864
 30
0.0
 10
-32.64915382546148
 20
2.802602108194324
 30
0.0
 10
-32.06963965077601
 20
2.630108611138507
 30
0.0
 10
-31.49060988426162
 20
2.442382826996115
 30
0.0
 10
-30.91203105938546
 20
2.240497875515744
 30
0.0
 10
-30.3338628861173
 20
2.025628676475033
 30
0.0
 10
-29.75607251086495
 20
1.798992021620488
 30
0.0
 10
-29.17861361007894
 20
1.561906656839177
 30
0.0
 10
-28.60143938717282
 20
1.31575062470355
 30
0.0
 10
-28.02451138667438
 20
1.061939219203167
 30
0.0
 10
-27.44778133771844
 20
0.8019483189029552
 30
0.0
 10
-26.87119582288818
 20
0.5372960799164974
 30
0.0
 10
-26.29470789184648
 20
0.2695160903034213
 30
0.0
 10
-25.91048583412348
 20
0.0899842493263533
 30
0.0
 10
-25.71827002553668
 20
0.000167862340423
 30
0.0
  0
SPLINE
  5
4F50
330
1F
100
AcDbEntity
  8
AM_0
100
AcDbSpline
210
0.0
220
0.0
230
1.0
 70
     8
 71
     3
 72
    46
 73
    42
 74
     0
 42
0.0000000001
 43
0.0000000001
 40
0.0
 40
0.0
 40
0.0
 40
0.0
 40
0.5056245176053715
 40
0.759310862862336
 40
1.013969309739036
 40
1.269880374404297
 40
1.527291183660732
 40
1.786406454158005
 40
2.047386241038974
 40
2.310345544571907
 40
2.575337113970003
 40
2.842374715221223
 40
3.111417320030211
 40
3.382376832022752
 40
3.655120036292296
 40
3.929472521611371
 40
4.205224030350333
 40
4.482133246366229
 40
4.759933319229942
 40
5.038338087391601
 40
5.317048131389549
 40
5.595758175387723
 40
5.874162943549382
 40
6.151963016412868
 40
6.428872232428759
 40
6.704623741167953
 40
6.978976226486702
 40
7.251719430756334
 40
7.522680721168324
 40
7.791723325977308
 40
8.058760927228528
 40
8.323752496626548
 40
8.586708135057122
 40
8.84768792193809
 40
9.106803192435362
 40
9.364213819003406
 40
9.620125035580642
 40
9.874787266973068
 40
10.12847352585207
 40
10.38149610319407
 40
10.63418200686337
 40
10.63418200686337
 40
10.63418200686337
 40
10.63418200686337
 10
-23.35388014631512
 20
-3.249997441207182
 30
0.0
 10
-23.74363312172933
 20
-3.242593689979193
 30
0.0
 10
-24.32893636111041
 20
-3.231475264076966
 30
0.0
 10
-25.10723960255777
 20
-3.163021158360602
 30
0.0
 10
-25.69164383106501
 20
-3.094001210199188
 30
0.0
 10
-26.27599810692272
 20
-3.005391320894401
 30
0.0
 10
-26.86030089074163
 20
-2.898369768239621
 30
0.0
 10
-27.44454918084377
 20
-2.77344820643041
 30
0.0
 10
-28.02874199870101
 20
-2.631440420142219
 30
0.0
 10
-28.612876744449
 20
-2.473218358204512
 30
0.0
 10
-29.196954585633
 20
-2.299763372521058
 30
0.0
 10
-29.78097395126118
 20
-2.11214504743869
 30
0.0
 10
-30.36494422391712
 20
-1.911528838934228
 30
0.0
 10
-30.94886824181312
 20
-1.699148041816088
 30
0.0
 10
-31.53275137467509
 20
-1.476312302904647
 30
0.0
 10
-32.11660011098074
 20
-1.244396377017171
 30
0.0
 10
-32.70041956761005
 20
-1.004826420046012
 30
0.0
 10
-33.28421542659931
 20
-0.7590759133362487
 30
0.0
 10
-33.86799387784892
 20
-0.5086573072568505
 30
0.0
 10
-34.45176025421307
 20
-0.2551105002063509
 30
0.0
 10
-35.03552172333403
 20
0.0000025587417623
 30
0.0
 10
-35.6192831923267
 20
0.2551156179998903
 30
0.0
 10
-36.20304956907556
 20
0.5086624241208004
 30
0.0
 10
-36.78682801891911
 20
0.7590810335974336
 30
0.0
 10
-37.37062388312205
 20
1.004831527708099
 30
0.0
 10
-37.95444332041966
 20
1.244401531395426
 30
0.0
 10
-38.5382921283171
 20
1.476317284276501
 30
0.0
 10
-39.12217626569934
 20
1.699154147575612
 30
0.0
 10
-39.70610255244234
 20
1.911533015106554
 30
0.0
 10
-40.29007386681174
 20
2.112150252302227
 30
0.0
 10
-40.87409321884233
 20
2.299768633211031
 30
0.0
 10
-41.45816866070083
 20
2.473222024991399
 30
0.0
 10
-42.04229951447913
 20
2.631446534490373
 30
0.0
 10
-42.62648994770048
 20
2.773454900895913
 30
0.0
 10
-43.21073789967036
 20
2.898368289680722
 30
0.0
 10
-43.79504111186437
 20
3.005420882803073
 30
0.0
 10
-44.37939911711612
 20
3.093904236049717
 30
0.0
 10
-44.96380033433653
 20
3.163410071788354
 30
0.0
 10
-45.54823770817586
 20
3.212998825680257
 30
0.0
 10
-46.13269629665714
 20
3.244203127373273
 30
0.0
 10
-46.52243039350893
 20
3.2480702731667
 30
0.0
 10
-46.71716770987114
 20
3.250002558793945
 30
0.0
  0
SPLINE
  5
4F51
330
1F
100
AcDbEntity
  8
AM_0
100
AcDbSpline
210
0.0
220
0.0
230
1.0
 70
     8
 71
     3
 72
    42
 73
    38
 74
     0
 42
0.0000000001
 43
0.0000000001
 40
1.278384351700087
 40
1.278384351700087
 40
1.278384351700087
 40
1.278384351700087
 40
1.527291183660732
 40
1.786406454158005
 40
2.047386241038974
 40
2.310345544571907
 40
2.575337113970003
 40
2.842374715221223
 40
3.111417320030211
 40
3.382376832022752
 40
3.655120036292296
 40
3.929472521611371
 40
4.205224030350333
 40
4.482133246366229
 40
4.759933319229942
 40
5.038338087391601
 40
5.317048131389549
 40
5.595758175387723
 40
5.874162943549383
 40
6.151963016412869
 40
6.428872232428759
 40
6.704623741167955
 40
6.978976226486705
 40
7.251719430756336
 40
7.522680721168327
 40
7.791723325977311
 40
8.058760927228529
 40
8.32375249662655
 40
8.586708135057122
 40
8.84768792193809
 40
9.106803192435362
 40
9.364213819003406
 40
9.620125035580644
 40
9.87478726697307
 40
10.12847352585208
 40
10.38149610319407
 40
10.63418200686337
 40
10.63418200686337
 40
10.63418200686337
 40
10.63418200686337
 10
-3.947748750259865
 20
-3.249997441208115
 30
0.0
 10
-5.529855569144823
 20
-3.064361401823312
 30
0.0
 10
-5.915672710786596
 20
-2.992748322581697
 30
0.0
 10
-6.637921587083174
 20
-2.773448206431349
 30
0.0
 10
-7.22211440494042
 20
-2.631440420143157
 30
0.0
 10
-7.8062491506884
 20
-2.473218358205451
 30
0.0
 10
-8.390326991872392
 20
-2.299763372521998
 30
0.0
 10
-8.974346357500566
 20
-2.11214504743963
 30
0.0
 10
-9.558316630156523
 20
-1.91152883893517
 30
0.0
 10
-10.14224064805251
 20
-1.699148041817027
 30
0.0
 10
-10.72612378091447
 20
-1.476312302905587
 30
0.0
 10
-11.30997251722015
 20
-1.24439637701811
 30
0.0
 10
-11.89379197384947
 20
-1.004826420046951
 30
0.0
 10
-12.47758783283875
 20
-0.7590759133371875
 30
0.0
 10
-13.06136628408832
 20
-0.5086573072577895
 30
0.0
 10
-13.64513266045249
 20
-0.2551105002072902
 30
0.0
 10
-14.22889412957343
 20
0.0000025587408239
 30
0.0
 10
-14.81265559856611
 20
0.2551156179989503
 30
0.0
 10
-15.39642197531495
 20
0.5086624241198622
 30
0.0
 10
-15.98020042515849
 20
0.7590810335964937
 30
0.0
 10
-16.56399628936138
 20
1.004831527707161
 30
0.0
 10
-17.14781572665904
 20
1.244401531394485
 30
0.0
 10
-17.73166453455647
 20
1.476317284275561
 30
0.0
 10
-18.31554867193872
 20
1.699154147574675
 30
0.0
 10
-18.89947495868174
 20
1.911533015105614
 30
0.0
 10
-19.48344627305115
 20
2.112150252301288
 30
0.0
 10
-20.06746562508171
 20
2.299768633210092
 30
0.0
 10
-20.65154106694029
 20
2.473222024990458
 30
0.0
 10
-21.23567192071857
 20
2.631446534489434
 30
0.0
 10
-21.81986235393992
 20
2.773454900894974
 30
0.0
 10
-22.40411030590983
 20
2.898368289679782
 30
0.0
 10
-22.98841351810379
 20
3.005420882802137
 30
0.0
 10
-23.57277152335556
 20
3.093904236048778
 30
0.0
 10
-24.15717274057598
 20
3.163410071787417
 30
0.0
 10
-24.74161011441534
 20
3.212998825679315
 30
0.0
 10
-25.32606870289659
 20
3.244203127372333
 30
0.0
 10
-25.71580279974839
 20
3.248070273165764
 30
0.0
 10
-25.91054011611057
 20
3.250002558793008
 30
0.0
  0
SPLINE
  5
4F52
330
1F
100
AcDbEntity
  8
AM_0
 48
0.5
100
AcDbSpline
210
0.0
220
0.0
230
1.0
 70
     8
 71
     3
 72
    20
 73
    16
 74
     0
 42
0.0000000001
 43
0.0000000001
 40
12.04260318190555
 40
12.04260318190555
 40
12.04260318190555
 40
12.04260318190555
 40
13.08720139956839
 40
14.16337181880432
 40
15.23152222380919
 40
16.29148850140128
 40
17.34331105512262
 40
18.38723020264746
 40
19.42369128463655
 40
20.45333379090873
 40
21.47697865721768
 40
22.49561244472435
 40
23.5103574802404
 40
24.52244778960836
 40
25.53320666051913
 40
25.53320666051913
 40
25.53320666051913
 40
25.53320666051913
 10
-6.752965501595307
 20
1.491432159714324
 30
0.0
 10
-6.929640351187988
 20
1.577621012676005
 30
0.0
 10
-7.480767533212827
 20
1.754458926400607
 30
0.0
 10
-8.765950866710737
 20
2.112150116670374
 30
0.0
 10
-9.349970147815032
 20
2.299768669009897
 30
0.0
 10
-9.934045608380817
 20
2.473222015978953
 30
0.0
 10
-10.5181764575002
 20
2.631446535137035
 30
0.0
 10
-11.1023668908625
 20
2.773454907141248
 30
0.0
 10
-11.68661484683281
 20
2.898368264318035
 30
0.0
 10
-12.27091804304332
 20
3.005420977159236
 30
0.0
 10
-12.8552732281214
 20
3.093903450629092
 30
0.0
 10
-13.43967130973499
 20
3.163410724101863
 30
0.0
 10
-14.02410584722414
 20
3.212998716352811
 30
0.0
 10
-14.6085673534552
 20
3.244203317302923
 30
0.0
 10
-14.99830439519184
 20
3.248070326717285
 30
0.0
 10
-15.19304465368384
 20
3.250002558792486
 30
0.0
  0
LINE
  5
4F53
330
1F
100
AcDbEntity
  8
AM_0
100
AcDbLine
 10
-73.00000000000001
 20
3.250000190515569
 30
0.0
 11
-77.56698834270737
 21
3.25000002011394
 31
0.0
  0
LINE
  5
4F54
330
1F
100
AcDbEntity
  8
AM_11
100
AcDbLine
 10
-69.15996381304859
 20
3.250002558794014
 30
0.0
 11
-73.00000000000001
 21
3.250000190515569
 31
0.0
  0
SPLINE
  5
4F56
330
1F
100
AcDbEntity
  8
AM_0
100
AcDbSpline
210
0.0
220
0.0
230
1.0
 70
     8
 71
     3
 72
    53
 73
    49
 74
     0
 42
0.0000000001
 43
0.0000000001
 40
0.0
 40
0.0
 40
0.0
 40
0.0
 40
1.010743684496582
 40
2.022833576467832
 40
3.037578957496688
 40
4.056212745003489
 40
5.079857003664532
 40
6.109500240690281
 40
7.145961322679372
 40
8.189895241603872
 40
9.241717795325891
 40
10.30168407291828
 40
11.36983447792315
 40
12.44600489715814
 40
13.52984294512926
 40
14.62081576220742
 40
15.7182257034828
 40
16.82123173843959
 40
17.92886860250316
 40
19.0400688939571
 40
20.15368796660465
 40
21.26852814259644
 40
22.38336992938901
 40
23.49698739941135
 40
24.6081876908653
 40
25.71582455492886
 40
26.81883757994213
 40
27.91624752121713
 40
29.00722033829659
 40
30.09105838626677
 40
31.16722880550176
 40
32.23537921050758
 40
33.29534548809967
 40
34.347168041821
 40
35.39108718934584
 40
36.42754827133493
 40
37.45720575381954
 40
38.48085062012849
 40
39.49948440763516
 40
40.51422944315121
 40
41.52631975251916
 40
42.53706336719636
 40
43.54780698187354
 40
44.55989729124051
 40
45.57464232675757
 40
46.59327611426424
 40
47.6169209805722
 40
48.03779390694803
 40
48.03779390694803
 40
48.03779390694803
 40
48.03779390694803
 10
-45.79667624972087
 20
-3.249997441207038
 30
0.0
 10
-45.99141353144214
 20
-3.24806376994309
 30
0.0
 10
-46.38114746507744
 20
-3.244193851962353
 30
0.0
 10
-46.96560653392329
 20
-3.212997968509458
 30
0.0
 10
-47.55004065441517
 20
-3.163404663093315
 30
0.0
 10
-48.13443860417279
 20
-3.09389775937717
 30
0.0
 10
-48.71879455182457
 20
-3.005419209169112
 30
0.0
 10
-49.30309696933415
 20
-2.898362462481898
 30
0.0
 10
-49.88734781116726
 20
-2.773448691719472
 30
0.0
 10
-50.47154189619964
 20
-2.631442809047331
 30
0.0
 10
-51.05567524500491
 20
-2.473216721970437
 30
0.0
 10
-51.63975076916489
 20
-2.299763599281339
 30
0.0
 10
-52.22377003295028
 20
-2.112144985982052
 30
0.0
 10
-52.80774033321399
 20
-1.911528855598747
 30
0.0
 10
-53.39166434358958
 20
-1.6991480372359
 30
0.0
 10
-53.97554747865132
 20
-1.476312304405231
 30
0.0
 10
-54.55939621374223
 20
-1.244396375624976
 30
0.0
 10
-55.14321567303052
 20
-1.004826424129651
 30
0.0
 10
-55.72701152255057
 20
-0.7590758983159624
 30
0.0
 10
-56.31079000916604
 20
-0.5086573634736712
 30
0.0
 10
-56.89455625316998
 20
-0.2551102898419886
 30
0.0
 10
-57.47831849824597
 20
0.0000018956754682
 30
0.0
 10
-58.06207812271792
 20
0.2551186733712513
 30
0.0
 10
-58.64584632337908
 20
0.5086617986043514
 30
0.0
 10
-59.22962408931218
 20
0.7590810914492919
 30
0.0
 10
-59.81342097973376
 20
1.004832553462946
 30
0.0
 10
-60.39724286098523
 20
1.244400460426239
 30
0.0
 10
-60.98109251754372
 20
1.476317565342933
 30
0.0
 10
-61.56497573689879
 20
1.699153117476801
 30
0.0
 10
-62.14889972602727
 20
1.911533980502532
 30
0.0
 10
-62.73287002778626
 20
2.112150111179302
 30
0.0
 10
-63.31688930644705
 20
2.299768679616149
 30
0.0
 10
-63.900964770324
 20
2.473221979416843
 30
0.0
 10
-64.48509560873872
 20
2.631446669359415
 30
0.0
 10
-65.06928608120547
 20
2.773454411954321
 30
0.0
 10
-65.65353670631182
 20
2.898370694575533
 30
0.0
 10
-66.23784329593651
 20
3.005415213896169
 30
0.0
 10
-66.82220117413521
 20
3.09392115008592
 30
0.0
 10
-67.40659929713451
 20
3.163345662339148
 30
0.0
 10
-67.991033823709
 20
3.213240129833079
 30
0.0
 10
-68.5754923970032
 20
3.243305234740689
 30
0.0
 10
-69.15996381342009
 20
3.253348991464543
 30
0.0
 10
-69.74443522897705
 20
3.243305234724997
 30
0.0
 10
-70.32889380485615
 20
3.21324012989636
 30
0.0
 10
-70.91332832191371
 20
3.163345662101218
 30
0.0
 10
-71.49772648059424
 20
3.093921150980786
 30
0.0
 10
-71.96627844156686
 20
3.022954979354353
 30
0.0
 10
-72.23992919321047
 20
2.975408340672471
 30
0.0
 10
-72.53473255064193
 20
2.91450435320952
 30
0.0
  0
SPLINE
  5
4F57
330
1F
100
AcDbEntity
  8
AM_0
100
AcDbSpline
210
0.0
220
0.0
230
1.0
 70
     8
 71
     3
 72
    46
 73
    42
 74
     0
 42
0.0000000001
 43
0.0000000001
 40
0.0
 40
0.0
 40
0.0
 40
0.0
 40
0.5056245176053715
 40
0.759310862862336
 40
1.013969309739036
 40
1.269880374404297
 40
1.527291183660732
 40
1.786406454158005
 40
2.047386241038974
 40
2.310345544571907
 40
2.575337113970003
 40
2.842374715221223
 40
3.111417320030211
 40
3.382376832022752
 40
3.655120036292296
 40
3.929472521611371
 40
4.205224030350333
 40
4.482133246366229
 40
4.759933319229942
 40
5.038338087391601
 40
5.317048131389549
 40
5.595758175387723
 40
5.874162943549382
 40
6.151963016412868
 40
6.428872232428759
 40
6.704623741167953
 40
6.978976226486702
 40
7.251719430756334
 40
7.522680721168324
 40
7.791723325977308
 40
8.058760927228528
 40
8.323752496626548
 40
8.586708135057122
 40
8.84768792193809
 40
9.106803192435362
 40
9.364213819003406
 40
9.620125035580642
 40
9.874787266973068
 40
10.12847352585207
 40
10.38149610319407
 40
10.63418200686337
 40
10.63418200686337
 40
10.63418200686337
 40
10.63418200686337
 10
-44.16058799328467
 20
-3.249997441207116
 30
0.0
 10
-44.55034096869889
 20
-3.242593689979127
 30
0.0
 10
-45.13564420807997
 20
-3.2314752640769
 30
0.0
 10
-45.91394744952732
 20
-3.163021158360537
 30
0.0
 10
-46.49835167803457
 20
-3.094001210199123
 30
0.0
 10
-47.08270595389229
 20
-3.005391320894336
 30
0.0
 10
-47.66700873771119
 20
-2.898369768239555
 30
0.0
 10
-48.25125702781332
 20
-2.773448206430344
 30
0.0
 10
-48.83544984567059
 20
-2.631440420142153
 30
0.0
 10
-49.41958459141854
 20
-2.473218358204447
 30
0.0
 10
-50.00366243260256
 20
-2.299763372520991
 30
0.0
 10
-50.58768179823074
 20
-2.112145047438624
 30
0.0
 10
-51.17165207088667
 20
-1.911528838934163
 30
0.0
 10
-51.75557608878266
 20
-1.699148041816023
 30
0.0
 10
-52.33945922164462
 20
-1.476312302904581
 30
0.0
 10
-52.9233079579503
 20
-1.244396377017105
 30
0.0
 10
-53.50712741457961
 20
-1.004826420045946
 30
0.0
 10
-54.09092327356887
 20
-0.7590759133361828
 30
0.0
 10
-54.67470172481846
 20
-0.5086573072567845
 30
0.0
 10
-55.25846810118263
 20
-0.2551105002062852
 30
0.0
 10
-55.84222957030359
 20
0.0000025587418281
 30
0.0
 10
-56.42599103929625
 20
0.2551156179999563
 30
0.0
 10
-57.00975741604512
 20
0.5086624241208662
 30
0.0
 10
-57.59353586588867
 20
0.7590810335974995
 30
0.0
 10
-58.17733173009159
 20
1.004831527708165
 30
0.0
 10
-58.76115116738922
 20
1.244401531395492
 30
0.0
 10
-59.34499997528666
 20
1.476317284276567
 30
0.0
 10
-59.92888411266889
 20
1.699154147575678
 30
0.0
 10
-60.51281039941192
 20
1.91153301510662
 30
0.0
 10
-61.09678171378129
 20
2.112150252302294
 30
0.0
 10
-61.68080106581188
 20
2.299768633211096
 30
0.0
 10
-62.26487650767039
 20
2.473222024991464
 30
0.0
 10
-62.84900736144868
 20
2.631446534490438
 30
0.0
 10
-63.43319779467003
 20
2.773454900895978
 30
0.0
 10
-64.01744574663992
 20
2.898368289680788
 30
0.0
 10
-64.60174895883394
 20
3.005420882803138
 30
0.0
 10
-65.18610696408568
 20
3.093904236049783
 30
0.0
 10
-65.77050818130611
 20
3.16341007178842
 30
0.0
 10
-66.35494555514542
 20
3.212998825680323
 30
0.0
 10
-66.93940414362671
 20
3.24420312737334
 30
0.0
 10
-67.3291382404785
 20
3.248070273166766
 30
0.0
 10
-67.5238755568407
 20
3.250002558794012
 30
0.0
  0
LINE
  5
4F58
330
1F
100
AcDbEntity
  8
AM_0
100
AcDbLine
 10
-55.91776020289792
 20
3.250002558794149
 30
0.0
 11
-69.15996381304859
 21
3.250002558794014
 31
0.0
  0
LINE
  5
503D
330
1F
100
AcDbEntity
  8
AM_0
100
AcDbLine
 10
-73.00000000000001
 20
3.250000174563408
 30
0.0
 11
-72.80429610118672
 21
3.153176165361678
 31
0.0
  0
SPLINE
  5
503E
330
1F
100
AcDbEntity
  8
AM_0
100
AcDbSpline
210
0.0
220
0.0
230
1.0
 70
     8
 71
     3
 72
    20
 73
    16
 74
     0
 42
0.0000000001
 43
0.0000000001
 40
19.06958205160103
 40
19.06958205160103
 40
19.06958205160103
 40
19.06958205160103
 40
19.46214173629503
 40
20.51396345435107
 40
21.57393551351153
 40
22.64208202342361
 40
23.7182574881101
 40
24.80209208578934
 40
25.89306333925047
 40
26.99048218457928
 40
28.09348763352352
 40
29.20111863782268
 40
30.31232390128032
 40
31.42594612798585
 40
32.5407912310448
 40
32.5407912310486
 40
32.5407912310486
 40
32.5407912310486
 10
-72.80429610118672
 20
3.153176165361678
 30
0.0
 10
-72.54219558498835
 20
2.930008080635095
 30
0.0
 10
-72.41709455425066
 20
2.766830575990601
 30
0.0
 10
-71.93281143720807
 20
2.629940748797051
 30
0.0
 10
-71.32308123470224
 20
2.442214964654689
 30
0.0
 10
-70.71382588297666
 20
2.240330013174341
 30
0.0
 10
-70.10500295580428
 20
2.02546081413366
 30
0.0
 10
-69.49657785767977
 20
1.79882415927914
 30
0.0
 10
-68.88850180895679
 20
1.561738794497857
 30
0.0
 10
-68.2807255318715
 20
1.315582762362258
 30
0.0
 10
-67.673208532024
 20
1.061771356861901
 30
0.0
 10
-67.06589997920477
 20
0.8017804565617129
 30
0.0
 10
-66.45874362377992
 20
0.5371282175752843
 30
0.0
 10
-65.85169002608292
 20
0.2693482279622377
 30
0.0
 10
-65.44709633054131
 20
0.0898163869851854
 30
0.0
 10
-65.24468914757392
 20
-0.0000000000007342
 30
0.0
  0
ELLIPSE
  5
5064
330
1F
100
AcDbEntity
  8
AM_11
 48
0.5
100
AcDbEllipse
 10
1.799739850621785
 20
14.35514506069502
 30
0.0
 11
-16.32528419494653
 21
0.0000000000066024
 31
0.0
210
0.0
220
0.0
230
1.0
 40
0.9722222222221985
 41
1.130070686340713
 42
1.291800737381399
  0
ELLIPSE
  5
5065
330
1F
100
AcDbEntity
  8
AM_11
 48
0.5
100
AcDbEllipse
 10
-12.12883157794966
 20
-14.35513472191797
 30
0.0
 11
16.32528419494606
 21
0.0000000000000731
 31
0.0
210
0.0
220
0.0
230
1.0
 40
0.9722222222222224
 41
1.130071552591889
 42
2.011521013575197
  0
ELLIPSE
  5
5066
330
1F
100
AcDbEntity
  8
AM_11
 48
0.5
100
AcDbEllipse
 10
-12.12883157794966
 20
14.35514506069502
 30
0.0
 11
-16.32528419494607
 21
0.0000000000000086
 31
0.0
210
0.0
220
0.0
230
1.0
 40
0.9722222222222221
 41
1.130070686340307
 42
2.011520147323599
  0
ELLIPSE
  5
5067
330
1F
100
AcDbEntity
  8
AM_11
 48
0.5
100
AcDbEllipse
 10
-26.05740300652107
 20
-14.35513472191797
 30
0.0
 11
-16.32528419494607
 21
-0.0000000000000059
 31
0.0
210
0.0
220
0.0
230
1.0
 40
0.9722222222222221
 41
4.271664206181687
 42
5.153113667164993
  0
ELLIPSE
  5
5068
330
1F
100
AcDbEntity
  8
AM_11
 48
0.5
100
AcDbEllipse
 10
-26.05740300652107
 20
14.35514506069502
 30
0.0
 11
16.32528419494606
 21
0.0000000000001565
 31
0.0
210
0.0
220
0.0
230
1.0
 40
0.9722222222222223
 41
4.271663339930089
 42
5.153112800913382
  0
ELLIPSE
  5
5069
330
1F
100
AcDbEntity
  8
AM_11
 48
0.5
100
AcDbEllipse
 10
-39.9859744350886
 20
-14.35513472191797
 30
0.0
 11
-16.32528419494606
 21
-0.000000000000024
 31
0.0
210
0.0
220
0.0
230
1.0
 40
0.9722222222222224
 41
4.271664206181685
 42
5.153113667164992
  0
ELLIPSE
  5
506A
330
1F
100
AcDbEntity
  8
AM_11
 48
0.5
100
AcDbEllipse
 10
-39.9859744350886
 20
14.35514506069502
 30
0.0
 11
-16.32528419494606
 21
-0.0000000000000313
 31
0.0
210
0.0
220
0.0
230
1.0
 40
0.9722222222222223
 41
1.130070686340304
 42
2.011520147323597
  0
ELLIPSE
  5
506F
330
1F
100
AcDbEntity
  8
AM_11
 48
0.5
100
AcDbEllipse
 10
-67.8431463885627
 20
-14.35512137937865
 30
0.0
 11
-16.32528419494606
 21
-0.000000000000024
 31
0.0
210
0.0
220
0.0
230
1.0
 40
0.9722222222222224
 41
4.271664206181685
 42
5.153113667164992
  0
ELLIPSE
  5
5070
330
1F
100
AcDbEntity
  8
AM_11
 48
0.5
100
AcDbEllipse
 10
-67.8431463885627
 20
14.35515840323434
 30
0.0
 11
-16.32528419494606
 21
-0.0000000000000313
 31
0.0
210
0.0
220
0.0
230
1.0
 40
0.9722222222222223
 41
1.130070686340304
 42
2.011520147323597
  0
ELLIPSE
  5
5071
330
1F
100
AcDbEntity
  8
AM_11
 48
0.5
100
AcDbEllipse
 10
-53.91457495999518
 20
-14.35512137937865
 30
0.0
 11
-16.32528419494607
 21
-0.0000000000000059
 31
0.0
210
0.0
220
0.0
230
1.0
 40
0.9722222222222221
 41
4.271664206181687
 42
5.153113667164993
  0
ELLIPSE
  5
5072
330
1F
100
AcDbEntity
  8
AM_11
 48
0.5
100
AcDbEllipse
 10
-53.91457495999518
 20
14.35515840323434
 30
0.0
 11
16.32528419494606
 21
0.0000000000001565
 31
0.0
210
0.0
220
0.0
230
1.0
 40
0.9722222222222223
 41
4.271663339930089
 42
5.153112800913382
  0
ELLIPSE
  5
5073
330
1F
100
AcDbEntity
  8
AM_11
 48
0.5
100
AcDbEllipse
 10
-95.70025749017352
 20
-14.35509469429995
 30
0.0
 11
-16.32528419494606
 21
-0.000000000000024
 31
0.0
210
0.0
220
0.0
230
1.0
 40
0.9722222222222224
 41
4.271664206181685
 42
5.153113667164992
  0
ELLIPSE
  5
5074
330
1F
100
AcDbEntity
  8
AM_11
 48
0.5
100
AcDbEllipse
 10
-95.70025749017352
 20
14.35518508831304
 30
0.0
 11
-16.32528419494606
 21
-0.0000000000000313
 31
0.0
210
0.0
220
0.0
230
1.0
 40
0.9722222222222223
 41
1.130070686340304
 42
2.011520147323597
  0
ELLIPSE
  5
5075
330
1F
100
AcDbEntity
  8
AM_11
 48
0.5
100
AcDbEllipse
 10
-81.771686061606
 20
14.35518508831304
 30
0.0
 11
16.32528419494606
 21
0.0000000000001565
 31
0.0
210
0.0
220
0.0
230
1.0
 40
0.9722222222222223
 41
4.271663339930089
 42
5.153112800913382
  0
ELLIPSE
  5
5076
330
1F
100
AcDbEntity
  8
AM_11
 48
0.5
100
AcDbEllipse
 10
-81.771686061606
 20
-14.35509469429995
 30
0.0
 11
-16.32528419494607
 21
-0.0000000000000059
 31
0.0
210
0.0
220
0.0
230
1.0
 40
0.9722222222222221
 41
4.271664206181687
 42
5.153113667164993
  0
ELLIPSE
  5
5077
330
1F
100
AcDbEntity
  8
AM_11
 48
0.5
100
AcDbEllipse
 10
-123.5572522055515
 20
-14.35512137937876
 30
0.0
 11
-16.32528419494606
 21
-0.000000000000024
 31
0.0
210
0.0
220
0.0
230
1.0
 40
0.9722222222222224
 41
4.271664206181685
 42
5.153113667164992
  0
ELLIPSE
  5
5078
330
1F
100
AcDbEntity
  8
AM_11
 48
0.5
100
AcDbEllipse
 10
-123.5572522055515
 20
14.35515840323424
 30
0.0
 11
-16.32528419494606
 21
-0.0000000000000313
 31
0.0
210
0.0
220
0.0
230
1.0
 40
0.9722222222222223
 41
1.130070686340304
 42
2.011520147323597
  0
ELLIPSE
  5
5079
330
1F
100
AcDbEntity
  8
AM_11
 48
0.5
100
AcDbEllipse
 10
-109.628680776984
 20
14.35515840323424
 30
0.0
 11
16.32528419494606
 21
0.0000000000001565
 31
0.0
210
0.0
220
0.0
230
1.0
 40
0.9722222222222223
 41
4.271663339930089
 42
5.153112800913382
  0
ELLIPSE
  5
507A
330
1F
100
AcDbEntity
  8
AM_11
 48
0.5
100
AcDbEllipse
 10
-109.628680776984
 20
-14.35512137937875
 30
0.0
 11
-16.32528419494607
 21
-0.0000000000000059
 31
0.0
210
0.0
220
0.0
230
1.0
 40
0.9722222222222221
 41
4.271664206181687
 42
5.153113667164993
  0
ELLIPSE
  5
507D
330
1F
100
AcDbEntity
  8
AM_11
 48
0.5
100
AcDbEllipse
 10
-137.4857918785948
 20
14.35515840323411
 30
0.0
 11
16.32528419494606
 21
0.0000000000001565
 31
0.0
210
0.0
220
0.0
230
1.0
 40
0.9722222222222223
 41
5.12094551664477
 42
5.153112800913382
  0
ELLIPSE
  5
507E
330
1F
100
AcDbEntity
  8
AM_11
 48
0.5
100
AcDbEllipse
 10
-137.4857918785948
 20
-14.35512137937888
 30
0.0
 11
-16.32528419494607
 21
-0.0000000000000059
 31
0.0
210
0.0
220
0.0
230
1.0
 40
0.9722222222222221
 41
4.271664206181687
 42
4.303832444124589
  0
VIEWPORT
  5
110
330
101
100
AcDbEntity
 67
     1
  8
0
100
AcDbViewport
 10
420.5
 20
297.0
 30
0.0
 40
948.9782706766916
 41
628.452
 68
     1
 69
     1
1001
ACAD
1000
MVIEW
1002
{
1070
    16
1010
0.0
1020
0.0
1030
0.0
1010
0.0
1020
0.0
1030
1.0
1040
0.0
1040
628.452
1040
420.5
1040
297.0
1040
50.0
1040
0.0
1040
0.0
1070
     0
1070
   100
1070
     1
1070
     1
1070
     0
1070
     0
1070
     0
1070
     0
1040
0.0
1040
0.0
1040
0.0
1040
10.0
1040
10.0
1040
10.0
1040
10.0
1070
     0
1002
{
1002
}
1002
}
  0
ENDSEC
  0
SECTION
  2
OBJECTS
  0
DICTIONARY
  5
C
330
0
100
AcDbDictionary
  3
ACAD_GROUP
350
D
  3
ACAD_LAYOUT
350
1A
  3
ACAD_MLINESTYLE
350
17
  3
ACAD_PLOTSETTINGS
350
19
  3
ACAD_PLOTSTYLENAME
350
E
  3
ACDBVARIABLEDICTIONARY
350
34
  3
ACMDICTIONARY
350
43
  3
AMG
350
2B
  3
AMGSNAPSETTINGS
350
6E
  3
DWGPROPS
350
5119
  3
ACDBHEADERROUNDTRIPXREC
350
5125
  0
DICTIONARY
  5
74
330
1F
100
AcDbDictionary
280
     1
  3
ACAD_INDEX
360
511B
  3
ACAD_LAYOUTSELFREF
360
5148
  0
DICTIONARY
  5
514D
330
101
100
AcDbDictionary
280
     1
  3
ACAD_LAYOUTSELFREF
360
514E
  0
DICTIONARY
  5
D
102
{ACAD_REACTORS
330
C
102
}
330
C
100
AcDbDictionary
  0
DICTIONARY
  5
1A
102
{ACAD_REACTORS
330
C
102
}
330
C
100
AcDbDictionary
  0
DICTIONARY
  5
17
102
{ACAD_REACTORS
330
C
102
}
330
C
100
AcDbDictionary
  3
STANDARD
350
18
  0
DICTIONARY
  5
19
102
{ACAD_REACTORS
330
C
102
}
330
C
100
AcDbDictionary
  0
ACDBDICTIONARYWDFLT
  5
E
102
{ACAD_REACTORS
330
C
102
}
330
C
100
AcDbDictionary
281
     1
  3
Normal
350
F
100
AcDbDictionaryWithDefault
340
F
  0
DICTIONARY
  5
34
102
{ACAD_REACTORS
330
C
102
}
330
C
100
AcDbDictionary
  3
INDEXCTL
350
35
  3
SORTENTS
350
B5E
  0
DICTIONARY
  5
43
102
{ACAD_REACTORS
330
C
102
}
330
C
100
AcDbDictionary
  3
ACMSTDDICTIONARY
350
260
  0
DICTIONARY
  5
2B
102
{ACAD_REACTORS
330
C
102
}
330
C
100
AcDbDictionary
  3
ACMGSETTINGS
350
2C
  0
DICTIONARY
  5
6E
102
{ACAD_REACTORS
330
C
102
}
330
C
100
AcDbDictionary
  0
XRECORD
  5
5119
102
{ACAD_REACTORS
330
C
102
}
330
C
100
AcDbXrecord
  1
DWGPROPS COOKIE
  2

  3

  4

  6

  7

  8

  9

300
AmdtFileType=82
301
=
302
=
303
=
304
=
305
=
306
=
307
=
308
=
309
=
 40
0.1412760300925926
 41
2452800.443498622
 42
2452946.583634792
  1

 90
        1
  0
DICTIONARY
  5
5125
102
{ACAD_REACTORS
330
C
102
}
330
C
100
AcDbDictionary
  3
TSTACKALIGN
350
5126
  3
TSTACKSIZE
350
5127
  3
HYPERLINKBASE
350
5128
  3
STYLESHEET
350
5129
  3
LAYOUTDICT
350
512A
  3
PLOTSETDICT
350
512B
  3
PLOTSTYLNAMDICT
350
512C
  3
LWETCUNION
350
512D
  3
INSUNITS
350
512E
  3
CEPSNTYPE
350
512F
  3
FINGERPRINTGUID
350
5130
  3
VERSIONGUID
350
5131
  3
PSVPSCALE
350
5132
  3
DIMSTYLEDATA
350
5133
  3
PUCSORTHOREF
350
5134
  3
PUCSORTHOVIEW
350
5135
  3
PUCSBASE
350
5136
  3
PUCSORGTOP
350
5137
  3
PUCSORGBOTTOM
350
5138
  3
PUCSORGLEFT
350
5139
  3
PUCSORGRIGHT
350
513A
  3
PUCSORGFRONT
350
513B
  3
PUCSORGBACK
350
513C
  3
UCSORTHOREF
350
513D
  3
UCSORTHOVIEW
350
513E
  3
UCSBASE
350
513F
  3
UCSORGTOP
350
5140
  3
UCSORGBOTTOM
350
5141
  3
UCSORGLEFT
350
5142
  3
UCSORGRIGHT
350
5143
  3
UCSORGFRONT
350
5144
  3
UCSORGBACK
350
5145
  0
DICTIONARY
  5
511B
102
{ACAD_REACTORS
330
74
102
}
330
74
100
AcDbDictionary
  3
*A1
350
511C
  0
XRECORD
  5
5148
102
{ACAD_REACTORS
330
74
102
}
330
74
100
AcDbXrecord
340
1F
  0
XRECORD
  5
514E
102
{ACAD_REACTORS
330
514D
102
}
330
514D
100
AcDbXrecord
340
101
  0
MLINESTYLE
  5
18
102
{ACAD_REACTORS
330
17
102
}
330
17
100
AcDbMlineStyle
  2
STANDARD
 70
     0
  3

 62
   256
 51
90.0
 52
90.0
 71
     2
 49
0.5
 62
   256
  6
BYLAYER
 49
-0.5
 62
   256
  6
BYLAYER
  0
ACDBPLACEHOLDER
  5
F
102
{ACAD_REACTORS
330
E
102
}
330
E
100
AcDbPlaceHolder
280
     0
  0
DICTIONARYVAR
  5
35
102
{ACAD_REACTORS
330
34
102
}
330
34
100
DictionaryVariables
280
     0
  1
1
  0
DICTIONARYVAR
  5
B5E
102
{ACAD_REACTORS
330
34
102
}
330
34
100
DictionaryVariables
280
     0
  1
96
  0
DICTIONARY
  5
260
102
{ACAD_REACTORS
330
43
102
}
330
43
100
AcDbDictionary
  0
DICTIONARY
  5
2C
102
{ACAD_REACTORS
330
2B
102
}
330
2B
100
AcDbDictionary
  3
DWGSETTINGS
350
2D
  0
XRECORD
  5
5126
102
{ACAD_REACTORS
330
5125
102
}
330
5125
100
AcDbXrecord
 90
        1
  0
XRECORD
  5
5127
102
{ACAD_REACTORS
330
5125
102
}
330
5125
100
AcDbXrecord
 90
       70
  0
XRECORD
  5
5128
102
{ACAD_REACTORS
330
5125
102
}
330
5125
100
AcDbXrecord
  1

  0
XRECORD
  5
5129
102
{ACAD_REACTORS
330
5125
102
}
330
5125
100
AcDbXrecord
  1
ASAMI.ctb
  0
XRECORD
  5
512A
102
{ACAD_REACTORS
330
5125
102
}
330
5125
100
AcDbXrecord
340
1A
  0
XRECORD
  5
512B
102
{ACAD_REACTORS
330
5125
102
}
330
5125
100
AcDbXrecord
340
19
  0
XRECORD
  5
512C
102
{ACAD_REACTORS
330
5125
102
}
330
5125
100
AcDbXrecord
340
E
  0
XRECORD
  5
512D
102
{ACAD_REACTORS
330
5125
102
}
330
5125
100
AcDbXrecord
 90
    10781
  0
XRECORD
  5
512E
102
{ACAD_REACTORS
330
5125
102
}
330
5125
100
AcDbXrecord
 90
        4
  0
XRECORD
  5
512F
102
{ACAD_REACTORS
330
5125
102
}
330
5125
100
AcDbXrecord
 90
        0
  0
XRECORD
  5
5130
102
{ACAD_REACTORS
330
5125
102
}
330
5125
100
AcDbXrecord
  1
{AFB28963-8C59-40AE-9337-C84526B81ACE}
  0
XRECORD
  5
5131
102
{ACAD_REACTORS
330
5125
102
}
330
5125
100
AcDbXrecord
  1
{6D8B8637-B9B4-48E0-832B-A95E651C2BAF}
  0
XRECORD
  5
5132
102
{ACAD_REACTORS
330
5125
102
}
330
5125
100
AcDbXrecord
 40
0.0
  0
XRECORD
  5
5133
102
{ACAD_REACTORS
330
5125
102
}
330
5125
100
AcDbXrecord
1000
DSTYLE
1002
{
1070
    79
 70
     2
1070
   341
340
59
1070
   342
340
59
1070
   371
 70
    -1
1070
   372
 70
    -1
1002
}
  0
XRECORD
  5
5134
102
{ACAD_REACTORS
330
5125
102
}
330
5125
100
AcDbXrecord
340
0
  0
XRECORD
  5
5135
102
{ACAD_REACTORS
330
5125
102
}
330
5125
100
AcDbXrecord
 70
     0
  0
XRECORD
  5
5136
102
{ACAD_REACTORS
330
5125
102
}
330
5125
100
AcDbXrecord
340
0
  0
XRECORD
  5
5137
102
{ACAD_REACTORS
330
5125
102
}
330
5125
100
AcDbXrecord
 10
0.0
 20
0.0
 30
0.0
  0
XRECORD
  5
5138
102
{ACAD_REACTORS
330
5125
102
}
330
5125
100
AcDbXrecord
 10
0.0
 20
0.0
 30
0.0
  0
XRECORD
  5
5139
102
{ACAD_REACTORS
330
5125
102
}
330
5125
100
AcDbXrecord
 10
0.0
 20
0.0
 30
0.0
  0
XRECORD
  5
513A
102
{ACAD_REACTORS
330
5125
102
}
330
5125
100
AcDbXrecord
 10
0.0
 20
0.0
 30
0.0
  0
XRECORD
  5
513B
102
{ACAD_REACTORS
330
5125
102
}
330
5125
100
AcDbXrecord
 10
0.0
 20
0.0
 30
0.0
  0
XRECORD
  5
513C
102
{ACAD_REACTORS
330
5125
102
}
330
5125
100
AcDbXrecord
 10
0.0
 20
0.0
 30
0.0
  0
XRECORD
  5
513D
102
{ACAD_REACTORS
330
5125
102
}
330
5125
100
AcDbXrecord
340
0
  0
XRECORD
  5
513E
102
{ACAD_REACTORS
330
5125
102
}
330
5125
100
AcDbXrecord
 70
     0
  0
XRECORD
  5
513F
102
{ACAD_REACTORS
330
5125
102
}
330
5125
100
AcDbXrecord
340
0
  0
XRECORD
  5
5140
102
{ACAD_REACTORS
330
5125
102
}
330
5125
100
AcDbXrecord
 10
0.0
 20
0.0
 30
0.0
  0
XRECORD
  5
5141
102
{ACAD_REACTORS
330
5125
102
}
330
5125
100
AcDbXrecord
 10
0.0
 20
0.0
 30
0.0
  0
XRECORD
  5
5142
102
{ACAD_REACTORS
330
5125
102
}
330
5125
100
AcDbXrecord
 10
0.0
 20
0.0
 30
0.0
  0
XRECORD
  5
5143
102
{ACAD_REACTORS
330
5125
102
}
330
5125
100
AcDbXrecord
 10
0.0
 20
0.0
 30
0.0
  0
XRECORD
  5
5144
102
{ACAD_REACTORS
330
5125
102
}
330
5125
100
AcDbXrecord
 10
0.0
 20
0.0
 30
0.0
  0
XRECORD
  5
5145
102
{ACAD_REACTORS
330
5125
102
}
330
5125
100
AcDbXrecord
 10
0.0
 20
0.0
 30
0.0
  0
LAYER_INDEX
  5
511C
102
{ACAD_REACTORS
330
511B
102
}
330
511B
100
AcDbIndex
 40
2453151.722529641
100
AcDbLayerIndex
  8
0
360
511D
 90
        0
  8
AM_0
360
511E
 90
       71
  8
AM_7
360
511F
 90
        1
  8
AM_11
360
5120
 90
       29
  8
AM_5
360
5121
 90
        5
  8
Defpoints
360
5122
 90
        0
  8
AM_6
360
5123
 90
        1
  0
XRECORD
  5
2D
102
{ACAD_REACTORS
330
2C
102
}
330
2C
100
AcDbXrecord
  1
VERSION
140
15.0
  1
PRODUCT
  2
AutoCAD Mechanical 2000
  0
IDBUFFER
  5
511D
330
0
100
AcDbIdBuffer
  0
IDBUFFER
  5
511E
330
0
100
AcDbIdBuffer
330
4F3F
330
4F40
330
4F41
330
4F42
330
4F43
330
4F44
330
4F45
330
4F46
330
4F48
330
4F4B
330
4F4C
330
4F4D
330
4F4E
330
4F4F
330
4F50
330
4F51
330
4F52
330
4F53
330
4F56
330
4F57
330
4F58
330
503D
330
503E
330
C1D
330
4347
330
44BC
330
44BD
330
44BE
330
4522
330
4525
330
4526
330
4536
330
4544
330
4547
330
4658
330
46F0
330
46F1
330
46F2
330
4BB1
330
4BB2
330
4D8F
330
4D90
330
4E4E
330
4F1F
330
4F20
330
4F21
330
4F22
330
4F23
330
4F24
330
4F25
330
4F26
330
4F27
330
4F28
330
4F29
330
4F2A
330
4F2B
330
4F2C
330
4F2E
330
4F31
330
4F32
330
4F33
330
4F34
330
4F35
330
4F36
330
4F37
330
4F38
330
4F3A
330
4F3B
330
4F3C
330
4F3D
330
4F3E
  0
IDBUFFER
  5
511F
330
0
100
AcDbIdBuffer
330
C9F
  0
IDBUFFER
  5
5120
330
0
100
AcDbIdBuffer
330
5070
330
5071
330
5072
330
5073
330
5074
330
5075
330
5076
330
5077
330
5078
330
5079
330
507A
330
507D
330
507E
330
4F2D
330
4F2F
330
4F30
330
4F39
330
4F47
330
4F49
330
4F4A
330
4F54
330
5064
330
5065
330
5066
330
5067
330
5068
330
5069
330
506A
330
506F
  0
IDBUFFER
  5
5121
330
0
100
AcDbIdBuffer
330
CC6
330
DF5
330
46D1
330
48D2
330
4A9C
  0
IDBUFFER
  5
5122
330
0
100
AcDbIdBuffer
  0
IDBUFFER
  5
5123
330
0
100
AcDbIdBuffer
330
19BD
  0
ENDSEC
  0
EOF
