  0
SECTION
  2
HEADER
  9
$ACADVER
  1
AC1014
  9
$ACADMAINTVER
 70
     9
  9
$DWGCODEPAGE
  3
ANSI_932
  9
$INSBASE
 10
0.0
 20
0.0
 30
0.0
  9
$EXTMIN
 10
-100.400001
 20
-26.75001206798985
 30
-0.00000001
  9
$EXTMAX
 10
14.56429417212127
 20
14.155829656515
 30
0.00000001
  9
$LIMMIN
 10
-126.9722917054209
 20
-47.01556391205523
  9
$LIMMAX
 10
22.8581825236518
 20
32.61046322322207
  9
$ORTHOMODE
 70
     0
  9
$REGENMODE
 70
     1
  9
$FILLMODE
 70
     1
  9
$QTEXTMODE
 70
     0
  9
$MIRRTEXT
 70
     0
  9
$DRAGMODE
 70
     2
  9
$LTSCALE
 40
1.0
  9
$OSMODE
 70
    55
  9
$ATTMODE
 70
     1
  9
$TEXTSIZE
 40
2.5
  9
$TRACEWID
 40
1.0
  9
$TEXTSTYLE
  7
STANDARD
  9
$CLAYER
  8
AM_0
  9
$CELTYPE
  6
BYLAYER
  9
$CECOLOR
 62
   256
  9
$CELTSCALE
 40
1.0
  9
$DELOBJ
 70
     1
  9
$DISPSILH
 70
     0
  9
$DIMSCALE
 40
0.5
  9
$DIMASZ
 40
2.5
  9
$DIMEXO
 40
1.0
  9
$DIMDLI
 40
12.0
  9
$DIMRND
 40
0.0
  9
$DIMDLE
 40
0.0
  9
$DIMEXE
 40
1.0
  9
$DIMTP
 40
0.1
  9
$DIMTM
 40
0.1
  9
$DIMTXT
 40
3.2
  9
$DIMCEN
 40
0.0
  9
$DIMTSZ
 40
0.0
  9
$DIMTOL
 70
     0
  9
$DIMLIM
 70
     0
  9
$DIMTIH
 70
     0
  9
$DIMTOH
 70
     0
  9
$DIMSE1
 70
     0
  9
$DIMSE2
 70
     0
  9
$DIMTAD
 70
     3
  9
$DIMZIN
 70
     8
  9
$DIMBLK
  1
OPEN30
  9
$DIMASO
 70
     1
  9
$DIMSHO
 70
     1
  9
$DIMPOST
  1

  9
$DIMAPOST
  1
"
  9
$DIMALT
 70
     0
  9
$DIMALTD
 70
     2
  9
$DIMALTF
 40
0.0393701
  9
$DIMLFAC
 40
1.0
  9
$DIMTOFL
 70
     1
  9
$DIMTVP
 40
0.0
  9
$DIMTIX
 70
     0
  9
$DIMSOXD
 70
     0
  9
$DIMSAH
 70
     0
  9
$DIMBLK1
  1

  9
$DIMBLK2
  1

  9
$DIMSTYLE
  2
AM_JIS
  9
$DIMCLRD
 70
   256
  9
$DIMCLRE
 70
   256
  9
$DIMCLRT
 70
     2
  9
$DIMTFAC
 40
0.71
  9
$DIMGAP
 40
1.5
  9
$DIMJUST
 70
     0
  9
$DIMSD1
 70
     0
  9
$DIMSD2
 70
     0
  9
$DIMTOLJ
 70
     0
  9
$DIMTZIN
 70
     0
  9
$DIMALTZ
 70
     0
  9
$DIMALTTZ
 70
     0
  9
$DIMFIT
 70
     3
  9
$DIMUPT
 70
     0
  9
$DIMUNIT
 70
     2
  9
$DIMDEC
 70
     3
  9
$DIMTDEC
 70
     3
  9
$DIMALTU
 70
     2
  9
$DIMALTTD
 70
     2
  9
$DIMTXSTY
  7
ASAMI
  9
$DIMAUNIT
 70
     0
  9
$LUNITS
 70
     2
  9
$LUPREC
 70
     2
  9
$SKETCHINC
 40
1.0
  9
$FILLETRAD
 40
2.5
  9
$AUNITS
 70
     0
  9
$AUPREC
 70
     0
  9
$MENU
  1
.
  9
$ELEVATION
 40
0.0
  9
$PELEVATION
 40
0.0
  9
$THICKNESS
 40
0.0
  9
$LIMCHECK
 70
     0
  9
$BLIPMODE
 70
     0
  9
$CHAMFERA
 40
0.5
  9
$CHAMFERB
 40
0.5
  9
$CHAMFERC
 40
20.0
  9
$CHAMFERD
 40
0.0
  9
$SKPOLY
 70
     0
  9
$TDCREATE
 40
2452800.443498622
  9
$TDUPDATE
 40
2453151.569001724
  9
$TDINDWG
 40
0.0774802894
  9
$TDUSRTIMER
 40
0.0774802894
  9
$USRTIMER
 70
     1
  9
$ANGBASE
 50
0.0
  9
$ANGDIR
 70
     0
  9
$PDMODE
 70
     3
  9
$PDSIZE
 40
0.0
  9
$PLINEWID
 40
0.0
  9
$COORDS
 70
     1
  9
$SPLFRAME
 70
     0
  9
$SPLINETYPE
 70
     6
  9
$SPLINESEGS
 70
     8
  9
$ATTDIA
 70
     1
  9
$ATTREQ
 70
     1
  9
$HANDLING
 70
 12289
  9
$HANDSEED
  5
2EF8
  9
$SURFTAB1
 70
     6
  9
$SURFTAB2
 70
     6
  9
$SURFTYPE
 70
     6
  9
$SURFU
 70
     6
  9
$SURFV
 70
     6
  9
$UCSNAME
  2

  9
$UCSORG
 10
0.0
 20
0.0
 30
0.0
  9
$UCSXDIR
 10
1.0
 20
0.000000000000002
 30
0.0
  9
$UCSYDIR
 10
-0.000000000000002
 20
1.0
 30
0.0
  9
$PUCSNAME
  2

  9
$PUCSORG
 10
0.0
 20
0.0
 30
0.0
  9
$PUCSXDIR
 10
1.0
 20
0.0
 30
0.0
  9
$PUCSYDIR
 10
0.0
 20
1.0
 30
0.0
  9
$USERI1
 70
     0
  9
$USERI2
 70
     0
  9
$USERI3
 70
     0
  9
$USERI4
 70
     0
  9
$USERI5
 70
     0
  9
$USERR1
 40
0.0
  9
$USERR2
 40
0.0
  9
$USERR3
 40
0.0
  9
$USERR4
 40
0.0
  9
$USERR5
 40
0.0
  9
$WORLDVIEW
 70
     1
  9
$SHADEDGE
 70
     3
  9
$SHADEDIF
 70
    70
  9
$TILEMODE
 70
     1
  9
$MAXACTVP
 70
    64
  9
$PINSBASE
 10
0.0
 20
0.0
 30
0.0
  9
$PLIMCHECK
 70
     0
  9
$PEXTMIN
 10
1.000000000000000E+20
 20
1.000000000000000E+20
 30
1.000000000000000E+20
  9
$PEXTMAX
 10
-1.000000000000000E+20
 20
-1.000000000000000E+20
 30
-1.000000000000000E+20
  9
$PLIMMIN
 10
0.0
 20
0.0
  9
$PLIMMAX
 10
841.0
 20
594.0
  9
$UNITMODE
 70
     0
  9
$VISRETAIN
 70
     1
  9
$PLINEGEN
 70
     0
  9
$PSLTSCALE
 70
     0
  9
$TREEDEPTH
 70
  3020
  9
$PICKSTYLE
 70
     0
  9
$CMLSTYLE
  2
STANDARD
  9
$CMLJUST
 70
     0
  9
$CMLSCALE
 40
20.0
  9
$PROXYGRAPHICS
 70
     1
  9
$MEASUREMENT
 70
     1
  0
ENDSEC
  0
SECTION
  2
CLASSES
  0
CLASS
  1
ACDBDICTIONARYWDFLT
  2
AcDbDictionaryWithDefault
  3
AutoCAD 2000
 90
        0
280
     0
281
     0
  0
CLASS
  1
ACDBPLACEHOLDER
  2
AcDbPlaceHolder
  3
AutoCAD 2000
 90
        0
280
     0
281
     0
  0
CLASS
  1
LAYOUT
  2
AcDbLayout
  3
AutoCAD 2000
 90
        0
280
     0
281
     0
  0
CLASS
  1
AMGSETTINGSOBJ
  2
AmgSettingsObj
  3
"AcadM|Product Description: AutoCAD Mechanical 2000|Company: Autodesk"
 90
        0
280
     0
281
     0
  0
CLASS
  1
ACME_DOCUMENT
  2
AcMeDbDoc
  3
AcMeServices
 90
        0
280
     0
281
     0
  0
CLASS
  1
ACMESCOPE
  2
AcMeScope
  3
AcMeServices
 90
        0
280
     0
281
     0
  0
CLASS
  1
ACMECOMMANDHISTORY
  2
AcMeCommandHistory
  3
AcMeServices
 90
        0
280
     0
281
     0
  0
CLASS
  1
DICTIONARYVAR
  2
AcDbDictionaryVar
  3
AutoCAD 2000
 90
        0
280
     0
281
     0
  0
CLASS
  1
ACIMSYSVARMAN
  2
AcImSysVarManager
  3
AcMeServices
 90
        0
280
     0
281
     0
  0
CLASS
  1
ACIMREALSYSVAR
  2
AcImRealSysVar
  3
AcMeServices
 90
        0
280
     0
281
     0
  0
CLASS
  1
ACIMINTSYSVAR
  2
AcImIntSysVar
  3
AcMeServices
 90
        0
280
     0
281
     0
  0
CLASS
  1
ACMEDRAWINGMAN
  2
AcMeDrawingMan
  3
AcMeServices
 90
        0
280
     0
281
     0
  0
CLASS
  1
ACMEVIEW
  2
AcMeView
  3
AcMeServices
 90
        0
280
     0
281
     0
  0
CLASS
  1
ACDBENTITYCACHE
  2
AcMeEntityCache
  3
AcMeServices
 90
        0
280
     0
281
     0
  0
CLASS
  1
GSMANAGER
  2
AcMeGSManager
  3
AcMeServices
 90
        0
280
     0
281
     0
  0
CLASS
  1
AmdtInternalReactor
  2
AmdtInternalReactor
  3
AcMeServices
 90
        0
280
     0
281
     0
  0
CLASS
  1
ACMESTATEMGR
  2
AcMeStateMgr
  3
AcMeServices
 90
        0
280
     0
281
     0
  0
CLASS
  1
ACME_DATABASE
  2
AcMeDbDatabase
  3
AcMeServices
 90
        0
280
     0
281
     0
  0
CLASS
  1
ACRFINSADJUSTERMGR
  2
AcRfInsAdjusterMgr
  3
AcMeServices
 90
        0
280
     0
281
     0
  0
CLASS
  1
ACMDATADICTIONARY
  2
AcmDataDictionary
  3
"AcmSymBB|Product Description: AutoCAD Mechanical 2000|Company: Autodesk"
 90
        0
280
     0
281
     0
  0
CLASS
  1
ACMDATAENTRYBLOCK
  2
AcmDataEntryBlock
  3
"AcmSymBB|Product Description: AutoCAD Mechanical 2000|Company: Autodesk"
 90
        0
280
     0
281
     0
  0
CLASS
  1
AMGOBJPROPCFG
  2
AmgObjPropCfg
  3
"AmgLay|Product Description: AutoCAD Mechanical 2000|Company: Autodesk"
 90
        1
280
     0
281
     0
  0
CLASS
  1
ACAMGFILTERDAT
  2
AcAmgFilterDat
  3
"AcadM|Product Description: AutoCAD Mechanical 2000|Company: Autodesk"
 90
        0
280
     0
281
     0
  0
CLASS
  1
LAYER_INDEX
  2
AcDbLayerIndex
  3
AutoCAD 2000
 90
        0
280
     0
281
     0
  0
CLASS
  1
IDBUFFER
  2
AcDbIdBuffer
  3
AutoCAD 2000
 90
        0
280
     0
281
     0
  0
CLASS
  1
ACIMSTRSYSVAR
  2
AcImStrSysVar
  3
AcMeServices
 90
        0
280
     0
281
     0
  0
CLASS
  1
ACMSTANDARDJIS
  2
AcmStandardJIS
  3
"AcmSymBB|Product Description: AutoCAD Mechanical 2000|Company: Autodesk"
 90
        0
280
     0
281
     0
  0
CLASS
  1
ACMSURFSTANDARDJIS
  2
AcmSurfTextStdJIS
  3
"AcmSymBB|Product Description: AutoCAD Mechanical 2000|Company: Autodesk"
 90
        0
280
     0
281
     0
  0
CLASS
  1
ACMFCFSTANDARDJIS
  2
AcmFCFStdJIS
  3
"AcmSymBB|Product Description: AutoCAD Mechanical 2000|Company: Autodesk"
 90
        0
280
     0
281
     0
  0
CLASS
  1
ACMWELDSTANDARDJIS
  2
AcmWeldingStdJIS
  3
"AcmSymBB|Product Description: AutoCAD Mechanical 2000|Company: Autodesk"
 90
        0
280
     0
281
     0
  0
CLASS
  1
ACMIDSTANDARDJIS
  2
AcmIdStdJIS
  3
"AcmSymBB|Product Description: AutoCAD Mechanical 2000|Company: Autodesk"
 90
        0
280
     0
281
     0
  0
CLASS
  1
ACMDATUMSTANDARDJIS
  2
AcmDatumStdJIS
  3
"AcmSymBB|Product Description: AutoCAD Mechanical 2000|Company: Autodesk"
 90
        0
280
     0
281
     0
  0
CLASS
  1
ACMBOMSTANDARDJIS
  2
AcmBOMStdJIS
  3
"AcmSymBB|Product Description: AutoCAD Mechanical 2000|Company: Autodesk"
 90
        0
280
     0
281
     0
  0
CLASS
  1
ACMSTANDARDANSI
  2
AcmStandardANSI
  3
"AcmSymBB|Product Description: AutoCAD Mechanical 2000|Company: Autodesk"
 90
        0
280
     0
281
     0
  0
CLASS
  1
ACMSURFSTANDARDANSI
  2
AcmSurfTextStdANSI
  3
"AcmSymBB|Product Description: AutoCAD Mechanical 2000|Company: Autodesk"
 90
        0
280
     0
281
     0
  0
CLASS
  1
ACMFCFSTANDARDANSI
  2
AcmFCFStdANSI
  3
"AcmSymBB|Product Description: AutoCAD Mechanical 2000|Company: Autodesk"
 90
        0
280
     0
281
     0
  0
CLASS
  1
ACMWELDSTANDARDANSI
  2
AcmWeldingStdANSI
  3
"AcmSymBB|Product Description: AutoCAD Mechanical 2000|Company: Autodesk"
 90
        0
280
     0
281
     0
  0
CLASS
  1
ACMIDSTANDARDANSI
  2
AcmIdStdANSI
  3
"AcmSymBB|Product Description: AutoCAD Mechanical 2000|Company: Autodesk"
 90
        0
280
     0
281
     0
  0
CLASS
  1
ACMDATUMSTANDARDANSI
  2
AcmDatumStdANSI
  3
"AcmSymBB|Product Description: AutoCAD Mechanical 2000|Company: Autodesk"
 90
        0
280
     0
281
     0
  0
CLASS
  1
ACMBOMSTANDARDANSI
  2
AcmBOMStdANSI
  3
"AcmSymBB|Product Description: AutoCAD Mechanical 2000|Company: Autodesk"
 90
        0
280
     0
281
     0
  0
CLASS
  1
ACMSTANDARDBSI
  2
AcmStandardBSI
  3
"AcmSymBB|Product Description: AutoCAD Mechanical 2000|Company: Autodesk"
 90
        0
280
     0
281
     0
  0
CLASS
  1
ACMSURFSTANDARDBSI
  2
AcmSurfTextStdBSI
  3
"AcmSymBB|Product Description: AutoCAD Mechanical 2000|Company: Autodesk"
 90
        0
280
     0
281
     0
  0
CLASS
  1
ACMFCFSTANDARDBSI
  2
AcmFCFStdBSI
  3
"AcmSymBB|Product Description: AutoCAD Mechanical 2000|Company: Autodesk"
 90
        0
280
     0
281
     0
  0
CLASS
  1
ACMWELDSTANDARDBSI
  2
AcmWeldingStdBSI
  3
"AcmSymBB|Product Description: AutoCAD Mechanical 2000|Company: Autodesk"
 90
        0
280
     0
281
     0
  0
CLASS
  1
ACMIDSTANDARDBSI
  2
AcmIdStdBSI
  3
"AcmSymBB|Product Description: AutoCAD Mechanical 2000|Company: Autodesk"
 90
        0
280
     0
281
     0
  0
CLASS
  1
ACMDATUMSTANDARDBSI
  2
AcmDatumStdBSI
  3
"AcmSymBB|Product Description: AutoCAD Mechanical 2000|Company: Autodesk"
 90
        0
280
     0
281
     0
  0
CLASS
  1
ACMBOMSTANDARDBSI
  2
AcmBOMStdBSI
  3
"AcmSymBB|Product Description: AutoCAD Mechanical 2000|Company: Autodesk"
 90
        0
280
     0
281
     0
  0
CLASS
  1
LONG_TRANSACTION
  2
AcDbLongTransaction
  3
AutoCAD 2000
 90
        0
280
     0
281
     0
  0
CLASS
  1
LWPOLYLINE
  2
AcDbPolyline
  3
AutoCAD 2000
 90
        0
280
     0
281
     1
  0
CLASS
  1
HATCH
  2
AcDbHatch
  3
AutoCAD 2000
 90
        0
280
     0
281
     1
  0
CLASS
  1
XRECORD
  2
AcDbXrecord
  3
AutoCAD 2000
 90
        0
280
     0
281
     0
  0
ENDSEC
  0
SECTION
  2
TABLES
  0
TABLE
  2
VPORT
  5
8
330
0
100
AcDbSymbolTable
 70
     3
  0
VPORT
  5
2EC2
330
8
100
AcDbSymbolTableRecord
100
AcDbViewportTableRecord
  2
*ACTIVE
 70
     0
 10
0.0
 20
0.0
 11
1.0
 21
1.0
 12
-40.78545179508704
 22
-6.298793255788126
 13
0.0
 23
0.0
 14
2.5
 24
2.5
 15
10.0
 25
10.0
 16
0.0
 26
0.0
 36
1.0
 17
0.0
 27
0.0
 37
0.0
 40
76.51603280737167
 41
1.56570841889117
 42
50.0
 43
0.0
 44
0.0
 50
0.0
 51
0.0
 71
     0
 72
   100
 73
     1
 74
     1
 75
     0
 76
     0
 77
     0
 78
     0
  0
ENDTAB
  0
TABLE
  2
LTYPE
  5
5
330
0
100
AcDbSymbolTable
 70
    10
  0
LTYPE
  5
14
330
5
100
AcDbSymbolTableRecord
100
AcDbLinetypeTableRecord
  2
BYBLOCK
 70
     0
  3

 72
    65
 73
     0
 40
0.0
  0
LTYPE
  5
15
330
5
100
AcDbSymbolTableRecord
100
AcDbLinetypeTableRecord
  2
BYLAYER
 70
     0
  3

 72
    65
 73
     0
 40
0.0
  0
LTYPE
  5
16
330
5
100
AcDbSymbolTableRecord
100
AcDbLinetypeTableRecord
  2
CONTINUOUS
 70
     0
  3
Solid line
 72
    65
 73
     0
 40
0.0
  0
LTYPE
  5
4B
330
5
100
AcDbSymbolTableRecord
100
AcDbLinetypeTableRecord
  2
AM_ISO02W050
 70
     0
  3
__ __ __ __ __ __ __ __ __ __ __ __ __ __ __
 72
    65
 73
     2
 40
7.5
 49
6.0
 74
     0
 49
-1.5
 74
     0
  0
LTYPE
  5
4C
330
5
100
AcDbSymbolTableRecord
100
AcDbLinetypeTableRecord
  2
AM_ISO08W050
 70
     0
  3
____ . ____ . ____ . ____ . ____ . ____ . ____
 72
    65
 73
     4
 40
18.0
 49
12.0
 74
     0
 49
-1.5
 74
     0
 49
3.0
 74
     0
 49
-1.5
 74
     0
  0
LTYPE
  5
4D
330
5
100
AcDbSymbolTableRecord
100
AcDbLinetypeTableRecord
  2
AM_ISO09W050
 70
     0
  3
_____ . . _____ . . _____ . . ____ .. ____
 72
    65
 73
     6
 40
22.5
 49
12.0
 74
     0
 49
-1.5
 74
     0
 49
3.0
 74
     0
 49
-1.5
 74
     0
 49
3.0
 74
     0
 49
-1.5
 74
     0
  0
LTYPE
  5
4E
330
5
100
AcDbSymbolTableRecord
100
AcDbLinetypeTableRecord
  2
AMCONSTR
 70
     0
  3
_______________________
 72
    65
 73
     2
 40
9999.0
 49
9999.0
 74
     0
 49
0.0
 74
     0
  0
LTYPE
  5
4F
330
5
100
AcDbSymbolTableRecord
100
AcDbLinetypeTableRecord
  2
AM_ISO02W050X2
 70
     0
  3
 _ _ _ _ _ _ _ _ _ _ _ _
 72
    65
 73
     2
 40
3.75
 49
3.0
 74
     0
 49
-0.75
 74
     0
  0
LTYPE
  5
50
330
5
100
AcDbSymbolTableRecord
100
AcDbLinetypeTableRecord
  2
AM_ISO08W050X2
 70
     0
  3
__ . __ . __ . __ . __ . __
 72
    65
 73
     4
 40
9.0
 49
6.0
 74
     0
 49
-0.75
 74
     0
 49
1.5
 74
     0
 49
-0.75
 74
     0
  0
LTYPE
  5
53
330
5
100
AcDbSymbolTableRecord
100
AcDbLinetypeTableRecord
  2
AMZIGZAG
 70
     0
  3
/\/-/\/-/\/-/\/-/\/-/\/
 72
    65
 73
     2
 40
11.00009999999999
 49
0.0001
 74
     4
 75
   135
340
52
 46
0.04
 50
0.0
 44
0.0
 45
0.0
 49
-11.0
 74
     0
  0
LTYPE
  5
166
330
5
100
AcDbSymbolTableRecord
100
AcDbLinetypeTableRecord
  2
ACJISTGL
 70
     0
  3
_ _ _ _ _
 72
    65
 73
     2
 40
3.0
 49
2.0
 74
     0
 49
-1.0
 74
     0
  0
LTYPE
  5
26A
330
5
100
AcDbSymbolTableRecord
100
AcDbLinetypeTableRecord
  2
ACJISTGB
 70
     0
  3
__ . . __ . .
 72
    65
 73
     6
 40
9.0
 49
4.0
 74
     0
 49
-1.0
 74
     0
 49
1.0
 74
     0
 49
-1.0
 74
     0
 49
1.0
 74
     0
 49
-1.0
 74
     0
  0
ENDTAB
  0
TABLE
  2
LAYER
  5
2
330
0
100
AcDbSymbolTable
 70
     7
  0
LAYER
  5
10
330
2
100
AcDbSymbolTableRecord
100
AcDbLayerTableRecord
  2
0
 70
     0
 62
     7
  6
CONTINUOUS
  0
LAYER
  5
3F9
330
2
100
AcDbSymbolTableRecord
100
AcDbLayerTableRecord
  2
AM_0
 70
     0
 62
     7
  6
CONTINUOUS
  0
LAYER
  5
C7C
330
2
100
AcDbSymbolTableRecord
100
AcDbLayerTableRecord
  2
AM_7
 70
     0
 62
     4
  6
AM_ISO08W050
  0
LAYER
  5
C97
330
2
100
AcDbSymbolTableRecord
100
AcDbLayerTableRecord
  2
AM_11
 70
     0
 62
     3
  6
AM_ISO09W050
  0
LAYER
  5
CC5
330
2
100
AcDbSymbolTableRecord
100
AcDbLayerTableRecord
  2
AM_5
 70
     0
 62
     3
  6
CONTINUOUS
  0
LAYER
  5
CC7
330
2
100
AcDbSymbolTableRecord
100
AcDbLayerTableRecord
  2
DEFPOINTS
 70
     0
 62
     7
  6
CONTINUOUS
  0
LAYER
  5
19BC
330
2
100
AcDbSymbolTableRecord
100
AcDbLayerTableRecord
  2
AM_6
 70
     0
 62
     2
  6
CONTINUOUS
  0
ENDTAB
  0
TABLE
  2
STYLE
  5
3
330
0
100
AcDbSymbolTable
 70
     5
  0
STYLE
  5
11
330
3
100
AcDbSymbolTableRecord
100
AcDbTextStyleTableRecord
  2
STANDARD
 70
     0
 40
0.0
 41
1.0
 50
0.0
 71
     0
 42
2.5
  3
simplex.shx
  4
EXTFONT.SHX
  0
STYLE
  5
52
330
3
100
AcDbSymbolTableRecord
100
AcDbTextStyleTableRecord
  2

 70
     1
 40
0.0
 41
1.0
 50
0.0
 71
     0
 42
2.5
  3
ltypeshp.shx
  4

  0
STYLE
  5
6B
330
3
100
AcDbSymbolTableRecord
100
AcDbTextStyleTableRecord
  2
ASAMI
 70
     0
 40
0.0
 41
1.0
 50
0.0
 71
     0
 42
2.5
  3
simplex.shx
  4
EXTFONT.SHX
  0
STYLE
  5
262
330
3
100
AcDbSymbolTableRecord
100
AcDbTextStyleTableRecord
  2
ACJISTS
 70
     0
 40
1.0
 41
1.0
 50
0.0
 71
     0
 42
2.5
  3
simplex.shx
  4
bigfont.shx
  0
STYLE
  5
269
330
3
100
AcDbSymbolTableRecord
100
AcDbTextStyleTableRecord
  2
ACJISGDT
 70
     0
 40
0.0
 41
1.0
 50
0.0
 71
     0
 42
2.5
  3
amgdtans.shx
  4

  0
ENDTAB
  0
TABLE
  2
VIEW
  5
6
330
0
100
AcDbSymbolTable
 70
     0
  0
ENDTAB
  0
TABLE
  2
UCS
  5
7
330
0
100
AcDbSymbolTable
 70
     0
  0
ENDTAB
  0
TABLE
  2
APPID
  5
9
330
0
100
AcDbSymbolTable
 70
    16
  0
APPID
  5
12
330
9
100
AcDbSymbolTableRecord
100
AcDbRegAppTableRecord
  2
ACAD
 70
     0
  0
APPID
  5
30
330
9
100
AcDbSymbolTableRecord
100
AcDbRegAppTableRecord
  2
MCAD_NO_VIS
 70
     0
  0
APPID
  5
31
330
9
100
AcDbSymbolTableRecord
100
AcDbRegAppTableRecord
  2
ACAD_TEMP_GRAPHIC
 70
     0
  0
APPID
  5
2C2
330
9
100
AcDbSymbolTableRecord
100
AcDbRegAppTableRecord
  2
GENIUS_GENDTOL_13
 70
     0
  0
APPID
  5
339
330
9
100
AcDbSymbolTableRecord
100
AcDbRegAppTableRecord
  2
GENIUS_GENODEF_13
 70
     0
  0
APPID
  5
33A
330
9
100
AcDbSymbolTableRecord
100
AcDbRegAppTableRecord
  2
GENIUS_GENOBJ-N-RSBK_13
 70
     0
  0
APPID
  5
33B
330
9
100
AcDbSymbolTableRecord
100
AcDbRegAppTableRecord
  2
GENIUS_GENOBJ-N-LIB_13
 70
     0
  0
APPID
  5
33C
330
9
100
AcDbSymbolTableRecord
100
AcDbRegAppTableRecord
  2
GENIUS_GENSCALE_13
 70
     0
  0
APPID
  5
378
330
9
100
AcDbSymbolTableRecord
100
AcDbRegAppTableRecord
  2
GENIUS_GENDIMSH_14
 70
     0
  0
APPID
  5
C82
330
9
100
AcDbSymbolTableRecord
100
AcDbRegAppTableRecord
  2
GENIUS_GENOBJ-N-CRS_13
 70
     0
  0
APPID
  5
C83
330
9
100
AcDbSymbolTableRecord
100
AcDbRegAppTableRecord
  2
GENIUS_GENOENT_13
 70
     0
  0
APPID
  5
C84
330
9
100
AcDbSymbolTableRecord
100
AcDbRegAppTableRecord
  2
GENIUS_GENOREF_13
 70
     0
  0
APPID
  5
C85
330
9
100
AcDbSymbolTableRecord
100
AcDbRegAppTableRecord
  2
GENIUS_GENOLIS_13
 70
     0
  0
APPID
  5
CA0
330
9
100
AcDbSymbolTableRecord
100
AcDbRegAppTableRecord
  2
GENIUS_GENOBJ-N-CEN_13
 70
     0
  0
APPID
  5
1CFA
330
9
100
AcDbSymbolTableRecord
100
AcDbRegAppTableRecord
  2
GENIUS_GENFIL_13
 70
     0
  0
APPID
  5
1CFB
330
9
100
AcDbSymbolTableRecord
100
AcDbRegAppTableRecord
  2
GENIUS_GENOBJ-N-CHA_13
 70
     0
  0
ENDTAB
  0
TABLE
  2
DIMSTYLE
  5
A
330
0
100
AcDbSymbolTable
 70
     9
  0
DIMSTYLE
105
58
330
A
100
AcDbSymbolTableRecord
100
AcDbDimStyleTableRecord
  2
AM_JIS
 70
     0
  3

  4
"
  5
OPEN30
  6

  7

 40
0.5
 41
2.5
 42
1.0
 43
12.0
 44
1.0
 45
0.0
 46
0.0
 47
0.1
 48
0.1
140
3.2
141
0.0
142
0.0
143
0.0393701
144
1.0
145
0.0
146
0.71
147
1.5
 71
     0
 72
     0
 73
     0
 74
     0
 75
     0
 76
     0
 77
     3
 78
     8
170
     0
171
     2
172
     1
173
     0
174
     0
175
     0
176
   256
177
   256
178
     2
270
     2
271
     3
272
     3
273
     2
274
     2
340
6B
275
     0
280
     0
281
     0
282
     0
283
     0
284
     0
285
     0
286
     0
287
     3
288
     0
  0
DIMSTYLE
105
5F
330
A
100
AcDbSymbolTableRecord
100
AcDbDimStyleTableRecord
  2
AM_JIS$3
 70
     0
  3

  4
"
  5
OPEN30
  6

  7

 40
0.5
 41
2.5
 42
1.0
 43
10.0
 44
1.0
 45
0.0
 46
0.0
 47
0.1
 48
0.1
140
3.2
141
0.0
142
0.0
143
0.0393701
144
1.0
145
0.0
146
0.71
147
1.5
 71
     0
 72
     0
 73
     0
 74
     1
 75
     0
 76
     0
 77
     3
 78
     8
170
     0
171
     2
172
     0
173
     0
174
     0
175
     0
176
   256
177
   256
178
     2
270
     2
271
     2
272
     3
273
     2
274
     2
340
6B
275
     0
280
     0
281
     0
282
     0
283
     0
284
     0
285
     0
286
     0
287
     0
288
     1
  0
DIMSTYLE
105
60
330
A
100
AcDbSymbolTableRecord
100
AcDbDimStyleTableRecord
  2
AM_JIS$4
 70
     0
  3

  4
"
  5
OPEN30
  6

  7

 40
0.5
 41
2.5
 42
1.0
 43
10.0
 44
1.0
 45
0.0
 46
0.0
 47
0.1
 48
0.1
140
3.2
141
0.0
142
0.0
143
0.0393701
144
1.0
145
0.0
146
0.71
147
1.5
 71
     0
 72
     0
 73
     0
 74
     1
 75
     0
 76
     0
 77
     3
 78
     8
170
     0
171
     2
172
     0
173
     0
174
     0
175
     0
176
   256
177
   256
178
     2
270
     2
271
     2
272
     3
273
     2
274
     2
340
6B
275
     0
280
     0
281
     0
282
     0
283
     0
284
     0
285
     0
286
     0
287
     0
288
     1
  0
DIMSTYLE
105
61
330
A
100
AcDbSymbolTableRecord
100
AcDbDimStyleTableRecord
  2
AM_JIS$6
 70
     0
  3

  4
"
  5
OPEN30
  6

  7

 40
0.5
 41
2.5
 42
1.0
 43
10.0
 44
1.0
 45
0.0
 46
0.0
 47
0.1
 48
0.1
140
3.2
141
0.0
142
0.0
143
0.0393701
144
1.0
145
0.0
146
0.71
147
1.5
 71
     0
 72
     0
 73
     0
 74
     0
 75
     0
 76
     0
 77
     0
 78
     8
170
     0
171
     2
172
     1
173
     0
174
     0
175
     0
176
   256
177
   256
178
     2
270
     2
271
     2
272
     2
273
     2
274
     2
340
6B
275
     0
280
     0
281
     0
282
     0
283
     0
284
     0
285
     0
286
     0
287
     3
288
     0
  0
DIMSTYLE
105
62
330
A
100
AcDbSymbolTableRecord
100
AcDbDimStyleTableRecord
  2
AM_JIS$7
 70
     0
  3

  4
"
  5
OPEN30
  6

  7

 40
0.5
 41
2.5
 42
1.0
 43
10.0
 44
1.0
 45
0.0
 46
0.0
 47
0.1
 48
0.1
140
3.2
141
0.0
142
0.0
143
0.0393701
144
1.0
145
0.0
146
0.71
147
1.5
 71
     0
 72
     0
 73
     0
 74
     0
 75
     0
 76
     0
 77
     3
 78
     8
170
     0
171
     2
172
     1
173
     0
174
     0
175
     0
176
   256
177
   256
178
     2
270
     2
271
     2
272
     3
273
     2
274
     2
340
6B
275
     0
280
     0
281
     0
282
     0
283
     0
284
     0
285
     0
286
     0
287
     3
288
     0
  0
DIMSTYLE
105
63
330
A
100
AcDbSymbolTableRecord
100
AcDbDimStyleTableRecord
  2
AM_JIS$SF
 70
     0
  3

  4
"
  5
OPEN30
  6

  7

 40
0.5
 41
2.5
 42
1.0
 43
10.0
 44
1.0
 45
0.0
 46
0.0
 47
0.1
 48
0.1
140
3.2
141
0.0
142
0.0
143
0.0393701
144
1.0
145
0.0
146
0.71
147
1.5
 71
     0
 72
     0
 73
     0
 74
     0
 75
     1
 76
     1
 77
     3
 78
     8
170
     0
171
     2
172
     1
173
     0
174
     0
175
     0
176
   256
177
   256
178
     2
270
     2
271
     2
272
     2
273
     2
274
     2
340
6B
275
     0
280
     0
281
     0
282
     0
283
     0
284
     0
285
     0
286
     0
287
     3
288
     0
  0
DIMSTYLE
105
68
330
A
100
AcDbSymbolTableRecord
100
AcDbDimStyleTableRecord
  2
AM_JIS$SH
 70
     0
  3

  4
"
  5

  6
GENAXEH
  7
OPEN30
 40
0.5
 41
2.5
 42
1.0
 43
10.0
 44
1.0
 45
0.0
 46
0.0
 47
0.1
 48
0.1
140
3.2
141
0.0
142
0.0
143
0.0393701
144
2.0
145
0.0
146
0.71
147
1.5
 71
     0
 72
     0
 73
     0
 74
     0
 75
     1
 76
     1
 77
     3
 78
     8
170
     0
171
     2
172
     1
173
     1
174
     0
175
     0
176
   256
177
   256
178
     2
270
     2
271
     2
272
     2
273
     2
274
     2
340
6B
275
     0
280
     0
281
     0
282
     0
283
     0
284
     0
285
     0
286
     0
287
     3
288
     0
  0
DIMSTYLE
105
B34
102
{ACAD_REACTORS
330
2577
102
}
330
A
100
AcDbSymbolTableRecord
100
AcDbDimStyleTableRecord
  2
AM_JIS$2
 70
     0
  3

  4
"
  5
OPEN30
  6

  7

 40
0.5
 41
2.5
 42
1.0
 43
12.0
 44
1.0
 45
0.0
 46
0.0
 47
0.1
 48
0.1
140
3.2
141
0.0
142
0.0
143
0.0393701
144
1.0
145
0.0
146
0.71
147
1.5
 71
     0
 72
     0
 73
     0
 74
     0
 75
     0
 76
     0
 77
     3
 78
     8
170
     0
171
     2
172
     1
173
     0
174
     0
175
     0
176
   256
177
   256
178
     2
270
     2
271
     3
272
     3
273
     2
274
     2
340
6B
275
     0
280
     0
281
     0
282
     0
283
     0
284
     0
285
     0
286
     0
287
     3
288
     0
  0
DIMSTYLE
105
BA5
102
{ACAD_REACTORS
330
CC6
330
DF5
330
1F93
330
2CA4
102
}
330
A
100
AcDbSymbolTableRecord
100
AcDbDimStyleTableRecord
  2
AM_JIS$0
 70
     0
  3

  4
"
  5
OPEN30
  6

  7

 40
0.5
 41
2.5
 42
0.0
 43
10.0
 44
1.0
 45
0.0
 46
0.0
 47
0.1
 48
0.1000000001
140
3.799999999999999
141
0.0
142
0.0
143
0.0393701
144
1.0
145
0.0
146
0.71
147
1.5
 71
     0
 72
     0
 73
     0
 74
     0
 75
     0
 76
     0
 77
     3
 78
     1
170
     0
171
     2
172
     1
173
     0
174
     0
175
     0
176
     3
177
     3
178
     2
270
     2
271
     2
272
     2
273
     2
274
     2
340
11
275
     1
280
     0
281
     0
282
     0
283
     0
284
     8
285
     0
286
     0
287
     0
288
     0
  0
ENDTAB
  0
TABLE
  2
BLOCK_RECORD
  5
1
330
0
100
AcDbSymbolTable
 70
    10
  0
BLOCK_RECORD
  5
1F
102
{ACAD_XDICTIONARY
360
74
102
}
330
1
100
AcDbSymbolTableRecord
100
AcDbBlockTableRecord
  2
*MODEL_SPACE
  0
BLOCK_RECORD
  5
101
102
{ACAD_XDICTIONARY
360
2EEB
102
}
330
1
100
AcDbSymbolTableRecord
100
AcDbBlockTableRecord
  2
*PAPER_SPACE
  0
BLOCK_RECORD
  5
59
330
1
100
AcDbSymbolTableRecord
100
AcDbBlockTableRecord
  2
_OPEN30
  0
BLOCK_RECORD
  5
64
330
1
100
AcDbSymbolTableRecord
100
AcDbBlockTableRecord
  2
GENAXEH
  0
BLOCK_RECORD
  5
CC8
330
1
100
AcDbSymbolTableRecord
100
AcDbBlockTableRecord
  2
*D5
  0
BLOCK_RECORD
  5
DF6
330
1
100
AcDbSymbolTableRecord
100
AcDbBlockTableRecord
  2
*D6
  0
BLOCK_RECORD
  5
1F94
330
1
100
AcDbSymbolTableRecord
100
AcDbBlockTableRecord
  2
*D7
  0
BLOCK_RECORD
  5
2578
330
1
100
AcDbSymbolTableRecord
100
AcDbBlockTableRecord
  2
*D8
  0
BLOCK_RECORD
  5
2CA5
330
1
100
AcDbSymbolTableRecord
100
AcDbBlockTableRecord
  2
*D9
  0
ENDTAB
  0
ENDSEC
  0
SECTION
  2
BLOCKS
  0
BLOCK
  5
20
330
1F
100
AcDbEntity
  8
0
100
AcDbBlockBegin
  2
*MODEL_SPACE
 70
     0
 10
0.0
 20
0.0
 30
0.0
  3
*MODEL_SPACE
  1

  0
ENDBLK
  5
21
330
1F
100
AcDbEntity
  8
0
100
AcDbBlockEnd
  0
BLOCK
  5
103
330
101
100
AcDbEntity
 67
     1
  8
0
100
AcDbBlockBegin
  2
*PAPER_SPACE
 70
     0
 10
0.0
 20
0.0
 30
0.0
  3
*PAPER_SPACE
  1

  0
ENDBLK
  5
104
330
101
100
AcDbEntity
 67
     1
  8
0
100
AcDbBlockEnd
  0
BLOCK
  5
5D
330
59
100
AcDbEntity
  8
0
100
AcDbBlockBegin
  2
_OPEN30
 70
     0
 10
0.0
 20
0.0
 30
0.0
  3
_OPEN30
  1

  0
LINE
  5
5A
330
59
100
AcDbEntity
  8
0
 62
     0
100
AcDbLine
 10
-1.0
 20
0.26794919
 30
0.0
 11
0.0
 21
0.0
 31
0.0
  0
LINE
  5
5B
330
59
100
AcDbEntity
  8
0
 62
     0
100
AcDbLine
 10
0.0
 20
0.0
 30
0.0
 11
-1.0
 21
-0.26794919
 31
0.0
  0
LINE
  5
5C
330
59
100
AcDbEntity
  8
0
 62
     0
100
AcDbLine
 10
0.0
 20
0.0
 30
0.0
 11
-1.0
 21
0.0
 31
0.0
  0
ENDBLK
  5
5E
330
59
100
AcDbEntity
  8
0
100
AcDbBlockEnd
  0
BLOCK
  5
66
330
64
100
AcDbEntity
  8
0
100
AcDbBlockBegin
  2
GENAXEH
 70
     0
 10
0.0
 20
0.0
 30
0.0
  3
GENAXEH
  1

  0
LINE
  5
65
330
64
100
AcDbEntity
  8
0
100
AcDbLine
 10
-1.0
 20
0.0
 30
0.0
 11
1.0
 21
0.0
 31
0.0
  0
ENDBLK
  5
67
330
64
100
AcDbEntity
  8
0
100
AcDbBlockEnd
  0
BLOCK
  5
CD2
330
CC8
100
AcDbEntity
  8
0
100
AcDbBlockBegin
  2
*D5
 70
     1
 10
0.0
 20
0.0
 30
0.0
  3
*D5
  1

  0
LINE
  5
2E79
330
CC8
100
AcDbEntity
  8
AM_5
 62
     3
100
AcDbLine
 10
-89.00000000000002
 20
-3.000000000000206
 30
0.0
 11
-89.00000000000002
 21
-16.00001206798981
 31
0.0
  0
LINE
  5
2E7A
330
CC8
100
AcDbEntity
  8
AM_5
 62
     3
100
AcDbLine
 10
-1.000000000000059
 20
-3.300012420185816
 30
0.0
 11
-1.00000000000006
 21
-16.00001206798982
 31
0.0
  0
LINE
  5
2E7B
330
CC8
100
AcDbEntity
  8
AM_5
 62
     3
100
AcDbLine
 10
-87.75000000000002
 20
-15.50001206798982
 30
0.0
 11
-2.25000000000006
 21
-15.50001206798982
 31
0.0
  0
INSERT
  5
2E7C
330
CC8
100
AcDbEntity
  8
AM_5
 62
     3
100
AcDbBlockReference
  2
_OPEN30
 10
-89.00000000000002
 20
-15.50001206798982
 30
0.0
 41
1.25
 42
1.25
 43
1.25
 50
180.0
  0
INSERT
  5
2E7D
330
CC8
100
AcDbEntity
  8
AM_5
 62
     3
100
AcDbBlockReference
  2
_OPEN30
 10
-1.00000000000006
 20
-15.50001206798982
 30
0.0
 41
1.25
 42
1.25
 43
1.25
  0
MTEXT
  5
2E7E
330
CC8
100
AcDbEntity
  8
AM_5
 62
     2
100
AcDbMText
 10
-45.00000000000003
 20
-13.80001206798982
 30
0.0
 40
1.9
 41
0.0
 71
     5
 72
     1
  1
88
1001
ACAD
1000
MTEXTBEGIN
1070
    73
1070
     1
1070
    44
1040
1.0
1070
    74
1070
     0
1000
MTEXTEND
  0
POINT
  5
2E7F
330
CC8
100
AcDbEntity
  8
DEFPOINTS
 62
     0
100
AcDbPoint
 10
-89.00000000000002
 20
-3.000000000000206
 30
0.0
  0
POINT
  5
2E80
330
CC8
100
AcDbEntity
  8
DEFPOINTS
 62
     0
100
AcDbPoint
 10
-1.000000000000059
 20
-3.300012420185816
 30
0.0
  0
POINT
  5
2E81
330
CC8
100
AcDbEntity
  8
DEFPOINTS
 62
     0
100
AcDbPoint
 10
-1.00000000000006
 20
-15.50001206798982
 30
0.0
  0
ENDBLK
  5
CD3
330
CC8
100
AcDbEntity
  8
0
100
AcDbBlockEnd
  0
BLOCK
  5
E00
330
DF6
100
AcDbEntity
  8
0
100
AcDbBlockBegin
  2
*D6
 70
     1
 10
0.0
 20
0.0
 30
0.0
  3
*D6
  1

  0
LINE
  5
2E70
330
DF6
100
AcDbEntity
  8
AM_5
 62
     3
100
AcDbLine
 10
-36.00000000000003
 20
-3.500000000000061
 30
0.0
 11
-36.00000000000003
 21
-11.00001206798978
 31
0.0
  0
LINE
  5
2E71
330
DF6
100
AcDbEntity
  8
AM_5
 62
     3
100
AcDbLine
 10
-1.000000000000059
 20
-3.300012420185816
 30
0.0
 11
-1.000000000000059
 21
-11.00001206798978
 31
0.0
  0
LINE
  5
2E72
330
DF6
100
AcDbEntity
  8
AM_5
 62
     3
100
AcDbLine
 10
-34.75000000000003
 20
-10.50001206798978
 30
0.0
 11
-2.250000000000059
 21
-10.50001206798978
 31
0.0
  0
INSERT
  5
2E73
330
DF6
100
AcDbEntity
  8
AM_5
 62
     3
100
AcDbBlockReference
  2
_OPEN30
 10
-36.00000000000003
 20
-10.50001206798978
 30
0.0
 41
1.25
 42
1.25
 43
1.25
 50
180.0
  0
INSERT
  5
2E74
330
DF6
100
AcDbEntity
  8
AM_5
 62
     3
100
AcDbBlockReference
  2
_OPEN30
 10
-1.000000000000059
 20
-10.50001206798978
 30
0.0
 41
1.25
 42
1.25
 43
1.25
  0
MTEXT
  5
2E75
330
DF6
100
AcDbEntity
  8
AM_5
 62
     2
100
AcDbMText
 10
-18.50000000000004
 20
-8.800012067989783
 30
0.0
 40
1.9
 41
0.0
 71
     5
 72
     1
  1
35
1001
ACAD
1000
MTEXTBEGIN
1070
    73
1070
     1
1070
    44
1040
1.0
1070
    74
1070
     0
1000
MTEXTEND
  0
POINT
  5
2E76
330
DF6
100
AcDbEntity
  8
DEFPOINTS
 62
     0
100
AcDbPoint
 10
-36.00000000000003
 20
-3.500000000000061
 30
0.0
  0
POINT
  5
2E77
330
DF6
100
AcDbEntity
  8
DEFPOINTS
 62
     0
100
AcDbPoint
 10
-1.000000000000059
 20
-3.300012420185816
 30
0.0
  0
POINT
  5
2E78
330
DF6
100
AcDbEntity
  8
DEFPOINTS
 62
     0
100
AcDbPoint
 10
-1.000000000000059
 20
-10.50001206798978
 30
0.0
  0
ENDBLK
  5
E01
330
DF6
100
AcDbEntity
  8
0
100
AcDbBlockEnd
  0
BLOCK
  5
1FA0
330
1F94
100
AcDbEntity
  8
0
100
AcDbBlockBegin
  2
*D7
 70
     1
 10
0.0
 20
0.0
 30
0.0
  3
*D7
  1

  0
LINE
  5
2E82
330
1F94
100
AcDbEntity
  8
AM_5
 62
     3
100
AcDbLine
 10
-88.50000000000003
 20
-3.500000000000203
 30
0.0
 11
-98.25000100000004
 21
-3.500000000000222
 31
0.0
  0
LINE
  5
2E83
330
1F94
100
AcDbEntity
  8
AM_5
 62
     3
100
AcDbLine
 10
-88.50000000000001
 20
3.499999999999796
 30
0.0
 11
-98.25000100000004
 21
3.499999999999777
 31
0.0
  0
LINE
  5
2E84
330
1F94
100
AcDbEntity
  8
AM_5
 62
     3
100
AcDbLine
 10
-97.75000100000003
 20
-2.250000000000221
 30
0.0
 11
-97.75000100000003
 21
2.249999999999777
 31
0.0
  0
INSERT
  5
2E85
330
1F94
100
AcDbEntity
  8
AM_5
 62
     3
100
AcDbBlockReference
  2
_OPEN30
 10
-97.75000100000003
 20
-3.500000000000221
 30
0.0
 41
1.25
 42
1.25
 43
1.25
 50
270.0000000000001
  0
INSERT
  5
2E86
330
1F94
100
AcDbEntity
  8
AM_5
 62
     3
100
AcDbBlockReference
  2
_OPEN30
 10
-97.75000100000003
 20
3.499999999999777
 30
0.0
 41
1.25
 42
1.25
 43
1.25
 50
90.0000000000001
  0
MTEXT
  5
2E87
330
1F94
100
AcDbEntity
  8
AM_5
 62
     2
100
AcDbMText
 10
-99.45000100000003
 20
-0.0000000000004048
 30
0.0
 40
1.9
 41
0.0
 71
     5
 72
     1
  1
%%c7
 11
-0.000000000000002
 21
1.0
 31
0.0
1001
ACAD
1000
MTEXTBEGIN
1070
    73
1070
     1
1070
    44
1040
1.0
1070
    74
1070
     0
1000
MTEXTEND
  0
POINT
  5
2E88
330
1F94
100
AcDbEntity
  8
DEFPOINTS
 62
     0
100
AcDbPoint
 10
-88.50000000000003
 20
-3.500000000000007
 30
0.0
  0
POINT
  5
2E89
330
1F94
100
AcDbEntity
  8
DEFPOINTS
 62
     0
100
AcDbPoint
 10
-88.50000000000001
 20
3.499999999999992
 30
0.0
  0
POINT
  5
2E8A
330
1F94
100
AcDbEntity
  8
DEFPOINTS
 62
     0
100
AcDbPoint
 10
-97.75000100000003
 20
3.499999999999995
 30
0.0
  0
ENDBLK
  5
1FA1
330
1F94
100
AcDbEntity
  8
0
100
AcDbBlockEnd
  0
BLOCK
  5
2586
330
2578
100
AcDbEntity
  8
0
100
AcDbBlockBegin
  2
*D8
 70
     1
 10
0.0
 20
0.0
 30
0.0
  3
*D8
  1

  0
LINE
  5
2EED
330
2578
100
AcDbEntity
  8
AM_5
100
AcDbLine
 10
0.1710079208341267
 20
-0.4698470932250125
 30
0.0
 11
5.152227250416906
 21
-14.15582965651496
 31
0.0
  0
LINE
  5
2EEE
330
2578
100
AcDbEntity
  8
AM_5
100
AcDbLine
 10
0.1710079208341227
 20
0.469847093225014
 30
0.0
 11
5.152227250416785
 21
14.155829656515
 31
0.0
  0
ARC
  5
2EEF
330
2578
100
AcDbEntity
  8
AM_5
100
AcDbCircle
 10
-0.0000000000000284
 20
0.0
 30
0.0
 40
14.56429417212128
100
AcDbArc
 50
294.918735062585
 51
65.08126493741549
  0
INSERT
  5
2EF0
330
2578
100
AcDbEntity
  8
AM_5
100
AcDbBlockReference
  2
_OPEN30
 10
4.981219329582756
 20
-13.68598256328996
 30
0.0
 41
1.25
 42
1.25
 43
1.25
 50
202.4592363891502
  0
INSERT
  5
2EF1
330
2578
100
AcDbEntity
  8
AM_5
100
AcDbBlockReference
  2
_OPEN30
 10
4.981219329582639
 20
13.68598256329
 30
0.0
 41
1.25
 42
1.25
 43
1.25
 50
157.5407636108502
  0
MTEXT
  5
2EF2
330
2578
100
AcDbEntity
  8
AM_5
 62
     2
100
AcDbMText
 10
13.01429417212125
 20
0.0000000000000617
 30
0.0
 40
1.6
 41
0.0
 71
     5
 72
     1
  1
140°
  7
ASAMI
 11
-0.000000000000002
 21
1.0
 31
0.0
  0
POINT
  5
2EF3
330
2578
100
AcDbEntity
  8
DEFPOINTS
 62
     0
100
AcDbPoint
 10
13.37316069178121
 20
-5.768642634440378
 30
0.0
  0
POINT
  5
2EF4
330
2578
100
AcDbEntity
  8
DEFPOINTS
 62
     0
100
AcDbPoint
 10
-0.0000000000000235
 20
0.0000000000000134
 30
0.0
  0
POINT
  5
2EF5
330
2578
100
AcDbEntity
  8
DEFPOINTS
 62
     0
100
AcDbPoint
 10
-0.0000000000000235
 20
-0.0000000000000134
 30
0.0
  0
POINT
  5
2EF6
330
2578
100
AcDbEntity
  8
DEFPOINTS
 62
     0
100
AcDbPoint
 10
-0.2725326313314562
 20
0.748787915877995
 30
0.0
  0
POINT
  5
2EF7
330
2578
100
AcDbEntity
  8
DEFPOINTS
 62
     0
100
AcDbPoint
 10
-0.2725326313314532
 20
-0.7487879158779962
 30
0.0
  0
ENDBLK
  5
2587
330
2578
100
AcDbEntity
  8
0
100
AcDbBlockEnd
  0
BLOCK
  5
2CAF
330
2CA5
100
AcDbEntity
  8
0
100
AcDbBlockBegin
  2
*D9
 70
     1
 10
0.0
 20
0.0
 30
0.0
  3
*D9
  1

  0
LINE
  5
2E8B
330
2CA5
100
AcDbEntity
  8
AM_5
 62
     3
100
AcDbLine
 10
-1.000000000000068
 20
-3.3000124201858
 30
0.0
 11
9.586422120790512
 21
-3.300012420185803
 31
0.0
  0
LINE
  5
2E8C
330
2CA5
100
AcDbEntity
  8
AM_5
 62
     3
100
AcDbLine
 10
-1.000000000000003
 20
3.299987579814181
 30
0.0
 11
9.586422120790512
 21
3.299987579814178
 31
0.0
  0
LINE
  5
2E8D
330
2CA5
100
AcDbEntity
  8
AM_5
 62
     3
100
AcDbLine
 10
9.086422120790512
 20
-2.050012420185803
 30
0.0
 11
9.086422120790512
 21
2.049987579814178
 31
0.0
  0
INSERT
  5
2E8E
330
2CA5
100
AcDbEntity
  8
AM_5
 62
     3
100
AcDbBlockReference
  2
_OPEN30
 10
9.086422120790512
 20
-3.300012420185803
 30
0.0
 41
1.25
 42
1.25
 43
1.25
 50
270.0
  0
INSERT
  5
2E8F
330
2CA5
100
AcDbEntity
  8
AM_5
 62
     3
100
AcDbBlockReference
  2
_OPEN30
 10
9.086422120790512
 20
3.299987579814178
 30
0.0
 41
1.25
 42
1.25
 43
1.25
 50
90.0
  0
MTEXT
  5
2E90
330
2CA5
100
AcDbEntity
  8
AM_5
 62
     2
100
AcDbMText
 10
7.386422120790512
 20
-0.0000124201858106
 30
0.0
 40
1.9
 41
0.0
 71
     5
 72
     1
  1
%%c6.6
 11
0.0000000000000001
 21
1.0
 31
0.0
1001
ACAD
1000
MTEXTBEGIN
1070
    73
1070
     1
1070
    44
1040
1.0
1070
    74
1070
     0
1000
MTEXTEND
  0
POINT
  5
2E91
330
2CA5
100
AcDbEntity
  8
DEFPOINTS
 62
     0
100
AcDbPoint
 10
-1.000000000000068
 20
-3.3000124201858
 30
0.0
  0
POINT
  5
2E92
330
2CA5
100
AcDbEntity
  8
DEFPOINTS
 62
     0
100
AcDbPoint
 10
-1.000000000000003
 20
3.299987579814181
 30
0.0
  0
POINT
  5
2E93
330
2CA5
100
AcDbEntity
  8
DEFPOINTS
 62
     0
100
AcDbPoint
 10
9.086422120790512
 20
3.299987579814178
 30
0.0
  0
ENDBLK
  5
2CB0
330
2CA5
100
AcDbEntity
  8
0
100
AcDbBlockEnd
  0
ENDSEC
  0
SECTION
  2
ENTITIES
  0
LINE
  5
C1D
330
1F
100
AcDbEntity
  8
AM_0
 48
0.5
100
AcDbLine
 10
-0.0000000000000235
 20
-0.0000000000000134
 30
0.0
 11
-0.2725326313314562
 21
0.748787915877995
 31
0.0
  0
DIMENSION
  5
CC6
330
1F
100
AcDbEntity
  8
AM_5
100
AcDbDimension
  2
*D5
 10
-1.00000000000006
 20
-15.50001206798982
 30
0.0
 11
-45.00000000000003
 21
-13.80001206798982
 31
0.0
 70
    32
  1
<>
  3
AM_JIS$0
100
AcDbAlignedDimension
 13
-89.00000000000002
 23
-3.000000000000206
 33
0.0
 14
-1.000000000000059
 24
-3.300012420185816
 34
0.0
 50
0.0000000000001132
100
AcDbRotatedDimension
1001
GENIUS_GENDTOL_13
1000

1000
h7
1000

1040
0.0
1001
ACAD
1000
DSTYLE
1002
{
1070
   271
1070
     0
1002
}
  0
DIMENSION
  5
DF5
330
1F
100
AcDbEntity
  8
AM_5
100
AcDbDimension
  2
*D6
 10
-1.000000000000059
 20
-10.50001206798978
 30
0.0
 11
-18.50000000000004
 21
-8.800012067989783
 31
0.0
 70
    32
  1
<>
  3
AM_JIS$0
100
AcDbAlignedDimension
 13
-36.00000000000003
 23
-3.500000000000061
 33
0.0
 14
-1.000000000000059
 24
-3.300012420185816
 34
0.0
 50
0.0000000000001527
100
AcDbRotatedDimension
1001
GENIUS_GENDTOL_13
1000

1000
h7
1000

1040
0.0
1001
ACAD
1000
DSTYLE
1002
{
1070
   271
1070
     0
1002
}
  0
ARC
  5
144A
330
1F
100
AcDbEntity
  8
AM_11
 48
0.5
100
AcDbCircle
 10
-56.1125742594402
 20
-15.45937617226463
 30
0.0
 40
17.09271208445208
100
AcDbArc
 50
64.74833051131179
 51
115.2516644797366
  0
ARC
  5
144B
330
1F
100
AcDbEntity
  8
AM_11
 48
0.5
100
AcDbCircle
 10
-56.11257425944017
 20
15.45938667054937
 30
0.0
 40
17.09271208445208
100
AcDbArc
 50
244.7482808787518
 51
295.2516148471758
  0
TEXT
  5
19BD
330
1F
100
AcDbEntity
  8
AM_6
100
AcDbText
 10
-56.24999109904179
 20
-26.75001206798985
 30
0.0
 40
2.5
  1
MDW066MHK
 50
0.0000000000001527
 72
     4
 11
-44.99999109904179
 21
-25.50001206798982
 31
0.0
100
AcDbText
  0
LINE
  5
1D14
330
1F
100
AcDbEntity
  8
AM_7
100
AcDbLine
 10
-90.75000000000001
 20
-0.0000000000000486
 30
0.0
 11
2.086421120790518
 21
0.0000000000000011
 31
0.0
1001
GENIUS_GENODEF_13
1002
{
1000
HIER
1070
     0
1002
}
1002
{
1000
MANEDIT
1070
     0
1002
}
1002
{
1000
NOSEL
1070
     0
1002
}
1002
{
1000
BEHIND
1070
     0
1002
}
1002
{
1000
REACTOR
1002
}
1001
GENIUS_GENOBJ-N-CEN_13
1002
{
1000
OWNER
1000
GEN
1002
}
  0
LINE
  5
1D9D
330
1F
100
AcDbEntity
  8
AM_0
100
AcDbLine
 10
-88.50000000000003
 20
-3.500000000000007
 30
0.0
 11
-88.50000000000001
 21
3.499999999999992
 31
0.0
  0
LINE
  5
1D9E
330
1F
100
AcDbEntity
  8
AM_0
 48
0.5
100
AcDbLine
 10
-89.00000000000002
 20
-3.000000000000206
 30
0.0
 11
-89.00000000000003
 21
2.999999999999793
 31
0.0
  0
LINE
  5
1DA2
330
1F
100
AcDbEntity
  8
AM_0
100
AcDbLine
 10
-36.00000000000003
 20
-3.500000000000061
 30
0.0
 11
-36.00000000000005
 21
3.499999999999938
 31
0.0
  0
LINE
  5
1DA4
330
1F
100
AcDbEntity
  8
AM_0
100
AcDbLine
 10
-88.50000000000003
 20
3.499999999999794
 30
0.0
 11
-36.00000000000003
 21
3.499999999999964
 31
0.0
  0
LINE
  5
1DA5
330
1F
100
AcDbEntity
  8
AM_0
100
AcDbLine
 10
-88.50000000000001
 20
-3.500000000000205
 30
0.0
 11
-36.00000000000003
 21
-3.500000000000035
 31
0.0
  0
LINE
  5
1F71
330
1F
100
AcDbEntity
  8
AM_0
100
AcDbLine
 10
-36.00000000000005
 20
3.499999999999938
 30
0.0
 11
-35.65356832609406
 21
3.299987579814494
 31
0.0
  0
LINE
  5
1F72
330
1F
100
AcDbEntity
  8
AM_0
100
AcDbLine
 10
-36.00000000000003
 20
-3.500000000000061
 30
0.0
 11
-35.65361135087844
 21
-3.300012420185487
 31
0.0
  0
ARC
  5
1F77
330
1F
100
AcDbEntity
  8
AM_11
 48
0.5
100
AcDbCircle
 10
-70.69590759277341
 20
15.45938667054932
 30
0.0
 40
17.09271208445208
100
AcDbArc
 50
244.7482808787518
 51
295.2516148471758
  0
ARC
  5
1F78
330
1F
100
AcDbEntity
  8
AM_11
 48
0.5
100
AcDbCircle
 10
-70.69590759277343
 20
-15.45937617226467
 30
0.0
 40
17.09271208445208
100
AcDbArc
 50
64.74833051131179
 51
115.2516644797366
  0
ARC
  5
1F79
330
1F
100
AcDbEntity
  8
AM_11
 48
0.5
100
AcDbCircle
 10
-85.27924092610664
 20
15.45938667054929
 30
0.0
 40
17.09271208445208
100
AcDbArc
 50
257.4271351938719
 51
295.2516148471758
  0
ARC
  5
1F7A
330
1F
100
AcDbEntity
  8
AM_11
 48
0.5
100
AcDbCircle
 10
-85.27924092610666
 20
-15.45937617226471
 30
0.0
 40
17.09271208445208
100
AcDbArc
 50
64.74833051131179
 51
102.5728648061279
  0
DIMENSION
  5
1F93
330
1F
100
AcDbEntity
  8
AM_5
100
AcDbDimension
  2
*D7
 10
-97.75000100000003
 20
3.499999999999995
 30
0.0
 11
-97.75000100000003
 21
-0.000000000000204
 31
0.0
 70
   160
  1
%%c<>
 51
359.9999999999998
  3
AM_JIS$0
100
AcDbAlignedDimension
 13
-88.50000000000003
 23
-3.500000000000007
 33
0.0
 14
-88.50000000000001
 24
3.499999999999992
 34
0.0
 50
270.0000000000002
100
AcDbRotatedDimension
1001
ACAD
1000
DSTYLE
1002
{
1070
   271
1070
     0
1002
}
1001
GENIUS_GENDTOL_13
1000

1000
h7
1000

1040
0.0
  0
ELLIPSE
  5
231A
330
1F
100
AcDbEntity
  8
AM_11
 48
0.5
100
AcDbEllipse
 10
2.220759073889093
 20
15.21399958054064
 30
0.0
 11
-17.09271208445214
 21
0.0000000000021758
 31
0.0
210
0.0
220
0.0
230
1.0
 40
0.9841269841269811
 41
1.130070686340432
 42
1.291800737381121
  0
ELLIPSE
  5
2324
330
1F
100
AcDbEntity
  8
AM_11
 48
0.5
100
AcDbEllipse
 10
-41.52924092610689
 20
-15.21398924889526
 30
0.0
 11
-17.09271208445209
 21
0.0000000000000504
 31
0.0
210
0.0
220
0.0
230
1.0
 40
0.9841269841269831
 41
4.271664206181688
 42
5.153113667164995
  0
ELLIPSE
  5
2325
330
1F
100
AcDbEntity
  8
AM_11
 48
0.5
100
AcDbEllipse
 10
-41.52924092610684
 20
15.21399958054073
 30
0.0
 11
-17.09271208445209
 21
0.000000000000001
 31
0.0
210
0.0
220
0.0
230
1.0
 40
0.9841269841269829
 41
1.130070686340305
 42
2.011520147323597
  0
ELLIPSE
  5
2327
330
1F
100
AcDbEntity
  8
AM_11
 48
0.5
100
AcDbEllipse
 10
-26.94590759277759
 20
15.2139995805407
 30
0.0
 11
17.09271208445209
 21
0.0000000000000162
 31
0.0
210
0.0
220
0.0
230
1.0
 40
0.9841269841269825
 41
4.271663339930097
 42
5.153112800913389
  0
ELLIPSE
  5
2328
330
1F
100
AcDbEntity
  8
AM_11
 48
0.5
100
AcDbEllipse
 10
-26.94590759277765
 20
-15.21398924889529
 30
0.0
 11
-17.09271208445208
 21
0.000000000000001
 31
0.0
210
0.0
220
0.0
230
1.0
 40
0.9841269841269834
 41
4.271664206181685
 42
5.153113667164991
  0
ELLIPSE
  5
232D
330
1F
100
AcDbEntity
  8
AM_11
 48
0.5
100
AcDbEllipse
 10
-12.36257425944431
 20
-15.21398924889532
 30
0.0
 11
-17.09271208445209
 21
0.0000000000000162
 31
0.0
210
0.0
220
0.0
230
1.0
 40
0.9841269841269831
 41
4.271664206181686
 42
5.153113667164992
  0
ELLIPSE
  5
232E
330
1F
100
AcDbEntity
  8
AM_11
 48
0.5
100
AcDbEllipse
 10
-12.36257425944425
 20
15.21399958054067
 30
0.0
 11
17.09271208445209
 21
0.0000000000000162
 31
0.0
210
0.0
220
0.0
230
1.0
 40
0.9841269841269829
 41
4.271663339930097
 42
5.153112800913389
  0
LINE
  5
2398
330
1F
100
AcDbEntity
  8
AM_0
100
AcDbLine
 10
-35.65361135087844
 20
-3.300012420185482
 30
0.0
 11
-35.65360934002444
 21
-2.99154751706074
 31
0.0
  0
ELLIPSE
  5
23D5
330
1F
100
AcDbEntity
  8
AM_0
 48
0.5
100
AcDbEllipse
 10
4.537164231286244
 20
3.856893983336729
 30
0.0
 11
4.694067341354348
 21
3.2852998629697
 31
0.0
210
0.0
220
0.0
230
1.0
 40
0.753929342490717
 41
2.621800558379187
 42
3.092617221329952
  0
LINE
  5
2500
330
1F
100
AcDbEntity
  8
AM_0
 48
0.5
100
AcDbLine
 10
-88.50000000000003
 20
3.499999999999794
 30
0.0
 11
-89.00000000000003
 21
2.999999999999793
 31
0.0
1001
GENIUS_GENFIL_13
1070
     0
1040
0.5
1040
0.5
1040
20.0
1040
0.0
1002
{
1002
}
1001
GENIUS_GENODEF_13
1002
{
1000
HIER
1070
     0
1002
}
1002
{
1000
MANEDIT
1070
     0
1002
}
1002
{
1000
NOSEL
1070
     0
1002
}
1002
{
1000
BEHIND
1070
     0
1002
}
1002
{
1000
REACTOR
1002
}
1001
GENIUS_GENOBJ-N-CHA_13
1002
{
1000
OWNER
1000
GEN
1002
}
  0
LINE
  5
2503
330
1F
100
AcDbEntity
  8
AM_0
100
AcDbLine
 10
-89.00000000000002
 20
-3.000000000000206
 30
0.0
 11
-88.50000000000001
 21
-3.500000000000205
 31
0.0
1001
GENIUS_GENFIL_13
1070
     0
1040
0.5
1040
0.5
1040
20.0
1040
0.0
1002
{
1002
}
1001
GENIUS_GENODEF_13
1002
{
1000
HIER
1070
     0
1002
}
1002
{
1000
MANEDIT
1070
     0
1002
}
1002
{
1000
NOSEL
1070
     0
1002
}
1002
{
1000
BEHIND
1070
     0
1002
}
1002
{
1000
REACTOR
1002
}
1001
GENIUS_GENOBJ-N-CHA_13
1002
{
1000
OWNER
1000
GEN
1002
}
  0
ELLIPSE
  5
2567
330
1F
100
AcDbEntity
  8
AM_0
 48
0.5
100
AcDbEllipse
 10
4.537164231286259
 20
-3.856893983336711
 30
0.0
 11
4.645458860676204
 21
-3.357654964305418
 31
0.0
210
0.0
220
0.0
230
-1.0
 40
0.7713757486121493
 41
2.613281070465999
 42
3.074038162807732
  0
LINE
  5
2568
330
1F
100
AcDbEntity
  8
AM_0
 48
0.5
100
AcDbLine
 10
-0.7804932361520569
 20
-2.763326247473123
 30
0.0
 11
-1.000000000000059
 21
-3.300012420185816
 31
0.0
  0
LINE
  5
2569
330
1F
100
AcDbEntity
  8
AM_0
 48
0.5
100
AcDbLine
 10
-0.0000000000000235
 20
0.0000000000000134
 30
0.0
 11
-0.2725326313314532
 21
-0.7487879158779962
 31
0.0
  0
DIMENSION
  5
2577
330
1F
100
AcDbEntity
  8
AM_5
100
AcDbDimension
  2
*D8
 10
-0.2725326313314532
 20
-0.7487879158779962
 30
0.0
 11
13.01429417212125
 21
0.0000000000000333
 31
0.0
 70
    34
  1
<>
 51
359.9999999999998
  3
AM_JIS$2
100
AcDb2LineAngularDimension
 13
-0.0000000000000235
 23
-0.0000000000000134
 33
0.0
 14
-0.2725326313314562
 24
0.748787915877995
 34
0.0
 15
-0.0000000000000235
 25
0.0000000000000134
 35
0.0
 16
13.37316069178121
 26
-5.768642634440378
 36
0.0
1001
GENIUS_GENDTOL_13
1000

1000
h7
1000

1040
0.0
1001
ACAD
1000
DSTYLE
1002
{
1070
   271
1070
     0
1002
}
  0
LINE
  5
2CA2
330
1F
100
AcDbEntity
  8
AM_0
 48
0.5
100
AcDbLine
 10
-0.0000000000000175
 20
-0.0000000000000081
 30
0.0
 11
-1.412443883655238
 21
1.283836862822867
 31
0.0
  0
DIMENSION
  5
2CA4
330
1F
100
AcDbEntity
  8
AM_5
100
AcDbDimension
  2
*D9
 10
9.086422120790512
 20
3.299987579814178
 30
0.0
 11
9.086422120790512
 21
-0.0000124201858108
 31
0.0
 70
   160
  1
%%c<>
  3
AM_JIS$0
100
AcDbAlignedDimension
 13
-1.000000000000068
 23
-3.3000124201858
 33
0.0
 14
-1.000000000000003
 24
3.299987579814181
 34
0.0
 50
89.99999999999932
100
AcDbRotatedDimension
1001
ACAD
1000
DSTYLE
1002
{
1070
   271
1070
     1
1002
}
1001
GENIUS_GENDTOL_13
1000

1000
h7
1000

1040
0.0
  0
SPLINE
  5
2CB8
330
1F
100
AcDbEntity
  8
AM_0
 48
0.5
100
AcDbSpline
210
0.0
220
0.0
230
1.0
 70
     8
 71
     3
 72
    10
 73
     6
 74
     0
 42
0.0000000001
 43
0.0000000001
 40
0.0
 40
0.0
 40
0.0
 40
0.0
 40
2.69986029516136
 40
4.147722969032201
 40
6.285750005020438
 40
6.285750005020438
 40
6.285750005020438
 40
6.285750005020438
 10
-3.590076789404564
 20
0.5972699894821327
 30
0.0
 10
-2.984703080747244
 20
0.2906771854543518
 30
0.0
 10
-2.3857970842661
 20
-0.180333117443569
 30
0.0
 10
-0.9694648550786988
 20
0.0476912215936723
 30
0.0
 10
-1.236201410397492
 20
0.8157073675822193
 30
0.0
 10
-1.412443883655238
 20
1.283836862822867
 30
0.0
  0
ELLIPSE
  5
2CB9
330
1F
100
AcDbEntity
  8
AM_0
 48
0.5
100
AcDbEllipse
 10
-0.8249556344998483
 20
-0.6867655790842155
 30
0.0
 11
-0.4678709499517663
 21
0.2771149564925513
 31
0.0
210
0.0
220
0.0
230
1.0
 40
0.5037572723872023
 41
4.492763141014723
 42
7.636203482344233
  0
ELLIPSE
  5
2CBA
330
1F
100
AcDbEntity
  8
AM_0
 48
0.5
100
AcDbEllipse
 10
-0.8249556344998483
 20
-0.6867655790842155
 30
0.0
 11
-0.0931504512035198
 21
0.5418025459000166
 31
0.0
210
0.0
220
0.0
230
1.0
 40
0.492865013225179
 41
1.809261837048035
 42
4.944603726760011
  0
ELLIPSE
  5
2CBB
330
1F
100
AcDbEntity
  8
AM_0
 48
0.5
100
AcDbEllipse
 10
-5.683936326839667
 20
5.538583923808165
 30
0.0
 11
-4.118277875340328
 21
6.765794884505908
 31
0.0
210
0.0
220
0.0
230
1.0
 40
0.6817581708952299
 41
3.117792094035123
 42
3.256871223408984
  0
ELLIPSE
  5
2CBC
330
1F
100
AcDbEntity
  8
AM_0
 48
0.5
100
AcDbEllipse
 10
3.663565270375142
 20
-0.9387098663802857
 30
0.0
 11
-3.114347562819379
 21
8.376546584300447
 31
0.0
210
0.0
220
0.0
230
1.0
 40
0.5824693746000016
 41
1.398776470691818
 42
1.636649360749372
  0
ELLIPSE
  5
2CBD
330
1F
100
AcDbEntity
  8
AM_0
 48
0.5
100
AcDbEllipse
 10
-5.885029805373456
 20
6.276950779660252
 30
0.0
 11
-3.217717072636534
 21
8.009546171569178
 31
0.0
210
0.0
220
0.0
230
1.0
 40
0.9765765277560896
 41
3.428280789540465
 42
3.52085722406052
  0
ELLIPSE
  5
2CBE
330
1F
100
AcDbEntity
  8
AM_0
 48
0.5
100
AcDbEllipse
 10
2.353078204780438
 20
3.961840607157839
 30
0.0
 11
-18.5491180432546
 21
18.11691613391154
 31
0.0
210
0.0
220
0.0
230
1.0
 40
0.2536698603259075
 41
1.497422169615522
 42
1.601202206577694
  0
LINE
  5
2E34
330
1F
100
AcDbEntity
  8
AM_0
 48
0.5
100
AcDbLine
 10
-3.204200599399672
 20
-3.300012420185817
 30
0.0
 11
-1.000000000000053
 21
-3.3000124201858
 31
0.0
  0
LINE
  5
2E35
330
1F
100
AcDbEntity
  8
AM_0
 48
0.5
100
AcDbLine
 10
-0.7671897959189299
 20
2.763326247473122
 30
0.0
 11
-1.000000000000066
 21
3.299987579814183
 31
0.0
  0
LINE
  5
2E36
330
1F
100
AcDbEntity
  8
AM_0
 48
0.5
100
AcDbLine
 10
-2.914762823713124
 20
3.299987579814275
 30
0.0
 11
-1.000000000000066
 21
3.299987579814181
 31
0.0
  0
ELLIPSE
  5
2E37
330
1F
100
AcDbEntity
  8
AM_0
 48
0.5
100
AcDbEllipse
 10
-35.14951812538015
 20
-2.233699086450052
 30
0.0
 11
-0.8507613211315078
 21
0.0000000000005358
 31
0.0
210
0.0
220
0.0
230
1.0
 40
0.9697196846029157
 41
4.317028824483665
 42
6.257553905069971
  0
LINE
  5
2E38
330
1F
100
AcDbEntity
  8
AM_0
 48
0.5
100
AcDbLine
 10
-28.17453805471125
 20
1.572334397227664
 30
0.0
 11
-36.00000000000004
 21
-0.2670710118041397
 31
0.0
  0
LINE
  5
2E39
330
1F
100
AcDbEntity
  8
AM_0
 48
0.5
100
AcDbLine
 10
-26.71237757744153
 20
-3.300012420185593
 30
0.0
 11
-14.00825664683757
 21
-3.300012420185711
 31
0.0
  0
LINE
  5
2E3A
330
1F
100
AcDbEntity
  8
AM_0
100
AcDbLine
 10
-34.86608547574781
 20
-3.300012420185494
 30
0.0
 11
-35.65361135087845
 21
-3.300012420185487
 31
0.0
  0
LINE
  5
2E3B
330
1F
100
AcDbEntity
  8
AM_11
 48
0.5
100
AcDbLine
 10
-34.86608547574781
 20
-3.300012420185494
 30
0.0
 11
-26.71237757744153
 21
-3.300012420185593
 31
0.0
  0
LINE
  5
2E3C
330
1F
100
AcDbEntity
  8
AM_11
 48
0.5
100
AcDbLine
 10
-14.00825664683757
 20
-3.300012420185711
 30
0.0
 11
-3.204200599399672
 21
-3.300012420185817
 31
0.0
  0
SPLINE
  5
2E3D
330
1F
100
AcDbEntity
  8
AM_0
100
AcDbSpline
210
0.0
220
0.0
230
1.0
 70
     8
 71
     3
 72
    22
 73
    18
 74
     0
 42
0.0000000001
 43
0.0000000001
 40
17.17441611292
 40
17.17441611292
 40
17.17441611292
 40
17.17441611292
 40
17.38177636558528
 40
18.41823744757437
 40
19.46215659509824
 40
20.51397914882054
 40
21.57394542641293
 40
22.64209583141747
 40
23.71826625065247
 40
24.80210429862395
 40
25.8930771157021
 40
26.99048705697709
 40
28.09349309193389
 40
29.20112995599786
 40
30.31233024745139
 40
31.42594771747373
 40
32.5407895042663
 40
32.54078950426994
 40
32.54078950426994
 40
32.54078950426994
 10
-16.19733974282535
 20
-2.963438402501121
 30
0.0
 10
-16.23574493789745
 20
-2.95579922617096
 30
0.0
 10
-16.46596310805603
 20
-2.909268168161399
 30
0.0
 10
-16.88770982304431
 20
-2.815967340700181
 30
0.0
 10
-17.46098825027702
 20
-2.67177444933769
 30
0.0
 10
-18.03420826164137
 20
-2.511115645880965
 30
0.0
 10
-18.60737390403851
 20
-2.334993802417019
 30
0.0
 10
-19.18048442035649
 20
-2.144488806245718
 30
0.0
 10
-19.75354686492116
 20
-1.940786257989545
 30
0.0
 10
-20.32656389117279
 20
-1.725138047968667
 30
0.0
 10
-20.89954080088145
 20
-1.498874066878114
 30
0.0
 10
-21.47248396518708
 20
-1.26339022016321
 30
0.0
 10
-22.04539835689064
 20
-1.020134505118635
 30
0.0
 10
-22.6182897433018
 20
-0.7706034720086185
 30
0.0
 10
-23.19116320260407
 20
-0.5163314542338727
 30
0.0
 10
-23.76402722141956
 20
-0.2588874475801525
 30
0.0
 10
-24.14586160306548
 20
-0.0862252132523984
 30
0.0
 10
-24.33688368654213
 20
0.0001533284212243
 30
0.0
  0
SPLINE
  5
2E3E
330
1F
100
AcDbEntity
  8
AM_0
100
AcDbSpline
210
0.0
220
0.0
230
1.0
 70
     8
 71
     3
 72
    13
 73
     9
 74
     0
 42
0.0000000001
 43
0.0000000001
 40
16.03460056234195
 40
16.03460056234195
 40
16.03460056234195
 40
16.03460056234195
 40
16.35212717791071
 40
17.38177067057215
 40
18.41822498539278
 40
19.46214186516937
 40
20.5139635832251
 40
21.34083983469381
 40
21.34083983469381
 40
21.34083983469381
 40
21.34083983469381
 10
-34.86572366902668
 20
-3.30001242018551
 30
0.0
 10
-34.70334669483609
 20
-3.289344530357955
 30
0.0
 10
-34.4535989842451
 20
-3.240833343683913
 30
0.0
 10
-34.01366630629022
 20
-3.145779359427521
 30
0.0
 10
-33.44395195440598
 20
-3.004437166455509
 30
0.0
 10
-32.87476687105539
 20
-2.845732896922057
 30
0.0
 10
-32.34808342454928
 20
-2.683522889329704
 30
0.0
 10
-32.01206866052367
 20
-2.571829755215278
 30
0.0
 10
-31.86466099742337
 20
-2.521343440847531
 30
0.0
  0
SPLINE
  5
2E3F
330
1F
100
AcDbEntity
  8
AM_0
 48
0.5
100
AcDbSpline
210
0.0
220
0.0
230
1.0
 70
     8
 71
     3
 72
    22
 73
    18
 74
     0
 42
0.0000000001
 43
0.0000000001
 40
0.0
 40
0.0
 40
0.0
 40
0.0
 40
1.010743684496582
 40
2.022833993863546
 40
3.037578683882831
 40
4.056212471389632
 40
5.079857945358201
 40
6.109499720892564
 40
7.145961650132166
 40
8.189873411961459
 40
9.241710626092514
 40
10.30166235592959
 40
11.36982472628033
 40
12.44598212828784
 40
13.52983440361964
 40
14.62080578343036
 40
14.90544694398022
 40
14.90544694398022
 40
14.90544694398022
 40
14.90544694398022
 10
-26.71237757744153
 20
-3.300012420185593
 30
0.0
 10
-26.92383877238143
 20
-3.298221467206948
 30
0.0
 10
-27.30629310497952
 20
-3.294293185148648
 30
0.0
 10
-27.87983459255072
 20
-3.262608541362957
 30
0.0
 10
-28.4533528193438
 20
-3.212260739676248
 30
0.0
 10
-29.02683523536145
 20
-3.141684433918781
 30
0.0
 10
-29.60027456701851
 20
-3.051836293587361
 30
0.0
 10
-30.17366483202422
 20
-2.943141657508608
 30
0.0
 10
-30.74699762817606
 20
-2.816303114718905
 30
0.0
 10
-31.32027689791043
 20
-2.67210751982293
 30
0.0
 10
-31.89349747800382
 20
-2.511455206009008
 30
0.0
 10
-32.46666236405061
 20
-2.335323921355413
 30
0.0
 10
-33.03977525085837
 20
-2.144834469754617
 30
0.0
 10
-33.61283570795206
 20
-1.941119302932344
 30
0.0
 10
-34.18585447094427
 20
-1.725476178733985
 30
0.0
 10
-34.61651811642099
 20
-1.555418243580487
 30
0.0
 10
-34.85649892827895
 20
-1.458218594212015
 30
0.0
 10
-34.82185541118483
 20
-1.472341307759819
 30
0.0
  0
SPLINE
  5
2E40
330
1F
100
AcDbEntity
  8
AM_0
100
AcDbSpline
210
0.0
220
0.0
230
1.0
 70
     8
 71
     3
 72
    17
 73
    13
 74
     0
 42
0.0000000001
 43
0.0000000001
 40
1.580019955310467
 40
1.580019955310467
 40
1.580019955310467
 40
1.580019955310467
 40
2.030549285115227
 40
3.082371838836284
 40
4.126290986361125
 40
5.162752068350215
 40
6.192395305374981
 40
7.216039564037012
 40
8.234688489606833
 40
9.249433870634691
 40
10.26152376260694
 40
11.27226744710342
 40
11.27226744710342
 40
11.27226744710342
 40
11.27226744710352
 10
-8.605807160129222
 20
-2.435511692007749
 30
0.0
 10
-8.686953792369315
 20
-2.460595289637545
 30
0.0
 10
-8.958010806251971
 20
-2.542810131262612
 30
0.0
 10
-9.420772348276083
 20
-2.671767052049592
 30
0.0
 10
-9.993970976463367
 20
-2.816181696025267
 30
0.0
 10
-10.56732740569631
 20
-2.942958579266024
 30
0.0
 10
-11.14071010592075
 20
-3.051671956504446
 30
0.0
 10
-11.7141552751627
 20
-3.141531041384416
 30
0.0
 10
-12.28764006208592
 20
-3.21202304773089
 30
0.0
 10
-12.86116055876267
 20
-3.262691163755849
 30
0.0
 10
-13.4347026351331
 20
-3.293209232912233
 30
0.0
 10
-13.81715682179554
 20
-3.300014537142105
 30
0.0
 10
-14.00825664683754
 20
-3.300012420185711
 30
0.0
  0
SPLINE
  5
2E41
330
1F
100
AcDbEntity
  8
AM_0
100
AcDbSpline
210
0.0
220
0.0
230
1.0
 70
     8
 71
     3
 72
    11
 73
     7
 74
     0
 42
0.0000000001
 43
0.0000000001
 40
11.27226913003534
 40
11.27226913003534
 40
11.27226913003534
 40
11.2722691300354
 40
12.28301561507924
 40
13.29510212255852
 40
14.30984805882082
 40
15.18258238371378
 40
15.18258238371378
 40
15.18258238371378
 40
15.18258238371378
 10
-14.00825664683757
 20
-3.300012420185711
 30
0.0
 10
-14.19862981626422
 20
-3.283863359285571
 30
0.0
 10
-14.57901707511924
 20
-3.24476210633728
 30
0.0
 10
-15.14763371451146
 20
-3.165885207468592
 30
0.0
 10
-15.68726093156729
 20
-3.07167540028462
 30
0.0
 10
-16.03626014007685
 20
-2.999253517638556
 30
0.0
 10
-16.19708891310143
 20
-2.963479107975885
 30
0.0
  0
SPLINE
  5
2E42
330
1F
100
AcDbEntity
  8
AM_0
 48
0.5
100
AcDbSpline
210
0.0
220
0.0
230
1.0
 70
     8
 71
     3
 72
    26
 73
    22
 74
     0
 42
0.0000000001
 43
0.0000000001
 40
0.0
 40
0.0
 40
0.0
 40
0.0
 40
0.2526859211241313
 40
0.5057083941171959
 40
0.7593947393741639
 40
1.01405318625086
 40
1.26996425091637
 40
1.527375060172565
 40
1.786490330669834
 40
2.047470117551047
 40
2.310425755981314
 40
2.575417325379407
 40
2.842456731169063
 40
3.111495753801943
 40
3.382458822635121
 40
3.655202026904655
 40
3.929554512223505
 40
4.205306020962704
 40
4.482215236978595
 40
4.76001530984208
 40
5.029821427366006
 40
5.029821427366006
 40
5.029821427366006
 40
5.029821427366006
 10
-25.12721077871407
 20
-3.300184300683917
 30
0.0
 10
-25.31831060630024
 20
-3.298220880716858
 30
0.0
 10
-25.70076478694765
 20
-3.294291425707639
 30
0.0
 10
-26.27430687513749
 20
-3.262615604299637
 30
0.0
 10
-26.84782448264305
 20
-3.212259329863354
 30
0.0
 10
-27.42130658876154
 20
-3.141683070713052
 30
0.0
 10
-27.99474750092737
 20
-3.051843381434427
 30
0.0
 10
-28.56813579397314
 20
-2.943139346589232
 30
0.0
 10
-29.14147108644899
 20
-2.816305412814293
 30
0.0
 10
-29.71474946822098
 20
-2.672111905544706
 30
0.0
 10
-30.28796958400343
 20
-2.511453521401005
 30
0.0
 10
-30.86113615141936
 20
-2.335330211529195
 30
0.0
 10
-31.43424679545375
 20
-2.144829480597134
 30
0.0
 10
-32.00730800961143
 20
-1.941119907327579
 30
0.0
 10
-32.58032745611597
 20
-1.725477912434894
 30
0.0
 10
-33.15330637304699
 20
-1.499211635831786
 30
0.0
 10
-33.72624903166124
 20
-1.263726818101531
 30
0.0
 10
-34.29916595337653
 20
-1.020476349728042
 30
0.0
 10
-34.87204767010481
 20
-0.7709251851295044
 30
0.0
 10
-35.43904464694772
 20
-0.5193522304492939
 30
0.0
 10
-35.81470147675116
 20
-0.3503437548145962
 30
0.0
 10
-36.00000000000007
 20
-0.2670710118041359
 30
0.0
  0
ELLIPSE
  5
2E43
330
1F
100
AcDbEntity
  8
AM_0
 48
0.5
100
AcDbEllipse
 10
-34.86572331293594
 20
-2.200184300683501
 30
0.0
 11
1.134342863356303
 21
0.0029322466077909
 31
0.0
210
0.0
220
0.0
230
1.0
 40
0.9695694839587963
 41
3.150175087499753
 42
4.709882359980096
  0
LINE
  5
2E44
330
1F
100
AcDbEntity
  8
AM_0
100
AcDbLine
 10
-26.13107690398959
 20
3.299987579814405
 30
0.0
 11
-13.82250787338276
 21
3.299987579814481
 31
0.0
  0
LINE
  5
2E45
330
1F
100
AcDbEntity
  8
AM_0
100
AcDbLine
 10
-33.74962041915742
 20
3.299987579814471
 30
0.0
 11
-35.65356832609406
 21
3.299987579814494
 31
0.0
  0
LINE
  5
2E46
330
1F
100
AcDbEntity
  8
AM_11
 48
0.5
100
AcDbLine
 10
-33.74962041915742
 20
3.299987579814471
 30
0.0
 11
-26.13107690398959
 21
3.299987579814405
 31
0.0
  0
LINE
  5
2E47
330
1F
100
AcDbEntity
  8
AM_11
 48
0.5
100
AcDbLine
 10
-13.82230155119628
 20
3.299985481740713
 30
0.0
 11
-3.299408254419596
 21
3.29998548174025
 31
0.0
  0
SPLINE
  5
2E48
330
1F
100
AcDbEntity
  8
AM_0
 48
0.5
100
AcDbSpline
210
0.0
220
0.0
230
1.0
 70
     8
 71
     3
 72
    25
 73
    21
 74
     0
 42
0.0000000001
 43
0.0000000001
 40
6.846175049578289
 40
6.846175049578289
 40
6.846175049578289
 40
6.846175049578289
 40
7.604337694224321
 40
8.711974558287883
 40
9.814980593243754
 40
10.91239053451967
 40
12.0033633515982
 40
13.08720139956839
 40
14.16337181880432
 40
15.23152222380919
 40
16.29148850140128
 40
17.34331105512262
 40
18.38723020264746
 40
19.42369128463655
 40
20.45333379090873
 40
21.47697865721768
 40
22.49561244472435
 40
23.5103574802404
 40
24.52244778960836
 40
25.53320666051913
 40
25.53320666051913
 40
25.53320666051913
 40
25.53320666051913
 10
-3.590076789404572
 20
0.5973091844220547
 30
0.0
 10
-3.721616333575692
 20
0.6552513153936636
 30
0.0
 10
-4.04560525804947
 20
0.7972641253192123
 30
0.0
 10
-4.562525044821694
 20
1.020275359063554
 30
0.0
 10
-5.14093779564657
 20
1.263531142845386
 30
0.0
 10
-5.719379635224361
 20
1.499014971256654
 30
0.0
 10
-6.297855533448463
 20
1.725278957292542
 30
0.0
 10
-6.876371935967981
 20
1.940927165695962
 30
0.0
 10
-7.454934192242467
 20
2.144629715506076
 30
0.0
 10
-8.03354498071045
 20
2.335134707112335
 30
0.0
 10
-8.612211428372511
 20
2.51125656711167
 30
0.0
 10
-9.190932751645187
 20
2.671915309641395
 30
0.0
 10
-9.76971310736233
 20
2.816108425830265
 30
0.0
 10
-10.34855045298143
 20
2.942943526963611
 30
0.0
 10
-10.92744252727126
 20
3.051643204617729
 30
0.0
 10
-11.50638610896957
 20
3.141486946910188
 30
0.0
 10
-12.08537218994663
 20
3.212063563051752
 30
0.0
 10
-12.66439438918823
 20
3.262414447491155
 30
0.0
 10
-13.2434433074193
 20
3.294099119225098
 30
0.0
 10
-13.62957106777
 20
3.29802562109198
 30
0.0
 10
-13.82250787338274
 20
3.299987579814481
 30
0.0
  0
SPLINE
  5
2E49
330
1F
100
AcDbEntity
  8
AM_0
100
AcDbSpline
210
0.0
220
0.0
230
1.0
 70
     8
 71
     3
 72
    46
 73
    42
 74
     0
 42
0.0000000001
 43
0.0000000001
 40
0.0
 40
0.0
 40
0.0
 40
0.0
 40
0.5056245176053715
 40
0.759310862862336
 40
1.013969309739036
 40
1.269880374404297
 40
1.527291183660732
 40
1.786406454158005
 40
2.047386241038974
 40
2.310345544571907
 40
2.575337113970003
 40
2.842374715221223
 40
3.111417320030211
 40
3.382376832022752
 40
3.655120036292296
 40
3.929472521611371
 40
4.205224030350333
 40
4.482133246366229
 40
4.759933319229942
 40
5.038338087391601
 40
5.317048131389549
 40
5.595758175387723
 40
5.874162943549383
 40
6.151963016412869
 40
6.428872232428759
 40
6.704623741167955
 40
6.978976226486705
 40
7.251719430756336
 40
7.522680721168327
 40
7.791723325977311
 40
8.058760927228529
 40
8.32375249662655
 40
8.586708135057122
 40
8.84768792193809
 40
9.106803192435362
 40
9.364213819003406
 40
9.620125035580644
 40
9.87478726697307
 40
10.12847352585208
 40
10.38149610319407
 40
10.63418200686337
 40
10.63418200686337
 40
10.63418200686337
 40
10.63418200686337
 10
-1.598672469811394
 20
-3.300014518259859
 30
0.0
 10
-1.981145336514359
 20
-3.292496863166832
 30
0.0
 10
-2.555515827512467
 20
-3.281207384558428
 30
0.0
 10
-3.319281316677088
 20
-3.211700138754115
 30
0.0
 10
-3.89276958922452
 20
-3.141618345236371
 30
0.0
 10
-4.466208842176778
 20
-3.051645226865367
 30
0.0
 10
-5.039597564898559
 20
-2.942977188785136
 30
0.0
 10
-5.612932811779479
 20
-2.816133756794244
 30
0.0
 10
-6.186213622569194
 20
-2.67194123533239
 30
0.0
 10
-6.759437445965564
 20
-2.511284987826415
 30
0.0
 10
-7.332605427705585
 20
-2.335161463901679
 30
0.0
 10
-7.905716026141671
 20
-2.144656703048824
 30
0.0
 10
-8.478778448602172
 20
-1.94095409133661
 30
0.0
 10
-9.05179548028501
 20
-1.725305897339726
 30
0.0
 10
-9.624772390616223
 20
-1.499041916291194
 30
0.0
 10
-10.19771554687676
 20
-1.263558053082371
 30
0.0
 10
-10.77062997036947
 20
-1.02030240446551
 30
0.0
 10
-11.34352123699718
 20
-0.7707711207294363
 30
0.0
 10
-11.91639542104045
 20
-0.5164999207103638
 30
0.0
 10
-12.48925775574241
 20
-0.2590523935513997
 30
0.0
 10
-13.06211527486242
 20
-0.0000145183117762
 30
0.0
 10
-13.63497279385662
 20
0.2590233572426107
 30
0.0
 10
-14.20783512893606
 20
0.5164708834577083
 30
0.0
 10
-14.78070931159956
 20
0.7707420869262764
 30
0.0
 10
-15.35360058334352
 20
1.0202733578694
 30
0.0
 10
-15.92651498786568
 20
1.263529053921147
 30
0.0
 10
-16.49945821438071
 20
1.499012741461922
 30
0.0
 10
-17.07243611046901
 20
1.725277864196401
 30
0.0
 10
-17.64545536861959
 20
1.940924098920132
 30
0.0
 10
-18.21851881333559
 20
2.144627755149574
 30
0.0
 10
-18.79162939842805
 20
2.335132572687742
 30
0.0
 10
-19.36479502565912
 20
2.511254478187804
 30
0.0
 10
-19.93801502978304
 20
2.671913210909834
 30
0.0
 10
-20.51129350047895
 20
2.816106321413922
 30
0.0
 10
-21.08462841554354
 20
2.942941454641572
 30
0.0
 10
-21.65801755863881
 20
3.051641010735032
 30
0.0
 10
-22.23146047132464
 20
3.141485646339311
 30
0.0
 10
-22.80494578883239
 20
3.212060802627776
 30
0.0
 10
-23.37846658759767
 20
3.262412460425696
 30
0.0
 10
-23.95200820474132
 20
3.294096828298595
 30
0.0
 10
-24.33446254551034
 20
3.298023468642698
 30
0.0
 10
-24.52556240706735
 20
3.299985481741129
 30
0.0
  0
SPLINE
  5
2E4A
330
1F
100
AcDbEntity
  8
AM_0
 48
0.5
100
AcDbSpline
210
0.0
220
0.0
230
1.0
 70
     8
 71
     3
 72
    17
 73
    13
 74
     0
 42
0.0000000001
 43
0.0000000001
 40
0.0
 40
0.0
 40
0.0
 40
0.0
 40
1.010743614677189
 40
2.022833924044153
 40
3.037578959561199
 40
4.056212747067873
 40
5.079857613375832
 40
6.109500119648989
 40
7.14596120163808
 40
8.18989512056258
 40
9.241717674284874
 40
9.693948937866434
 40
9.693948937866434
 40
9.693948937866434
 40
9.693948937866434
 10
-2.914762823713124
 20
3.299987579814275
 30
0.0
 10
-3.107696715234113
 20
3.298025574697632
 30
0.0
 10
-3.493821559555988
 20
3.294098950327768
 30
0.0
 10
-4.072867575153955
 20
3.262414462421194
 30
0.0
 10
-4.65188975176356
 20
3.212063512897385
 30
0.0
 10
-5.230875918121429
 20
3.141487133691426
 30
0.0
 10
-5.809819178670085
 20
3.051642502503506
 30
0.0
 10
-6.388712462189857
 20
2.942946171197882
 30
0.0
 10
-6.967547998959987
 20
2.816097854006313
 30
0.0
 10
-7.54634825012279
 20
2.671951526468657
 30
0.0
 10
-8.013570905817353
 20
2.542097474738598
 30
0.0
 10
-8.287951443009966
 20
2.460920018577601
 30
0.0
 10
-8.370305759577378
 20
2.436072142672454
 30
0.0
  0
SPLINE
  5
2E4B
330
1F
100
AcDbEntity
  8
AM_0
100
AcDbSpline
210
0.0
220
0.0
230
1.0
 70
     8
 71
     3
 72
    23
 73
    19
 74
     0
 42
0.0000000001
 43
0.0000000001
 40
16.03460024169435
 40
16.03460024169435
 40
16.03460024169435
 40
16.03460024169435
 40
16.35212704903564
 40
17.38177054169784
 40
18.41822485651776
 40
19.46214173629503
 40
20.51396345435107
 40
21.57393551351153
 40
22.64208202342361
 40
23.7182574881101
 40
24.80209208578934
 40
25.89306333925047
 40
26.99048218457928
 40
28.09348763352352
 40
29.20111863782268
 40
30.31232390128032
 40
31.42594612798585
 40
32.5407912310448
 40
32.5407912310486
 40
32.5407912310486
 40
32.5407912310486
 10
-33.74962041915742
 20
3.299987579814471
 30
0.0
 10
-33.02315084911664
 20
3.256830059531983
 30
0.0
 10
-32.6871825424003
 20
3.210844754595318
 30
0.0
 10
-32.27720644009378
 20
3.145748695566092
 30
0.0
 10
-31.70749215990547
 20
3.004406110684902
 30
0.0
 10
-31.1383070571382
 20
2.845701947287023
 30
0.0
 10
-30.56961749819028
 20
2.670554704122677
 30
0.0
 10
-30.00140329926139
 20
2.479940830993483
 30
0.0
 10
-29.4336316189327
 20
2.274949957182647
 30
0.0
 10
-28.8662629197424
 20
2.056775078156683
 30
0.0
 10
-28.29926496176323
 20
1.826651705535163
 30
0.0
 10
-27.73259228671293
 20
1.585918873603371
 30
0.0
 10
-27.16619897210803
 20
1.335975825588747
 30
0.0
 10
-26.60004728077749
 20
1.078259629234506
 30
0.0
 10
-26.03408984349688
 20
0.8142688689296729
 30
0.0
 10
-25.46827424062125
 20
0.545545057035752
 30
0.0
 10
-24.90255439878844
 20
0.2736453752747823
 30
0.0
 10
-24.52550913900135
 20
0.0913515059749765
 30
0.0
 10
-24.33688368653958
 20
0.0001533284200481
 30
0.0
  0
SPLINE
  5
2E4C
330
1F
100
AcDbEntity
  8
AM_0
100
AcDbSpline
210
0.0
220
0.0
230
1.0
 70
     8
 71
     3
 72
    55
 73
    51
 74
     0
 42
0.0000000001
 43
0.0000000001
 40
0.0
 40
0.0
 40
0.0
 40
0.0
 40
1.010743684496582
 40
2.022833576467832
 40
3.037578957496688
 40
4.056212745003489
 40
5.079857003664532
 40
6.109500240690281
 40
7.145961322679372
 40
8.189895241603872
 40
9.241717795325891
 40
10.30168407291828
 40
11.36983447792315
 40
12.44600489715814
 40
13.52984294512926
 40
14.62081576220742
 40
15.7182257034828
 40
16.82123173843959
 40
17.92886860250316
 40
19.0400688939571
 40
20.15368796660465
 40
21.26852814259644
 40
22.38336992938901
 40
23.49698739941135
 40
24.6081876908653
 40
25.71582455492886
 40
26.81883757994213
 40
27.91624752121713
 40
29.00722033829659
 40
30.09105838626677
 40
31.16722880550176
 40
32.23537921050758
 40
33.29534548809967
 40
34.347168041821
 40
35.39108718934584
 40
36.42754827133493
 40
37.45720575381954
 40
38.48085062012849
 40
39.49948440763516
 40
40.51422944315121
 40
41.52631975251916
 40
42.53706336719636
 40
43.54780698187354
 40
44.55989729124051
 40
45.57464232675757
 40
46.59327611426424
 40
47.6169209805722
 40
48.64656348684535
 40
49.68302456883444
 40
50.58557219878025
 40
50.58557219878025
 40
50.58557219878025
 40
50.58557219878025
 10
-3.204200599399672
 20
-3.300012420185809
 30
0.0
 10
-3.395300426962827
 20
-3.298051098207166
 30
0.0
 10
-3.777754607564047
 20
-3.29412164302673
 30
0.0
 10
-4.351296696099645
 20
-3.262445822905331
 30
0.0
 10
-4.924814302286018
 20
-3.212089543559705
 30
0.0
 10
-5.498296413363166
 20
-3.141513302863332
 30
0.0
 10
-6.071737306882432
 20
-3.051673544190535
 30
0.0
 10
-6.645125670137089
 20
-2.942969770631205
 30
0.0
 10
-7.218463421085793
 20
-2.816134249549365
 30
0.0
 10
-7.791745475381347
 20
-2.671943660989971
 30
0.0
 10
-8.364967927928219
 20
-2.511283326419577
 30
0.0
 10
-8.938133635923383
 20
-2.335161694150648
 30
0.0
 10
-9.511244134418932
 20
-2.144656640646772
 30
0.0
 10
-10.08430658397151
 20
-1.94095410825758
 30
0.0
 10
-10.65732360827442
 20
-1.725305892689154
 30
0.0
 10
-11.23030052076438
 20
-1.499041917814933
 30
0.0
 10
-11.80324367583283
 20
-1.263558051668842
 30
0.0
 10
-12.37615810193485
 20
-1.020302408612054
 30
0.0
 10
-12.94904935927021
 20
-0.7707711054781549
 30
0.0
 10
-13.52192357801877
 20
-0.516499977792134
 30
0.0
 10
-14.09478578283282
 20
-0.2590521799507396
 30
0.0
 10
-14.66764406341402
 20
-0.000015191579174
 30
0.0
 10
-15.24049977234085
 20
0.2590264596196054
 30
0.0
 10
-15.81336389726413
 20
0.5164702483178503
 30
0.0
 10
-16.38623740879182
 20
0.7707421456680878
 30
0.0
 10
-16.95912968758594
 20
1.020274399405024
 30
0.0
 10
-17.53204649041182
 20
1.263527966475433
 30
0.0
 10
-18.10499054973599
 20
1.499013026852388
 30
0.0
 10
-18.67796754494473
 20
1.725276818249839
 30
0.0
 10
-19.25098454839738
 20
1.940925079168265
 30
0.0
 10
-19.82404699941732
 20
2.144627611855451
 30
0.0
 10
-20.39715751251049
 20
2.335132619806711
 30
0.0
 10
-20.97032316134871
 20
2.511254431912036
 30
0.0
 10
-21.54354315039602
 20
2.671913347853709
 30
0.0
 10
-22.11682165960426
 20
2.816105824950073
 30
0.0
 10
-22.6901591978744
 20
2.942943896534686
 30
0.0
 10
-23.26355165531412
 20
3.051635254614091
 30
0.0
 10
-23.83699444332004
 20
3.141502820591376
 30
0.0
 10
-24.41047672440298
 20
3.211995402263875
 30
0.0
 10
-24.98399472908678
 20
3.262657476950022
 30
0.0
 10
-25.55753633132703
 20
3.293185121933135
 30
0.0
 10
-26.13109053679618
 20
3.303383397991191
 30
0.0
 10
-26.70464474142142
 20
3.293185121917186
 30
0.0
 10
-27.2781863461983
 20
3.262657477014265
 30
0.0
 10
-27.85170434154298
 20
3.211995402022261
 30
0.0
 10
-28.42518665764063
 20
3.14150282149998
 30
0.0
 10
-28.99862651837003
 20
3.051635689317269
 30
0.0
 10
-29.57201671686177
 20
2.942945007845351
 30
0.0
 10
-30.11928584150799
 20
2.821863470383588
 30
0.0
 10
-30.47436028205641
 20
2.733315397372485
 30
0.0
 10
-30.63909412723569
 20
2.690161601759029
 30
0.0
  0
LINE
  5
2E5B
330
1F
100
AcDbEntity
  8
AM_0
100
AcDbLine
 10
-35.6536000672713
 20
-1.569107644107513
 30
0.0
 11
-35.65359259390965
 21
-0.4226943392334257
 31
0.0
  0
LINE
  5
2E5C
330
1F
100
AcDbEntity
  8
AM_0
100
AcDbLine
 10
-35.65359104861512
 20
-0.1856462341527622
 30
0.0
 11
-35.65356832609268
 21
3.299987579813698
 31
0.0
  0
VIEWPORT
  5
110
330
101
100
AcDbEntity
 67
     1
  8
0
100
AcDbViewport
 10
420.5
 20
297.0
 30
0.0
 40
948.9782706766916
 41
628.452
 68
     1
 69
     1
1001
ACAD
1000
MVIEW
1002
{
1070
    16
1010
0.0
1020
0.0
1030
0.0
1010
0.0
1020
0.0
1030
1.0
1040
0.0
1040
628.452
1040
420.5
1040
297.0
1040
50.0
1040
0.0
1040
0.0
1070
     0
1070
   100
1070
     1
1070
     1
1070
     0
1070
     0
1070
     0
1070
     0
1040
0.0
1040
0.0
1040
0.0
1040
10.0
1040
10.0
1040
10.0
1040
10.0
1070
     0
1002
{
1002
}
1002
}
  0
ENDSEC
  0
SECTION
  2
OBJECTS
  0
DICTIONARY
  5
C
330
0
100
AcDbDictionary
  3
ACAD_GROUP
350
D
  3
ACAD_LAYOUT
350
1A
  3
ACAD_MLINESTYLE
350
17
  3
ACAD_PLOTSETTINGS
350
19
  3
ACAD_PLOTSTYLENAME
350
E
  3
ACDBVARIABLEDICTIONARY
350
34
  3
ACMDICTIONARY
350
43
  3
AMG
350
2B
  3
AMGSNAPSETTINGS
350
6E
  3
DWGPROPS
350
2EB7
  3
ACDBHEADERROUNDTRIPXREC
350
2EC3
  0
DICTIONARY
  5
74
330
1F
100
AcDbDictionary
280
     1
  3
ACAD_INDEX
360
2EB9
  3
ACAD_LAYOUTSELFREF
360
2EE6
  0
DICTIONARY
  5
2EEB
330
101
100
AcDbDictionary
280
     1
  3
ACAD_LAYOUTSELFREF
360
2EEC
  0
DICTIONARY
  5
D
102
{ACAD_REACTORS
330
C
102
}
330
C
100
AcDbDictionary
  0
DICTIONARY
  5
1A
102
{ACAD_REACTORS
330
C
102
}
330
C
100
AcDbDictionary
  0
DICTIONARY
  5
17
102
{ACAD_REACTORS
330
C
102
}
330
C
100
AcDbDictionary
  3
STANDARD
350
18
  0
DICTIONARY
  5
19
102
{ACAD_REACTORS
330
C
102
}
330
C
100
AcDbDictionary
  0
ACDBDICTIONARYWDFLT
  5
E
102
{ACAD_REACTORS
330
C
102
}
330
C
100
AcDbDictionary
281
     1
  3
Normal
350
F
100
AcDbDictionaryWithDefault
340
F
  0
DICTIONARY
  5
34
102
{ACAD_REACTORS
330
C
102
}
330
C
100
AcDbDictionary
  3
INDEXCTL
350
35
  3
SORTENTS
350
B5E
  0
DICTIONARY
  5
43
102
{ACAD_REACTORS
330
C
102
}
330
C
100
AcDbDictionary
  3
ACMSTDDICTIONARY
350
260
  0
DICTIONARY
  5
2B
102
{ACAD_REACTORS
330
C
102
}
330
C
100
AcDbDictionary
  3
ACMGSETTINGS
350
2C
  0
DICTIONARY
  5
6E
102
{ACAD_REACTORS
330
C
102
}
330
C
100
AcDbDictionary
  0
XRECORD
  5
2EB7
102
{ACAD_REACTORS
330
C
102
}
330
C
100
AcDbXrecord
  1
DWGPROPS COOKIE
  2

  3

  4

  6

  7

  8

  9

300
AmdtFileType=82
301
=
302
=
303
=
304
=
305
=
306
=
307
=
308
=
309
=
 40
0.0773998032407407
 41
2452800.443498622
 42
2452946.608212164
  1

 90
        1
  0
DICTIONARY
  5
2EC3
102
{ACAD_REACTORS
330
C
102
}
330
C
100
AcDbDictionary
  3
TSTACKALIGN
350
2EC4
  3
TSTACKSIZE
350
2EC5
  3
HYPERLINKBASE
350
2EC6
  3
STYLESHEET
350
2EC7
  3
LAYOUTDICT
350
2EC8
  3
PLOTSETDICT
350
2EC9
  3
PLOTSTYLNAMDICT
350
2ECA
  3
LWETCUNION
350
2ECB
  3
INSUNITS
350
2ECC
  3
CEPSNTYPE
350
2ECD
  3
FINGERPRINTGUID
350
2ECE
  3
VERSIONGUID
350
2ECF
  3
PSVPSCALE
350
2ED0
  3
DIMSTYLEDATA
350
2ED1
  3
PUCSORTHOREF
350
2ED2
  3
PUCSORTHOVIEW
350
2ED3
  3
PUCSBASE
350
2ED4
  3
PUCSORGTOP
350
2ED5
  3
PUCSORGBOTTOM
350
2ED6
  3
PUCSORGLEFT
350
2ED7
  3
PUCSORGRIGHT
350
2ED8
  3
PUCSORGFRONT
350
2ED9
  3
PUCSORGBACK
350
2EDA
  3
UCSORTHOREF
350
2EDB
  3
UCSORTHOVIEW
350
2EDC
  3
UCSBASE
350
2EDD
  3
UCSORGTOP
350
2EDE
  3
UCSORGBOTTOM
350
2EDF
  3
UCSORGLEFT
350
2EE0
  3
UCSORGRIGHT
350
2EE1
  3
UCSORGFRONT
350
2EE2
  3
UCSORGBACK
350
2EE3
  0
DICTIONARY
  5
2EB9
102
{ACAD_REACTORS
330
74
102
}
330
74
100
AcDbDictionary
  3
*A1
350
2EBA
  0
XRECORD
  5
2EE6
102
{ACAD_REACTORS
330
74
102
}
330
74
100
AcDbXrecord
340
1F
  0
XRECORD
  5
2EEC
102
{ACAD_REACTORS
330
2EEB
102
}
330
2EEB
100
AcDbXrecord
340
101
  0
MLINESTYLE
  5
18
102
{ACAD_REACTORS
330
17
102
}
330
17
100
AcDbMlineStyle
  2
STANDARD
 70
     0
  3

 62
   256
 51
90.0
 52
90.0
 71
     2
 49
0.5
 62
   256
  6
BYLAYER
 49
-0.5
 62
   256
  6
BYLAYER
  0
ACDBPLACEHOLDER
  5
F
102
{ACAD_REACTORS
330
E
102
}
330
E
100
AcDbPlaceHolder
280
     0
  0
DICTIONARYVAR
  5
35
102
{ACAD_REACTORS
330
34
102
}
330
34
100
DictionaryVariables
280
     0
  1
1
  0
DICTIONARYVAR
  5
B5E
102
{ACAD_REACTORS
330
34
102
}
330
34
100
DictionaryVariables
280
     0
  1
96
  0
DICTIONARY
  5
260
102
{ACAD_REACTORS
330
43
102
}
330
43
100
AcDbDictionary
  0
DICTIONARY
  5
2C
102
{ACAD_REACTORS
330
2B
102
}
330
2B
100
AcDbDictionary
  3
DWGSETTINGS
350
2D
  0
XRECORD
  5
2EC4
102
{ACAD_REACTORS
330
2EC3
102
}
330
2EC3
100
AcDbXrecord
 90
        1
  0
XRECORD
  5
2EC5
102
{ACAD_REACTORS
330
2EC3
102
}
330
2EC3
100
AcDbXrecord
 90
       70
  0
XRECORD
  5
2EC6
102
{ACAD_REACTORS
330
2EC3
102
}
330
2EC3
100
AcDbXrecord
  1

  0
XRECORD
  5
2EC7
102
{ACAD_REACTORS
330
2EC3
102
}
330
2EC3
100
AcDbXrecord
  1
ASAMI.ctb
  0
XRECORD
  5
2EC8
102
{ACAD_REACTORS
330
2EC3
102
}
330
2EC3
100
AcDbXrecord
340
1A
  0
XRECORD
  5
2EC9
102
{ACAD_REACTORS
330
2EC3
102
}
330
2EC3
100
AcDbXrecord
340
19
  0
XRECORD
  5
2ECA
102
{ACAD_REACTORS
330
2EC3
102
}
330
2EC3
100
AcDbXrecord
340
E
  0
XRECORD
  5
2ECB
102
{ACAD_REACTORS
330
2EC3
102
}
330
2EC3
100
AcDbXrecord
 90
    10781
  0
XRECORD
  5
2ECC
102
{ACAD_REACTORS
330
2EC3
102
}
330
2EC3
100
AcDbXrecord
 90
        4
  0
XRECORD
  5
2ECD
102
{ACAD_REACTORS
330
2EC3
102
}
330
2EC3
100
AcDbXrecord
 90
        0
  0
XRECORD
  5
2ECE
102
{ACAD_REACTORS
330
2EC3
102
}
330
2EC3
100
AcDbXrecord
  1
{AFB28963-8C59-40AE-9337-C84526B81ACE}
  0
XRECORD
  5
2ECF
102
{ACAD_REACTORS
330
2EC3
102
}
330
2EC3
100
AcDbXrecord
  1
{E2364A2A-8E0C-4FD4-8D3A-8D72FED770CC}
  0
XRECORD
  5
2ED0
102
{ACAD_REACTORS
330
2EC3
102
}
330
2EC3
100
AcDbXrecord
 40
0.0
  0
XRECORD
  5
2ED1
102
{ACAD_REACTORS
330
2EC3
102
}
330
2EC3
100
AcDbXrecord
1000
DSTYLE
1002
{
1070
    79
 70
     2
1070
   341
340
59
1070
   342
340
59
1070
   371
 70
    -1
1070
   372
 70
    -1
1002
}
  0
XRECORD
  5
2ED2
102
{ACAD_REACTORS
330
2EC3
102
}
330
2EC3
100
AcDbXrecord
340
0
  0
XRECORD
  5
2ED3
102
{ACAD_REACTORS
330
2EC3
102
}
330
2EC3
100
AcDbXrecord
 70
     0
  0
XRECORD
  5
2ED4
102
{ACAD_REACTORS
330
2EC3
102
}
330
2EC3
100
AcDbXrecord
340
0
  0
XRECORD
  5
2ED5
102
{ACAD_REACTORS
330
2EC3
102
}
330
2EC3
100
AcDbXrecord
 10
0.0
 20
0.0
 30
0.0
  0
XRECORD
  5
2ED6
102
{ACAD_REACTORS
330
2EC3
102
}
330
2EC3
100
AcDbXrecord
 10
0.0
 20
0.0
 30
0.0
  0
XRECORD
  5
2ED7
102
{ACAD_REACTORS
330
2EC3
102
}
330
2EC3
100
AcDbXrecord
 10
0.0
 20
0.0
 30
0.0
  0
XRECORD
  5
2ED8
102
{ACAD_REACTORS
330
2EC3
102
}
330
2EC3
100
AcDbXrecord
 10
0.0
 20
0.0
 30
0.0
  0
XRECORD
  5
2ED9
102
{ACAD_REACTORS
330
2EC3
102
}
330
2EC3
100
AcDbXrecord
 10
0.0
 20
0.0
 30
0.0
  0
XRECORD
  5
2EDA
102
{ACAD_REACTORS
330
2EC3
102
}
330
2EC3
100
AcDbXrecord
 10
0.0
 20
0.0
 30
0.0
  0
XRECORD
  5
2EDB
102
{ACAD_REACTORS
330
2EC3
102
}
330
2EC3
100
AcDbXrecord
340
0
  0
XRECORD
  5
2EDC
102
{ACAD_REACTORS
330
2EC3
102
}
330
2EC3
100
AcDbXrecord
 70
     0
  0
XRECORD
  5
2EDD
102
{ACAD_REACTORS
330
2EC3
102
}
330
2EC3
100
AcDbXrecord
340
0
  0
XRECORD
  5
2EDE
102
{ACAD_REACTORS
330
2EC3
102
}
330
2EC3
100
AcDbXrecord
 10
0.0
 20
0.0
 30
0.0
  0
XRECORD
  5
2EDF
102
{ACAD_REACTORS
330
2EC3
102
}
330
2EC3
100
AcDbXrecord
 10
0.0
 20
0.0
 30
0.0
  0
XRECORD
  5
2EE0
102
{ACAD_REACTORS
330
2EC3
102
}
330
2EC3
100
AcDbXrecord
 10
0.0
 20
0.0
 30
0.0
  0
XRECORD
  5
2EE1
102
{ACAD_REACTORS
330
2EC3
102
}
330
2EC3
100
AcDbXrecord
 10
0.0
 20
0.0
 30
0.0
  0
XRECORD
  5
2EE2
102
{ACAD_REACTORS
330
2EC3
102
}
330
2EC3
100
AcDbXrecord
 10
0.0
 20
0.0
 30
0.0
  0
XRECORD
  5
2EE3
102
{ACAD_REACTORS
330
2EC3
102
}
330
2EC3
100
AcDbXrecord
 10
0.0
 20
0.0
 30
0.0
  0
LAYER_INDEX
  5
2EBA
102
{ACAD_REACTORS
330
2EB9
102
}
330
2EB9
100
AcDbIndex
 40
2453151.569001724
100
AcDbLayerIndex
  8
0
360
2EBB
 90
        0
  8
AM_0
360
2EBC
 90
       46
  8
AM_7
360
2EBD
 90
        1
  8
AM_11
360
2EBE
 90
       17
  8
AM_5
360
2EBF
 90
        5
  8
Defpoints
360
2EC0
 90
        0
  8
AM_6
360
2EC1
 90
        1
  0
XRECORD
  5
2D
102
{ACAD_REACTORS
330
2C
102
}
330
2C
100
AcDbXrecord
  1
VERSION
140
15.0
  1
PRODUCT
  2
AutoCAD Mechanical 2000
  0
IDBUFFER
  5
2EBB
330
0
100
AcDbIdBuffer
  0
IDBUFFER
  5
2EBC
330
0
100
AcDbIdBuffer
330
2CB8
330
2CB9
330
2CBA
330
2CBB
330
2CBC
330
2CBD
330
2CBE
330
2E34
330
2E35
330
2E36
330
2E37
330
2E38
330
2E39
330
2E3A
330
2E3D
330
2E3E
330
2E3F
330
2E40
330
2E41
330
2E42
330
2E43
330
2E44
330
2E45
330
2E48
330
2E49
330
2E4A
330
2E4B
330
2E4C
330
2E5B
330
2E5C
330
C1D
330
1D9D
330
1D9E
330
1DA2
330
1DA4
330
1DA5
330
1F71
330
1F72
330
2398
330
23D5
330
2500
330
2503
330
2567
330
2568
330
2569
330
2CA2
  0
IDBUFFER
  5
2EBD
330
0
100
AcDbIdBuffer
330
1D14
  0
IDBUFFER
  5
2EBE
330
0
100
AcDbIdBuffer
330
2E47
330
144A
330
144B
330
1F77
330
1F78
330
1F79
330
1F7A
330
231A
330
2324
330
2325
330
2327
330
2328
330
232D
330
232E
330
2E3B
330
2E3C
330
2E46
  0
IDBUFFER
  5
2EBF
330
0
100
AcDbIdBuffer
330
CC6
330
DF5
330
1F93
330
2577
330
2CA4
  0
IDBUFFER
  5
2EC0
330
0
100
AcDbIdBuffer
  0
IDBUFFER
  5
2EC1
330
0
100
AcDbIdBuffer
330
19BD
  0
ENDSEC
  0
EOF
