  0
SECTION
  2
HEADER
  9
$ACADVER
  1
AC1014
  9
$ACADMAINTVER
 70
     9
  9
$DWGCODEPAGE
  3
ANSI_932
  9
$INSBASE
 10
0.0
 20
0.0
 30
0.0
  9
$EXTMIN
 10
-141.4000010004113
 20
-26.7556519466985
 30
-0.00000001
  9
$EXTMAX
 10
16.24161074385539
 20
15.73196807607097
 30
0.00000001
  9
$LIMMIN
 10
-151.7199646436988
 20
-46.25524411862011
  9
$LIMMAX
 10
24.25676905914463
 20
32.86890578214098
  9
$ORTHOMODE
 70
     0
  9
$REGENMODE
 70
     1
  9
$FILLMODE
 70
     1
  9
$QTEXTMODE
 70
     0
  9
$MIRRTEXT
 70
     0
  9
$DRAGMODE
 70
     2
  9
$LTSCALE
 40
1.0
  9
$OSMODE
 70
    55
  9
$ATTMODE
 70
     1
  9
$TEXTSIZE
 40
2.5
  9
$TRACEWID
 40
1.0
  9
$TEXTSTYLE
  7
STANDARD
  9
$CLAYER
  8
AM_0
  9
$CELTYPE
  6
BYLAYER
  9
$CECOLOR
 62
   256
  9
$CELTSCALE
 40
1.0
  9
$DELOBJ
 70
     1
  9
$DISPSILH
 70
     0
  9
$DIMSCALE
 40
0.5
  9
$DIMASZ
 40
2.5
  9
$DIMEXO
 40
1.0
  9
$DIMDLI
 40
12.0
  9
$DIMRND
 40
0.0
  9
$DIMDLE
 40
0.0
  9
$DIMEXE
 40
1.0
  9
$DIMTP
 40
0.1
  9
$DIMTM
 40
0.1
  9
$DIMTXT
 40
3.2
  9
$DIMCEN
 40
0.0
  9
$DIMTSZ
 40
0.0
  9
$DIMTOL
 70
     0
  9
$DIMLIM
 70
     0
  9
$DIMTIH
 70
     0
  9
$DIMTOH
 70
     0
  9
$DIMSE1
 70
     0
  9
$DIMSE2
 70
     0
  9
$DIMTAD
 70
     3
  9
$DIMZIN
 70
     8
  9
$DIMBLK
  1
OPEN30
  9
$DIMASO
 70
     1
  9
$DIMSHO
 70
     1
  9
$DIMPOST
  1

  9
$DIMAPOST
  1
"
  9
$DIMALT
 70
     0
  9
$DIMALTD
 70
     2
  9
$DIMALTF
 40
0.0393701
  9
$DIMLFAC
 40
1.0
  9
$DIMTOFL
 70
     1
  9
$DIMTVP
 40
0.0
  9
$DIMTIX
 70
     0
  9
$DIMSOXD
 70
     0
  9
$DIMSAH
 70
     0
  9
$DIMBLK1
  1

  9
$DIMBLK2
  1

  9
$DIMSTYLE
  2
AM_JIS
  9
$DIMCLRD
 70
   256
  9
$DIMCLRE
 70
   256
  9
$DIMCLRT
 70
     2
  9
$DIMTFAC
 40
0.71
  9
$DIMGAP
 40
1.5
  9
$DIMJUST
 70
     0
  9
$DIMSD1
 70
     0
  9
$DIMSD2
 70
     0
  9
$DIMTOLJ
 70
     0
  9
$DIMTZIN
 70
     0
  9
$DIMALTZ
 70
     0
  9
$DIMALTTZ
 70
     0
  9
$DIMFIT
 70
     3
  9
$DIMUPT
 70
     0
  9
$DIMUNIT
 70
     2
  9
$DIMDEC
 70
     3
  9
$DIMTDEC
 70
     3
  9
$DIMALTU
 70
     2
  9
$DIMALTTD
 70
     2
  9
$DIMTXSTY
  7
ASAMI
  9
$DIMAUNIT
 70
     0
  9
$LUNITS
 70
     2
  9
$LUPREC
 70
     2
  9
$SKETCHINC
 40
1.0
  9
$FILLETRAD
 40
2.5
  9
$AUNITS
 70
     0
  9
$AUPREC
 70
     0
  9
$MENU
  1
.
  9
$ELEVATION
 40
0.0
  9
$PELEVATION
 40
0.0
  9
$THICKNESS
 40
0.0
  9
$LIMCHECK
 70
     0
  9
$BLIPMODE
 70
     0
  9
$CHAMFERA
 40
0.5
  9
$CHAMFERB
 40
0.5
  9
$CHAMFERC
 40
20.0
  9
$CHAMFERD
 40
0.0
  9
$SKPOLY
 70
     0
  9
$TDCREATE
 40
2452800.443498622
  9
$TDUPDATE
 40
2453151.722749189
  9
$TDINDWG
 40
0.1508499537
  9
$TDUSRTIMER
 40
0.1508499537
  9
$USRTIMER
 70
     1
  9
$ANGBASE
 50
0.0
  9
$ANGDIR
 70
     0
  9
$PDMODE
 70
     0
  9
$PDSIZE
 40
0.0
  9
$PLINEWID
 40
0.0
  9
$COORDS
 70
     1
  9
$SPLFRAME
 70
     0
  9
$SPLINETYPE
 70
     6
  9
$SPLINESEGS
 70
     8
  9
$ATTDIA
 70
     1
  9
$ATTREQ
 70
     1
  9
$HANDLING
 70
 12289
  9
$HANDSEED
  5
5770
  9
$SURFTAB1
 70
     6
  9
$SURFTAB2
 70
     6
  9
$SURFTYPE
 70
     6
  9
$SURFU
 70
     6
  9
$SURFV
 70
     6
  9
$UCSNAME
  2

  9
$UCSORG
 10
0.0
 20
0.0
 30
0.0
  9
$UCSXDIR
 10
1.0
 20
0.000000000000002
 30
0.0
  9
$UCSYDIR
 10
-0.000000000000002
 20
1.0
 30
0.0
  9
$PUCSNAME
  2

  9
$PUCSORG
 10
0.0
 20
0.0
 30
0.0
  9
$PUCSXDIR
 10
1.0
 20
0.0
 30
0.0
  9
$PUCSYDIR
 10
0.0
 20
1.0
 30
0.0
  9
$USERI1
 70
     0
  9
$USERI2
 70
     0
  9
$USERI3
 70
     0
  9
$USERI4
 70
     0
  9
$USERI5
 70
     0
  9
$USERR1
 40
0.0
  9
$USERR2
 40
0.0
  9
$USERR3
 40
0.0
  9
$USERR4
 40
0.0
  9
$USERR5
 40
0.0
  9
$WORLDVIEW
 70
     1
  9
$SHADEDGE
 70
     3
  9
$SHADEDIF
 70
    70
  9
$TILEMODE
 70
     1
  9
$MAXACTVP
 70
    64
  9
$PINSBASE
 10
0.0
 20
0.0
 30
0.0
  9
$PLIMCHECK
 70
     0
  9
$PEXTMIN
 10
1.000000000000000E+20
 20
1.000000000000000E+20
 30
1.000000000000000E+20
  9
$PEXTMAX
 10
-1.000000000000000E+20
 20
-1.000000000000000E+20
 30
-1.000000000000000E+20
  9
$PLIMMIN
 10
0.0
 20
0.0
  9
$PLIMMAX
 10
841.0
 20
594.0
  9
$UNITMODE
 70
     0
  9
$VISRETAIN
 70
     1
  9
$PLINEGEN
 70
     0
  9
$PSLTSCALE
 70
     0
  9
$TREEDEPTH
 70
  3020
  9
$PICKSTYLE
 70
     0
  9
$CMLSTYLE
  2
STANDARD
  9
$CMLJUST
 70
     0
  9
$CMLSCALE
 40
20.0
  9
$PROXYGRAPHICS
 70
     1
  9
$MEASUREMENT
 70
     1
  0
ENDSEC
  0
SECTION
  2
CLASSES
  0
CLASS
  1
ACDBDICTIONARYWDFLT
  2
AcDbDictionaryWithDefault
  3
AutoCAD 2000
 90
        0
280
     0
281
     0
  0
CLASS
  1
ACDBPLACEHOLDER
  2
AcDbPlaceHolder
  3
AutoCAD 2000
 90
        0
280
     0
281
     0
  0
CLASS
  1
LAYOUT
  2
AcDbLayout
  3
AutoCAD 2000
 90
        0
280
     0
281
     0
  0
CLASS
  1
AMGSETTINGSOBJ
  2
AmgSettingsObj
  3
"AcadM|Product Description: AutoCAD Mechanical 2000|Company: Autodesk"
 90
        0
280
     0
281
     0
  0
CLASS
  1
ACME_DOCUMENT
  2
AcMeDbDoc
  3
AcMeServices
 90
        0
280
     0
281
     0
  0
CLASS
  1
ACMESCOPE
  2
AcMeScope
  3
AcMeServices
 90
        0
280
     0
281
     0
  0
CLASS
  1
ACMECOMMANDHISTORY
  2
AcMeCommandHistory
  3
AcMeServices
 90
        0
280
     0
281
     0
  0
CLASS
  1
DICTIONARYVAR
  2
AcDbDictionaryVar
  3
AutoCAD 2000
 90
        0
280
     0
281
     0
  0
CLASS
  1
ACIMSYSVARMAN
  2
AcImSysVarManager
  3
AcMeServices
 90
        0
280
     0
281
     0
  0
CLASS
  1
ACIMREALSYSVAR
  2
AcImRealSysVar
  3
AcMeServices
 90
        0
280
     0
281
     0
  0
CLASS
  1
ACIMINTSYSVAR
  2
AcImIntSysVar
  3
AcMeServices
 90
        0
280
     0
281
     0
  0
CLASS
  1
ACMEDRAWINGMAN
  2
AcMeDrawingMan
  3
AcMeServices
 90
        0
280
     0
281
     0
  0
CLASS
  1
ACMEVIEW
  2
AcMeView
  3
AcMeServices
 90
        0
280
     0
281
     0
  0
CLASS
  1
ACDBENTITYCACHE
  2
AcMeEntityCache
  3
AcMeServices
 90
        0
280
     0
281
     0
  0
CLASS
  1
GSMANAGER
  2
AcMeGSManager
  3
AcMeServices
 90
        0
280
     0
281
     0
  0
CLASS
  1
AmdtInternalReactor
  2
AmdtInternalReactor
  3
AcMeServices
 90
        0
280
     0
281
     0
  0
CLASS
  1
ACMESTATEMGR
  2
AcMeStateMgr
  3
AcMeServices
 90
        0
280
     0
281
     0
  0
CLASS
  1
ACME_DATABASE
  2
AcMeDbDatabase
  3
AcMeServices
 90
        0
280
     0
281
     0
  0
CLASS
  1
ACRFINSADJUSTERMGR
  2
AcRfInsAdjusterMgr
  3
AcMeServices
 90
        0
280
     0
281
     0
  0
CLASS
  1
ACMDATADICTIONARY
  2
AcmDataDictionary
  3
"AcmSymBB|Product Description: AutoCAD Mechanical 2000|Company: Autodesk"
 90
        0
280
     0
281
     0
  0
CLASS
  1
ACMDATAENTRYBLOCK
  2
AcmDataEntryBlock
  3
"AcmSymBB|Product Description: AutoCAD Mechanical 2000|Company: Autodesk"
 90
        0
280
     0
281
     0
  0
CLASS
  1
AMGOBJPROPCFG
  2
AmgObjPropCfg
  3
"AmgLay|Product Description: AutoCAD Mechanical 2000|Company: Autodesk"
 90
        1
280
     0
281
     0
  0
CLASS
  1
ACAMGFILTERDAT
  2
AcAmgFilterDat
  3
"AcadM|Product Description: AutoCAD Mechanical 2000|Company: Autodesk"
 90
        0
280
     0
281
     0
  0
CLASS
  1
LAYER_INDEX
  2
AcDbLayerIndex
  3
AutoCAD 2000
 90
        0
280
     0
281
     0
  0
CLASS
  1
IDBUFFER
  2
AcDbIdBuffer
  3
AutoCAD 2000
 90
        0
280
     0
281
     0
  0
CLASS
  1
ACIMSTRSYSVAR
  2
AcImStrSysVar
  3
AcMeServices
 90
        0
280
     0
281
     0
  0
CLASS
  1
ACMSTANDARDJIS
  2
AcmStandardJIS
  3
"AcmSymBB|Product Description: AutoCAD Mechanical 2000|Company: Autodesk"
 90
        0
280
     0
281
     0
  0
CLASS
  1
ACMSURFSTANDARDJIS
  2
AcmSurfTextStdJIS
  3
"AcmSymBB|Product Description: AutoCAD Mechanical 2000|Company: Autodesk"
 90
        0
280
     0
281
     0
  0
CLASS
  1
ACMFCFSTANDARDJIS
  2
AcmFCFStdJIS
  3
"AcmSymBB|Product Description: AutoCAD Mechanical 2000|Company: Autodesk"
 90
        0
280
     0
281
     0
  0
CLASS
  1
ACMWELDSTANDARDJIS
  2
AcmWeldingStdJIS
  3
"AcmSymBB|Product Description: AutoCAD Mechanical 2000|Company: Autodesk"
 90
        0
280
     0
281
     0
  0
CLASS
  1
ACMIDSTANDARDJIS
  2
AcmIdStdJIS
  3
"AcmSymBB|Product Description: AutoCAD Mechanical 2000|Company: Autodesk"
 90
        0
280
     0
281
     0
  0
CLASS
  1
ACMDATUMSTANDARDJIS
  2
AcmDatumStdJIS
  3
"AcmSymBB|Product Description: AutoCAD Mechanical 2000|Company: Autodesk"
 90
        0
280
     0
281
     0
  0
CLASS
  1
ACMBOMSTANDARDJIS
  2
AcmBOMStdJIS
  3
"AcmSymBB|Product Description: AutoCAD Mechanical 2000|Company: Autodesk"
 90
        0
280
     0
281
     0
  0
CLASS
  1
ACMSTANDARDANSI
  2
AcmStandardANSI
  3
"AcmSymBB|Product Description: AutoCAD Mechanical 2000|Company: Autodesk"
 90
        0
280
     0
281
     0
  0
CLASS
  1
ACMSURFSTANDARDANSI
  2
AcmSurfTextStdANSI
  3
"AcmSymBB|Product Description: AutoCAD Mechanical 2000|Company: Autodesk"
 90
        0
280
     0
281
     0
  0
CLASS
  1
ACMFCFSTANDARDANSI
  2
AcmFCFStdANSI
  3
"AcmSymBB|Product Description: AutoCAD Mechanical 2000|Company: Autodesk"
 90
        0
280
     0
281
     0
  0
CLASS
  1
ACMWELDSTANDARDANSI
  2
AcmWeldingStdANSI
  3
"AcmSymBB|Product Description: AutoCAD Mechanical 2000|Company: Autodesk"
 90
        0
280
     0
281
     0
  0
CLASS
  1
ACMIDSTANDARDANSI
  2
AcmIdStdANSI
  3
"AcmSymBB|Product Description: AutoCAD Mechanical 2000|Company: Autodesk"
 90
        0
280
     0
281
     0
  0
CLASS
  1
ACMDATUMSTANDARDANSI
  2
AcmDatumStdANSI
  3
"AcmSymBB|Product Description: AutoCAD Mechanical 2000|Company: Autodesk"
 90
        0
280
     0
281
     0
  0
CLASS
  1
ACMBOMSTANDARDANSI
  2
AcmBOMStdANSI
  3
"AcmSymBB|Product Description: AutoCAD Mechanical 2000|Company: Autodesk"
 90
        0
280
     0
281
     0
  0
CLASS
  1
ACMSTANDARDBSI
  2
AcmStandardBSI
  3
"AcmSymBB|Product Description: AutoCAD Mechanical 2000|Company: Autodesk"
 90
        0
280
     0
281
     0
  0
CLASS
  1
ACMSURFSTANDARDBSI
  2
AcmSurfTextStdBSI
  3
"AcmSymBB|Product Description: AutoCAD Mechanical 2000|Company: Autodesk"
 90
        0
280
     0
281
     0
  0
CLASS
  1
ACMFCFSTANDARDBSI
  2
AcmFCFStdBSI
  3
"AcmSymBB|Product Description: AutoCAD Mechanical 2000|Company: Autodesk"
 90
        0
280
     0
281
     0
  0
CLASS
  1
ACMWELDSTANDARDBSI
  2
AcmWeldingStdBSI
  3
"AcmSymBB|Product Description: AutoCAD Mechanical 2000|Company: Autodesk"
 90
        0
280
     0
281
     0
  0
CLASS
  1
ACMIDSTANDARDBSI
  2
AcmIdStdBSI
  3
"AcmSymBB|Product Description: AutoCAD Mechanical 2000|Company: Autodesk"
 90
        0
280
     0
281
     0
  0
CLASS
  1
ACMDATUMSTANDARDBSI
  2
AcmDatumStdBSI
  3
"AcmSymBB|Product Description: AutoCAD Mechanical 2000|Company: Autodesk"
 90
        0
280
     0
281
     0
  0
CLASS
  1
ACMBOMSTANDARDBSI
  2
AcmBOMStdBSI
  3
"AcmSymBB|Product Description: AutoCAD Mechanical 2000|Company: Autodesk"
 90
        0
280
     0
281
     0
  0
CLASS
  1
LONG_TRANSACTION
  2
AcDbLongTransaction
  3
AutoCAD 2000
 90
        0
280
     0
281
     0
  0
CLASS
  1
LWPOLYLINE
  2
AcDbPolyline
  3
AutoCAD 2000
 90
        0
280
     0
281
     1
  0
CLASS
  1
HATCH
  2
AcDbHatch
  3
AutoCAD 2000
 90
        0
280
     0
281
     1
  0
CLASS
  1
XRECORD
  2
AcDbXrecord
  3
AutoCAD 2000
 90
        0
280
     0
281
     0
  0
ENDSEC
  0
SECTION
  2
TABLES
  0
TABLE
  2
VPORT
  5
8
330
0
100
AcDbSymbolTable
 70
     3
  0
VPORT
  5
5745
330
8
100
AcDbSymbolTableRecord
100
AcDbViewportTableRecord
  2
*ACTIVE
 70
     0
 10
0.0
 20
0.0
 11
1.0
 21
1.0
 12
-39.63617030899845
 22
2.878300574859338
 13
0.0
 23
0.0
 14
2.5
 24
2.5
 15
10.0
 25
10.0
 16
0.0
 26
0.0
 36
1.0
 17
0.0
 27
0.0
 37
0.0
 40
169.9467621069578
 41
1.56570841889117
 42
50.0
 43
0.0
 44
0.0
 50
0.0
 51
0.0
 71
     0
 72
   100
 73
     1
 74
     1
 75
     0
 76
     0
 77
     0
 78
     0
  0
ENDTAB
  0
TABLE
  2
LTYPE
  5
5
330
0
100
AcDbSymbolTable
 70
    10
  0
LTYPE
  5
14
330
5
100
AcDbSymbolTableRecord
100
AcDbLinetypeTableRecord
  2
BYBLOCK
 70
     0
  3

 72
    65
 73
     0
 40
0.0
  0
LTYPE
  5
15
330
5
100
AcDbSymbolTableRecord
100
AcDbLinetypeTableRecord
  2
BYLAYER
 70
     0
  3

 72
    65
 73
     0
 40
0.0
  0
LTYPE
  5
16
330
5
100
AcDbSymbolTableRecord
100
AcDbLinetypeTableRecord
  2
CONTINUOUS
 70
     0
  3
Solid line
 72
    65
 73
     0
 40
0.0
  0
LTYPE
  5
4B
330
5
100
AcDbSymbolTableRecord
100
AcDbLinetypeTableRecord
  2
AM_ISO02W050
 70
     0
  3
__ __ __ __ __ __ __ __ __ __ __ __ __ __ __
 72
    65
 73
     2
 40
7.5
 49
6.0
 74
     0
 49
-1.5
 74
     0
  0
LTYPE
  5
4C
330
5
100
AcDbSymbolTableRecord
100
AcDbLinetypeTableRecord
  2
AM_ISO08W050
 70
     0
  3
____ . ____ . ____ . ____ . ____ . ____ . ____
 72
    65
 73
     4
 40
18.0
 49
12.0
 74
     0
 49
-1.5
 74
     0
 49
3.0
 74
     0
 49
-1.5
 74
     0
  0
LTYPE
  5
4D
330
5
100
AcDbSymbolTableRecord
100
AcDbLinetypeTableRecord
  2
AM_ISO09W050
 70
     0
  3
_____ . . _____ . . _____ . . ____ .. ____
 72
    65
 73
     6
 40
22.5
 49
12.0
 74
     0
 49
-1.5
 74
     0
 49
3.0
 74
     0
 49
-1.5
 74
     0
 49
3.0
 74
     0
 49
-1.5
 74
     0
  0
LTYPE
  5
4E
330
5
100
AcDbSymbolTableRecord
100
AcDbLinetypeTableRecord
  2
AMCONSTR
 70
     0
  3
_______________________
 72
    65
 73
     2
 40
9999.0
 49
9999.0
 74
     0
 49
0.0
 74
     0
  0
LTYPE
  5
4F
330
5
100
AcDbSymbolTableRecord
100
AcDbLinetypeTableRecord
  2
AM_ISO02W050X2
 70
     0
  3
 _ _ _ _ _ _ _ _ _ _ _ _
 72
    65
 73
     2
 40
3.75
 49
3.0
 74
     0
 49
-0.75
 74
     0
  0
LTYPE
  5
50
330
5
100
AcDbSymbolTableRecord
100
AcDbLinetypeTableRecord
  2
AM_ISO08W050X2
 70
     0
  3
__ . __ . __ . __ . __ . __
 72
    65
 73
     4
 40
9.0
 49
6.0
 74
     0
 49
-0.75
 74
     0
 49
1.5
 74
     0
 49
-0.75
 74
     0
  0
LTYPE
  5
53
330
5
100
AcDbSymbolTableRecord
100
AcDbLinetypeTableRecord
  2
AMZIGZAG
 70
     0
  3
/\/-/\/-/\/-/\/-/\/-/\/
 72
    65
 73
     2
 40
11.00009999999999
 49
0.0001
 74
     4
 75
   135
340
52
 46
0.04
 50
0.0
 44
0.0
 45
0.0
 49
-11.0
 74
     0
  0
LTYPE
  5
166
330
5
100
AcDbSymbolTableRecord
100
AcDbLinetypeTableRecord
  2
ACJISTGL
 70
     0
  3
_ _ _ _ _
 72
    65
 73
     2
 40
3.0
 49
2.0
 74
     0
 49
-1.0
 74
     0
  0
LTYPE
  5
26A
330
5
100
AcDbSymbolTableRecord
100
AcDbLinetypeTableRecord
  2
ACJISTGB
 70
     0
  3
__ . . __ . .
 72
    65
 73
     6
 40
9.0
 49
4.0
 74
     0
 49
-1.0
 74
     0
 49
1.0
 74
     0
 49
-1.0
 74
     0
 49
1.0
 74
     0
 49
-1.0
 74
     0
  0
ENDTAB
  0
TABLE
  2
LAYER
  5
2
330
0
100
AcDbSymbolTable
 70
     7
  0
LAYER
  5
10
330
2
100
AcDbSymbolTableRecord
100
AcDbLayerTableRecord
  2
0
 70
     0
 62
     7
  6
CONTINUOUS
  0
LAYER
  5
3F9
330
2
100
AcDbSymbolTableRecord
100
AcDbLayerTableRecord
  2
AM_0
 70
     0
 62
     7
  6
CONTINUOUS
  0
LAYER
  5
C7C
330
2
100
AcDbSymbolTableRecord
100
AcDbLayerTableRecord
  2
AM_7
 70
     0
 62
     4
  6
AM_ISO08W050
  0
LAYER
  5
C97
330
2
100
AcDbSymbolTableRecord
100
AcDbLayerTableRecord
  2
AM_11
 70
     0
 62
     3
  6
AM_ISO09W050
  0
LAYER
  5
CC5
330
2
100
AcDbSymbolTableRecord
100
AcDbLayerTableRecord
  2
AM_5
 70
     0
 62
     3
  6
CONTINUOUS
  0
LAYER
  5
CC7
330
2
100
AcDbSymbolTableRecord
100
AcDbLayerTableRecord
  2
DEFPOINTS
 70
     0
 62
     7
  6
CONTINUOUS
  0
LAYER
  5
19BC
330
2
100
AcDbSymbolTableRecord
100
AcDbLayerTableRecord
  2
AM_6
 70
     0
 62
     2
  6
CONTINUOUS
  0
ENDTAB
  0
TABLE
  2
STYLE
  5
3
330
0
100
AcDbSymbolTable
 70
     5
  0
STYLE
  5
11
330
3
100
AcDbSymbolTableRecord
100
AcDbTextStyleTableRecord
  2
STANDARD
 70
     0
 40
0.0
 41
1.0
 50
0.0
 71
     0
 42
2.5
  3
simplex.shx
  4
EXTFONT.SHX
  0
STYLE
  5
52
330
3
100
AcDbSymbolTableRecord
100
AcDbTextStyleTableRecord
  2

 70
     1
 40
0.0
 41
1.0
 50
0.0
 71
     0
 42
2.5
  3
ltypeshp.shx
  4

  0
STYLE
  5
6B
330
3
100
AcDbSymbolTableRecord
100
AcDbTextStyleTableRecord
  2
ASAMI
 70
     0
 40
0.0
 41
1.0
 50
0.0
 71
     0
 42
2.5
  3
simplex.shx
  4
EXTFONT.SHX
  0
STYLE
  5
262
330
3
100
AcDbSymbolTableRecord
100
AcDbTextStyleTableRecord
  2
ACJISTS
 70
     0
 40
1.0
 41
1.0
 50
0.0
 71
     0
 42
2.5
  3
simplex.shx
  4
bigfont.shx
  0
STYLE
  5
269
330
3
100
AcDbSymbolTableRecord
100
AcDbTextStyleTableRecord
  2
ACJISGDT
 70
     0
 40
0.0
 41
1.0
 50
0.0
 71
     0
 42
2.5
  3
amgdtans.shx
  4

  0
ENDTAB
  0
TABLE
  2
VIEW
  5
6
330
0
100
AcDbSymbolTable
 70
     0
  0
ENDTAB
  0
TABLE
  2
UCS
  5
7
330
0
100
AcDbSymbolTable
 70
     0
  0
ENDTAB
  0
TABLE
  2
APPID
  5
9
330
0
100
AcDbSymbolTable
 70
    18
  0
APPID
  5
12
330
9
100
AcDbSymbolTableRecord
100
AcDbRegAppTableRecord
  2
ACAD
 70
     0
  0
APPID
  5
30
330
9
100
AcDbSymbolTableRecord
100
AcDbRegAppTableRecord
  2
MCAD_NO_VIS
 70
     0
  0
APPID
  5
31
330
9
100
AcDbSymbolTableRecord
100
AcDbRegAppTableRecord
  2
ACAD_TEMP_GRAPHIC
 70
     0
  0
APPID
  5
2C2
330
9
100
AcDbSymbolTableRecord
100
AcDbRegAppTableRecord
  2
GENIUS_GENDTOL_13
 70
     0
  0
APPID
  5
339
330
9
100
AcDbSymbolTableRecord
100
AcDbRegAppTableRecord
  2
GENIUS_GENODEF_13
 70
     0
  0
APPID
  5
33A
330
9
100
AcDbSymbolTableRecord
100
AcDbRegAppTableRecord
  2
GENIUS_GENOBJ-N-RSBK_13
 70
     0
  0
APPID
  5
33B
330
9
100
AcDbSymbolTableRecord
100
AcDbRegAppTableRecord
  2
GENIUS_GENOBJ-N-LIB_13
 70
     0
  0
APPID
  5
33C
330
9
100
AcDbSymbolTableRecord
100
AcDbRegAppTableRecord
  2
GENIUS_GENSCALE_13
 70
     0
  0
APPID
  5
378
330
9
100
AcDbSymbolTableRecord
100
AcDbRegAppTableRecord
  2
GENIUS_GENDIMSH_14
 70
     0
  0
APPID
  5
C82
330
9
100
AcDbSymbolTableRecord
100
AcDbRegAppTableRecord
  2
GENIUS_GENOBJ-N-CRS_13
 70
     0
  0
APPID
  5
C83
330
9
100
AcDbSymbolTableRecord
100
AcDbRegAppTableRecord
  2
GENIUS_GENOENT_13
 70
     0
  0
APPID
  5
C84
330
9
100
AcDbSymbolTableRecord
100
AcDbRegAppTableRecord
  2
GENIUS_GENOREF_13
 70
     0
  0
APPID
  5
C85
330
9
100
AcDbSymbolTableRecord
100
AcDbRegAppTableRecord
  2
GENIUS_GENOLIS_13
 70
     0
  0
APPID
  5
CA0
330
9
100
AcDbSymbolTableRecord
100
AcDbRegAppTableRecord
  2
GENIUS_GENOBJ-N-CEN_13
 70
     0
  0
APPID
  5
1B5D
330
9
100
AcDbSymbolTableRecord
100
AcDbRegAppTableRecord
  2
GENIUS_GENFIL_13
 70
     0
  0
APPID
  5
1B5E
330
9
100
AcDbSymbolTableRecord
100
AcDbRegAppTableRecord
  2
GENIUS_GENOBJ-N-CHA_13
 70
     0
  0
APPID
  5
1FBC
330
9
100
AcDbSymbolTableRecord
100
AcDbRegAppTableRecord
  2
GENIUS_GENREC_14
 70
     0
  0
APPID
  5
1FBD
330
9
100
AcDbSymbolTableRecord
100
AcDbRegAppTableRecord
  2
GENIUS_GENOBJ-N-REC_13
 70
     0
  0
ENDTAB
  0
TABLE
  2
DIMSTYLE
  5
A
330
0
100
AcDbSymbolTable
 70
     9
  0
DIMSTYLE
105
58
330
A
100
AcDbSymbolTableRecord
100
AcDbDimStyleTableRecord
  2
AM_JIS
 70
     0
  3

  4
"
  5
OPEN30
  6

  7

 40
0.5
 41
2.5
 42
1.0
 43
12.0
 44
1.0
 45
0.0
 46
0.0
 47
0.1
 48
0.1
140
3.2
141
0.0
142
0.0
143
0.0393701
144
1.0
145
0.0
146
0.71
147
1.5
 71
     0
 72
     0
 73
     0
 74
     0
 75
     0
 76
     0
 77
     3
 78
     8
170
     0
171
     2
172
     1
173
     0
174
     0
175
     0
176
   256
177
   256
178
     2
270
     2
271
     3
272
     3
273
     2
274
     2
340
6B
275
     0
280
     0
281
     0
282
     0
283
     0
284
     0
285
     0
286
     0
287
     3
288
     0
  0
DIMSTYLE
105
5F
330
A
100
AcDbSymbolTableRecord
100
AcDbDimStyleTableRecord
  2
AM_JIS$3
 70
     0
  3

  4
"
  5
OPEN30
  6

  7

 40
0.5
 41
2.5
 42
1.0
 43
10.0
 44
1.0
 45
0.0
 46
0.0
 47
0.1
 48
0.1
140
3.2
141
0.0
142
0.0
143
0.0393701
144
1.0
145
0.0
146
0.71
147
1.5
 71
     0
 72
     0
 73
     0
 74
     1
 75
     0
 76
     0
 77
     3
 78
     8
170
     0
171
     2
172
     0
173
     0
174
     0
175
     0
176
   256
177
   256
178
     2
270
     2
271
     2
272
     3
273
     2
274
     2
340
6B
275
     0
280
     0
281
     0
282
     0
283
     0
284
     0
285
     0
286
     0
287
     0
288
     1
  0
DIMSTYLE
105
60
330
A
100
AcDbSymbolTableRecord
100
AcDbDimStyleTableRecord
  2
AM_JIS$4
 70
     0
  3

  4
"
  5
OPEN30
  6

  7

 40
0.5
 41
2.5
 42
1.0
 43
10.0
 44
1.0
 45
0.0
 46
0.0
 47
0.1
 48
0.1
140
3.2
141
0.0
142
0.0
143
0.0393701
144
1.0
145
0.0
146
0.71
147
1.5
 71
     0
 72
     0
 73
     0
 74
     1
 75
     0
 76
     0
 77
     3
 78
     8
170
     0
171
     2
172
     0
173
     0
174
     0
175
     0
176
   256
177
   256
178
     2
270
     2
271
     2
272
     3
273
     2
274
     2
340
6B
275
     0
280
     0
281
     0
282
     0
283
     0
284
     0
285
     0
286
     0
287
     0
288
     1
  0
DIMSTYLE
105
61
330
A
100
AcDbSymbolTableRecord
100
AcDbDimStyleTableRecord
  2
AM_JIS$6
 70
     0
  3

  4
"
  5
OPEN30
  6

  7

 40
0.5
 41
2.5
 42
1.0
 43
10.0
 44
1.0
 45
0.0
 46
0.0
 47
0.1
 48
0.1
140
3.2
141
0.0
142
0.0
143
0.0393701
144
1.0
145
0.0
146
0.71
147
1.5
 71
     0
 72
     0
 73
     0
 74
     0
 75
     0
 76
     0
 77
     0
 78
     8
170
     0
171
     2
172
     1
173
     0
174
     0
175
     0
176
   256
177
   256
178
     2
270
     2
271
     2
272
     2
273
     2
274
     2
340
6B
275
     0
280
     0
281
     0
282
     0
283
     0
284
     0
285
     0
286
     0
287
     3
288
     0
  0
DIMSTYLE
105
62
330
A
100
AcDbSymbolTableRecord
100
AcDbDimStyleTableRecord
  2
AM_JIS$7
 70
     0
  3

  4
"
  5
OPEN30
  6

  7

 40
0.5
 41
2.5
 42
1.0
 43
10.0
 44
1.0
 45
0.0
 46
0.0
 47
0.1
 48
0.1
140
3.2
141
0.0
142
0.0
143
0.0393701
144
1.0
145
0.0
146
0.71
147
1.5
 71
     0
 72
     0
 73
     0
 74
     0
 75
     0
 76
     0
 77
     3
 78
     8
170
     0
171
     2
172
     1
173
     0
174
     0
175
     0
176
   256
177
   256
178
     2
270
     2
271
     2
272
     3
273
     2
274
     2
340
6B
275
     0
280
     0
281
     0
282
     0
283
     0
284
     0
285
     0
286
     0
287
     3
288
     0
  0
DIMSTYLE
105
63
330
A
100
AcDbSymbolTableRecord
100
AcDbDimStyleTableRecord
  2
AM_JIS$SF
 70
     0
  3

  4
"
  5
OPEN30
  6

  7

 40
0.5
 41
2.5
 42
1.0
 43
10.0
 44
1.0
 45
0.0
 46
0.0
 47
0.1
 48
0.1
140
3.2
141
0.0
142
0.0
143
0.0393701
144
1.0
145
0.0
146
0.71
147
1.5
 71
     0
 72
     0
 73
     0
 74
     0
 75
     1
 76
     1
 77
     3
 78
     8
170
     0
171
     2
172
     1
173
     0
174
     0
175
     0
176
   256
177
   256
178
     2
270
     2
271
     2
272
     2
273
     2
274
     2
340
6B
275
     0
280
     0
281
     0
282
     0
283
     0
284
     0
285
     0
286
     0
287
     3
288
     0
  0
DIMSTYLE
105
68
330
A
100
AcDbSymbolTableRecord
100
AcDbDimStyleTableRecord
  2
AM_JIS$SH
 70
     0
  3

  4
"
  5

  6
GENAXEH
  7
OPEN30
 40
0.5
 41
2.5
 42
1.0
 43
10.0
 44
1.0
 45
0.0
 46
0.0
 47
0.1
 48
0.1
140
3.2
141
0.0
142
0.0
143
0.0393701
144
2.0
145
0.0
146
0.71
147
1.5
 71
     0
 72
     0
 73
     0
 74
     0
 75
     1
 76
     1
 77
     3
 78
     8
170
     0
171
     2
172
     1
173
     1
174
     0
175
     0
176
   256
177
   256
178
     2
270
     2
271
     2
272
     2
273
     2
274
     2
340
6B
275
     0
280
     0
281
     0
282
     0
283
     0
284
     0
285
     0
286
     0
287
     3
288
     0
  0
DIMSTYLE
105
B34
102
{ACAD_REACTORS
330
48D2
102
}
330
A
100
AcDbSymbolTableRecord
100
AcDbDimStyleTableRecord
  2
AM_JIS$2
 70
     0
  3

  4
"
  5
OPEN30
  6

  7

 40
0.5
 41
2.5
 42
1.0
 43
12.0
 44
1.0
 45
0.0
 46
0.0
 47
0.1
 48
0.1
140
3.2
141
0.0
142
0.0
143
0.0393701
144
1.0
145
0.0
146
0.71
147
1.5
 71
     0
 72
     0
 73
     0
 74
     0
 75
     0
 76
     0
 77
     3
 78
     8
170
     0
171
     2
172
     1
173
     0
174
     0
175
     0
176
   256
177
   256
178
     2
270
     2
271
     3
272
     3
273
     2
274
     2
340
6B
275
     0
280
     0
281
     0
282
     0
283
     0
284
     0
285
     0
286
     0
287
     3
288
     0
  0
DIMSTYLE
105
BA5
102
{ACAD_REACTORS
330
CC6
330
DF5
330
4A9C
330
510B
102
}
330
A
100
AcDbSymbolTableRecord
100
AcDbDimStyleTableRecord
  2
AM_JIS$0
 70
     0
  3

  4
"
  5
OPEN30
  6

  7

 40
0.5
 41
2.5
 42
0.0
 43
10.0
 44
1.0
 45
0.0
 46
0.0
 47
0.1
 48
0.1000000001
140
3.799999999999999
141
0.0
142
0.0
143
0.0393701
144
1.0
145
0.0
146
0.71
147
1.5
 71
     0
 72
     0
 73
     0
 74
     0
 75
     0
 76
     0
 77
     3
 78
     1
170
     0
171
     2
172
     1
173
     0
174
     0
175
     0
176
     3
177
     3
178
     2
270
     2
271
     2
272
     2
273
     2
274
     2
340
11
275
     1
280
     0
281
     0
282
     0
283
     0
284
     8
285
     0
286
     0
287
     0
288
     0
  0
ENDTAB
  0
TABLE
  2
BLOCK_RECORD
  5
1
330
0
100
AcDbSymbolTable
 70
    10
  0
BLOCK_RECORD
  5
1F
102
{ACAD_XDICTIONARY
360
74
102
}
330
1
100
AcDbSymbolTableRecord
100
AcDbBlockTableRecord
  2
*MODEL_SPACE
  0
BLOCK_RECORD
  5
101
102
{ACAD_XDICTIONARY
360
576E
102
}
330
1
100
AcDbSymbolTableRecord
100
AcDbBlockTableRecord
  2
*PAPER_SPACE
  0
BLOCK_RECORD
  5
59
330
1
100
AcDbSymbolTableRecord
100
AcDbBlockTableRecord
  2
_OPEN30
  0
BLOCK_RECORD
  5
64
330
1
100
AcDbSymbolTableRecord
100
AcDbBlockTableRecord
  2
GENAXEH
  0
BLOCK_RECORD
  5
CC8
330
1
100
AcDbSymbolTableRecord
100
AcDbBlockTableRecord
  2
*D5
  0
BLOCK_RECORD
  5
DF6
330
1
100
AcDbSymbolTableRecord
100
AcDbBlockTableRecord
  2
*D6
  0
BLOCK_RECORD
  5
48D3
330
1
100
AcDbSymbolTableRecord
100
AcDbBlockTableRecord
  2
*D7
  0
BLOCK_RECORD
  5
4A9D
330
1
100
AcDbSymbolTableRecord
100
AcDbBlockTableRecord
  2
*D8
  0
BLOCK_RECORD
  5
510C
330
1
100
AcDbSymbolTableRecord
100
AcDbBlockTableRecord
  2
*D9
  0
ENDTAB
  0
ENDSEC
  0
SECTION
  2
BLOCKS
  0
BLOCK
  5
20
330
1F
100
AcDbEntity
  8
0
100
AcDbBlockBegin
  2
*MODEL_SPACE
 70
     0
 10
0.0
 20
0.0
 30
0.0
  3
*MODEL_SPACE
  1

  0
ENDBLK
  5
21
330
1F
100
AcDbEntity
  8
0
100
AcDbBlockEnd
  0
BLOCK
  5
103
330
101
100
AcDbEntity
 67
     1
  8
0
100
AcDbBlockBegin
  2
*PAPER_SPACE
 70
     0
 10
0.0
 20
0.0
 30
0.0
  3
*PAPER_SPACE
  1

  0
ENDBLK
  5
104
330
101
100
AcDbEntity
 67
     1
  8
0
100
AcDbBlockEnd
  0
BLOCK
  5
5D
330
59
100
AcDbEntity
  8
0
100
AcDbBlockBegin
  2
_OPEN30
 70
     0
 10
0.0
 20
0.0
 30
0.0
  3
_OPEN30
  1

  0
LINE
  5
5A
330
59
100
AcDbEntity
  8
0
 62
     0
100
AcDbLine
 10
-1.0
 20
0.26794919
 30
0.0
 11
0.0
 21
0.0
 31
0.0
  0
LINE
  5
5B
330
59
100
AcDbEntity
  8
0
 62
     0
100
AcDbLine
 10
0.0
 20
0.0
 30
0.0
 11
-1.0
 21
-0.26794919
 31
0.0
  0
LINE
  5
5C
330
59
100
AcDbEntity
  8
0
 62
     0
100
AcDbLine
 10
0.0
 20
0.0
 30
0.0
 11
-1.0
 21
0.0
 31
0.0
  0
ENDBLK
  5
5E
330
59
100
AcDbEntity
  8
0
100
AcDbBlockEnd
  0
BLOCK
  5
66
330
64
100
AcDbEntity
  8
0
100
AcDbBlockBegin
  2
GENAXEH
 70
     0
 10
0.0
 20
0.0
 30
0.0
  3
GENAXEH
  1

  0
LINE
  5
65
330
64
100
AcDbEntity
  8
0
100
AcDbLine
 10
-1.0
 20
0.0
 30
0.0
 11
1.0
 21
0.0
 31
0.0
  0
ENDBLK
  5
67
330
64
100
AcDbEntity
  8
0
100
AcDbBlockEnd
  0
BLOCK
  5
CD2
330
CC8
100
AcDbEntity
  8
0
100
AcDbBlockBegin
  2
*D5
 70
     1
 10
0.0
 20
0.0
 30
0.0
  3
*D5
  1

  0
LINE
  5
56FA
330
CC8
100
AcDbEntity
  8
AM_5
 62
     3
100
AcDbLine
 10
-131.0000000000002
 20
-3.000000517103931
 30
0.0
 11
-131.0000000000002
 21
-16.00000099999999
 31
0.0
  0
LINE
  5
56FB
330
CC8
100
AcDbEntity
  8
AM_5
 62
     3
100
AcDbLine
 10
-0.9999999984656344
 20
-3.499999995830756
 30
0.0
 11
-0.9999999984656351
 21
-16.00000099999999
 31
0.0
  0
LINE
  5
56FC
330
CC8
100
AcDbEntity
  8
AM_5
 62
     3
100
AcDbLine
 10
-129.7500000000002
 20
-15.50000099999999
 30
0.0
 11
-2.249999998465635
 21
-15.50000099999999
 31
0.0
  0
INSERT
  5
56FD
330
CC8
100
AcDbEntity
  8
AM_5
 62
     3
100
AcDbBlockReference
  2
_OPEN30
 10
-131.0000000000002
 20
-15.50000099999999
 30
0.0
 41
1.25
 42
1.25
 43
1.25
 50
180.0
  0
INSERT
  5
56FE
330
CC8
100
AcDbEntity
  8
AM_5
 62
     3
100
AcDbBlockReference
  2
_OPEN30
 10
-0.9999999984656351
 20
-15.50000099999999
 30
0.0
 41
1.25
 42
1.25
 43
1.25
  0
MTEXT
  5
56FF
330
CC8
100
AcDbEntity
  8
AM_5
 62
     2
100
AcDbMText
 10
-65.99999999923293
 20
-13.80000099999999
 30
0.0
 40
1.9
 41
0.0
 71
     5
 72
     1
  1
130
1001
ACAD
1000
MTEXTBEGIN
1070
    73
1070
     1
1070
    44
1040
1.0
1070
    74
1070
     0
1000
MTEXTEND
  0
POINT
  5
5700
330
CC8
100
AcDbEntity
  8
DEFPOINTS
 62
     0
100
AcDbPoint
 10
-131.0000000000002
 20
-3.000000517103931
 30
0.0
  0
POINT
  5
5701
330
CC8
100
AcDbEntity
  8
DEFPOINTS
 62
     0
100
AcDbPoint
 10
-0.9999999984656344
 20
-3.499999995830756
 30
0.0
  0
POINT
  5
5702
330
CC8
100
AcDbEntity
  8
DEFPOINTS
 62
     0
100
AcDbPoint
 10
-0.9999999984656351
 20
-15.50000099999999
 30
0.0
  0
ENDBLK
  5
CD3
330
CC8
100
AcDbEntity
  8
0
100
AcDbBlockEnd
  0
BLOCK
  5
E00
330
DF6
100
AcDbEntity
  8
0
100
AcDbBlockBegin
  2
*D6
 70
     1
 10
0.0
 20
0.0
 30
0.0
  3
*D6
  1

  0
LINE
  5
56F1
330
DF6
100
AcDbEntity
  8
AM_5
 62
     3
100
AcDbLine
 10
-78.00000000000011
 20
-3.500000473195788
 30
0.0
 11
-78.00000000000011
 21
-11.0000009999999
 31
0.0
  0
LINE
  5
56F2
330
DF6
100
AcDbEntity
  8
AM_5
 62
     3
100
AcDbLine
 10
-0.9999999984656344
 20
-3.499999995830756
 30
0.0
 11
-0.9999999984656348
 21
-11.0000009999999
 31
0.0
  0
LINE
  5
56F3
330
DF6
100
AcDbEntity
  8
AM_5
 62
     3
100
AcDbLine
 10
-76.75000000000011
 20
-10.5000009999999
 30
0.0
 11
-2.249999998465634
 21
-10.5000009999999
 31
0.0
  0
INSERT
  5
56F4
330
DF6
100
AcDbEntity
  8
AM_5
 62
     3
100
AcDbBlockReference
  2
_OPEN30
 10
-78.00000000000011
 20
-10.5000009999999
 30
0.0
 41
1.25
 42
1.25
 43
1.25
 50
180.0
  0
INSERT
  5
56F5
330
DF6
100
AcDbEntity
  8
AM_5
 62
     3
100
AcDbBlockReference
  2
_OPEN30
 10
-0.9999999984656348
 20
-10.5000009999999
 30
0.0
 41
1.25
 42
1.25
 43
1.25
  0
MTEXT
  5
56F6
330
DF6
100
AcDbEntity
  8
AM_5
 62
     2
100
AcDbMText
 10
-39.49999999923287
 20
-8.800000999999904
 30
0.0
 40
1.9
 41
0.0
 71
     5
 72
     1
  1
77
1001
ACAD
1000
MTEXTBEGIN
1070
    73
1070
     1
1070
    44
1040
1.0
1070
    74
1070
     0
1000
MTEXTEND
  0
POINT
  5
56F7
330
DF6
100
AcDbEntity
  8
DEFPOINTS
 62
     0
100
AcDbPoint
 10
-78.00000000000011
 20
-3.500000473195788
 30
0.0
  0
POINT
  5
56F8
330
DF6
100
AcDbEntity
  8
DEFPOINTS
 62
     0
100
AcDbPoint
 10
-0.9999999984656344
 20
-3.499999995830756
 30
0.0
  0
POINT
  5
56F9
330
DF6
100
AcDbEntity
  8
DEFPOINTS
 62
     0
100
AcDbPoint
 10
-0.9999999984656348
 20
-10.5000009999999
 30
0.0
  0
ENDBLK
  5
E01
330
DF6
100
AcDbEntity
  8
0
100
AcDbBlockEnd
  0
BLOCK
  5
48E1
330
48D3
100
AcDbEntity
  8
0
100
AcDbBlockBegin
  2
*D7
 70
     1
 10
0.0
 20
0.0
 30
0.0
  3
*D7
  1

  0
LINE
  5
5717
330
48D3
100
AcDbEntity
  8
AM_5
100
AcDbLine
 10
0.1710100716628696
 20
-0.4698463103929547
 30
0.0
 11
5.725968106116051
 21
-15.73196807607093
 31
0.0
  0
LINE
  5
5718
330
48D3
100
AcDbEntity
  8
AM_5
100
AcDbLine
 10
0.171010071662866
 20
0.469846310392957
 30
0.0
 11
5.725968106115931
 21
15.73196807607097
 31
0.0
  0
ARC
  5
5719
330
48D3
100
AcDbEntity
  8
AM_5
100
AcDbCircle
 10
0.0000000000000329
 20
0.0000000000000005
 30
0.0
 40
16.24161074385534
100
AcDbArc
 50
294.4107332258705
 51
65.58926677412985
  0
INSERT
  5
571A
330
48D3
100
AcDbEntity
  8
AM_5
100
AcDbBlockReference
  2
_OPEN30
 10
5.554958034453214
 20
-15.26212176567797
 30
0.0
 41
1.25
 42
1.25
 43
1.25
 50
202.2053666129353
  0
INSERT
  5
571B
330
48D3
100
AcDbEntity
  8
AM_5
100
AcDbBlockReference
  2
_OPEN30
 10
5.554958034453099
 20
15.26212176567801
 30
0.0
 41
1.25
 42
1.25
 43
1.25
 50
157.794633387065
  0
MTEXT
  5
571C
330
48D3
100
AcDbEntity
  8
AM_5
 62
     2
100
AcDbMText
 10
14.69161074385537
 20
0.0000000000000552
 30
0.0
 40
1.6
 41
0.0
 71
     5
 72
     1
  1
140°
  7
ASAMI
 11
-0.000000000000002
 21
1.0
 31
0.0
1001
ACAD
1000
MTEXTBEGIN
1070
    73
1070
     1
1070
    44
1040
1.0
1070
    74
1070
     0
1000
MTEXTEND
  0
POINT
  5
571D
330
48D3
100
AcDbEntity
  8
DEFPOINTS
 62
     0
100
AcDbPoint
 10
14.91330858668773
 20
-6.432973383525256
 30
0.0
  0
POINT
  5
571E
330
48D3
100
AcDbEntity
  8
DEFPOINTS
 62
     0
100
AcDbPoint
 10
0.0000000000000335
 20
0.0000000000000021
 30
0.0
  0
POINT
  5
571F
330
48D3
100
AcDbEntity
  8
DEFPOINTS
 62
     0
100
AcDbPoint
 10
0.0000000000000335
 20
-0.0000000000000011
 30
0.0
  0
POINT
  5
5720
330
48D3
100
AcDbEntity
  8
DEFPOINTS
 62
     0
100
AcDbPoint
 10
-0.2431446527749938
 20
0.6680344431605175
 30
0.0
  0
POINT
  5
5721
330
48D3
100
AcDbEntity
  8
DEFPOINTS
 62
     0
100
AcDbPoint
 10
-0.2431446527749911
 20
-0.6680344431605173
 30
0.0
  0
ENDBLK
  5
48E2
330
48D3
100
AcDbEntity
  8
0
100
AcDbBlockEnd
  0
BLOCK
  5
4AA7
330
4A9D
100
AcDbEntity
  8
0
100
AcDbBlockBegin
  2
*D8
 70
     1
 10
0.0
 20
0.0
 30
0.0
  3
*D8
  1

  0
LINE
  5
5703
330
4A9D
100
AcDbEntity
  8
AM_5
 62
     3
100
AcDbLine
 10
-130.4999999999999
 20
3.499999999999461
 30
0.0
 11
-139.2500010004113
 21
3.499999999999444
 31
0.0
  0
LINE
  5
5704
330
4A9D
100
AcDbEntity
  8
AM_5
 62
     3
100
AcDbLine
 10
-130.4999999999995
 20
-3.500000000000538
 30
0.0
 11
-139.2500010004113
 21
-3.500000000000555
 31
0.0
  0
LINE
  5
5705
330
4A9D
100
AcDbEntity
  8
AM_5
 62
     3
100
AcDbLine
 10
-138.7500010004113
 20
2.249999999999445
 30
0.0
 11
-138.7500010004113
 21
-2.250000000000554
 31
0.0
  0
INSERT
  5
5706
330
4A9D
100
AcDbEntity
  8
AM_5
 62
     3
100
AcDbBlockReference
  2
_OPEN30
 10
-138.7500010004113
 20
3.499999999999445
 30
0.0
 41
1.25
 42
1.25
 43
1.25
 50
90.0000000000001
  0
INSERT
  5
5707
330
4A9D
100
AcDbEntity
  8
AM_5
 62
     3
100
AcDbBlockReference
  2
_OPEN30
 10
-138.7500010004113
 20
-3.500000000000554
 30
0.0
 41
1.25
 42
1.25
 43
1.25
 50
270.0000000000001
  0
MTEXT
  5
5708
330
4A9D
100
AcDbEntity
  8
AM_5
 62
     2
100
AcDbMText
 10
-140.4500010004113
 20
-0.0000000000005527
 30
0.0
 40
1.9
 41
0.0
 71
     5
 72
     1
  1
%%c7
 11
-0.000000000000002
 21
1.0
 31
0.0
1001
ACAD
1000
MTEXTBEGIN
1070
    73
1070
     1
1070
    44
1040
1.0
1070
    74
1070
     0
1000
MTEXTEND
  0
POINT
  5
5709
330
4A9D
100
AcDbEntity
  8
DEFPOINTS
 62
     0
100
AcDbPoint
 10
-130.4999999999999
 20
3.49999999999975
 30
0.0
  0
POINT
  5
570A
330
4A9D
100
AcDbEntity
  8
DEFPOINTS
 62
     0
100
AcDbPoint
 10
-130.4999999999995
 20
-3.500000000000249
 30
0.0
  0
POINT
  5
570B
330
4A9D
100
AcDbEntity
  8
DEFPOINTS
 62
     0
100
AcDbPoint
 10
-138.7500010004113
 20
-3.500000000000246
 30
0.0
  0
ENDBLK
  5
4AA8
330
4A9D
100
AcDbEntity
  8
0
100
AcDbBlockEnd
  0
BLOCK
  5
5116
330
510C
100
AcDbEntity
  8
0
100
AcDbBlockBegin
  2
*D9
 70
     1
 10
0.0
 20
0.0
 30
0.0
  3
*D9
  1

  0
LINE
  5
570C
330
510C
100
AcDbEntity
  8
AM_5
 62
     3
100
AcDbLine
 10
-0.9999999999999676
 20
3.399999999999995
 30
0.0
 11
8.225244338834926
 21
3.400000000000013
 31
0.0
  0
LINE
  5
570D
330
510C
100
AcDbEntity
  8
AM_5
 62
     3
100
AcDbLine
 10
-0.9999999984656295
 20
-3.399999995949877
 30
0.0
 11
8.22524433883494
 21
-3.39999999594986
 31
0.0
  0
LINE
  5
570E
330
510C
100
AcDbEntity
  8
AM_5
 62
     3
100
AcDbLine
 10
7.725244338834941
 20
-4.649999995949861
 30
0.0
 11
7.725244338834944
 21
-5.899999995949861
 31
0.0
  0
LINE
  5
570F
330
510C
100
AcDbEntity
  8
AM_5
 62
     3
100
AcDbLine
 10
7.725244338834923
 20
4.650000000000011
 30
0.0
 11
7.725244338834906
 21
13.10000000000001
 31
0.0
  0
LINE
  5
5710
330
510C
100
AcDbEntity
  8
AM_5
 62
     3
100
AcDbLine
 10
7.725244338834939
 20
-3.399999995949861
 30
0.0
 11
7.725244338834925
 21
3.400000000000012
 31
0.0
  0
INSERT
  5
5711
330
510C
100
AcDbEntity
  8
AM_5
 62
     3
100
AcDbBlockReference
  2
_OPEN30
 10
7.725244338834939
 20
-3.399999995949861
 30
0.0
 41
1.25
 42
1.25
 43
1.25
 50
90.0000000000001
  0
INSERT
  5
5712
330
510C
100
AcDbEntity
  8
AM_5
 62
     3
100
AcDbBlockReference
  2
_OPEN30
 10
7.725244338834925
 20
3.400000000000012
 30
0.0
 41
1.25
 42
1.25
 43
1.25
 50
270.0000000000001
  0
MTEXT
  5
5713
330
510C
100
AcDbEntity
  8
AM_5
 62
     2
100
AcDbMText
 10
6.025244338834913
 20
9.500000000000008
 30
0.0
 40
1.9
 41
0.0
 71
     5
 72
     1
  1
%%c6.8
 11
-0.000000000000002
 21
1.0
 31
0.0
1001
ACAD
1000
MTEXTBEGIN
1070
    73
1070
     1
1070
    44
1040
1.0
1070
    74
1070
     0
1000
MTEXTEND
  0
POINT
  5
5714
330
510C
100
AcDbEntity
  8
DEFPOINTS
 62
     0
100
AcDbPoint
 10
-0.9999999999999602
 20
3.399999999999997
 30
0.0
  0
POINT
  5
5715
330
510C
100
AcDbEntity
  8
DEFPOINTS
 62
     0
100
AcDbPoint
 10
-0.9999999984656371
 20
-3.399999995949876
 30
0.0
  0
POINT
  5
5716
330
510C
100
AcDbEntity
  8
DEFPOINTS
 62
     0
100
AcDbPoint
 10
7.725244338834931
 20
-3.399999995949878
 30
0.0
  0
ENDBLK
  5
5117
330
510C
100
AcDbEntity
  8
0
100
AcDbBlockEnd
  0
ENDSEC
  0
SECTION
  2
ENTITIES
  0
LINE
  5
C1D
330
1F
100
AcDbEntity
  8
AM_0
 48
0.5
100
AcDbLine
 10
0.0000000000000339
 20
-0.0000000000000012
 30
0.0
 11
-0.2618480876038416
 21
0.7194217080190187
 31
0.0
  0
LINE
  5
C9F
330
1F
100
AcDbEntity
  8
AM_7
100
AcDbLine
 10
-131.7499999999999
 20
-0.0000000000002516
 30
0.0
 11
0.7252484813720344
 21
0.0000000000000014
 31
0.0
1001
GENIUS_GENODEF_13
1002
{
1000
HIER
1070
     0
1002
}
1002
{
1000
MANEDIT
1070
     0
1002
}
1002
{
1000
NOSEL
1070
     0
1002
}
1002
{
1000
BEHIND
1070
     0
1002
}
1002
{
1000
REACTOR
1002
}
1001
GENIUS_GENOBJ-N-CEN_13
1002
{
1000
OWNER
1000
GEN
1002
}
  0
DIMENSION
  5
CC6
330
1F
100
AcDbEntity
  8
AM_5
100
AcDbDimension
  2
*D5
 10
-0.9999999984656351
 20
-15.50000099999999
 30
0.0
 11
-65.99999999923293
 21
-13.80000099999999
 31
0.0
 70
    32
  1
<>
  3
AM_JIS$0
100
AcDbAlignedDimension
 13
-131.0000000000002
 23
-3.000000517103931
 33
0.0
 14
-0.9999999984656344
 24
-3.499999995830756
 34
0.0
 50
0.0000000000001132
100
AcDbRotatedDimension
1001
GENIUS_GENDTOL_13
1000

1000
h7
1000

1040
0.0
1001
ACAD
1000
DSTYLE
1002
{
1070
   271
1070
     0
1002
}
  0
DIMENSION
  5
DF5
330
1F
100
AcDbEntity
  8
AM_5
100
AcDbDimension
  2
*D6
 10
-0.9999999984656348
 20
-10.5000009999999
 30
0.0
 11
-39.49999999923287
 21
-8.800000999999904
 31
0.0
 70
    32
  1
<>
  3
AM_JIS$0
100
AcDbAlignedDimension
 13
-78.00000000000011
 23
-3.500000473195788
 33
0.0
 14
-0.9999999984656344
 24
-3.499999995830756
 34
0.0
 50
0.0000000000001527
100
AcDbRotatedDimension
1001
GENIUS_GENDTOL_13
1000

1000
h7
1000

1040
0.0
1001
ACAD
1000
DSTYLE
1002
{
1070
   271
1070
     0
1002
}
  0
TEXT
  5
19BD
330
1F
100
AcDbEntity
  8
AM_6
100
AcDbText
 10
-77.07142857066147
 20
-26.7556519466985
 30
0.0
 40
2.5
  1
MDW068DHK
 50
0.0000000000001527
 72
     4
 11
-65.9999999992329
 21
-25.50565194669847
 31
0.0
100
AcDbText
  0
LINE
  5
4522
330
1F
100
AcDbEntity
  8
AM_0
 48
0.5
100
AcDbLine
 10
-78.00000000000013
 20
-3.499950217241544
 30
0.0
 11
-130.4999999999995
 21
-3.500000000000249
 31
0.0
  0
LINE
  5
4525
330
1F
100
AcDbEntity
  8
AM_0
 48
0.5
100
AcDbLine
 10
-130.4999999999995
 20
-3.500000000000249
 30
0.0
 11
-130.4999999999999
 21
3.49999999999975
 31
0.0
  0
LINE
  5
4526
330
1F
100
AcDbEntity
  8
AM_0
 48
0.5
100
AcDbLine
 10
-131.0000000000002
 20
-3.000000517103932
 30
0.0
 11
-130.9999999999999
 21
2.999999480851436
 31
0.0
  0
LINE
  5
4536
330
1F
100
AcDbEntity
  8
AM_0
 48
0.5
100
AcDbLine
 10
-78.00000000000013
 20
3.499999526804212
 30
0.0
 11
-130.4999999999999
 21
3.49999999999975
 31
0.0
  0
LINE
  5
4544
330
1F
100
AcDbEntity
  8
AM_0
 48
0.5
100
AcDbLine
 10
-130.4999999999999
 20
3.49999999999975
 30
0.0
 11
-130.9999999999996
 21
2.999999480851735
 31
0.0
1001
GENIUS_GENFIL_13
1070
     0
1040
0.5
1040
0.5
1040
20.0
1040
0.0
1002
{
1002
}
1001
GENIUS_GENODEF_13
1002
{
1000
HIER
1070
     0
1002
}
1002
{
1000
MANEDIT
1070
     0
1002
}
1002
{
1000
NOSEL
1070
     0
1002
}
1002
{
1000
BEHIND
1070
     0
1002
}
1002
{
1000
REACTOR
1002
}
1001
GENIUS_GENOBJ-N-CHA_13
1002
{
1000
OWNER
1000
GEN
1002
}
  0
LINE
  5
4547
330
1F
100
AcDbEntity
  8
AM_0
 48
0.5
100
AcDbLine
 10
-131.0000000000002
 20
-3.000000517103931
 30
0.0
 11
-130.4999999999995
 21
-3.500000000000249
 31
0.0
1001
GENIUS_GENFIL_13
1070
     0
1040
0.5
1040
0.5
1040
20.0
1040
0.0
1002
{
1002
}
1001
GENIUS_GENODEF_13
1002
{
1000
HIER
1070
     0
1002
}
1002
{
1000
MANEDIT
1070
     0
1002
}
1002
{
1000
NOSEL
1070
     0
1002
}
1002
{
1000
BEHIND
1070
     0
1002
}
1002
{
1000
REACTOR
1002
}
1001
GENIUS_GENOBJ-N-CHA_13
1002
{
1000
OWNER
1000
GEN
1002
}
  0
LINE
  5
4658
330
1F
100
AcDbEntity
  8
AM_0
 48
0.5
100
AcDbLine
 10
0.0000000000000339
 20
0.0000000000000022
 30
0.0
 11
-0.2618480876038387
 21
-0.7194217080190187
 31
0.0
  0
DIMENSION
  5
48D2
330
1F
100
AcDbEntity
  8
AM_5
100
AcDbDimension
  2
*D7
 10
-0.2431446527749911
 20
-0.6680344431605173
 30
0.0
 11
14.69161074385537
 21
0.0000000000000232
 31
0.0
 70
    34
  1
<>
 51
359.9999999999998
  3
AM_JIS$2
100
AcDb2LineAngularDimension
 13
0.0000000000000335
 23
-0.0000000000000011
 33
0.0
 14
-0.2431446527749938
 24
0.6680344431605175
 34
0.0
 15
0.0000000000000335
 25
0.0000000000000021
 35
0.0
 16
14.91330858668773
 26
-6.432973383525256
 36
0.0
1001
ACAD
1000
DSTYLE
1002
{
1070
   179
1070
     3
1002
}
1001
GENIUS_GENDTOL_13
1000

1000
h7
1000

1040
0.0
  0
DIMENSION
  5
4A9C
330
1F
100
AcDbEntity
  8
AM_5
100
AcDbDimension
  2
*D8
 10
-138.7500010004113
 20
-3.500000000000246
 30
0.0
 11
-140.4500010004113
 21
-0.0000000000002689
 31
0.0
 70
    32
  1
%%c<>
 51
359.9999999999998
  3
AM_JIS$0
100
AcDbAlignedDimension
 13
-130.4999999999999
 23
3.49999999999975
 33
0.0
 14
-130.4999999999995
 24
-3.500000000000249
 34
0.0
 50
270.000004170476
100
AcDbRotatedDimension
1001
ACAD
1000
DSTYLE
1002
{
1070
   271
1070
     0
1002
}
1001
GENIUS_GENDTOL_13
1000

1000
h7
1000

1040
0.0
  0
ELLIPSE
  5
4BB1
330
1F
100
AcDbEntity
  8
AM_0
 48
0.5
100
AcDbEllipse
 10
1.388645562138869
 20
-5.90347677268488
 30
0.0
 11
-0.8437198879304691
 21
5.876960331746348
 31
0.0
210
0.0
220
0.0
230
-1.0
 40
0.3530315924421318
 41
-1.003307944949282
 42
-0.4422545206818754
  0
LINE
  5
4BB2
330
1F
100
AcDbEntity
  8
AM_0
 48
0.5
100
AcDbLine
 10
-0.814410015677307
 20
-2.995688997828967
 30
0.0
 11
-0.9999999984656371
 21
-3.399999995949876
 31
0.0
  0
ELLIPSE
  5
4D8F
330
1F
100
AcDbEntity
  8
AM_0
 48
0.5
100
AcDbEllipse
 10
1.388645562138847
 20
5.903476772684884
 30
0.0
 11
-0.8437198879304469
 21
-5.876960331746351
 31
0.0
210
0.0
220
0.0
230
0.9999999999999998
 40
0.3530315924421318
 41
-1.003307944949282
 42
-0.4422545206818754
  0
LINE
  5
4D90
330
1F
100
AcDbEntity
  8
AM_0
 48
0.5
100
AcDbLine
 10
-0.8144100156773184
 20
2.995688997828963
 30
0.0
 11
-0.9999999999999602
 21
3.399999999999997
 31
0.0
  0
LINE
  5
4F53
330
1F
100
AcDbEntity
  8
AM_0
100
AcDbLine
 10
-78.6153846153846
 20
3.500000205170611
 30
0.0
 11
-83.53367975368483
 21
3.500000021661165
 31
0.0
  0
ELLIPSE
  5
5064
330
1F
100
AcDbEntity
  8
AM_11
 48
0.5
100
AcDbEllipse
 10
1.799739850621818
 20
14.35514506069502
 30
0.0
 11
-16.32528419494653
 21
0.0000000000066024
 31
0.0
210
0.0
220
0.0
230
1.0
 40
0.9722222222221985
 41
1.130070686340713
 42
1.291800737381399
  0
ELLIPSE
  5
5065
330
1F
100
AcDbEntity
  8
AM_11
 48
0.5
100
AcDbEllipse
 10
-12.12883157794962
 20
-14.35513472191797
 30
0.0
 11
16.32528419494606
 21
0.0000000000000731
 31
0.0
210
0.0
220
0.0
230
1.0
 40
0.9722222222222224
 41
1.130071552591889
 42
2.011521013575197
  0
ELLIPSE
  5
5066
330
1F
100
AcDbEntity
  8
AM_11
 48
0.5
100
AcDbEllipse
 10
-12.12883157794962
 20
14.35514506069502
 30
0.0
 11
-16.32528419494607
 21
0.0000000000000086
 31
0.0
210
0.0
220
0.0
230
1.0
 40
0.9722222222222221
 41
1.130070686340307
 42
2.011520147323599
  0
ELLIPSE
  5
5067
330
1F
100
AcDbEntity
  8
AM_11
 48
0.5
100
AcDbEllipse
 10
-26.05740300652104
 20
-14.35513472191797
 30
0.0
 11
-16.32528419494607
 21
-0.0000000000000059
 31
0.0
210
0.0
220
0.0
230
1.0
 40
0.9722222222222221
 41
4.271664206181687
 42
5.153113667164993
  0
ELLIPSE
  5
5068
330
1F
100
AcDbEntity
  8
AM_11
 48
0.5
100
AcDbEllipse
 10
-26.05740300652104
 20
14.35514506069502
 30
0.0
 11
16.32528419494606
 21
0.0000000000001565
 31
0.0
210
0.0
220
0.0
230
1.0
 40
0.9722222222222223
 41
4.271663339930089
 42
5.153112800913382
  0
ELLIPSE
  5
5069
330
1F
100
AcDbEntity
  8
AM_11
 48
0.5
100
AcDbEllipse
 10
-39.98597443508856
 20
-14.35513472191797
 30
0.0
 11
-16.32528419494606
 21
-0.000000000000024
 31
0.0
210
0.0
220
0.0
230
1.0
 40
0.9722222222222224
 41
4.271664206181685
 42
5.153113667164992
  0
ELLIPSE
  5
506A
330
1F
100
AcDbEntity
  8
AM_11
 48
0.5
100
AcDbEllipse
 10
-39.98597443508856
 20
14.35514506069502
 30
0.0
 11
-16.32528419494606
 21
-0.0000000000000313
 31
0.0
210
0.0
220
0.0
230
1.0
 40
0.9722222222222223
 41
1.130070686340304
 42
2.011520147323597
  0
ELLIPSE
  5
506F
330
1F
100
AcDbEntity
  8
AM_11
 48
0.5
100
AcDbEllipse
 10
-67.84314638856267
 20
-14.35512137937865
 30
0.0
 11
-16.32528419494606
 21
-0.000000000000024
 31
0.0
210
0.0
220
0.0
230
1.0
 40
0.9722222222222224
 41
4.271664206181685
 42
5.153113667164992
  0
ELLIPSE
  5
5070
330
1F
100
AcDbEntity
  8
AM_11
 48
0.5
100
AcDbEllipse
 10
-67.84314638856267
 20
14.35515840323434
 30
0.0
 11
-16.32528419494606
 21
-0.0000000000000313
 31
0.0
210
0.0
220
0.0
230
1.0
 40
0.9722222222222223
 41
1.130070686340304
 42
2.011520147323597
  0
ELLIPSE
  5
5071
330
1F
100
AcDbEntity
  8
AM_11
 48
0.5
100
AcDbEllipse
 10
-53.91457495999515
 20
-14.35512137937865
 30
0.0
 11
-16.32528419494607
 21
-0.0000000000000059
 31
0.0
210
0.0
220
0.0
230
1.0
 40
0.9722222222222221
 41
4.271664206181687
 42
5.153113667164993
  0
ELLIPSE
  5
5072
330
1F
100
AcDbEntity
  8
AM_11
 48
0.5
100
AcDbEllipse
 10
-53.91457495999515
 20
14.35515840323434
 30
0.0
 11
16.32528419494606
 21
0.0000000000001565
 31
0.0
210
0.0
220
0.0
230
1.0
 40
0.9722222222222223
 41
4.271663339930089
 42
5.153112800913382
  0
ELLIPSE
  5
5073
330
1F
100
AcDbEntity
  8
AM_11
 48
0.5
100
AcDbEllipse
 10
-95.7002574901735
 20
-14.35509469429995
 30
0.0
 11
-16.32528419494606
 21
-0.000000000000024
 31
0.0
210
0.0
220
0.0
230
1.0
 40
0.9722222222222224
 41
4.271664206181685
 42
5.153113667164992
  0
ELLIPSE
  5
5074
330
1F
100
AcDbEntity
  8
AM_11
 48
0.5
100
AcDbEllipse
 10
-95.7002574901735
 20
14.35518508831304
 30
0.0
 11
-16.32528419494606
 21
-0.0000000000000313
 31
0.0
210
0.0
220
0.0
230
1.0
 40
0.9722222222222223
 41
1.130070686340304
 42
2.011520147323597
  0
ELLIPSE
  5
5075
330
1F
100
AcDbEntity
  8
AM_11
 48
0.5
100
AcDbEllipse
 10
-81.77168606160597
 20
14.35518508831304
 30
0.0
 11
16.32528419494606
 21
0.0000000000001565
 31
0.0
210
0.0
220
0.0
230
1.0
 40
0.9722222222222223
 41
4.271663339930089
 42
5.153112800913382
  0
ELLIPSE
  5
5076
330
1F
100
AcDbEntity
  8
AM_11
 48
0.5
100
AcDbEllipse
 10
-81.77168606160597
 20
-14.35509469429995
 30
0.0
 11
-16.32528419494607
 21
-0.0000000000000059
 31
0.0
210
0.0
220
0.0
230
1.0
 40
0.9722222222222221
 41
4.271664206181687
 42
5.153113667164993
  0
ELLIPSE
  5
5077
330
1F
100
AcDbEntity
  8
AM_11
 48
0.5
100
AcDbEllipse
 10
-123.5572522055515
 20
-14.35512137937876
 30
0.0
 11
-16.32528419494606
 21
-0.000000000000024
 31
0.0
210
0.0
220
0.0
230
1.0
 40
0.9722222222222224
 41
4.271664206181685
 42
5.153113667164992
  0
ELLIPSE
  5
5078
330
1F
100
AcDbEntity
  8
AM_11
 48
0.5
100
AcDbEllipse
 10
-123.5572522055515
 20
14.35515840323423
 30
0.0
 11
-16.32528419494606
 21
-0.0000000000000313
 31
0.0
210
0.0
220
0.0
230
1.0
 40
0.9722222222222223
 41
1.130070686340304
 42
2.011520147323597
  0
ELLIPSE
  5
5079
330
1F
100
AcDbEntity
  8
AM_11
 48
0.5
100
AcDbEllipse
 10
-109.628680776984
 20
14.35515840323423
 30
0.0
 11
16.32528419494606
 21
0.0000000000001565
 31
0.0
210
0.0
220
0.0
230
1.0
 40
0.9722222222222223
 41
4.271663339930089
 42
5.153112800913382
  0
ELLIPSE
  5
507A
330
1F
100
AcDbEntity
  8
AM_11
 48
0.5
100
AcDbEllipse
 10
-109.628680776984
 20
-14.35512137937876
 30
0.0
 11
-16.32528419494607
 21
-0.0000000000000059
 31
0.0
210
0.0
220
0.0
230
1.0
 40
0.9722222222222221
 41
4.271664206181687
 42
5.153113667164993
  0
ELLIPSE
  5
507D
330
1F
100
AcDbEntity
  8
AM_11
 48
0.5
100
AcDbEllipse
 10
-137.4857918785948
 20
14.35515840323411
 30
0.0
 11
16.32528419494606
 21
0.0000000000001565
 31
0.0
210
0.0
220
0.0
230
1.0
 40
0.9722222222222223
 41
5.12094551664477
 42
5.153112800913382
  0
ELLIPSE
  5
507E
330
1F
100
AcDbEntity
  8
AM_11
 48
0.5
100
AcDbEllipse
 10
-137.4857918785948
 20
-14.35512137937888
 30
0.0
 11
-16.32528419494607
 21
-0.0000000000000059
 31
0.0
210
0.0
220
0.0
230
1.0
 40
0.9722222222222221
 41
4.271664206181687
 42
4.303832444124589
  0
DIMENSION
  5
510B
330
1F
100
AcDbEntity
  8
AM_5
100
AcDbDimension
  2
*D9
 10
7.725244338834931
 20
-3.399999995949878
 30
0.0
 11
7.725244338834933
 21
9.499999999999996
 31
0.0
 70
   160
  1
%%c<>
 51
359.9999999999998
  3
AM_JIS$0
100
AcDbAlignedDimension
 13
-0.9999999999999602
 23
3.399999999999997
 33
0.0
 14
-0.9999999984656371
 24
-3.399999995949876
 34
0.0
 50
89.99995660842881
100
AcDbRotatedDimension
1001
GENIUS_GENDTOL_13
1000

1000
h7
1000

1040
0.0
1001
ACAD
1000
DSTYLE
1002
{
1070
   271
1070
     1
1002
}
  0
LINE
  5
543B
330
1F
100
AcDbEntity
  8
AM_0
100
AcDbLine
 10
-0.9999999999999495
 20
3.399999999999997
 30
0.0
 11
-4.602756142250022
 21
3.400002676890054
 31
0.0
  0
LINE
  5
543C
330
1F
100
AcDbEntity
  8
AM_0
 48
0.5
100
AcDbLine
 10
-6.102642680864621
 20
-3.399997323109894
 30
0.0
 11
-0.9999999984656414
 21
-3.399999995949876
 31
0.0
  0
LINE
  5
543D
330
1F
100
AcDbEntity
  8
AM_0
 48
0.5
100
AcDbLine
 10
0.0000000000000325
 20
0.000000000000005
 30
0.0
 11
-3.292900306742616
 21
1.034297183514752
 31
0.0
  0
LINE
  5
543E
330
1F
100
AcDbEntity
  8
AM_0
 48
0.5
100
AcDbLine
 10
-29.43622187955813
 20
3.400002676891343
 30
0.0
 11
-16.2352320942418
 21
3.400002676890664
 31
0.0
  0
LINE
  5
543F
330
1F
100
AcDbEntity
  8
AM_0
 48
0.5
100
AcDbLine
 10
-26.70418907431193
 20
-3.399997323108868
 30
0.0
 11
-16.23523209424209
 21
-3.399997323109334
 31
0.0
  0
LINE
  5
5440
330
1F
100
AcDbEntity
  8
AM_11
 48
0.5
100
AcDbLine
 10
-57.92624474841719
 20
-3.40031002677888
 30
0.0
 11
-48.95621500155599
 21
-3.399821713274226
 31
0.0
  0
LINE
  5
5441
330
1F
100
AcDbEntity
  8
AM_0
100
AcDbLine
 10
-51.67019398407155
 20
3.400002676892409
 30
0.0
 11
-36.94413861896385
 21
3.400485708595327
 31
0.0
  0
LINE
  5
5442
330
1F
100
AcDbEntity
  8
AM_0
 48
0.5
100
AcDbLine
 10
-48.95621500155599
 20
-3.399821713274226
 30
0.0
 11
-38.46911844047008
 21
-3.399997323108197
 31
0.0
  0
LINE
  5
5443
330
1F
100
AcDbEntity
  8
AM_11
 48
0.5
100
AcDbLine
 10
-36.94413861896385
 20
3.400485708595327
 30
0.0
 11
-29.43621174649366
 21
3.400002676891343
 31
0.0
  0
LINE
  5
5444
330
1F
100
AcDbEntity
  8
AM_11
 48
0.5
100
AcDbLine
 10
-38.46911844046772
 20
-3.399997323108263
 30
0.0
 11
-26.70418907431193
 21
-3.400480354812461
 31
0.0
  0
LINE
  5
5445
330
1F
100
AcDbEntity
  8
AM_11
 48
0.5
100
AcDbLine
 10
-16.2352320942281
 20
3.400002676890553
 30
0.0
 11
-4.470302728087654
 21
3.400002676890033
 31
0.0
  0
LINE
  5
5446
330
1F
100
AcDbEntity
  8
AM_11
 48
0.5
100
AcDbLine
 10
-16.23523036088049
 20
-3.399997323109324
 30
0.0
 11
-6.102642680864517
 21
-3.399997323109917
 31
0.0
  0
SPLINE
  5
5447
330
1F
100
AcDbEntity
  8
AM_0
 48
0.5
100
AcDbSpline
210
0.0
220
0.0
230
1.0
 70
     8
 71
     3
 72
    17
 73
    13
 74
     0
 42
0.0000000001
 43
0.0000000001
 40
0.0
 40
0.0
 40
0.0
 40
0.0
 40
1.010743614677189
 40
2.022833924044153
 40
3.037578959561199
 40
4.056212747067873
 40
5.079857613375832
 40
6.109500119648989
 40
7.14596120163808
 40
8.18989512056258
 40
9.241717674284874
 40
9.693948937866434
 40
9.693948937866434
 40
9.693948937866434
 40
9.693948937866434
 10
-4.470302728084545
 20
3.400002676890063
 30
0.0
 10
-4.678398314820976
 20
3.39798121707292
 30
0.0
 10
-5.094866750714871
 20
3.393935604085803
 30
0.0
 10
-5.719417053480805
 20
3.361290980182085
 30
0.0
 10
-6.343941643873305
 20
3.309414244309085
 30
0.0
 10
-6.968427394151167
 20
3.236699186945392
 30
0.0
 10
-7.592866866870029
 20
3.144131991176037
 30
0.0
 10
-8.217252435119018
 20
3.032141831649052
 30
0.0
 10
-8.841575718594421
 20
2.90144962605776
 30
0.0
 10
-9.465860943545736
 20
2.752935227988683
 30
0.0
 10
-9.969800256161168
 20
2.619146204994096
 30
0.0
 10
-10.26574296703495
 20
2.53550882591913
 30
0.0
 10
-10.35456909131655
 20
2.50990798407747
 30
0.0
  0
SPLINE
  5
5448
330
1F
100
AcDbEntity
  8
AM_0
100
AcDbSpline
210
0.0
220
0.0
230
1.0
 70
     8
 71
     3
 72
    23
 73
    19
 74
     0
 42
0.0000000001
 43
0.0000000001
 40
16.03460024169435
 40
16.03460024169435
 40
16.03460024169435
 40
16.03460024169435
 40
16.35212704903564
 40
17.38177054169784
 40
18.41822485651776
 40
19.46214173629503
 40
20.51396345435107
 40
21.57393551351153
 40
22.64208202342361
 40
23.7182574881101
 40
24.80209208578934
 40
25.89306333925047
 40
26.99048218457928
 40
28.09348763352352
 40
29.20111863782268
 40
30.31232390128032
 40
31.42594612798585
 40
32.5407912310448
 40
32.5407912310486
 40
32.5407912310486
 40
32.5407912310486
 10
-36.94413861896383
 20
3.400485708595327
 30
0.0
 10
-36.87997369671995
 20
3.389007907334016
 30
0.0
 10
-36.60801456116846
 20
3.339025313338904
 30
0.0
 10
-36.12895561509529
 20
3.241092048710989
 30
0.0
 10
-35.50857302582731
 20
3.09546635519704
 30
0.0
 10
-34.88876667708904
 20
2.931952974726503
 30
0.0
 10
-34.26949994402904
 20
2.75149823934503
 30
0.0
 10
-33.65075084777358
 20
2.555108188242218
 30
0.0
 10
-33.03248362610774
 20
2.343905469770443
 30
0.0
 10
-32.41465522525219
 20
2.119119230774004
 30
0.0
 10
-31.79723053797816
 20
1.882022422618478
 30
0.0
 10
-31.18016006310969
 20
1.633994656385719
 30
0.0
 10
-30.56339379398519
 20
1.376477576613061
 30
0.0
 10
-29.94689063722734
 20
1.110951798551119
 30
0.0
 10
-29.33059901076571
 20
0.8389613182370498
 30
0.0
 10
-28.71446183294353
 20
0.5620943605281376
 30
0.0
 10
-28.09842893280181
 20
0.2819552944713786
 30
0.0
 10
-27.68785064352208
 20
0.0941373685261367
 30
0.0
 10
-27.48244953164999
 20
0.0001756098331627
 30
0.0
  0
SPLINE
  5
5449
330
1F
100
AcDbEntity
  8
AM_0
100
AcDbSpline
210
0.0
220
0.0
230
1.0
 70
     8
 71
     3
 72
    46
 73
    42
 74
     0
 42
0.0000000001
 43
0.0000000001
 40
0.0
 40
0.0
 40
0.0
 40
0.0
 40
0.5056245176053715
 40
0.759310862862336
 40
1.013969309739036
 40
1.269880374404297
 40
1.527291183660732
 40
1.786406454158005
 40
2.047386241038974
 40
2.310345544571907
 40
2.575337113970003
 40
2.842374715221223
 40
3.111417320030211
 40
3.382376832022752
 40
3.655120036292296
 40
3.929472521611371
 40
4.205224030350333
 40
4.482133246366229
 40
4.759933319229942
 40
5.038338087391601
 40
5.317048131389549
 40
5.595758175387723
 40
5.874162943549382
 40
6.151963016412868
 40
6.428872232428759
 40
6.704623741167953
 40
6.978976226486702
 40
7.251719430756334
 40
7.522680721168324
 40
7.791723325977308
 40
8.058760927228528
 40
8.323752496626548
 40
8.586708135057122
 40
8.84768792193809
 40
9.106803192435362
 40
9.364213819003406
 40
9.620125035580642
 40
9.874787266973068
 40
10.12847352585207
 40
10.38149610319407
 40
10.63418200686337
 40
10.63418200686337
 40
10.63418200686337
 40
10.63418200686337
 10
-24.95587113176812
 20
-3.399997323108957
 30
0.0
 10
-25.37235973951645
 20
-3.392251860285829
 30
0.0
 10
-25.99781264599227
 20
-3.380620276265034
 30
0.0
 10
-26.8295046506317
 20
-3.309006750284836
 30
0.0
 10
-27.45399687736723
 20
-3.236801266054431
 30
0.0
 10
-28.07843572488371
 20
-3.144101689550959
 30
0.0
 10
-28.70281954819534
 20
-3.032140680619801
 30
0.0
 10
-29.32714513972003
 20
-2.901453508265548
 30
0.0
 10
-29.95141145380618
 20
-2.752891516456361
 30
0.0
 10
-30.57561571224822
 20
-2.587366897813835
 30
0.0
 10
-31.19975916268076
 20
-2.405906297406525
 30
0.0
 10
-31.82384012634767
 20
-2.209628665012661
 30
0.0
 10
-32.44786862944353
 20
-1.999753246884915
 30
0.0
 10
-33.07184770487165
 20
-1.777570259130551
 30
0.0
 10
-33.69578309070154
 20
-1.544449793807809
 30
0.0
 10
-34.31968172049683
 20
-1.301830055956293
 30
0.0
 10
-34.9435490621368
 20
-1.051203024048002
 30
0.0
 10
-35.56739118742469
 20
-0.7941101862593241
 30
0.0
 10
-36.19121471086548
 20
-0.5321337983608744
 30
0.0
 10
-36.81502533112773
 20
-0.2668848309849649
 30
0.0
 10
-37.4388307075278
 20
0.0000026768376791
 30
0.0
 10
-38.06263608379079
 20
0.2668901849846461
 30
0.0
 10
-38.68644670446414
 20
0.5321391513880621
 30
0.0
 10
-39.31027022640243
 20
0.7941155428405425
 30
0.0
 10
-39.93411235726163
 20
1.051208367448626
 30
0.0
 10
-40.55797967824381
 20
1.301835448229216
 30
0.0
 10
-41.18187838454183
 20
1.544455005089421
 30
0.0
 10
-41.80581484379842
 20
1.777576646694646
 30
0.0
 10
-42.42979634370817
 20
1.999757615803942
 30
0.0
 10
-43.05382595997522
 20
2.209634110100956
 30
0.0
 10
-43.6779069091118
 20
2.405911800897861
 30
0.0
 10
-44.30204779563386
 20
2.587370733837325
 30
0.0
 10
-44.9262478951313
 20
2.752897913005484
 30
0.0
 10
-45.55051166100424
 20
2.901460511706668
 30
0.0
 10
-46.17483689120202
 20
3.032139133820008
 30
0.0
 10
-46.79922117227373
 20
3.144132615855701
 30
0.0
 10
-47.42366400500706
 20
3.23669981617527
 30
0.0
 10
-48.04815301389248
 20
3.309413613563385
 30
0.0
 10
-48.67268065960897
 20
3.361291079173378
 30
0.0
 10
-49.29723097521446
 20
3.393935579406074
 30
0.0
 10
-49.71369940939986
 20
3.397981208851507
 30
0.0
 10
-49.92179499528255
 20
3.400002676892318
 30
0.0
  0
SPLINE
  5
544A
330
1F
100
AcDbEntity
  8
AM_0
100
AcDbSpline
210
0.0
220
0.0
230
1.0
 70
     8
 71
     3
 72
    42
 73
    38
 74
     0
 42
0.0000000001
 43
0.0000000001
 40
1.278384351700087
 40
1.278384351700087
 40
1.278384351700087
 40
1.278384351700087
 40
1.527291183660732
 40
1.786406454158005
 40
2.047386241038974
 40
2.310345544571907
 40
2.575337113970003
 40
2.842374715221223
 40
3.111417320030211
 40
3.382376832022752
 40
3.655120036292296
 40
3.929472521611371
 40
4.205224030350333
 40
4.482133246366229
 40
4.759933319229942
 40
5.038338087391601
 40
5.317048131389549
 40
5.595758175387723
 40
5.874162943549383
 40
6.151963016412869
 40
6.428872232428759
 40
6.704623741167955
 40
6.978976226486705
 40
7.251719430756336
 40
7.522680721168327
 40
7.791723325977311
 40
8.058760927228529
 40
8.32375249662655
 40
8.586708135057122
 40
8.84768792193809
 40
9.106803192435362
 40
9.364213819003406
 40
9.620125035580644
 40
9.87478726697307
 40
10.12847352585208
 40
10.38149610319407
 40
10.63418200686337
 40
10.63418200686337
 40
10.63418200686337
 40
10.63418200686337
 10
-4.218549913540955
 20
-3.399997323110013
 30
0.0
 10
-5.909183488836336
 20
-3.205793466522829
 30
0.0
 10
-6.321466278972967
 20
-3.130875168239291
 30
0.0
 10
-7.093258793492903
 20
-2.901453508266616
 30
0.0
 10
-7.717525107579053
 20
-2.752891516457428
 30
0.0
 10
-8.341729366021088
 20
-2.587366897814903
 30
0.0
 10
-8.965872816453622
 20
-2.405906297407595
 30
0.0
 10
-9.589953780120525
 20
-2.209628665013731
 30
0.0
 10
-10.2139822832164
 20
-1.999753246885986
 30
0.0
 10
-10.8379613586445
 20
-1.777570259131619
 30
0.0
 10
-11.46189674447439
 20
-1.544449793808879
 30
0.0
 10
-12.08579537426972
 20
-1.301830055957362
 30
0.0
 10
-12.7096627159097
 20
-1.05120302404907
 30
0.0
 10
-13.3335048411976
 20
-0.794110186260392
 30
0.0
 10
-13.95732836463836
 20
-0.5321337983619424
 30
0.0
 10
-14.58113898490062
 20
-0.2668848309860331
 30
0.0
 10
-15.20494436130068
 20
0.0000026768366117
 30
0.0
 10
-15.82874973756367
 20
0.2668901849835771
 30
0.0
 10
-16.452560358237
 20
0.5321391513869952
 30
0.0
 10
-17.07638388017527
 20
0.7941155428394734
 30
0.0
 10
-17.70022601103442
 20
1.051208367447559
 30
0.0
 10
-18.32409333201666
 20
1.301835448228146
 30
0.0
 10
-18.94799203831467
 20
1.544455005088351
 30
0.0
 10
-19.57192849757127
 20
1.77757664669358
 30
0.0
 10
-20.19590999748104
 20
1.999757615802872
 30
0.0
 10
-20.81993961374812
 20
2.209634110099887
 30
0.0
 10
-21.44402056288466
 20
2.405911800896793
 30
0.0
 10
-22.06816144940682
 20
2.587370733836255
 30
0.0
 10
-22.69236154890422
 20
2.752897913004418
 30
0.0
 10
-23.31662531477715
 20
2.9014605117056
 30
0.0
 10
-23.94095054497498
 20
3.032139133818939
 30
0.0
 10
-24.56533482604664
 20
3.144132615854636
 30
0.0
 10
-25.18977765877999
 20
3.236699816174201
 30
0.0
 10
-25.81426666766541
 20
3.309413613562319
 30
0.0
 10
-26.43879431338193
 20
3.361291079172307
 30
0.0
 10
-27.06334462898739
 20
3.393935579405004
 30
0.0
 10
-27.4798130631728
 20
3.397981208850441
 30
0.0
 10
-27.68790864905546
 20
3.400002676891252
 30
0.0
  0
SPLINE
  5
544B
330
1F
100
AcDbEntity
  8
AM_0
 48
0.5
100
AcDbSpline
210
0.0
220
0.0
230
1.0
 70
     8
 71
     3
 72
    20
 73
    16
 74
     0
 42
0.0000000001
 43
0.0000000001
 40
12.04260318190555
 40
12.04260318190555
 40
12.04260318190555
 40
12.04260318190555
 40
13.08720139956839
 40
14.16337181880432
 40
15.23152222380919
 40
16.29148850140128
 40
17.34331105512262
 40
18.38723020264746
 40
19.42369128463655
 40
20.45333379090873
 40
21.47697865721768
 40
22.49561244472435
 40
23.5103574802404
 40
24.52244778960836
 40
25.53320666051913
 40
25.53320666051913
 40
25.53320666051913
 40
25.53320666051913
 10
-7.216194300872025
 20
1.560267490162704
 30
0.0
 10
-7.404988400654847
 20
1.650434290184155
 30
0.0
 10
-7.993920896910573
 20
1.835433953772973
 30
0.0
 10
-9.367263118868089
 20
2.209633968209042
 30
0.0
 10
-9.991343992213083
 20
2.405911838348853
 30
0.0
 10
-10.61548489872568
 20
2.587370724408791
 30
0.0
 10
-11.23968499324462
 20
2.752897913681863
 30
0.0
 10
-11.86394875926817
 20
2.901460518240119
 30
0.0
 10
-12.4882739937408
 20
3.032139107286607
 30
0.0
 10
-13.11265825773261
 20
3.144132714566635
 30
0.0
 10
-13.73709807683864
 20
3.236698994504333
 30
0.0
 10
-14.36158373502604
 20
3.309414295983541
 30
0.0
 10
-14.98610834982907
 20
3.361290964799919
 30
0.0
 10
-15.61066178333134
 20
3.393935778101578
 30
0.0
 10
-16.02713336440995
 20
3.397981264873527
 30
0.0
 10
-16.23523209424181
 20
3.400002676890662
 30
0.0
  0
SPLINE
  5
544C
330
1F
100
AcDbEntity
  8
AM_0
100
AcDbSpline
210
0.0
220
0.0
230
1.0
 70
     8
 71
     3
 72
    15
 73
    11
 74
     0
 42
0.0000000001
 43
0.0000000001
 40
4.116313036328508
 40
4.116313036328508
 40
4.116313036328508
 40
4.116313036328508
 40
4.126290986361125
 40
5.162752068350215
 40
6.192395305374981
 40
7.216039564037012
 40
8.234688489606833
 40
9.249433870634691
 40
10.26152376260694
 40
11.27226744710342
 40
11.27226744710342
 40
11.27226744710342
 40
11.27226744710352
 10
-53.21327020143215
 20
-2.919766519389746
 30
0.0
 10
-53.21535806157659
 20
-2.920213474693525
 30
0.0
 10
-53.43433045956347
 20
-2.967060395716129
 30
0.0
 10
-53.87037369103564
 20
-3.054254263179413
 30
0.0
 10
-54.52360735078357
 20
-3.166261985182651
 30
0.0
 10
-55.17691217916799
 20
-3.258844072634759
 30
0.0
 10
-55.83026214250832
 20
-3.331472200385693
 30
0.0
 10
-56.48365278864741
 20
-3.383675713865963
 30
0.0
 10
-57.10730954808692
 20
-3.385795611146446
 30
0.0
 10
-57.48421002706074
 20
-3.389078261618541
 30
0.0
 10
-57.77770719240087
 20
-3.400301940641307
 30
0.0
  0
SPLINE
  5
544D
330
1F
100
AcDbEntity
  8
AM_0
100
AcDbSpline
210
0.0
220
0.0
230
1.0
 70
     8
 71
     3
 72
    22
 73
    18
 74
     0
 42
0.0000000001
 43
0.0000000001
 40
17.17441611292
 40
17.17441611292
 40
17.17441611292
 40
17.17441611292
 40
17.38177636558528
 40
18.41823744757437
 40
19.46215659509824
 40
20.51397914882054
 40
21.57394542641293
 40
22.64209583141747
 40
23.71826625065247
 40
24.80210429862395
 40
25.8930771157021
 40
26.99048705697709
 40
28.09349309193389
 40
29.20112995599786
 40
30.31233024745139
 40
31.42594771747373
 40
32.5407895042663
 40
32.54078950426994
 40
32.54078950426994
 40
32.54078950426994
 10
-40.85289059861653
 20
-3.053221931114943
 30
0.0
 10
-40.89471141159015
 20
-3.045351264592959
 30
0.0
 10
-41.14540434569096
 20
-2.997410174522496
 30
0.0
 10
-41.60465967447303
 20
-2.901282049259419
 30
0.0
 10
-42.22892339301733
 20
-2.752719676340484
 30
0.0
 10
-42.85312350039907
 20
-2.587192424294149
 30
0.0
 10
-43.47726440343604
 20
-2.405733555270689
 30
0.0
 10
-44.1013452776816
 20
-2.209455680427517
 30
0.0
 10
-44.72537380484751
 20
-1.999580327678732
 30
0.0
 10
-45.34935287436137
 20
-1.777397323414786
 30
0.0
 10
-45.97328825951326
 20
-1.544276858048756
 30
0.0
 10
-46.59718689806919
 20
-1.301657137190978
 30
0.0
 10
-47.22105420509286
 20
-1.051030036842014
 30
0.0
 10
-47.84489646081734
 20
-0.7939374572741009
 30
0.0
 10
-48.46871919506129
 20
-0.531960226839516
 30
0.0
 10
-49.09253164921596
 20
-0.2667148866508271
 30
0.0
 10
-49.50832498737622
 20
-0.0888204634040417
 30
0.0
 10
-49.71633587787986
 20
0.0001756098354524
 30
0.0
  0
SPLINE
  5
544E
330
1F
100
AcDbEntity
  8
AM_0
100
AcDbSpline
210
0.0
220
0.0
230
1.0
 70
     8
 71
     3
 72
    22
 73
    18
 74
     0
 42
0.0000000001
 43
0.0000000001
 40
17.17441611292
 40
17.17441611292
 40
17.17441611292
 40
17.17441611292
 40
17.38177636558528
 40
18.41823744757437
 40
19.46215659509824
 40
20.51397914882054
 40
21.57394542641293
 40
22.64209583141747
 40
23.71826625065247
 40
24.80210429862395
 40
25.8930771157021
 40
26.99048705697709
 40
28.09349309193389
 40
29.20112995599786
 40
30.31233024745139
 40
31.42594771747373
 40
32.5407895042663
 40
32.54078950426994
 40
32.54078950426994
 40
32.54078950426994
 10
-18.61900425238936
 20
-3.053221931116011
 30
0.0
 10
-18.66082506536299
 20
-3.045351264594025
 30
0.0
 10
-18.9115179994638
 20
-2.997410174523564
 30
0.0
 10
-19.37077332824587
 20
-2.901282049260488
 30
0.0
 10
-19.99503704679015
 20
-2.75271967634155
 30
0.0
 10
-20.61923715417193
 20
-2.587192424295219
 30
0.0
 10
-21.24337805720894
 20
-2.405733555271758
 30
0.0
 10
-21.86745893145448
 20
-2.209455680428586
 30
0.0
 10
-22.49148745862044
 20
-1.999580327679801
 30
0.0
 10
-23.1154665281343
 20
-1.777397323415855
 30
0.0
 10
-23.73940191328624
 20
-1.544276858049823
 30
0.0
 10
-24.36330055184216
 20
-1.301657137192046
 30
0.0
 10
-24.98716785886577
 20
-1.051030036843082
 30
0.0
 10
-25.61101011459023
 20
-0.7939374572751687
 30
0.0
 10
-26.23483284883417
 20
-0.5319602268405834
 30
0.0
 10
-26.85864530298886
 20
-0.266714886651895
 30
0.0
 10
-27.27443864114911
 20
-0.0888204634051098
 30
0.0
 10
-27.48244953165277
 20
0.0001756098343843
 30
0.0
  0
SPLINE
  5
544F
330
1F
100
AcDbEntity
  8
AM_0
100
AcDbSpline
210
0.0
220
0.0
230
1.0
 70
     8
 71
     3
 72
    17
 73
    13
 74
     0
 42
0.0000000001
 43
0.0000000001
 40
1.580019955310467
 40
1.580019955310467
 40
1.580019955310467
 40
1.580019955310467
 40
2.030549285115227
 40
3.082371838836284
 40
4.126290986361125
 40
5.162752068350215
 40
6.192395305374981
 40
7.216039564037012
 40
8.234688489606833
 40
9.249433870634691
 40
10.26152376260694
 40
11.27226744710342
 40
11.27226744710342
 40
11.27226744710342
 40
11.27226744710352
 10
-10.35230846479375
 20
-2.509297441516861
 30
0.0
 10
-10.44067198238515
 20
-2.535141148165747
 30
0.0
 10
-10.73583581794182
 20
-2.61984734862793
 30
0.0
 10
-11.23975368280506
 20
-2.752712054893301
 30
0.0
 10
-11.86393050526804
 20
-2.901502900201563
 30
0.0
 10
-12.48827916302585
 20
-3.032121507176889
 30
0.0
 10
-13.11265642822123
 20
-3.144129229180104
 30
0.0
 10
-13.73710171820061
 20
-3.236711316632185
 30
0.0
 10
-14.36159014931322
 20
-3.309339444383094
 30
0.0
 10
-14.98611746607453
 20
-3.361542957863335
 30
0.0
 10
-15.61066828174877
 20
-3.392985816994153
 30
0.0
 10
-16.02713654812192
 20
-3.399997342564323
 30
0.0
 10
-16.23523209424204
 20
-3.399997323109335
 30
0.0
  0
SPLINE
  5
5450
330
1F
100
AcDbEntity
  8
AM_0
100
AcDbSpline
210
0.0
220
0.0
230
1.0
 70
     8
 71
     3
 72
    11
 73
     7
 74
     0
 42
0.0000000001
 43
0.0000000001
 40
11.27226913003534
 40
11.27226913003534
 40
11.27226913003534
 40
11.2722691300354
 40
12.28301561507924
 40
13.29510212255852
 40
14.30984805882082
 40
15.18258238371378
 40
15.18258238371378
 40
15.18258238371378
 40
15.18258238371378
 10
-16.23523209424208
 20
-3.399997323109335
 30
0.0
 10
-16.44253635864814
 20
-3.383356735075775
 30
0.0
 10
-16.85675387219731
 20
-3.343070595674498
 30
0.0
 10
-17.47594120050237
 20
-3.261803487749173
 30
0.0
 10
-18.0635608930366
 20
-3.164738837923247
 30
0.0
 10
-18.44359881758378
 20
-3.090122352772767
 30
0.0
 10
-18.61873111478511
 20
-3.053263870090013
 30
0.0
  0
SPLINE
  5
5451
330
1F
100
AcDbEntity
  8
AM_0
100
AcDbSpline
210
0.0
220
0.0
230
1.0
 70
     8
 71
     3
 72
    17
 73
    13
 74
     0
 42
0.0000000001
 43
0.0000000001
 40
1.580019955310467
 40
1.580019955310467
 40
1.580019955310467
 40
1.580019955310467
 40
2.030549285115227
 40
3.082371838836284
 40
4.126290986361125
 40
5.162752068350215
 40
6.192395305374981
 40
7.216039564037012
 40
8.234688489606833
 40
9.249433870634691
 40
10.26152376260694
 40
11.27226744710342
 40
11.27226744710342
 40
11.27226744710342
 40
11.27226744710352
 10
-32.5861948110209
 20
-2.509297441515791
 30
0.0
 10
-32.6745583286123
 20
-2.535141148164679
 30
0.0
 10
-32.96972216416897
 20
-2.619847348626862
 30
0.0
 10
-33.47364002903219
 20
-2.752712054892232
 30
0.0
 10
-34.09781685149518
 20
-2.901502900200495
 30
0.0
 10
-34.72216550925299
 20
-3.032121507175823
 30
0.0
 10
-35.34654277444836
 20
-3.144129229179036
 30
0.0
 10
-35.97098806442774
 20
-3.236711316631113
 30
0.0
 10
-36.59547649554033
 20
-3.309339444382025
 30
0.0
 10
-37.22000381230164
 20
-3.361542957862268
 30
0.0
 10
-37.84455462797588
 20
-3.392985816993083
 30
0.0
 10
-38.26102289434902
 20
-3.399997342563254
 30
0.0
 10
-38.46911844046916
 20
-3.399997323108264
 30
0.0
  0
SPLINE
  5
5452
330
1F
100
AcDbEntity
  8
AM_0
100
AcDbSpline
210
0.0
220
0.0
230
1.0
 70
     8
 71
     3
 72
    11
 73
     7
 74
     0
 42
0.0000000001
 43
0.0000000001
 40
11.27226913003534
 40
11.27226913003534
 40
11.27226913003534
 40
11.2722691300354
 40
12.28301561507924
 40
13.29510212255852
 40
14.30984805882082
 40
15.18258238371378
 40
15.18258238371378
 40
15.18258238371378
 40
15.18258238371378
 10
-38.46911844046919
 20
-3.399997323108264
 30
0.0
 10
-38.67642270487527
 20
-3.383356735074708
 30
0.0
 10
-39.09064021842443
 20
-3.343070595673429
 30
0.0
 10
-39.7098275467295
 20
-3.261803487748104
 30
0.0
 10
-40.29744723926373
 20
-3.164738837922178
 30
0.0
 10
-40.67748516381094
 20
-3.090122352771697
 30
0.0
 10
-40.85261746101227
 20
-3.053263870088946
 30
0.0
  0
SPLINE
  5
5453
330
1F
100
AcDbEntity
  8
AM_0
 48
0.5
100
AcDbSpline
210
0.0
220
0.0
230
1.0
 70
     8
 71
     3
 72
    10
 73
     6
 74
     0
 42
0.0000000001
 43
0.0000000001
 40
0.0
 40
0.0
 40
0.0
 40
0.0
 40
2.69986029516136
 40
4.147722969032201
 40
6.201687855798567
 40
6.201687855798567
 40
6.201687855798567
 40
6.201687855798567
 10
-7.21619430087202
 20
1.560267490162682
 30
0.0
 10
-5.7708735645719
 20
0.0678698702754194
 30
0.0
 10
-4.839220216343552
 20
-0.4174134721042716
 30
0.0
 10
-2.665450047401307
 20
-0.1856211844235584
 30
0.0
 10
-3.032383064845058
 20
0.5720716867103129
 30
0.0
 10
-3.292900306742613
 20
1.03429718351475
 30
0.0
  0
ELLIPSE
  5
5454
330
1F
100
AcDbEntity
  8
AM_0
 48
0.5
100
AcDbEllipse
 10
-1.682524891220206
 20
-0.6848625896885904
 30
0.0
 11
-0.2867564789158155
 21
0.5182345120843701
 31
0.0
210
0.0
220
0.0
230
1.0
 40
0.7420691622224411
 41
1.504175898645863
 42
4.639517788357836
  0
ELLIPSE
  5
5455
330
1F
100
AcDbEntity
  8
AM_0
 48
0.5
100
AcDbEllipse
 10
-1.682524891220206
 20
-0.6848625896885904
 30
0.0
 11
-0.8239730422817482
 21
0.2347245579553219
 31
0.0
210
0.0
220
0.0
230
1.0
 40
0.3546440143597481
 41
4.303487934173933
 42
7.446928275503445
  0
ELLIPSE
  5
5456
330
1F
100
AcDbEntity
  8
AM_0
 48
0.5
100
AcDbEllipse
 10
-28.90803621403131
 20
99.64929821656795
 30
0.0
 11
-24.41315392829118
 21
101.3274681373944
 31
0.0
210
0.0
220
0.0
230
1.0
 40
0.3700584765856769
 41
3.166479518938535
 42
3.20768523829356
  0
ELLIPSE
  5
5457
330
1F
100
AcDbEntity
  8
AM_0
 48
0.5
100
AcDbEllipse
 10
-9.542579164772543
 20
5.706435125718974
 30
0.0
 11
-12.05465856319428
 21
2.953533924316806
 31
0.0
210
0.0
220
0.0
230
1.0
 40
0.5102113185909259
 41
2.443267473252006
 42
2.598655524757606
  0
ELLIPSE
  5
5458
330
1F
100
AcDbEntity
  8
AM_0
 48
0.5
100
AcDbEllipse
 10
-0.7956109617851425
 20
-1.091927405481076
 30
0.0
 11
-3.020110067215434
 21
1.764081816091616
 31
0.0
210
0.0
220
0.0
230
1.0
 40
0.6247180524872275
 41
0.8799506462913457
 42
1.857069052696151
  0
ELLIPSE
  5
5459
330
1F
100
AcDbEntity
  8
AM_0
 48
0.5
100
AcDbEllipse
 10
1.697053547101597
 20
4.081911856577262
 30
0.0
 11
9.100849181769369
 21
1.90159461674553
 31
0.0
210
0.0
220
0.0
230
1.0
 40
0.6287823911638253
 41
3.252202610793162
 42
3.970688300721761
  0
SPLINE
  5
545A
330
1F
100
AcDbEntity
  8
AM_0
100
AcDbSpline
210
0.0
220
0.0
230
1.0
 70
     8
 71
     3
 72
    55
 73
    51
 74
     0
 42
0.0000000001
 43
0.0000000001
 40
0.0
 40
0.0
 40
0.0
 40
0.0
 40
1.010743684496582
 40
2.022833576467832
 40
3.037578957496688
 40
4.056212745003489
 40
5.079857003664532
 40
6.109500240690281
 40
7.145961322679372
 40
8.189895241603872
 40
9.241717795325891
 40
10.30168407291828
 40
11.36983447792315
 40
12.44600489715814
 40
13.52984294512926
 40
14.62081576220742
 40
15.7182257034828
 40
16.82123173843959
 40
17.92886860250316
 40
19.0400688939571
 40
20.15368796660465
 40
21.26852814259644
 40
22.38336992938901
 40
23.49698739941135
 40
24.6081876908653
 40
25.71582455492886
 40
26.81883757994213
 40
27.91624752121713
 40
29.00722033829659
 40
30.09105838626677
 40
31.16722880550176
 40
32.23537921050758
 40
33.29534548809967
 40
34.347168041821
 40
35.39108718934584
 40
36.42754827133493
 40
37.45720575381954
 40
38.48085062012849
 40
39.49948440763516
 40
40.51422944315121
 40
41.52631975251916
 40
42.53706336719636
 40
43.54780698187354
 40
44.55989729124051
 40
45.57464232675757
 40
46.59327611426424
 40
47.6169209805722
 40
48.64656348684535
 40
49.68302456883444
 40
50.58557219878025
 40
50.58557219878025
 40
50.58557219878025
 40
50.58557219878025
 10
-26.70418907431194
 20
-3.399997323108868
 30
0.0
 10
-26.91228462317747
 20
-3.397974405478891
 30
0.0
 10
-27.32875288295031
 20
-3.393925875899043
 30
0.0
 10
-27.95330371187164
 20
-3.361290182440627
 30
0.0
 10
-28.5778278810729
 20
-3.309407955236043
 30
0.0
 10
-29.20231339835949
 20
-3.23669304057915
 30
0.0
 10
-29.82675403234902
 20
-3.144130864976873
 30
0.0
 10
-30.45113746422384
 20
-3.032133037673323
 30
0.0
 10
-31.07546578251894
 20
-2.901454015952629
 30
0.0
 10
-31.69973345070383
 20
-2.752894015618694
 30
0.0
 10
-32.32393621637797
 20
-2.587365186061326
 30
0.0
 10
-32.9480771908471
 20
-2.405906534632728
 30
0.0
 10
-33.57215804568517
 20
-2.209628600719626
 30
0.0
 10
-34.19618657828257
 20
-1.999753264318627
 30
0.0
 10
-34.82016564567445
 20
-1.777570254339032
 30
0.0
 10
-35.44410103385501
 20
-1.544449795377713
 30
0.0
 10
-36.0679996623522
 20
-1.301830054499906
 30
0.0
 10
-36.69186700683354
 20
-1.05120302832018
 30
0.0
 10
-37.31570912200268
 20
-0.7941101705458557
 30
0.0
 10
-37.93953268323531
 20
-0.5321338571723797
 30
0.0
 10
-38.56334316205793
 20
-0.2668846109115402
 30
0.0
 10
-39.1871493676407
 20
0.0000019831682632
 30
0.0
 10
-39.81095277285556
 20
0.2668933813730848
 30
0.0
 10
-40.43476534255495
 20
0.5321384970015611
 30
0.0
 10
-41.05858813366902
 20
0.7941156033624243
 30
0.0
 10
-41.68243136114172
 20
1.051209440545942
 30
0.0
 10
-42.30630129372408
 20
1.30183432783062
 30
0.0
 10
-42.93020090689821
 20
1.544455299128087
 30
0.0
 10
-43.55413638515431
 20
1.77757556905275
 30
0.0
 10
-44.17811542984155
 20
1.999758625756595
 30
0.0
 10
-44.80214396403683
 20
2.209633962464603
 30
0.0
 10
-45.42622483477072
 20
2.405911849444692
 30
0.0
 10
-46.05036574482162
 20
2.587370686159266
 30
0.0
 10
-46.67456582790156
 20
2.75289805409919
 30
0.0
 10
-47.29882963571199
 20
2.901460000198478
 30
0.0
 10
-47.92315772241365
 20
3.032141649709902
 30
0.0
 10
-48.54754561259547
 20
3.144126685306878
 30
0.0
 10
-49.17198830956039
 20
3.236717510859235
 30
0.0
 10
-49.79647401197242
 20
3.309346231370308
 30
0.0
 10
-50.42099861511207
 20
3.361543520440884
 30
0.0
 10
-51.04554891448872
 20
3.392996245575002
 30
0.0
 10
-51.6701129379794
 20
3.403503560301497
 30
0.0
 10
-52.29467696055116
 20
3.39299624555859
 30
0.0
 10
-52.91922726269001
 20
3.361543520507094
 30
0.0
 10
-53.54375185565992
 20
3.309346231121411
 30
0.0
 10
-54.16823759620077
 20
3.236717511795422
 30
0.0
 10
-54.79267710554786
 20
3.144127133182931
 30
0.0
 10
-55.4170625358791
 20
3.032142794696722
 30
0.0
 10
-56.01300377937795
 20
2.907392119736132
 30
0.0
 10
-56.39965724493182
 20
2.8161607717853
 30
0.0
 10
-56.57904191715495
 20
2.771699285395687
 30
0.0
  0
SPLINE
  5
545B
330
1F
100
AcDbEntity
  8
AM_0
100
AcDbSpline
210
0.0
220
0.0
230
1.0
 70
     8
 71
     3
 72
    52
 73
    48
 74
     0
 42
0.0000000001
 43
0.0000000001
 40
3.537595802313026
 40
3.537595802313026
 40
3.537595802313026
 40
3.537595802313026
 40
4.056212745003489
 40
5.079857003664532
 40
6.109500240690281
 40
7.145961322679372
 40
8.189895241603872
 40
9.241717795325891
 40
10.30168407291828
 40
11.36983447792315
 40
12.44600489715814
 40
13.52984294512926
 40
14.62081576220742
 40
15.7182257034828
 40
16.82123173843959
 40
17.92886860250316
 40
19.0400688939571
 40
20.15368796660465
 40
21.26852814259644
 40
22.38336992938901
 40
23.49698739941135
 40
24.6081876908653
 40
25.71582455492886
 40
26.81883757994213
 40
27.91624752121713
 40
29.00722033829659
 40
30.09105838626677
 40
31.16722880550176
 40
32.23537921050758
 40
33.29534548809967
 40
34.347168041821
 40
35.39108718934584
 40
36.42754827133493
 40
37.45720575381954
 40
38.48085062012849
 40
39.49948440763516
 40
40.51422944315121
 40
41.52631975251916
 40
42.53706336719636
 40
43.54780698187354
 40
44.55989729124051
 40
45.57464232675757
 40
46.59327611426424
 40
47.6169209805722
 40
48.64656348684535
 40
49.68302456883444
 40
50.58557219878025
 40
50.58557219878025
 40
50.58557219878025
 40
50.58557219878025
 10
-6.102642680864517
 20
-3.399997323109917
 30
0.0
 10
-6.755395406293835
 20
-3.310434964405071
 30
0.0
 10
-7.07006729834921
 20
-3.221626688702257
 30
0.0
 10
-7.592867686121871
 20
-3.14413086497794
 30
0.0
 10
-8.217251117996713
 20
-3.032133037674392
 30
0.0
 10
-8.841579436291802
 20
-2.901454015953698
 30
0.0
 10
-9.465847104476701
 20
-2.752894015619762
 30
0.0
 10
-10.09004987015084
 20
-2.587365186062394
 30
0.0
 10
-10.71419084461995
 20
-2.405906534633797
 30
0.0
 10
-11.33827169945803
 20
-2.209628600720694
 30
0.0
 10
-11.96230023205544
 20
-1.999753264319694
 30
0.0
 10
-12.58627929944727
 20
-1.7775702543401
 30
0.0
 10
-13.21021468762786
 20
-1.54444979537878
 30
0.0
 10
-13.8341133161251
 20
-1.301830054500974
 30
0.0
 10
-14.45798066060646
 20
-1.051203028321247
 30
0.0
 10
-15.08182277577559
 20
-0.7941101705469231
 30
0.0
 10
-15.7056463370082
 20
-0.5321338571734479
 30
0.0
 10
-16.3294568158308
 20
-0.2668846109126082
 30
0.0
 10
-16.95326302141358
 20
0.000001983167195
 30
0.0
 10
-17.57706642662846
 20
0.2668933813720166
 30
0.0
 10
-18.20087899632781
 20
0.5321384970004928
 30
0.0
 10
-18.82470178744188
 20
0.7941156033613554
 30
0.0
 10
-19.44854501491456
 20
1.051209440544875
 30
0.0
 10
-20.07241494749693
 20
1.30183432782955
 30
0.0
 10
-20.69631456067105
 20
1.544455299127017
 30
0.0
 10
-21.32025003892715
 20
1.777575569051682
 30
0.0
 10
-21.94422908361439
 20
1.999758625755529
 30
0.0
 10
-22.5682576178097
 20
2.209633962463536
 30
0.0
 10
-23.19233848854361
 20
2.405911849443619
 30
0.0
 10
-23.81647939859456
 20
2.587370686158195
 30
0.0
 10
-24.4406794816745
 20
2.752898054098122
 30
0.0
 10
-25.06494328948492
 20
2.901460000197409
 30
0.0
 10
-25.68927137618659
 20
3.032141649708833
 30
0.0
 10
-26.31365926636841
 20
3.144126685305807
 30
0.0
 10
-26.9381019633333
 20
3.236717510858168
 30
0.0
 10
-27.56258766574533
 20
3.309346231369238
 30
0.0
 10
-28.18711226888497
 20
3.361543520439813
 30
0.0
 10
-28.81166256826163
 20
3.392996245573935
 30
0.0
 10
-29.43622659175233
 20
3.403503560300428
 30
0.0
 10
-30.06079061432407
 20
3.392996245557522
 30
0.0
 10
-30.68534091646295
 20
3.361543520506022
 30
0.0
 10
-31.30986550943283
 20
3.309346231120342
 30
0.0
 10
-31.93435124997369
 20
3.236717511794352
 30
0.0
 10
-32.55879075932078
 20
3.144127133181861
 30
0.0
 10
-33.18317618965198
 20
3.032142794695653
 30
0.0
 10
-33.77911743315085
 20
2.907392119735065
 30
0.0
 10
-34.1657708987047
 20
2.81616077178423
 30
0.0
 10
-34.34515557092781
 20
2.77169928539462
 30
0.0
  0
LINE
  5
545C
330
1F
100
AcDbEntity
  8
AM_0
100
AcDbLine
 10
-77.8945082907743
 20
3.439093860085402
 30
0.0
 11
-77.79840523104605
 21
3.298707372994054
 31
0.0
  0
LINE
  5
545D
330
1F
100
AcDbEntity
  8
AM_11
100
AcDbLine
 10
-73.9040850420959
 20
3.400002676892482
 30
0.0
 11
-78.00000000000013
 21
3.399999540324241
 31
0.0
  0
LINE
  5
545F
330
1F
100
AcDbEntity
  8
AM_0
100
AcDbLine
 10
-59.75351457050348
 20
3.400002676892569
 30
0.0
 11
-73.9040850420959
 21
3.400002676892482
 31
0.0
  0
LINE
  5
5460
330
1F
100
AcDbEntity
  8
AM_11
100
AcDbLine
 10
-68.66351277740014
 20
-3.399999999999611
 30
0.0
 11
-78.00000000000013
 21
-3.399951639605922
 31
0.0
  0
SPLINE
  5
5461
330
1F
100
AcDbEntity
  8
AM_0
100
AcDbSpline
210
0.0
220
0.0
230
1.0
 70
     8
 71
     3
 72
    20
 73
    16
 74
     0
 42
0.0000000001
 43
0.0000000001
 40
19.06958205160103
 40
19.06958205160103
 40
19.06958205160103
 40
19.06958205160103
 40
19.46214173629503
 40
20.51396345435107
 40
21.57393551351153
 40
22.64208202342361
 40
23.7182574881101
 40
24.80209208578934
 40
25.89306333925047
 40
26.99048218457928
 40
28.09348763352352
 40
29.20111863782268
 40
30.31232390128032
 40
31.42594612798585
 40
32.5407912310448
 40
32.5407912310486
 40
32.5407912310486
 40
32.5407912310486
 10
-77.79840523104606
 20
3.298707372994054
 30
0.0
 10
-77.51832557555255
 20
3.065239222818551
 30
0.0
 10
-77.38464307046212
 20
2.894530448728925
 30
0.0
 10
-76.86713989820606
 20
2.751322629511056
 30
0.0
 10
-76.21558442804222
 20
2.554932578408275
 30
0.0
 10
-75.56453638168995
 20
2.343729859936523
 30
0.0
 10
-74.91395042263778
 20
2.118943620940116
 30
0.0
 10
-74.26378958225491
 20
1.881846812784616
 30
0.0
 10
-73.61400173478924
 20
1.633819046551886
 30
0.0
 10
-72.96453422220207
 20
1.376301966779258
 30
0.0
 10
-72.31534377232538
 20
1.110776188717343
 30
0.0
 10
-71.66637606818271
 20
0.838785708403298
 30
0.0
 10
-71.01757100162046
 20
0.5619187506944162
 30
0.0
 10
-70.36887574159135
 20
0.2817796846376879
 30
0.0
 10
-69.93652839445232
 20
0.0939617586924623
 30
0.0
 10
-69.72023681709423
 20
-0.0000000000005006
 30
0.0
  0
SPLINE
  5
5462
330
1F
100
AcDbEntity
  8
AM_0
100
AcDbSpline
210
0.0
220
0.0
230
1.0
 70
     8
 71
     3
 72
    19
 73
    15
 74
     0
 42
0.0000000001
 43
0.0000000001
 40
1.479671614733745
 40
1.479671614733745
 40
1.479671614733745
 40
1.479671614733745
 40
2.022833576467832
 40
3.037578957496688
 40
4.056212745003489
 40
5.079857003664532
 40
6.109500240690281
 40
7.145961322679372
 40
8.189895241603872
 40
9.241717795325891
 40
10.30168407291828
 40
11.36983447792315
 40
12.44600489715814
 40
13.01371853178965
 40
13.01371853178965
 40
13.01371853178965
 40
13.01371853178965
 10
-68.65592661924637
 20
-3.399999999999612
 30
0.0
 10
-68.77275606049997
 20
-3.394482238839595
 30
0.0
 10
-69.10767417469343
 20
-3.375476280280286
 30
0.0
 10
-69.66045581714002
 20
-3.331582650213232
 30
0.0
 10
-70.31380273198813
 20
-3.258867735556361
 30
0.0
 10
-70.96710268920016
 20
-3.166305559954116
 30
0.0
 10
-71.62034280062859
 20
-3.05430773265059
 30
0.0
 10
-72.27352525133261
 20
-2.923628710929928
 30
0.0
 10
-72.92664424890394
 20
-2.775068710596014
 30
0.0
 10
-73.5796953444119
 20
-2.609539881038673
 30
0.0
 10
-74.23268179295519
 20
-2.428081229610097
 30
0.0
 10
-74.88560534336176
 20
-2.231803295697023
 30
0.0
 10
-75.43409219918423
 20
-2.055483242403976
 30
0.0
 10
-75.74793326598151
 20
-1.934870758285461
 30
0.0
 10
-75.87629432015152
 20
-1.901504761419151
 30
0.0
  0
SPLINE
  5
5463
330
1F
100
AcDbEntity
  8
AM_0
100
AcDbSpline
210
0.0
220
0.0
230
1.0
 70
     8
 71
     3
 72
    25
 73
    21
 74
     0
 42
0.0000000001
 43
0.0000000001
 40
1.163660092745933
 40
1.163660092745933
 40
1.163660092745933
 40
1.163660092745933
 40
1.685415058684573
 40
2.531036209541122
 40
3.379897699130124
 40
4.232934581347659
 40
5.09097061220244
 40
5.954688180526682
 40
6.824620803463244
 40
7.701151815239697
 40
8.58445704656667
 40
9.47458238407075
 40
10.37139106676736
 40
11.27458944007584
 40
12.18373345430765
 40
13.09824173870457
 40
14.01741343450111
 40
14.9404441545541
 40
15.86644439743314
 40
16.55140071192301
 40
16.55140071192301
 40
16.55140071192301
 40
16.55140071192301
 10
-66.43223839460198
 20
-3.399999999999629
 30
0.0
 10
-66.56694905182414
 20
-3.394854178169975
 30
0.0
 10
-66.91977618977985
 20
-3.378139253909205
 30
0.0
 10
-67.49033020325434
 20
-3.331181445261961
 30
0.0
 10
-68.1436841376372
 20
-3.258975961031579
 30
0.0
 10
-68.796982225812
 20
-3.166276384528128
 30
0.0
 10
-69.45022274676798
 20
-3.054315375597001
 30
0.0
 10
-70.1034023446804
 20
-2.92362820324277
 30
0.0
 10
-70.75651992557158
 20
-2.775066211433609
 30
0.0
 10
-71.40957258283762
 20
-2.609541592791112
 30
0.0
 10
-72.06256162177419
 20
-2.428080992383821
 30
0.0
 10
-72.71548528603922
 20
-2.231803359989994
 30
0.0
 10
-73.3683540652008
 20
-2.021927941862263
 30
0.0
 10
-74.02117113233171
 20
-1.799744954107935
 30
0.0
 10
-74.67394249069366
 20
-1.56662448878521
 30
0.0
 10
-75.32667539429387
 20
-1.324004750933729
 30
0.0
 10
-75.97937556371658
 20
-1.073377719025452
 30
0.0
 10
-76.63204935138122
 20
-0.8162848812368055
 30
0.0
 10
-77.2275804476115
 20
-0.5772378402072214
 30
0.0
 10
-77.54683575836721
 20
-0.4239049624044784
 30
0.0
 10
-78.00000000000013
 20
-0.1602732778368483
 30
0.0
  0
ELLIPSE
  5
5464
330
1F
100
AcDbEntity
  8
AM_0
100
AcDbEllipse
 10
-76.09687484367005
 20
0.4174159271477124
 30
0.0
 11
3.486203369441355
 21
0.0000000000000134
 31
0.0
210
0.0
220
0.0
230
1.0
 40
0.9853651827391914
 41
4.690304438562833
 42
4.776346121751083
  0
ELLIPSE
  5
5465
330
1F
100
AcDbEntity
  8
AM_0
100
AcDbEllipse
 10
-76.16664693697178
 20
-1.096659717977785
 30
0.0
 11
1.948803630997948
 21
0.0000000000026237
 31
0.0
210
0.0
220
0.0
230
1.0
 40
0.9853651827393695
 41
4.516406143705229
 42
4.708687802456666
  0
SPLINE
  5
5466
330
1F
100
AcDbEntity
  8
AM_0
100
AcDbSpline
210
0.0
220
0.0
230
1.0
 70
     8
 71
     3
 72
    14
 73
    10
 74
     0
 42
0.0000000001
 43
0.0000000001
 40
1.580019955310467
 40
1.580019955310467
 40
1.580019955310467
 40
1.580019955310467
 40
2.030549285115227
 40
3.082371838836284
 40
4.126290986361125
 40
5.162752068350215
 40
6.192395305374981
 40
7.216039564037012
 40
8.092146932806128
 40
8.092146932806128
 40
8.092146932806128
 40
8.092146932806128
 10
-73.85436213019223
 20
-2.531955168196813
 30
0.0
 10
-73.94680948085991
 20
-2.557798874845705
 30
0.0
 10
-74.25561469090479
 20
-2.642505075307905
 30
0.0
 10
-74.78282176493877
 20
-2.775369781573292
 30
0.0
 10
-75.43584571823683
 20
-2.924160626881583
 30
0.0
 10
-76.08904944841788
 20
-3.054779233856935
 30
0.0
 10
-76.7422831081658
 20
-3.16678695586017
 30
0.0
 10
-77.36527380418117
 20
-3.255073122737238
 30
0.0
 10
-77.7255256168533
 20
-3.366732438897827
 30
0.0
 10
-77.89450829077444
 20
-3.439044550522821
 30
0.0
  0
SPLINE
  5
5467
330
1F
100
AcDbEntity
  8
AM_0
100
AcDbSpline
210
0.0
220
0.0
230
1.0
 70
     8
 71
     3
 72
    22
 73
    18
 74
     0
 42
0.0000000001
 43
0.0000000001
 40
17.17441611292
 40
17.17441611292
 40
17.17441611292
 40
17.17441611292
 40
17.38177636558528
 40
18.41823744757437
 40
19.46215659509824
 40
20.51397914882054
 40
21.57394542641293
 40
22.64209583141747
 40
23.71826625065247
 40
24.80210429862395
 40
25.8930771157021
 40
26.99048705697709
 40
28.09349309193389
 40
29.20112995599786
 40
30.31233024745139
 40
31.42594771747373
 40
32.5407895042663
 40
32.54078950426994
 40
32.54078950426994
 40
32.54078950426994
 10
-60.28415232710359
 20
-3.075396626092787
 30
0.0
 10
-60.32790594248204
 20
-3.067525959570804
 30
0.0
 10
-60.5901849714348
 20
-3.019584869500345
 30
0.0
 10
-61.0706653731118
 20
-2.923456744237296
 30
0.0
 10
-61.72378023850484
 20
-2.774894371318381
 30
0.0
 10
-62.37682855286405
 20
-2.609367119272075
 30
0.0
 10
-63.02981492667395
 20
-2.42790825024864
 30
0.0
 10
-63.68273849738491
 20
-2.231630375405496
 30
0.0
 10
-64.33560730172899
 20
-2.021755022656733
 30
0.0
 10
-64.98842436267228
 20
-1.799572018392814
 30
0.0
 10
-65.64119572032493
 20
-1.566451553026809
 30
0.0
 10
-66.29392863309061
 20
-1.323831832169054
 30
0.0
 10
-66.94662876629715
 20
-1.073204731820116
 30
0.0
 10
-67.59930269042668
 20
-0.81611215225223
 30
0.0
 10
-68.25195619086544
 20
-0.5541349218176763
 30
0.0
 10
-68.90459893610745
 20
-0.2888895816290142
 30
0.0
 10
-69.339608695632
 20
-0.1109951583822417
 30
0.0
 10
-69.55723307570713
 20
-0.0219990851427565
 30
0.0
  0
SPLINE
  5
5468
330
1F
100
AcDbEntity
  8
AM_0
100
AcDbSpline
210
0.0
220
0.0
230
1.0
 70
     8
 71
     3
 72
    15
 73
    11
 74
     0
 42
0.0000000001
 43
0.0000000001
 40
10.32789992158508
 40
10.32789992158508
 40
10.32789992158508
 40
10.32789992158508
 40
10.37139106676736
 40
11.27458944007584
 40
12.18373345430765
 40
13.09824173870457
 40
14.01741343450111
 40
14.9404441545541
 40
15.86644439743314
 40
16.55140071192301
 40
16.55140071192301
 40
16.55140071192301
 40
16.55140071192301
 10
-73.46408887565951
 20
1.573631679422674
 30
0.0
 10
-73.69568682115894
 20
1.507601455838421
 30
0.0
 10
-73.9246659110249
 20
1.431950763733848
 30
0.0
 10
-74.37186127684451
 20
1.279750082271329
 30
0.0
 10
-75.02463263520647
 20
1.046629616948609
 30
0.0
 10
-75.67736553880667
 20
0.8040098790971377
 30
0.0
 10
-76.33006570822941
 20
0.5533828471888774
 30
0.0
 10
-76.98273949589405
 20
0.2962900094002348
 30
0.0
 10
-77.57827059212427
 20
0.0572429683706597
 30
0.0
 10
-77.80437019790682
 20
-0.0502904615488574
 30
0.0
 10
-77.99999999999979
 20
-0.1602732778370424
 30
0.0
  0
ELLIPSE
  5
5469
330
1F
100
AcDbEntity
  8
AM_0
100
AcDbEllipse
 10
-76.82875302162028
 20
-1.320360707859698
 30
0.0
 11
-1.560349165249309
 21
0.0000000000094621
 31
0.0
210
0.0
220
0.0
230
1.0
 40
0.9853651827388997
 41
0.9712347462456687
 42
1.253055443379945
  0
ELLIPSE
  5
546A
330
1F
100
AcDbEntity
  8
AM_0
100
AcDbEllipse
 10
-77.15750323141311
 20
-1.776335851436726
 30
0.0
 11
-0.9928587458973897
 21
0.0000000000149972
 31
0.0
210
0.0
220
0.0
230
1.0
 40
0.9853651827391079
 41
0.6513691185141229
 42
0.9816002150355407
  0
ELLIPSE
  5
546B
330
1F
100
AcDbEntity
  8
AM_0
100
AcDbEllipse
 10
-77.72101973299874
 20
-2.208350772250302
 30
0.0
 11
0.278997740583012
 21
0.0000000000050502
 31
0.0
210
0.0
220
0.0
230
1.0
 40
0.9853651827384721
 41
3.152784658381219
 42
3.767804648466919
  0
ELLIPSE
  5
546C
330
1F
100
AcDbEntity
  8
AM_0
100
AcDbEllipse
 10
-77.75064364183878
 20
-2.226491458578466
 30
0.0
 11
-0.2498245487816506
 21
0.000000000003786
 31
0.0
210
0.0
220
0.0
230
1.0
 40
0.9853651827387423
 41
-0.7202801360343774
 42
-0.0612317461957825
  0
ELLIPSE
  5
546D
330
1F
100
AcDbEntity
  8
AM_0
100
AcDbEllipse
 10
-77.39440863120771
 20
-2.55114584539517
 30
0.0
 11
-0.7350084179797927
 21
0.000000000013982
 31
0.0
210
0.0
220
0.0
230
1.0
 40
0.9853651827392637
 41
-1.128163077296326
 42
-0.7375193108151348
  0
ELLIPSE
  5
546E
330
1F
100
AcDbEntity
  8
AM_0
100
AcDbEllipse
 10
-77.24743717269079
 20
-2.8005562615266
 30
0.0
 11
-1.02697029683911
 21
0.0000000000031617
 31
0.0
210
0.0
220
0.0
230
1.0
 40
0.985365182739258
 41
-1.470784981495719
 42
-1.104408286721436
  0
ELLIPSE
  5
546F
330
1F
100
AcDbEntity
  8
AM_0
100
AcDbEllipse
 10
-75.64889243483569
 20
1.931031452982619
 30
0.0
 11
5.064273268894188
 21
0.0000000000160007
 31
0.0
210
0.0
220
0.0
230
1.0
 40
0.9853651827392695
 41
4.37689340202015
 42
4.534276960173979
  0
ELLIPSE
  5
5470
330
1F
100
AcDbEntity
  8
AM_0
100
AcDbEllipse
 10
-76.75139658689028
 20
-6.388771229339433
 30
0.0
 11
-4.701605551091807
 21
0.0000000000002665
 31
0.0
210
0.0
220
0.0
230
1.0
 40
0.9853651827390146
 41
4.668718131046571
 42
4.840049003874553
  0
ELLIPSE
  5
5471
330
1F
100
AcDbEntity
  8
AM_0
100
AcDbEllipse
 10
-76.69610271207819
 20
-3.764957167313173
 30
0.0
 11
2.039859441336978
 21
0.0000000000007579
 31
0.0
210
0.0
220
0.0
230
1.0
 40
0.9853651827390997
 41
1.302601480761365
 42
1.497213124033592
  0
ELLIPSE
  5
5472
330
1F
100
AcDbEntity
  8
AM_0
100
AcDbEllipse
 10
-76.50507854950486
 20
-3.639751192562689
 30
0.0
 11
1.872775610302966
 21
0.0000000000390874
 31
0.0
210
0.0
220
0.0
230
1.0
 40
0.9853651827401401
 41
1.228395092954721
 42
1.383063060602984
  0
LINE
  5
5473
330
1F
100
AcDbEntity
  8
AM_11
 48
0.5
100
AcDbLine
 10
-59.75351457050348
 20
3.400002676892569
 30
0.0
 11
-51.67019398407155
 21
3.400002676892409
 31
0.0
  0
SPLINE
  5
5474
330
1F
100
AcDbEntity
  8
AM_0
100
AcDbSpline
210
0.0
220
0.0
230
1.0
 70
     8
 71
     3
 72
    23
 73
    19
 74
     0
 42
0.0000000001
 43
0.0000000001
 40
16.03460024169435
 40
16.03460024169435
 40
16.03460024169435
 40
16.03460024169435
 40
16.35212704903564
 40
17.38177054169784
 40
18.41822485651776
 40
19.46214173629503
 40
20.51396345435107
 40
21.57393551351153
 40
22.64208202342361
 40
23.7182574881101
 40
24.80209208578934
 40
25.89306333925047
 40
26.99048218457928
 40
28.09348763352352
 40
29.20111863782268
 40
30.31232390128032
 40
31.42594612798585
 40
32.5407912310448
 40
32.5407912310486
 40
32.5407912310486
 40
32.5407912310486
 10
-59.75351457050345
 20
3.400002676892569
 30
0.0
 10
-59.11790248584185
 20
3.351401464307198
 30
0.0
 10
-58.81534766717404
 20
3.307034171975191
 30
0.0
 10
-58.36292771960873
 20
3.241092048712058
 30
0.0
 10
-57.74254513034072
 20
3.095466355198104
 30
0.0
 10
-57.12273878160246
 20
2.931952974727567
 30
0.0
 10
-56.5034720485425
 20
2.751498239346096
 30
0.0
 10
-55.88472295228701
 20
2.555108188243284
 30
0.0
 10
-55.26645573062124
 20
2.343905469771509
 30
0.0
 10
-54.6486273297657
 20
2.119119230775071
 30
0.0
 10
-54.03120264249169
 20
1.882022422619544
 30
0.0
 10
-53.41413216762322
 20
1.633994656386786
 30
0.0
 10
-52.79736589849872
 20
1.376477576614127
 30
0.0
 10
-52.18086274174082
 20
1.110951798552186
 30
0.0
 10
-51.56457111527916
 20
0.8389613182381165
 30
0.0
 10
-50.94843393745698
 20
0.5620943605292039
 30
0.0
 10
-50.33240103731525
 20
0.2819552944724449
 30
0.0
 10
-49.92182274803551
 20
0.0941373685272026
 30
0.0
 10
-49.71642163616344
 20
0.0001756098342287
 30
0.0
  0
SPLINE
  5
5475
330
1F
100
AcDbEntity
  8
AM_0
100
AcDbSpline
210
0.0
220
0.0
230
1.0
 70
     8
 71
     3
 72
    53
 73
    49
 74
     0
 42
0.0000000001
 43
0.0000000001
 40
0.0
 40
0.0
 40
0.0
 40
0.0
 40
1.010743684496582
 40
2.022833576467832
 40
3.037578957496688
 40
4.056212745003489
 40
5.079857003664532
 40
6.109500240690281
 40
7.145961322679372
 40
8.189895241603872
 40
9.241717795325891
 40
10.30168407291828
 40
11.36983447792315
 40
12.44600489715814
 40
13.52984294512926
 40
14.62081576220742
 40
15.7182257034828
 40
16.82123173843959
 40
17.92886860250316
 40
19.0400688939571
 40
20.15368796660465
 40
21.26852814259644
 40
22.38336992938901
 40
23.49698739941135
 40
24.6081876908653
 40
25.71582455492886
 40
26.81883757994213
 40
27.91624752121713
 40
29.00722033829659
 40
30.09105838626677
 40
31.16722880550176
 40
32.23537921050758
 40
33.29534548809967
 40
34.347168041821
 40
35.39108718934584
 40
36.42754827133493
 40
37.45720575381954
 40
38.48085062012849
 40
39.49948440763516
 40
40.51422944315121
 40
41.52631975251916
 40
42.53706336719636
 40
43.54780698187354
 40
44.55989729124051
 40
45.57464232675757
 40
46.59327611426424
 40
47.6169209805722
 40
48.03779390694803
 40
48.03779390694803
 40
48.03779390694803
 40
48.03779390694803
 10
-48.93816117882541
 20
-3.399997323108715
 30
0.0
 10
-49.14625672769092
 20
-3.397974405478737
 30
0.0
 10
-49.56272498746377
 20
-3.393925875898887
 30
0.0
 10
-50.18727581638509
 20
-3.361290182440472
 30
0.0
 10
-50.81179998558637
 20
-3.309407955235889
 30
0.0
 10
-51.43628550287296
 20
-3.236693040578995
 30
0.0
 10
-52.06072613686248
 20
-3.144130864976718
 30
0.0
 10
-52.6851095687373
 20
-3.032133037673168
 30
0.0
 10
-53.3094378870324
 20
-2.901454015952474
 30
0.0
 10
-53.93370555521728
 20
-2.752894015618539
 30
0.0
 10
-54.55790832089142
 20
-2.587365186061171
 30
0.0
 10
-55.18204929536056
 20
-2.405906534632574
 30
0.0
 10
-55.80613015019863
 20
-2.209628600719471
 30
0.0
 10
-56.43015868279604
 20
-1.999753264318473
 30
0.0
 10
-57.0541377501879
 20
-1.777570254338877
 30
0.0
 10
-57.67807313836845
 20
-1.544449795377559
 30
0.0
 10
-58.30197176686566
 20
-1.301830054499751
 30
0.0
 10
-58.92583911134701
 20
-1.051203028320025
 30
0.0
 10
-59.54968122651614
 20
-0.7941101705457015
 30
0.0
 10
-60.17350478774877
 20
-0.5321338571722251
 30
0.0
 10
-60.79731526657138
 20
-0.2668846109113857
 30
0.0
 10
-61.42112147215416
 20
0.0000019831684177
 30
0.0
 10
-62.04492487736903
 20
0.2668933813732393
 30
0.0
 10
-62.66873744706841
 20
0.5321384970017157
 30
0.0
 10
-63.29256023818249
 20
0.794115603362579
 30
0.0
 10
-63.9164034656552
 20
1.051209440546096
 30
0.0
 10
-64.54027339823756
 20
1.301834327830774
 30
0.0
 10
-65.16417301141166
 20
1.544455299128241
 30
0.0
 10
-65.78810848966779
 20
1.777575569052905
 30
0.0
 10
-66.41208753435503
 20
1.99975862575675
 30
0.0
 10
-67.03611606855031
 20
2.209633962464757
 30
0.0
 10
-67.66019693928419
 20
2.405911849444846
 30
0.0
 10
-68.28433784933507
 20
2.587370686159421
 30
0.0
 10
-68.90853793241506
 20
2.752898054099344
 30
0.0
 10
-69.53280174022549
 20
2.901460000198633
 30
0.0
 10
-70.15712982692716
 20
3.032141649710057
 30
0.0
 10
-70.78151771710897
 20
3.144126685307032
 30
0.0
 10
-71.40596041407389
 20
3.236717510859389
 30
0.0
 10
-72.03044611648589
 20
3.309346231370462
 30
0.0
 10
-72.65497071962556
 20
3.361543520441038
 30
0.0
 10
-73.2795210190022
 20
3.392996245575156
 30
0.0
 10
-73.90408504249288
 20
3.403503560301652
 30
0.0
 10
-74.52864906506467
 20
3.392996245558744
 30
0.0
 10
-75.15319936720351
 20
3.361543520507249
 30
0.0
 10
-75.77772396017341
 20
3.309346231121565
 30
0.0
 10
-76.40220970071426
 20
3.236717511795577
 30
0.0
 10
-76.90290261697962
 20
3.162475978401772
 30
0.0
 10
-77.19532481193581
 20
3.112734879473034
 30
0.0
 10
-77.51035060427437
 20
3.049019938742564
 30
0.0
  0
SPLINE
  5
5476
330
1F
100
AcDbEntity
  8
AM_0
100
AcDbSpline
210
0.0
220
0.0
230
1.0
 70
     8
 71
     3
 72
    46
 73
    42
 74
     0
 42
0.0000000001
 43
0.0000000001
 40
0.0
 40
0.0
 40
0.0
 40
0.0
 40
0.5056245176053715
 40
0.759310862862336
 40
1.013969309739036
 40
1.269880374404297
 40
1.527291183660732
 40
1.786406454158005
 40
2.047386241038974
 40
2.310345544571907
 40
2.575337113970003
 40
2.842374715221223
 40
3.111417320030211
 40
3.382376832022752
 40
3.655120036292296
 40
3.929472521611371
 40
4.205224030350333
 40
4.482133246366229
 40
4.759933319229942
 40
5.038338087391601
 40
5.317048131389549
 40
5.595758175387723
 40
5.874162943549382
 40
6.151963016412868
 40
6.428872232428759
 40
6.704623741167953
 40
6.978976226486702
 40
7.251719430756334
 40
7.522680721168324
 40
7.791723325977308
 40
8.058760927228528
 40
8.323752496626548
 40
8.586708135057122
 40
8.84768792193809
 40
9.106803192435362
 40
9.364213819003406
 40
9.620125035580642
 40
9.874787266973068
 40
10.12847352585207
 40
10.38149610319407
 40
10.63418200686337
 40
10.63418200686337
 40
10.63418200686337
 40
10.63418200686337
 10
-47.18984323628158
 20
-3.399997323108802
 30
0.0
 10
-47.60633184402992
 20
-3.392251860285673
 30
0.0
 10
-48.23178475050574
 20
-3.380620276264881
 30
0.0
 10
-49.06347675514516
 20
-3.309006750284682
 30
0.0
 10
-49.6879689818807
 20
-3.236801266054277
 30
0.0
 10
-50.31240782939716
 20
-3.144101689550804
 30
0.0
 10
-50.93679165270881
 20
-3.032140680619647
 30
0.0
 10
-51.56111724423348
 20
-2.901453508265394
 30
0.0
 10
-52.18538355831967
 20
-2.752891516456207
 30
0.0
 10
-52.80958781676167
 20
-2.58736689781368
 30
0.0
 10
-53.43373126719423
 20
-2.405906297406371
 30
0.0
 10
-54.05781223086114
 20
-2.209628665012508
 30
0.0
 10
-54.68184073395699
 20
-1.99975324688476
 30
0.0
 10
-55.3058198093851
 20
-1.777570259130397
 30
0.0
 10
-55.92975519521498
 20
-1.544449793807655
 30
0.0
 10
-56.5536538250103
 20
-1.301830055956139
 30
0.0
 10
-57.17752116665026
 20
-1.051203024047848
 30
0.0
 10
-57.80136329193815
 20
-0.7941101862591696
 30
0.0
 10
-58.42518681537892
 20
-0.5321337983607197
 30
0.0
 10
-59.04899743564119
 20
-0.2668848309848105
 30
0.0
 10
-59.67280281204128
 20
0.0000026768378336
 30
0.0
 10
-60.29660818830424
 20
0.2668901849848007
 30
0.0
 10
-60.9204188089776
 20
0.5321391513882167
 30
0.0
 10
-61.54424233091589
 20
0.7941155428406971
 30
0.0
 10
-62.16808446177509
 20
1.05120836744878
 30
0.0
 10
-62.79195178275728
 20
1.301835448229371
 30
0.0
 10
-63.41585048905529
 20
1.544455005089575
 30
0.0
 10
-64.03978694831187
 20
1.777576646694801
 30
0.0
 10
-64.66376844822166
 20
1.999757615804096
 30
0.0
 10
-65.28779806448868
 20
2.209634110101111
 30
0.0
 10
-65.91187901362528
 20
2.405911800898015
 30
0.0
 10
-66.53601990014735
 20
2.587370733837479
 30
0.0
 10
-67.16021999964477
 20
2.752897913005639
 30
0.0
 10
-67.78448376551769
 20
2.901460511706821
 30
0.0
 10
-68.4088089957155
 20
3.032139133820163
 30
0.0
 10
-69.03319327678723
 20
3.144132615855855
 30
0.0
 10
-69.65763610952055
 20
3.236699816175424
 30
0.0
 10
-70.28212511840599
 20
3.30941361356354
 30
0.0
 10
-70.90665276412247
 20
3.361291079173533
 30
0.0
 10
-71.53120307972797
 20
3.393935579406229
 30
0.0
 10
-71.94767151391335
 20
3.397981208851662
 30
0.0
 10
-72.15576709979605
 20
3.400002676892473
 30
0.0
  0
SPLINE
  5
5477
330
1F
100
AcDbEntity
  8
AM_0
100
AcDbSpline
210
0.0
220
0.0
230
1.0
 70
     8
 71
     3
 72
    11
 73
     7
 74
     0
 42
0.0000000001
 43
0.0000000001
 40
11.27226913003534
 40
11.27226913003534
 40
11.27226913003534
 40
11.2722691300354
 40
12.28301561507924
 40
13.29510212255852
 40
14.30984805882082
 40
15.18258238371378
 40
15.18258238371378
 40
15.18258238371378
 40
15.18258238371378
 10
-57.7777071924009
 20
-3.400301940641307
 30
0.0
 10
-58.00738194464769
 20
-3.405489491078462
 30
0.0
 10
-58.44074305080961
 20
-3.365203351677201
 30
0.0
 10
-59.0885469140904
 20
-3.283936243751901
 30
0.0
 10
-59.70332420290468
 20
-3.186871593925999
 30
0.0
 10
-60.1009260666069
 20
-3.112255108775534
 30
0.0
 10
-60.28415232710359
 20
-3.075396626092787
 30
0.0
  0
LINE
  5
5478
330
1F
100
AcDbEntity
  8
AM_0
100
AcDbLine
 10
-57.92624474841719
 20
-3.40031002677888
 30
0.0
 11
-68.66351277740014
 21
-3.399999999999611
 31
0.0
  0
LINE
  5
547A
330
1F
100
AcDbEntity
  8
AM_0
100
AcDbLine
 10
-78.00000000000013
 20
3.500000205170612
 30
0.0
 11
-78.00000000000006
 21
-3.499950217241503
 31
0.0
  0
LINE
  5
5556
330
1F
100
AcDbEntity
  8
AM_0
100
AcDbLine
 10
-78.00000000000013
 20
3.499999526804212
 30
0.0
 11
-77.8945082907743
 21
3.439093860085402
 31
0.0
  0
LINE
  5
5557
330
1F
100
AcDbEntity
  8
AM_0
100
AcDbLine
 10
-77.8945082907744
 20
-3.439044550522802
 30
0.0
 11
-77.89450829077438
 21
-2.43187556662517
 31
0.0
  0
LINE
  5
5558
330
1F
100
AcDbEntity
  8
AM_0
100
AcDbLine
 10
-78.00000000000006
 20
-3.499950217241503
 30
0.0
 11
-77.89450829077444
 21
-3.439044550522821
 31
0.0
  0
LINE
  5
56C3
330
1F
100
AcDbEntity
  8
AM_0
100
AcDbLine
 10
-77.89450829077435
 20
-0.1019384856245046
 30
0.0
 11
-77.8945082907743
 21
3.439093860085402
 31
0.0
  0
LINE
  5
56C4
330
1F
100
AcDbEntity
  8
AM_0
100
AcDbLine
 10
-77.89450829077438
 20
-2.02038448518334
 30
0.0
 11
-77.89450829077435
 21
-0.2213687360064357
 31
0.0
  0
VIEWPORT
  5
110
330
101
100
AcDbEntity
 67
     1
  8
0
100
AcDbViewport
 10
420.5
 20
297.0
 30
0.0
 40
948.9782706766916
 41
628.452
 68
     1
 69
     1
1001
ACAD
1000
MVIEW
1002
{
1070
    16
1010
0.0
1020
0.0
1030
0.0
1010
0.0
1020
0.0
1030
1.0
1040
0.0
1040
628.452
1040
420.5
1040
297.0
1040
50.0
1040
0.0
1040
0.0
1070
     0
1070
   100
1070
     1
1070
     1
1070
     0
1070
     0
1070
     0
1070
     0
1040
0.0
1040
0.0
1040
0.0
1040
10.0
1040
10.0
1040
10.0
1040
10.0
1070
     0
1002
{
1002
}
1002
}
  0
ENDSEC
  0
SECTION
  2
OBJECTS
  0
DICTIONARY
  5
C
330
0
100
AcDbDictionary
  3
ACAD_GROUP
350
D
  3
ACAD_LAYOUT
350
1A
  3
ACAD_MLINESTYLE
350
17
  3
ACAD_PLOTSETTINGS
350
19
  3
ACAD_PLOTSTYLENAME
350
E
  3
ACDBVARIABLEDICTIONARY
350
34
  3
ACMDICTIONARY
350
43
  3
AMG
350
2B
  3
AMGSNAPSETTINGS
350
6E
  3
DWGPROPS
350
573A
  3
ACDBHEADERROUNDTRIPXREC
350
5746
  0
DICTIONARY
  5
74
330
1F
100
AcDbDictionary
280
     1
  3
ACAD_INDEX
360
573C
  3
ACAD_LAYOUTSELFREF
360
5769
  0
DICTIONARY
  5
576E
330
101
100
AcDbDictionary
280
     1
  3
ACAD_LAYOUTSELFREF
360
576F
  0
DICTIONARY
  5
D
102
{ACAD_REACTORS
330
C
102
}
330
C
100
AcDbDictionary
  0
DICTIONARY
  5
1A
102
{ACAD_REACTORS
330
C
102
}
330
C
100
AcDbDictionary
  0
DICTIONARY
  5
17
102
{ACAD_REACTORS
330
C
102
}
330
C
100
AcDbDictionary
  3
STANDARD
350
18
  0
DICTIONARY
  5
19
102
{ACAD_REACTORS
330
C
102
}
330
C
100
AcDbDictionary
  0
ACDBDICTIONARYWDFLT
  5
E
102
{ACAD_REACTORS
330
C
102
}
330
C
100
AcDbDictionary
281
     1
  3
Normal
350
F
100
AcDbDictionaryWithDefault
340
F
  0
DICTIONARY
  5
34
102
{ACAD_REACTORS
330
C
102
}
330
C
100
AcDbDictionary
  3
INDEXCTL
350
35
  3
SORTENTS
350
B5E
  0
DICTIONARY
  5
43
102
{ACAD_REACTORS
330
C
102
}
330
C
100
AcDbDictionary
  3
ACMSTDDICTIONARY
350
260
  0
DICTIONARY
  5
2B
102
{ACAD_REACTORS
330
C
102
}
330
C
100
AcDbDictionary
  3
ACMGSETTINGS
350
2C
  0
DICTIONARY
  5
6E
102
{ACAD_REACTORS
330
C
102
}
330
C
100
AcDbDictionary
  0
XRECORD
  5
573A
102
{ACAD_REACTORS
330
C
102
}
330
C
100
AcDbXrecord
  1
DWGPROPS COOKIE
  2

  3

  4

  6

  7

  8

  9

300
AmdtFileType=82
301
=
302
=
303
=
304
=
305
=
306
=
307
=
308
=
309
=
 40
0.1506698263888889
 41
2452800.443498622
 42
2452946.583898287
  1

 90
        1
  0
DICTIONARY
  5
5746
102
{ACAD_REACTORS
330
C
102
}
330
C
100
AcDbDictionary
  3
TSTACKALIGN
350
5747
  3
TSTACKSIZE
350
5748
  3
HYPERLINKBASE
350
5749
  3
STYLESHEET
350
574A
  3
LAYOUTDICT
350
574B
  3
PLOTSETDICT
350
574C
  3
PLOTSTYLNAMDICT
350
574D
  3
LWETCUNION
350
574E
  3
INSUNITS
350
574F
  3
CEPSNTYPE
350
5750
  3
FINGERPRINTGUID
350
5751
  3
VERSIONGUID
350
5752
  3
PSVPSCALE
350
5753
  3
DIMSTYLEDATA
350
5754
  3
PUCSORTHOREF
350
5755
  3
PUCSORTHOVIEW
350
5756
  3
PUCSBASE
350
5757
  3
PUCSORGTOP
350
5758
  3
PUCSORGBOTTOM
350
5759
  3
PUCSORGLEFT
350
575A
  3
PUCSORGRIGHT
350
575B
  3
PUCSORGFRONT
350
575C
  3
PUCSORGBACK
350
575D
  3
UCSORTHOREF
350
575E
  3
UCSORTHOVIEW
350
575F
  3
UCSBASE
350
5760
  3
UCSORGTOP
350
5761
  3
UCSORGBOTTOM
350
5762
  3
UCSORGLEFT
350
5763
  3
UCSORGRIGHT
350
5764
  3
UCSORGFRONT
350
5765
  3
UCSORGBACK
350
5766
  0
DICTIONARY
  5
573C
102
{ACAD_REACTORS
330
74
102
}
330
74
100
AcDbDictionary
  3
*A1
350
573D
  0
XRECORD
  5
5769
102
{ACAD_REACTORS
330
74
102
}
330
74
100
AcDbXrecord
340
1F
  0
XRECORD
  5
576F
102
{ACAD_REACTORS
330
576E
102
}
330
576E
100
AcDbXrecord
340
101
  0
MLINESTYLE
  5
18
102
{ACAD_REACTORS
330
17
102
}
330
17
100
AcDbMlineStyle
  2
STANDARD
 70
     0
  3

 62
   256
 51
90.0
 52
90.0
 71
     2
 49
0.5
 62
   256
  6
BYLAYER
 49
-0.5
 62
   256
  6
BYLAYER
  0
ACDBPLACEHOLDER
  5
F
102
{ACAD_REACTORS
330
E
102
}
330
E
100
AcDbPlaceHolder
280
     0
  0
DICTIONARYVAR
  5
35
102
{ACAD_REACTORS
330
34
102
}
330
34
100
DictionaryVariables
280
     0
  1
1
  0
DICTIONARYVAR
  5
B5E
102
{ACAD_REACTORS
330
34
102
}
330
34
100
DictionaryVariables
280
     0
  1
96
  0
DICTIONARY
  5
260
102
{ACAD_REACTORS
330
43
102
}
330
43
100
AcDbDictionary
  0
DICTIONARY
  5
2C
102
{ACAD_REACTORS
330
2B
102
}
330
2B
100
AcDbDictionary
  3
DWGSETTINGS
350
2D
  0
XRECORD
  5
5747
102
{ACAD_REACTORS
330
5746
102
}
330
5746
100
AcDbXrecord
 90
        1
  0
XRECORD
  5
5748
102
{ACAD_REACTORS
330
5746
102
}
330
5746
100
AcDbXrecord
 90
       70
  0
XRECORD
  5
5749
102
{ACAD_REACTORS
330
5746
102
}
330
5746
100
AcDbXrecord
  1

  0
XRECORD
  5
574A
102
{ACAD_REACTORS
330
5746
102
}
330
5746
100
AcDbXrecord
  1
ASAMI.ctb
  0
XRECORD
  5
574B
102
{ACAD_REACTORS
330
5746
102
}
330
5746
100
AcDbXrecord
340
1A
  0
XRECORD
  5
574C
102
{ACAD_REACTORS
330
5746
102
}
330
5746
100
AcDbXrecord
340
19
  0
XRECORD
  5
574D
102
{ACAD_REACTORS
330
5746
102
}
330
5746
100
AcDbXrecord
340
E
  0
XRECORD
  5
574E
102
{ACAD_REACTORS
330
5746
102
}
330
5746
100
AcDbXrecord
 90
    10781
  0
XRECORD
  5
574F
102
{ACAD_REACTORS
330
5746
102
}
330
5746
100
AcDbXrecord
 90
        4
  0
XRECORD
  5
5750
102
{ACAD_REACTORS
330
5746
102
}
330
5746
100
AcDbXrecord
 90
        0
  0
XRECORD
  5
5751
102
{ACAD_REACTORS
330
5746
102
}
330
5746
100
AcDbXrecord
  1
{AFB28963-8C59-40AE-9337-C84526B81ACE}
  0
XRECORD
  5
5752
102
{ACAD_REACTORS
330
5746
102
}
330
5746
100
AcDbXrecord
  1
{49EB7484-419E-4396-B6DA-4F7C28245919}
  0
XRECORD
  5
5753
102
{ACAD_REACTORS
330
5746
102
}
330
5746
100
AcDbXrecord
 40
0.0
  0
XRECORD
  5
5754
102
{ACAD_REACTORS
330
5746
102
}
330
5746
100
AcDbXrecord
1000
DSTYLE
1002
{
1070
    79
 70
     2
1070
   341
340
59
1070
   342
340
59
1070
   371
 70
    -1
1070
   372
 70
    -1
1002
}
  0
XRECORD
  5
5755
102
{ACAD_REACTORS
330
5746
102
}
330
5746
100
AcDbXrecord
340
0
  0
XRECORD
  5
5756
102
{ACAD_REACTORS
330
5746
102
}
330
5746
100
AcDbXrecord
 70
     0
  0
XRECORD
  5
5757
102
{ACAD_REACTORS
330
5746
102
}
330
5746
100
AcDbXrecord
340
0
  0
XRECORD
  5
5758
102
{ACAD_REACTORS
330
5746
102
}
330
5746
100
AcDbXrecord
 10
0.0
 20
0.0
 30
0.0
  0
XRECORD
  5
5759
102
{ACAD_REACTORS
330
5746
102
}
330
5746
100
AcDbXrecord
 10
0.0
 20
0.0
 30
0.0
  0
XRECORD
  5
575A
102
{ACAD_REACTORS
330
5746
102
}
330
5746
100
AcDbXrecord
 10
0.0
 20
0.0
 30
0.0
  0
XRECORD
  5
575B
102
{ACAD_REACTORS
330
5746
102
}
330
5746
100
AcDbXrecord
 10
0.0
 20
0.0
 30
0.0
  0
XRECORD
  5
575C
102
{ACAD_REACTORS
330
5746
102
}
330
5746
100
AcDbXrecord
 10
0.0
 20
0.0
 30
0.0
  0
XRECORD
  5
575D
102
{ACAD_REACTORS
330
5746
102
}
330
5746
100
AcDbXrecord
 10
0.0
 20
0.0
 30
0.0
  0
XRECORD
  5
575E
102
{ACAD_REACTORS
330
5746
102
}
330
5746
100
AcDbXrecord
340
0
  0
XRECORD
  5
575F
102
{ACAD_REACTORS
330
5746
102
}
330
5746
100
AcDbXrecord
 70
     0
  0
XRECORD
  5
5760
102
{ACAD_REACTORS
330
5746
102
}
330
5746
100
AcDbXrecord
340
0
  0
XRECORD
  5
5761
102
{ACAD_REACTORS
330
5746
102
}
330
5746
100
AcDbXrecord
 10
0.0
 20
0.0
 30
0.0
  0
XRECORD
  5
5762
102
{ACAD_REACTORS
330
5746
102
}
330
5746
100
AcDbXrecord
 10
0.0
 20
0.0
 30
0.0
  0
XRECORD
  5
5763
102
{ACAD_REACTORS
330
5746
102
}
330
5746
100
AcDbXrecord
 10
0.0
 20
0.0
 30
0.0
  0
XRECORD
  5
5764
102
{ACAD_REACTORS
330
5746
102
}
330
5746
100
AcDbXrecord
 10
0.0
 20
0.0
 30
0.0
  0
XRECORD
  5
5765
102
{ACAD_REACTORS
330
5746
102
}
330
5746
100
AcDbXrecord
 10
0.0
 20
0.0
 30
0.0
  0
XRECORD
  5
5766
102
{ACAD_REACTORS
330
5746
102
}
330
5746
100
AcDbXrecord
 10
0.0
 20
0.0
 30
0.0
  0
LAYER_INDEX
  5
573D
102
{ACAD_REACTORS
330
573C
102
}
330
573C
100
AcDbIndex
 40
2453151.722749189
100
AcDbLayerIndex
  8
0
360
573E
 90
        0
  8
AM_0
360
573F
 90
       72
  8
AM_7
360
5740
 90
        1
  8
AM_11
360
5741
 90
       29
  8
AM_5
360
5742
 90
        5
  8
Defpoints
360
5743
 90
        0
  8
AM_6
360
5744
 90
        1
  0
XRECORD
  5
2D
102
{ACAD_REACTORS
330
2C
102
}
330
2C
100
AcDbXrecord
  1
VERSION
140
15.0
  1
PRODUCT
  2
AutoCAD Mechanical 2000
  0
IDBUFFER
  5
573E
330
0
100
AcDbIdBuffer
  0
IDBUFFER
  5
573F
330
0
100
AcDbIdBuffer
330
5466
330
5467
330
5468
330
5469
330
546A
330
546B
330
546C
330
546D
330
546E
330
546F
330
5470
330
5471
330
5472
330
5474
330
5475
330
5476
330
5477
330
5478
330
547A
330
5556
330
5557
330
5558
330
56C3
330
56C4
330
C1D
330
4522
330
4525
330
4526
330
4536
330
4544
330
4547
330
4658
330
4BB1
330
4BB2
330
4D8F
330
4D90
330
4F53
330
543B
330
543C
330
543D
330
543E
330
543F
330
5441
330
5442
330
5447
330
5448
330
5449
330
544A
330
544B
330
544C
330
544D
330
544E
330
544F
330
5450
330
5451
330
5452
330
5453
330
5454
330
5455
330
5456
330
5457
330
5458
330
5459
330
545A
330
545B
330
545C
330
545F
330
5461
330
5462
330
5463
330
5464
330
5465
  0
IDBUFFER
  5
5740
330
0
100
AcDbIdBuffer
330
C9F
  0
IDBUFFER
  5
5741
330
0
100
AcDbIdBuffer
330
5078
330
5079
330
507A
330
507D
330
507E
330
5440
330
5443
330
5444
330
5445
330
5446
330
545D
330
5460
330
5473
330
5064
330
5065
330
5066
330
5067
330
5068
330
5069
330
506A
330
506F
330
5070
330
5071
330
5072
330
5073
330
5074
330
5075
330
5076
330
5077
  0
IDBUFFER
  5
5742
330
0
100
AcDbIdBuffer
330
CC6
330
DF5
330
48D2
330
4A9C
330
510B
  0
IDBUFFER
  5
5743
330
0
100
AcDbIdBuffer
  0
IDBUFFER
  5
5744
330
0
100
AcDbIdBuffer
330
19BD
  0
ENDSEC
  0
EOF
