  0
SECTION
  2
HEADER
  9
$ACADVER
  1
AC1014
  9
$ACADMAINTVER
 70
     9
  9
$DWGCODEPAGE
  3
ANSI_932
  9
$INSBASE
 10
0.0
 20
0.0
 30
0.0
  9
$EXTMIN
 10
-122.7322058755195
 20
-32.06779369863938
 30
-0.00000001
  9
$EXTMAX
 10
18.87160540453889
 20
18.46242373418076
 30
0.00000001
  9
$LIMMIN
 10
-141.3563616082646
 20
-53.64327275192732
  9
$LIMMAX
 10
36.427489466297
 20
39.85327119435939
  9
$ORTHOMODE
 70
     0
  9
$REGENMODE
 70
     1
  9
$FILLMODE
 70
     1
  9
$QTEXTMODE
 70
     0
  9
$MIRRTEXT
 70
     0
  9
$DRAGMODE
 70
     2
  9
$LTSCALE
 40
1.0
  9
$OSMODE
 70
    55
  9
$ATTMODE
 70
     1
  9
$TEXTSIZE
 40
2.5
  9
$TRACEWID
 40
1.0
  9
$TEXTSTYLE
  7
STANDARD
  9
$CLAYER
  8
AM_0
  9
$CELTYPE
  6
BYLAYER
  9
$CECOLOR
 62
   256
  9
$CELTSCALE
 40
1.0
  9
$DELOBJ
 70
     1
  9
$DISPSILH
 70
     0
  9
$DIMSCALE
 40
1.0
  9
$DIMASZ
 40
2.5
  9
$DIMEXO
 40
1.0
  9
$DIMDLI
 40
12.0
  9
$DIMRND
 40
0.0
  9
$DIMDLE
 40
0.0
  9
$DIMEXE
 40
1.0
  9
$DIMTP
 40
0.1
  9
$DIMTM
 40
0.1
  9
$DIMTXT
 40
3.2
  9
$DIMCEN
 40
0.0
  9
$DIMTSZ
 40
0.0
  9
$DIMTOL
 70
     0
  9
$DIMLIM
 70
     0
  9
$DIMTIH
 70
     0
  9
$DIMTOH
 70
     0
  9
$DIMSE1
 70
     0
  9
$DIMSE2
 70
     0
  9
$DIMTAD
 70
     3
  9
$DIMZIN
 70
     8
  9
$DIMBLK
  1
OPEN30
  9
$DIMASO
 70
     1
  9
$DIMSHO
 70
     1
  9
$DIMPOST
  1

  9
$DIMAPOST
  1
"
  9
$DIMALT
 70
     0
  9
$DIMALTD
 70
     2
  9
$DIMALTF
 40
0.0393701
  9
$DIMLFAC
 40
1.0
  9
$DIMTOFL
 70
     1
  9
$DIMTVP
 40
0.0
  9
$DIMTIX
 70
     0
  9
$DIMSOXD
 70
     0
  9
$DIMSAH
 70
     0
  9
$DIMBLK1
  1

  9
$DIMBLK2
  1

  9
$DIMSTYLE
  2
AM_JIS
  9
$DIMCLRD
 70
   256
  9
$DIMCLRE
 70
   256
  9
$DIMCLRT
 70
     2
  9
$DIMTFAC
 40
0.71
  9
$DIMGAP
 40
1.5
  9
$DIMJUST
 70
     0
  9
$DIMSD1
 70
     0
  9
$DIMSD2
 70
     0
  9
$DIMTOLJ
 70
     0
  9
$DIMTZIN
 70
     0
  9
$DIMALTZ
 70
     0
  9
$DIMALTTZ
 70
     0
  9
$DIMFIT
 70
     3
  9
$DIMUPT
 70
     0
  9
$DIMUNIT
 70
     2
  9
$DIMDEC
 70
     3
  9
$DIMTDEC
 70
     3
  9
$DIMALTU
 70
     2
  9
$DIMALTTD
 70
     2
  9
$DIMTXSTY
  7
ASAMI
  9
$DIMAUNIT
 70
     0
  9
$LUNITS
 70
     2
  9
$LUPREC
 70
     2
  9
$SKETCHINC
 40
1.0
  9
$FILLETRAD
 40
2.5
  9
$AUNITS
 70
     0
  9
$AUPREC
 70
     0
  9
$MENU
  1
.
  9
$ELEVATION
 40
0.0
  9
$PELEVATION
 40
0.0
  9
$THICKNESS
 40
0.0
  9
$LIMCHECK
 70
     0
  9
$BLIPMODE
 70
     0
  9
$CHAMFERA
 40
0.25
  9
$CHAMFERB
 40
0.25
  9
$CHAMFERC
 40
20.0
  9
$CHAMFERD
 40
0.0
  9
$SKPOLY
 70
     0
  9
$TDCREATE
 40
2452800.443498622
  9
$TDUPDATE
 40
2453151.584860011
  9
$TDINDWG
 40
0.0934153009
  9
$TDUSRTIMER
 40
0.0934153009
  9
$USRTIMER
 70
     1
  9
$ANGBASE
 50
0.0
  9
$ANGDIR
 70
     0
  9
$PDMODE
 70
     3
  9
$PDSIZE
 40
0.0
  9
$PLINEWID
 40
0.0
  9
$COORDS
 70
     1
  9
$SPLFRAME
 70
     0
  9
$SPLINETYPE
 70
     6
  9
$SPLINESEGS
 70
     8
  9
$ATTDIA
 70
     1
  9
$ATTREQ
 70
     1
  9
$HANDLING
 70
 12289
  9
$HANDSEED
  5
2240
  9
$SURFTAB1
 70
     6
  9
$SURFTAB2
 70
     6
  9
$SURFTYPE
 70
     6
  9
$SURFU
 70
     6
  9
$SURFV
 70
     6
  9
$UCSNAME
  2

  9
$UCSORG
 10
0.0
 20
0.0
 30
0.0
  9
$UCSXDIR
 10
1.0
 20
0.000000000000002
 30
0.0
  9
$UCSYDIR
 10
-0.000000000000002
 20
1.0
 30
0.0
  9
$PUCSNAME
  2

  9
$PUCSORG
 10
0.0
 20
0.0
 30
0.0
  9
$PUCSXDIR
 10
1.0
 20
0.0
 30
0.0
  9
$PUCSYDIR
 10
0.0
 20
1.0
 30
0.0
  9
$USERI1
 70
     0
  9
$USERI2
 70
     0
  9
$USERI3
 70
     0
  9
$USERI4
 70
     0
  9
$USERI5
 70
     0
  9
$USERR1
 40
0.0
  9
$USERR2
 40
0.0
  9
$USERR3
 40
0.0
  9
$USERR4
 40
0.0
  9
$USERR5
 40
0.0
  9
$WORLDVIEW
 70
     1
  9
$SHADEDGE
 70
     3
  9
$SHADEDIF
 70
    70
  9
$TILEMODE
 70
     1
  9
$MAXACTVP
 70
    64
  9
$PINSBASE
 10
0.0
 20
0.0
 30
0.0
  9
$PLIMCHECK
 70
     0
  9
$PEXTMIN
 10
1.000000000000000E+20
 20
1.000000000000000E+20
 30
1.000000000000000E+20
  9
$PEXTMAX
 10
-1.000000000000000E+20
 20
-1.000000000000000E+20
 30
-1.000000000000000E+20
  9
$PLIMMIN
 10
0.0
 20
0.0
  9
$PLIMMAX
 10
841.0
 20
594.0
  9
$UNITMODE
 70
     0
  9
$VISRETAIN
 70
     1
  9
$PLINEGEN
 70
     0
  9
$PSLTSCALE
 70
     0
  9
$TREEDEPTH
 70
  3020
  9
$PICKSTYLE
 70
     0
  9
$CMLSTYLE
  2
STANDARD
  9
$CMLJUST
 70
     0
  9
$CMLSCALE
 40
20.0
  9
$PROXYGRAPHICS
 70
     1
  9
$MEASUREMENT
 70
     1
  0
ENDSEC
  0
SECTION
  2
CLASSES
  0
CLASS
  1
ACDBDICTIONARYWDFLT
  2
AcDbDictionaryWithDefault
  3
AutoCAD 2000
 90
        0
280
     0
281
     0
  0
CLASS
  1
ACDBPLACEHOLDER
  2
AcDbPlaceHolder
  3
AutoCAD 2000
 90
        0
280
     0
281
     0
  0
CLASS
  1
LAYOUT
  2
AcDbLayout
  3
AutoCAD 2000
 90
        0
280
     0
281
     0
  0
CLASS
  1
AMGSETTINGSOBJ
  2
AmgSettingsObj
  3
"AcadM|Product Description: AutoCAD Mechanical 2000|Company: Autodesk"
 90
        0
280
     0
281
     0
  0
CLASS
  1
ACME_DOCUMENT
  2
AcMeDbDoc
  3
AcMeServices
 90
        0
280
     0
281
     0
  0
CLASS
  1
ACMESCOPE
  2
AcMeScope
  3
AcMeServices
 90
        0
280
     0
281
     0
  0
CLASS
  1
ACMECOMMANDHISTORY
  2
AcMeCommandHistory
  3
AcMeServices
 90
        0
280
     0
281
     0
  0
CLASS
  1
DICTIONARYVAR
  2
AcDbDictionaryVar
  3
AutoCAD 2000
 90
        0
280
     0
281
     0
  0
CLASS
  1
ACIMSYSVARMAN
  2
AcImSysVarManager
  3
AcMeServices
 90
        0
280
     0
281
     0
  0
CLASS
  1
ACIMREALSYSVAR
  2
AcImRealSysVar
  3
AcMeServices
 90
        0
280
     0
281
     0
  0
CLASS
  1
ACIMINTSYSVAR
  2
AcImIntSysVar
  3
AcMeServices
 90
        0
280
     0
281
     0
  0
CLASS
  1
ACMEDRAWINGMAN
  2
AcMeDrawingMan
  3
AcMeServices
 90
        0
280
     0
281
     0
  0
CLASS
  1
ACMEVIEW
  2
AcMeView
  3
AcMeServices
 90
        0
280
     0
281
     0
  0
CLASS
  1
ACDBENTITYCACHE
  2
AcMeEntityCache
  3
AcMeServices
 90
        0
280
     0
281
     0
  0
CLASS
  1
GSMANAGER
  2
AcMeGSManager
  3
AcMeServices
 90
        0
280
     0
281
     0
  0
CLASS
  1
AmdtInternalReactor
  2
AmdtInternalReactor
  3
AcMeServices
 90
        0
280
     0
281
     0
  0
CLASS
  1
ACMESTATEMGR
  2
AcMeStateMgr
  3
AcMeServices
 90
        0
280
     0
281
     0
  0
CLASS
  1
ACME_DATABASE
  2
AcMeDbDatabase
  3
AcMeServices
 90
        0
280
     0
281
     0
  0
CLASS
  1
ACRFINSADJUSTERMGR
  2
AcRfInsAdjusterMgr
  3
AcMeServices
 90
        0
280
     0
281
     0
  0
CLASS
  1
ACMDATADICTIONARY
  2
AcmDataDictionary
  3
"AcmSymBB|Product Description: AutoCAD Mechanical 2000|Company: Autodesk"
 90
        0
280
     0
281
     0
  0
CLASS
  1
ACMDATAENTRYBLOCK
  2
AcmDataEntryBlock
  3
"AcmSymBB|Product Description: AutoCAD Mechanical 2000|Company: Autodesk"
 90
        0
280
     0
281
     0
  0
CLASS
  1
AMGOBJPROPCFG
  2
AmgObjPropCfg
  3
"AmgLay|Product Description: AutoCAD Mechanical 2000|Company: Autodesk"
 90
        1
280
     0
281
     0
  0
CLASS
  1
ACAMGFILTERDAT
  2
AcAmgFilterDat
  3
"AcadM|Product Description: AutoCAD Mechanical 2000|Company: Autodesk"
 90
        0
280
     0
281
     0
  0
CLASS
  1
LAYER_INDEX
  2
AcDbLayerIndex
  3
AutoCAD 2000
 90
        0
280
     0
281
     0
  0
CLASS
  1
IDBUFFER
  2
AcDbIdBuffer
  3
AutoCAD 2000
 90
        0
280
     0
281
     0
  0
CLASS
  1
ACIMSTRSYSVAR
  2
AcImStrSysVar
  3
AcMeServices
 90
        0
280
     0
281
     0
  0
CLASS
  1
ACMSTANDARDJIS
  2
AcmStandardJIS
  3
"AcmSymBB|Product Description: AutoCAD Mechanical 2000|Company: Autodesk"
 90
        0
280
     0
281
     0
  0
CLASS
  1
ACMSURFSTANDARDJIS
  2
AcmSurfTextStdJIS
  3
"AcmSymBB|Product Description: AutoCAD Mechanical 2000|Company: Autodesk"
 90
        0
280
     0
281
     0
  0
CLASS
  1
ACMFCFSTANDARDJIS
  2
AcmFCFStdJIS
  3
"AcmSymBB|Product Description: AutoCAD Mechanical 2000|Company: Autodesk"
 90
        0
280
     0
281
     0
  0
CLASS
  1
ACMWELDSTANDARDJIS
  2
AcmWeldingStdJIS
  3
"AcmSymBB|Product Description: AutoCAD Mechanical 2000|Company: Autodesk"
 90
        0
280
     0
281
     0
  0
CLASS
  1
ACMIDSTANDARDJIS
  2
AcmIdStdJIS
  3
"AcmSymBB|Product Description: AutoCAD Mechanical 2000|Company: Autodesk"
 90
        0
280
     0
281
     0
  0
CLASS
  1
ACMDATUMSTANDARDJIS
  2
AcmDatumStdJIS
  3
"AcmSymBB|Product Description: AutoCAD Mechanical 2000|Company: Autodesk"
 90
        0
280
     0
281
     0
  0
CLASS
  1
ACMBOMSTANDARDJIS
  2
AcmBOMStdJIS
  3
"AcmSymBB|Product Description: AutoCAD Mechanical 2000|Company: Autodesk"
 90
        0
280
     0
281
     0
  0
CLASS
  1
ACMSTANDARDANSI
  2
AcmStandardANSI
  3
"AcmSymBB|Product Description: AutoCAD Mechanical 2000|Company: Autodesk"
 90
        0
280
     0
281
     0
  0
CLASS
  1
ACMSURFSTANDARDANSI
  2
AcmSurfTextStdANSI
  3
"AcmSymBB|Product Description: AutoCAD Mechanical 2000|Company: Autodesk"
 90
        0
280
     0
281
     0
  0
CLASS
  1
ACMFCFSTANDARDANSI
  2
AcmFCFStdANSI
  3
"AcmSymBB|Product Description: AutoCAD Mechanical 2000|Company: Autodesk"
 90
        0
280
     0
281
     0
  0
CLASS
  1
ACMWELDSTANDARDANSI
  2
AcmWeldingStdANSI
  3
"AcmSymBB|Product Description: AutoCAD Mechanical 2000|Company: Autodesk"
 90
        0
280
     0
281
     0
  0
CLASS
  1
ACMIDSTANDARDANSI
  2
AcmIdStdANSI
  3
"AcmSymBB|Product Description: AutoCAD Mechanical 2000|Company: Autodesk"
 90
        0
280
     0
281
     0
  0
CLASS
  1
ACMDATUMSTANDARDANSI
  2
AcmDatumStdANSI
  3
"AcmSymBB|Product Description: AutoCAD Mechanical 2000|Company: Autodesk"
 90
        0
280
     0
281
     0
  0
CLASS
  1
ACMBOMSTANDARDANSI
  2
AcmBOMStdANSI
  3
"AcmSymBB|Product Description: AutoCAD Mechanical 2000|Company: Autodesk"
 90
        0
280
     0
281
     0
  0
CLASS
  1
ACMSTANDARDBSI
  2
AcmStandardBSI
  3
"AcmSymBB|Product Description: AutoCAD Mechanical 2000|Company: Autodesk"
 90
        0
280
     0
281
     0
  0
CLASS
  1
ACMSURFSTANDARDBSI
  2
AcmSurfTextStdBSI
  3
"AcmSymBB|Product Description: AutoCAD Mechanical 2000|Company: Autodesk"
 90
        0
280
     0
281
     0
  0
CLASS
  1
ACMFCFSTANDARDBSI
  2
AcmFCFStdBSI
  3
"AcmSymBB|Product Description: AutoCAD Mechanical 2000|Company: Autodesk"
 90
        0
280
     0
281
     0
  0
CLASS
  1
ACMWELDSTANDARDBSI
  2
AcmWeldingStdBSI
  3
"AcmSymBB|Product Description: AutoCAD Mechanical 2000|Company: Autodesk"
 90
        0
280
     0
281
     0
  0
CLASS
  1
ACMIDSTANDARDBSI
  2
AcmIdStdBSI
  3
"AcmSymBB|Product Description: AutoCAD Mechanical 2000|Company: Autodesk"
 90
        0
280
     0
281
     0
  0
CLASS
  1
ACMDATUMSTANDARDBSI
  2
AcmDatumStdBSI
  3
"AcmSymBB|Product Description: AutoCAD Mechanical 2000|Company: Autodesk"
 90
        0
280
     0
281
     0
  0
CLASS
  1
ACMBOMSTANDARDBSI
  2
AcmBOMStdBSI
  3
"AcmSymBB|Product Description: AutoCAD Mechanical 2000|Company: Autodesk"
 90
        0
280
     0
281
     0
  0
CLASS
  1
LONG_TRANSACTION
  2
AcDbLongTransaction
  3
AutoCAD 2000
 90
        0
280
     0
281
     0
  0
CLASS
  1
LWPOLYLINE
  2
AcDbPolyline
  3
AutoCAD 2000
 90
        0
280
     0
281
     1
  0
CLASS
  1
HATCH
  2
AcDbHatch
  3
AutoCAD 2000
 90
        0
280
     0
281
     1
  0
CLASS
  1
XRECORD
  2
AcDbXrecord
  3
AutoCAD 2000
 90
        0
280
     0
281
     0
  0
ENDSEC
  0
SECTION
  2
TABLES
  0
TABLE
  2
VPORT
  5
8
330
0
100
AcDbSymbolTable
 70
     3
  0
VPORT
  5
2215
330
8
100
AcDbSymbolTableRecord
100
AcDbViewportTableRecord
  2
*ACTIVE
 70
     0
 10
0.0
 20
0.0
 11
1.0
 21
1.0
 12
-102.700354807186
 22
-12.43387735730246
 13
0.0
 23
0.0
 14
2.5
 24
2.5
 15
10.0
 25
10.0
 16
0.0
 26
0.0
 36
1.0
 17
0.0
 27
0.0
 37
0.0
 40
161.2337879580095
 41
1.56570841889117
 42
50.0
 43
0.0
 44
0.0
 50
0.0
 51
0.0
 71
     0
 72
   100
 73
     1
 74
     1
 75
     0
 76
     0
 77
     0
 78
     0
  0
ENDTAB
  0
TABLE
  2
LTYPE
  5
5
330
0
100
AcDbSymbolTable
 70
    10
  0
LTYPE
  5
14
330
5
100
AcDbSymbolTableRecord
100
AcDbLinetypeTableRecord
  2
BYBLOCK
 70
     0
  3

 72
    65
 73
     0
 40
0.0
  0
LTYPE
  5
15
330
5
100
AcDbSymbolTableRecord
100
AcDbLinetypeTableRecord
  2
BYLAYER
 70
     0
  3

 72
    65
 73
     0
 40
0.0
  0
LTYPE
  5
16
330
5
100
AcDbSymbolTableRecord
100
AcDbLinetypeTableRecord
  2
CONTINUOUS
 70
     0
  3
Solid line
 72
    65
 73
     0
 40
0.0
  0
LTYPE
  5
4B
330
5
100
AcDbSymbolTableRecord
100
AcDbLinetypeTableRecord
  2
AM_ISO02W050
 70
     0
  3
__ __ __ __ __ __ __ __ __ __ __ __ __ __ __
 72
    65
 73
     2
 40
7.5
 49
6.0
 74
     0
 49
-1.5
 74
     0
  0
LTYPE
  5
4C
330
5
100
AcDbSymbolTableRecord
100
AcDbLinetypeTableRecord
  2
AM_ISO08W050
 70
     0
  3
____ . ____ . ____ . ____ . ____ . ____ . ____
 72
    65
 73
     4
 40
18.0
 49
12.0
 74
     0
 49
-1.5
 74
     0
 49
3.0
 74
     0
 49
-1.5
 74
     0
  0
LTYPE
  5
4D
330
5
100
AcDbSymbolTableRecord
100
AcDbLinetypeTableRecord
  2
AM_ISO09W050
 70
     0
  3
_____ . . _____ . . _____ . . ____ .. ____
 72
    65
 73
     6
 40
22.5
 49
12.0
 74
     0
 49
-1.5
 74
     0
 49
3.0
 74
     0
 49
-1.5
 74
     0
 49
3.0
 74
     0
 49
-1.5
 74
     0
  0
LTYPE
  5
4E
330
5
100
AcDbSymbolTableRecord
100
AcDbLinetypeTableRecord
  2
AMCONSTR
 70
     0
  3
_______________________
 72
    65
 73
     2
 40
9999.0
 49
9999.0
 74
     0
 49
0.0
 74
     0
  0
LTYPE
  5
4F
330
5
100
AcDbSymbolTableRecord
100
AcDbLinetypeTableRecord
  2
AM_ISO02W050X2
 70
     0
  3
 _ _ _ _ _ _ _ _ _ _ _ _
 72
    65
 73
     2
 40
3.75
 49
3.0
 74
     0
 49
-0.75
 74
     0
  0
LTYPE
  5
50
330
5
100
AcDbSymbolTableRecord
100
AcDbLinetypeTableRecord
  2
AM_ISO08W050X2
 70
     0
  3
__ . __ . __ . __ . __ . __
 72
    65
 73
     4
 40
9.0
 49
6.0
 74
     0
 49
-0.75
 74
     0
 49
1.5
 74
     0
 49
-0.75
 74
     0
  0
LTYPE
  5
53
330
5
100
AcDbSymbolTableRecord
100
AcDbLinetypeTableRecord
  2
AMZIGZAG
 70
     0
  3
/\/-/\/-/\/-/\/-/\/-/\/
 72
    65
 73
     2
 40
11.00009999999999
 49
0.0001
 74
     4
 75
   135
340
52
 46
0.04
 50
0.0
 44
0.0
 45
0.0
 49
-11.0
 74
     0
  0
LTYPE
  5
166
330
5
100
AcDbSymbolTableRecord
100
AcDbLinetypeTableRecord
  2
ACJISTGL
 70
     0
  3
_ _ _ _ _
 72
    65
 73
     2
 40
3.0
 49
2.0
 74
     0
 49
-1.0
 74
     0
  0
LTYPE
  5
26A
330
5
100
AcDbSymbolTableRecord
100
AcDbLinetypeTableRecord
  2
ACJISTGB
 70
     0
  3
__ . . __ . .
 72
    65
 73
     6
 40
9.0
 49
4.0
 74
     0
 49
-1.0
 74
     0
 49
1.0
 74
     0
 49
-1.0
 74
     0
 49
1.0
 74
     0
 49
-1.0
 74
     0
  0
ENDTAB
  0
TABLE
  2
LAYER
  5
2
330
0
100
AcDbSymbolTable
 70
     8
  0
LAYER
  5
10
330
2
100
AcDbSymbolTableRecord
100
AcDbLayerTableRecord
  2
0
 70
     0
 62
     7
  6
CONTINUOUS
  0
LAYER
  5
3F9
330
2
100
AcDbSymbolTableRecord
100
AcDbLayerTableRecord
  2
AM_0
 70
     0
 62
     7
  6
CONTINUOUS
  0
LAYER
  5
C7C
330
2
100
AcDbSymbolTableRecord
100
AcDbLayerTableRecord
  2
AM_7
 70
     0
 62
     4
  6
AM_ISO08W050
  0
LAYER
  5
C97
330
2
100
AcDbSymbolTableRecord
100
AcDbLayerTableRecord
  2
AM_11
 70
     0
 62
     3
  6
AM_ISO09W050
  0
LAYER
  5
CC5
330
2
100
AcDbSymbolTableRecord
100
AcDbLayerTableRecord
  2
AM_5
 70
     0
 62
     3
  6
CONTINUOUS
  0
LAYER
  5
CC7
330
2
100
AcDbSymbolTableRecord
100
AcDbLayerTableRecord
  2
DEFPOINTS
 70
     0
 62
     7
  6
CONTINUOUS
  0
LAYER
  5
19BC
330
2
100
AcDbSymbolTableRecord
100
AcDbLayerTableRecord
  2
AM_6
 70
     0
 62
     2
  6
CONTINUOUS
  0
LAYER
  5
20AF
330
2
100
AcDbSymbolTableRecord
100
AcDbLayerTableRecord
  2
AM_CL
 70
     0
 62
     1
  6
AMCONSTR
  0
ENDTAB
  0
TABLE
  2
STYLE
  5
3
330
0
100
AcDbSymbolTable
 70
     5
  0
STYLE
  5
11
330
3
100
AcDbSymbolTableRecord
100
AcDbTextStyleTableRecord
  2
STANDARD
 70
     0
 40
0.0
 41
1.0
 50
0.0
 71
     0
 42
2.5
  3
simplex.shx
  4
EXTFONT.SHX
  0
STYLE
  5
52
330
3
100
AcDbSymbolTableRecord
100
AcDbTextStyleTableRecord
  2

 70
     1
 40
0.0
 41
1.0
 50
0.0
 71
     0
 42
2.5
  3
ltypeshp.shx
  4

  0
STYLE
  5
6B
330
3
100
AcDbSymbolTableRecord
100
AcDbTextStyleTableRecord
  2
ASAMI
 70
     0
 40
0.0
 41
1.0
 50
0.0
 71
     0
 42
2.5
  3
simplex.shx
  4
EXTFONT.SHX
  0
STYLE
  5
262
330
3
100
AcDbSymbolTableRecord
100
AcDbTextStyleTableRecord
  2
ACJISTS
 70
     0
 40
1.0
 41
1.0
 50
0.0
 71
     0
 42
2.5
  3
simplex.shx
  4
bigfont.shx
  0
STYLE
  5
269
330
3
100
AcDbSymbolTableRecord
100
AcDbTextStyleTableRecord
  2
ACJISGDT
 70
     0
 40
0.0
 41
1.0
 50
0.0
 71
     0
 42
2.5
  3
amgdtans.shx
  4

  0
ENDTAB
  0
TABLE
  2
VIEW
  5
6
330
0
100
AcDbSymbolTable
 70
     0
  0
ENDTAB
  0
TABLE
  2
UCS
  5
7
330
0
100
AcDbSymbolTable
 70
     0
  0
ENDTAB
  0
TABLE
  2
APPID
  5
9
330
0
100
AcDbSymbolTable
 70
    16
  0
APPID
  5
12
330
9
100
AcDbSymbolTableRecord
100
AcDbRegAppTableRecord
  2
ACAD
 70
     0
  0
APPID
  5
30
330
9
100
AcDbSymbolTableRecord
100
AcDbRegAppTableRecord
  2
MCAD_NO_VIS
 70
     0
  0
APPID
  5
31
330
9
100
AcDbSymbolTableRecord
100
AcDbRegAppTableRecord
  2
ACAD_TEMP_GRAPHIC
 70
     0
  0
APPID
  5
2C2
330
9
100
AcDbSymbolTableRecord
100
AcDbRegAppTableRecord
  2
GENIUS_GENDTOL_13
 70
     0
  0
APPID
  5
339
330
9
100
AcDbSymbolTableRecord
100
AcDbRegAppTableRecord
  2
GENIUS_GENODEF_13
 70
     0
  0
APPID
  5
33A
330
9
100
AcDbSymbolTableRecord
100
AcDbRegAppTableRecord
  2
GENIUS_GENOBJ-N-RSBK_13
 70
     0
  0
APPID
  5
33B
330
9
100
AcDbSymbolTableRecord
100
AcDbRegAppTableRecord
  2
GENIUS_GENOBJ-N-LIB_13
 70
     0
  0
APPID
  5
33C
330
9
100
AcDbSymbolTableRecord
100
AcDbRegAppTableRecord
  2
GENIUS_GENSCALE_13
 70
     0
  0
APPID
  5
378
330
9
100
AcDbSymbolTableRecord
100
AcDbRegAppTableRecord
  2
GENIUS_GENDIMSH_14
 70
     0
  0
APPID
  5
C82
330
9
100
AcDbSymbolTableRecord
100
AcDbRegAppTableRecord
  2
GENIUS_GENOBJ-N-CRS_13
 70
     0
  0
APPID
  5
C83
330
9
100
AcDbSymbolTableRecord
100
AcDbRegAppTableRecord
  2
GENIUS_GENOENT_13
 70
     0
  0
APPID
  5
C84
330
9
100
AcDbSymbolTableRecord
100
AcDbRegAppTableRecord
  2
GENIUS_GENOREF_13
 70
     0
  0
APPID
  5
C85
330
9
100
AcDbSymbolTableRecord
100
AcDbRegAppTableRecord
  2
GENIUS_GENOLIS_13
 70
     0
  0
APPID
  5
CA0
330
9
100
AcDbSymbolTableRecord
100
AcDbRegAppTableRecord
  2
GENIUS_GENOBJ-N-CEN_13
 70
     0
  0
APPID
  5
1CFA
330
9
100
AcDbSymbolTableRecord
100
AcDbRegAppTableRecord
  2
GENIUS_GENFIL_13
 70
     0
  0
APPID
  5
1CFB
330
9
100
AcDbSymbolTableRecord
100
AcDbRegAppTableRecord
  2
GENIUS_GENOBJ-N-CHA_13
 70
     0
  0
ENDTAB
  0
TABLE
  2
DIMSTYLE
  5
A
330
0
100
AcDbSymbolTable
 70
     9
  0
DIMSTYLE
105
58
330
A
100
AcDbSymbolTableRecord
100
AcDbDimStyleTableRecord
  2
AM_JIS
 70
     0
  3

  4
"
  5
OPEN30
  6

  7

 40
0.5
 41
2.5
 42
1.0
 43
12.0
 44
1.0
 45
0.0
 46
0.0
 47
0.1
 48
0.1
140
3.2
141
0.0
142
0.0
143
0.0393701
144
1.0
145
0.0
146
0.71
147
1.5
 71
     0
 72
     0
 73
     0
 74
     0
 75
     0
 76
     0
 77
     3
 78
     8
170
     0
171
     2
172
     1
173
     0
174
     0
175
     0
176
   256
177
   256
178
     2
270
     2
271
     3
272
     3
273
     2
274
     2
340
6B
275
     0
280
     0
281
     0
282
     0
283
     0
284
     0
285
     0
286
     0
287
     3
288
     0
  0
DIMSTYLE
105
5F
330
A
100
AcDbSymbolTableRecord
100
AcDbDimStyleTableRecord
  2
AM_JIS$3
 70
     0
  3

  4
"
  5
OPEN30
  6

  7

 40
0.5
 41
2.5
 42
1.0
 43
10.0
 44
1.0
 45
0.0
 46
0.0
 47
0.1
 48
0.1
140
3.2
141
0.0
142
0.0
143
0.0393701
144
1.0
145
0.0
146
0.71
147
1.5
 71
     0
 72
     0
 73
     0
 74
     1
 75
     0
 76
     0
 77
     3
 78
     8
170
     0
171
     2
172
     0
173
     0
174
     0
175
     0
176
   256
177
   256
178
     2
270
     2
271
     2
272
     3
273
     2
274
     2
340
6B
275
     0
280
     0
281
     0
282
     0
283
     0
284
     0
285
     0
286
     0
287
     0
288
     1
  0
DIMSTYLE
105
60
330
A
100
AcDbSymbolTableRecord
100
AcDbDimStyleTableRecord
  2
AM_JIS$4
 70
     0
  3

  4
"
  5
OPEN30
  6

  7

 40
0.5
 41
2.5
 42
1.0
 43
10.0
 44
1.0
 45
0.0
 46
0.0
 47
0.1
 48
0.1
140
3.2
141
0.0
142
0.0
143
0.0393701
144
1.0
145
0.0
146
0.71
147
1.5
 71
     0
 72
     0
 73
     0
 74
     1
 75
     0
 76
     0
 77
     3
 78
     8
170
     0
171
     2
172
     0
173
     0
174
     0
175
     0
176
   256
177
   256
178
     2
270
     2
271
     2
272
     3
273
     2
274
     2
340
6B
275
     0
280
     0
281
     0
282
     0
283
     0
284
     0
285
     0
286
     0
287
     0
288
     1
  0
DIMSTYLE
105
61
330
A
100
AcDbSymbolTableRecord
100
AcDbDimStyleTableRecord
  2
AM_JIS$6
 70
     0
  3

  4
"
  5
OPEN30
  6

  7

 40
0.5
 41
2.5
 42
1.0
 43
10.0
 44
1.0
 45
0.0
 46
0.0
 47
0.1
 48
0.1
140
3.2
141
0.0
142
0.0
143
0.0393701
144
1.0
145
0.0
146
0.71
147
1.5
 71
     0
 72
     0
 73
     0
 74
     0
 75
     0
 76
     0
 77
     0
 78
     8
170
     0
171
     2
172
     1
173
     0
174
     0
175
     0
176
   256
177
   256
178
     2
270
     2
271
     2
272
     2
273
     2
274
     2
340
6B
275
     0
280
     0
281
     0
282
     0
283
     0
284
     0
285
     0
286
     0
287
     3
288
     0
  0
DIMSTYLE
105
62
330
A
100
AcDbSymbolTableRecord
100
AcDbDimStyleTableRecord
  2
AM_JIS$7
 70
     0
  3

  4
"
  5
OPEN30
  6

  7

 40
0.5
 41
2.5
 42
1.0
 43
10.0
 44
1.0
 45
0.0
 46
0.0
 47
0.1
 48
0.1
140
3.2
141
0.0
142
0.0
143
0.0393701
144
1.0
145
0.0
146
0.71
147
1.5
 71
     0
 72
     0
 73
     0
 74
     0
 75
     0
 76
     0
 77
     3
 78
     8
170
     0
171
     2
172
     1
173
     0
174
     0
175
     0
176
   256
177
   256
178
     2
270
     2
271
     2
272
     3
273
     2
274
     2
340
6B
275
     0
280
     0
281
     0
282
     0
283
     0
284
     0
285
     0
286
     0
287
     3
288
     0
  0
DIMSTYLE
105
63
330
A
100
AcDbSymbolTableRecord
100
AcDbDimStyleTableRecord
  2
AM_JIS$SF
 70
     0
  3

  4
"
  5
OPEN30
  6

  7

 40
0.5
 41
2.5
 42
1.0
 43
10.0
 44
1.0
 45
0.0
 46
0.0
 47
0.1
 48
0.1
140
3.2
141
0.0
142
0.0
143
0.0393701
144
1.0
145
0.0
146
0.71
147
1.5
 71
     0
 72
     0
 73
     0
 74
     0
 75
     1
 76
     1
 77
     3
 78
     8
170
     0
171
     2
172
     1
173
     0
174
     0
175
     0
176
   256
177
   256
178
     2
270
     2
271
     2
272
     2
273
     2
274
     2
340
6B
275
     0
280
     0
281
     0
282
     0
283
     0
284
     0
285
     0
286
     0
287
     3
288
     0
  0
DIMSTYLE
105
68
330
A
100
AcDbSymbolTableRecord
100
AcDbDimStyleTableRecord
  2
AM_JIS$SH
 70
     0
  3

  4
"
  5

  6
GENAXEH
  7
OPEN30
 40
0.5
 41
2.5
 42
1.0
 43
10.0
 44
1.0
 45
0.0
 46
0.0
 47
0.1
 48
0.1
140
3.2
141
0.0
142
0.0
143
0.0393701
144
2.0
145
0.0
146
0.71
147
1.5
 71
     0
 72
     0
 73
     0
 74
     0
 75
     1
 76
     1
 77
     3
 78
     8
170
     0
171
     2
172
     1
173
     1
174
     0
175
     0
176
   256
177
   256
178
     2
270
     2
271
     2
272
     2
273
     2
274
     2
340
6B
275
     0
280
     0
281
     0
282
     0
283
     0
284
     0
285
     0
286
     0
287
     3
288
     0
  0
DIMSTYLE
105
B34
102
{ACAD_REACTORS
330
11B2
102
}
330
A
100
AcDbSymbolTableRecord
100
AcDbDimStyleTableRecord
  2
AM_JIS$2
 70
     0
  3

  4
"
  5
OPEN30
  6

  7

 40
0.5
 41
2.5
 42
1.0
 43
12.0
 44
1.0
 45
0.0
 46
0.0
 47
0.1
 48
0.1
140
3.2
141
0.0
142
0.0
143
0.0393701
144
1.0
145
0.0
146
0.71
147
1.5
 71
     0
 72
     0
 73
     0
 74
     0
 75
     0
 76
     0
 77
     3
 78
     8
170
     0
171
     2
172
     1
173
     0
174
     0
175
     0
176
   256
177
   256
178
     2
270
     2
271
     3
272
     3
273
     2
274
     2
340
6B
275
     0
280
     0
281
     0
282
     0
283
     0
284
     0
285
     0
286
     0
287
     3
288
     0
  0
DIMSTYLE
105
BA5
102
{ACAD_REACTORS
330
CC6
330
DF5
330
1E80
330
1ED0
102
}
330
A
100
AcDbSymbolTableRecord
100
AcDbDimStyleTableRecord
  2
AM_JIS$0
 70
     0
  3

  4
"
  5
OPEN30
  6

  7

 40
0.5
 41
2.5
 42
0.8
 43
10.0
 44
1.0
 45
0.0
 46
0.0
 47
0.1
 48
0.1000000001
140
3.799999999999999
141
0.0
142
0.0
143
0.0393701
144
1.0
145
0.0
146
0.71
147
1.5
 71
     0
 72
     0
 73
     0
 74
     0
 75
     0
 76
     0
 77
     3
 78
     9
170
     0
171
     2
172
     1
173
     0
174
     0
175
     0
176
     3
177
     3
178
     2
270
     2
271
     2
272
     2
273
     2
274
     2
340
11
275
     1
280
     0
281
     0
282
     0
283
     0
284
     8
285
     0
286
     0
287
     0
288
     0
  0
ENDTAB
  0
TABLE
  2
BLOCK_RECORD
  5
1
330
0
100
AcDbSymbolTable
 70
    15
  0
BLOCK_RECORD
  5
1F
102
{ACAD_XDICTIONARY
360
74
102
}
330
1
100
AcDbSymbolTableRecord
100
AcDbBlockTableRecord
  2
*MODEL_SPACE
  0
BLOCK_RECORD
  5
101
102
{ACAD_XDICTIONARY
360
223E
102
}
330
1
100
AcDbSymbolTableRecord
100
AcDbBlockTableRecord
  2
*PAPER_SPACE
  0
BLOCK_RECORD
  5
59
330
1
100
AcDbSymbolTableRecord
100
AcDbBlockTableRecord
  2
_OPEN30
  0
BLOCK_RECORD
  5
64
330
1
100
AcDbSymbolTableRecord
100
AcDbBlockTableRecord
  2
GENAXEH
  0
BLOCK_RECORD
  5
CC8
330
1
100
AcDbSymbolTableRecord
100
AcDbBlockTableRecord
  2
*D5
  0
BLOCK_RECORD
  5
DF6
330
1
100
AcDbSymbolTableRecord
100
AcDbBlockTableRecord
  2
*D7
  0
BLOCK_RECORD
  5
11B3
330
1
100
AcDbSymbolTableRecord
100
AcDbBlockTableRecord
  2
*D9
  0
BLOCK_RECORD
  5
1E81
330
1
100
AcDbSymbolTableRecord
100
AcDbBlockTableRecord
  2
*D10
  0
BLOCK_RECORD
  5
1ED1
330
1
100
AcDbSymbolTableRecord
100
AcDbBlockTableRecord
  2
*D11
  0
ENDTAB
  0
ENDSEC
  0
SECTION
  2
BLOCKS
  0
BLOCK
  5
20
330
1F
100
AcDbEntity
  8
0
100
AcDbBlockBegin
  2
*MODEL_SPACE
 70
     0
 10
0.0
 20
0.0
 30
0.0
  3
*MODEL_SPACE
  1

  0
ENDBLK
  5
21
330
1F
100
AcDbEntity
  8
0
100
AcDbBlockEnd
  0
BLOCK
  5
103
330
101
100
AcDbEntity
 67
     1
  8
0
100
AcDbBlockBegin
  2
*PAPER_SPACE
 70
     0
 10
0.0
 20
0.0
 30
0.0
  3
*PAPER_SPACE
  1

  0
ENDBLK
  5
104
330
101
100
AcDbEntity
 67
     1
  8
0
100
AcDbBlockEnd
  0
BLOCK
  5
5D
330
59
100
AcDbEntity
  8
0
100
AcDbBlockBegin
  2
_OPEN30
 70
     0
 10
0.0
 20
0.0
 30
0.0
  3
_OPEN30
  1

  0
LINE
  5
5A
330
59
100
AcDbEntity
  8
0
 62
     0
100
AcDbLine
 10
-1.0
 20
0.26794919
 30
0.0
 11
0.0
 21
0.0
 31
0.0
  0
LINE
  5
5B
330
59
100
AcDbEntity
  8
0
 62
     0
100
AcDbLine
 10
0.0
 20
0.0
 30
0.0
 11
-1.0
 21
-0.26794919
 31
0.0
  0
LINE
  5
5C
330
59
100
AcDbEntity
  8
0
 62
     0
100
AcDbLine
 10
0.0
 20
0.0
 30
0.0
 11
-1.0
 21
0.0
 31
0.0
  0
ENDBLK
  5
5E
330
59
100
AcDbEntity
  8
0
100
AcDbBlockEnd
  0
BLOCK
  5
66
330
64
100
AcDbEntity
  8
0
100
AcDbBlockBegin
  2
GENAXEH
 70
     0
 10
0.0
 20
0.0
 30
0.0
  3
GENAXEH
  1

  0
LINE
  5
65
330
64
100
AcDbEntity
  8
0
100
AcDbLine
 10
-1.0
 20
0.0
 30
0.0
 11
1.0
 21
0.0
 31
0.0
  0
ENDBLK
  5
67
330
64
100
AcDbEntity
  8
0
100
AcDbBlockEnd
  0
BLOCK
  5
CD2
330
CC8
100
AcDbEntity
  8
0
100
AcDbBlockBegin
  2
*D5
 70
     1
 10
0.0
 20
0.0
 30
0.0
  3
*D5
  1

  0
LINE
  5
21E8
330
CC8
100
AcDbEntity
  8
AM_5
 62
     3
100
AcDbLine
 10
-110.4740517267965
 20
-3.650007635024067
 30
0.0
 11
-110.4740517267965
 21
-21.31779369863934
 31
0.0
  0
LINE
  5
21E9
330
CC8
100
AcDbEntity
  8
AM_5
 62
     3
100
AcDbLine
 10
-1.465130983322206
 20
-3.875945667818524
 30
0.0
 11
-1.465130983322207
 21
-21.31779369863934
 31
0.0
  0
LINE
  5
21EA
330
CC8
100
AcDbEntity
  8
AM_5
 62
     3
100
AcDbLine
 10
-109.2240517267965
 20
-20.81779369863935
 30
0.0
 11
-2.715130983322207
 21
-20.81779369863935
 31
0.0
  0
INSERT
  5
21EB
330
CC8
100
AcDbEntity
  8
AM_5
 62
     3
100
AcDbBlockReference
  2
_OPEN30
 10
-110.4740517267965
 20
-20.81779369863935
 30
0.0
 41
1.25
 42
1.25
 43
1.25
 50
180.0
  0
INSERT
  5
21EC
330
CC8
100
AcDbEntity
  8
AM_5
 62
     3
100
AcDbBlockReference
  2
_OPEN30
 10
-1.465130983322207
 20
-20.81779369863935
 30
0.0
 41
1.25
 42
1.25
 43
1.25
  0
MTEXT
  5
21ED
330
CC8
100
AcDbEntity
  8
AM_5
 62
     2
100
AcDbMText
 10
-55.96959135505938
 20
-19.11779369863935
 30
0.0
 40
1.9
 41
0.0
 71
     5
 72
     1
  1
109
1001
ACAD
1000
MTEXTBEGIN
1070
    73
1070
     1
1070
    44
1040
1.0
1070
    74
1070
     0
1000
MTEXTEND
  0
POINT
  5
21EE
330
CC8
100
AcDbEntity
  8
DEFPOINTS
 62
     0
100
AcDbPoint
 10
-110.4740517267965
 20
-3.250007635024068
 30
0.0
  0
POINT
  5
21EF
330
CC8
100
AcDbEntity
  8
DEFPOINTS
 62
     0
100
AcDbPoint
 10
-1.465130983322206
 20
-3.475945667818524
 30
0.0
  0
POINT
  5
21F0
330
CC8
100
AcDbEntity
  8
DEFPOINTS
 62
     0
100
AcDbPoint
 10
-1.465130983322207
 20
-20.81779369863935
 30
0.0
  0
ENDBLK
  5
CD3
330
CC8
100
AcDbEntity
  8
0
100
AcDbBlockEnd
  0
BLOCK
  5
E00
330
DF6
100
AcDbEntity
  8
0
100
AcDbBlockBegin
  2
*D7
 70
     1
 10
0.0
 20
0.0
 30
0.0
  3
*D7
  1

  0
LINE
  5
21F1
330
DF6
100
AcDbEntity
  8
AM_5
 62
     3
100
AcDbLine
 10
-57.47360713167172
 20
-2.768886807869907
 30
0.0
 11
-57.47360713167172
 21
-14.50383205187571
 31
0.0
  0
LINE
  5
21F2
330
DF6
100
AcDbEntity
  8
AM_5
 62
     3
100
AcDbLine
 10
-1.465130983322206
 20
-3.875945667818524
 30
0.0
 11
-1.465130983322206
 21
-14.50383205187571
 31
0.0
  0
LINE
  5
21F3
330
DF6
100
AcDbEntity
  8
AM_5
 62
     3
100
AcDbLine
 10
-56.22360713167172
 20
-14.00383205187571
 30
0.0
 11
-2.715130983322207
 21
-14.00383205187571
 31
0.0
  0
INSERT
  5
21F4
330
DF6
100
AcDbEntity
  8
AM_5
 62
     3
100
AcDbBlockReference
  2
_OPEN30
 10
-57.47360713167172
 20
-14.00383205187571
 30
0.0
 41
1.25
 42
1.25
 43
1.25
 50
180.0
  0
INSERT
  5
21F5
330
DF6
100
AcDbEntity
  8
AM_5
 62
     3
100
AcDbBlockReference
  2
_OPEN30
 10
-1.465130983322206
 20
-14.00383205187571
 30
0.0
 41
1.25
 42
1.25
 43
1.25
  0
MTEXT
  5
21F6
330
DF6
100
AcDbEntity
  8
AM_5
 62
     2
100
AcDbMText
 10
-29.46936905749696
 20
-12.30383205187571
 30
0.0
 40
1.9
 41
0.0
 71
     5
 72
     1
  1
56
1001
ACAD
1000
MTEXTBEGIN
1070
    73
1070
     1
1070
    44
1040
1.0
1070
    74
1070
     0
1000
MTEXTEND
  0
POINT
  5
21F7
330
DF6
100
AcDbEntity
  8
DEFPOINTS
 62
     0
100
AcDbPoint
 10
-57.47360713167172
 20
-2.368886807869907
 30
0.0
  0
POINT
  5
21F8
330
DF6
100
AcDbEntity
  8
DEFPOINTS
 62
     0
100
AcDbPoint
 10
-1.465130983322206
 20
-3.475945667818524
 30
0.0
  0
POINT
  5
21F9
330
DF6
100
AcDbEntity
  8
DEFPOINTS
 62
     0
100
AcDbPoint
 10
-1.465130983322206
 20
-14.00383205187571
 30
0.0
  0
ENDBLK
  5
E01
330
DF6
100
AcDbEntity
  8
0
100
AcDbBlockEnd
  0
BLOCK
  5
11C1
330
11B3
100
AcDbEntity
  8
0
100
AcDbBlockBegin
  2
*D9
 70
     1
 10
0.0
 20
0.0
 30
0.0
  3
*D9
  1

  0
LINE
  5
2079
330
11B3
100
AcDbEntity
  8
AM_5
100
AcDbLine
 10
-0.0289863991845578
 20
-0.4698539458736415
 30
0.0
 11
6.519778716031745
 21
-18.46243837475024
 31
0.0
  0
LINE
  5
207A
330
11B3
100
AcDbEntity
  8
AM_5
100
AcDbLine
 10
-0.0289870351415823
 20
0.4698411984894548
 30
0.0
 11
6.519791499090818
 21
18.46242373418076
 31
0.0
  0
ARC
  5
207B
330
11B3
100
AcDbEntity
  8
AM_5
100
AcDbCircle
 10
-0.1999974308628418
 20
-0.000004993955752
 30
0.0
 40
19.14731121056131
100
AcDbArc
 50
293.7411229692309
 51
66.25883736018993
  0
INSERT
  5
207C
330
11B3
100
AcDbEntity
  8
AM_5
100
AcDbBlockReference
  2
_OPEN30
 10
6.348768645623679
 20
-17.99259206390059
 30
0.0
 41
1.25
 42
1.25
 43
1.25
 50
201.8705614081086
  0
INSERT
  5
207D
330
11B3
100
AcDbEntity
  8
AM_5
100
AcDbBlockReference
  2
_OPEN30
 10
6.348781103369558
 20
17.99257754173556
 30
0.0
 41
1.25
 42
1.25
 43
1.25
 50
158.1293989213121
  0
MTEXT
  5
207E
330
11B3
100
AcDbEntity
  8
AM_5
 62
     2
100
AcDbMText
 10
17.39731377969732
 20
-0.0000116225847035
 30
0.0
 40
1.6
 41
0.0
 71
     5
 72
     1
  1
140°
  7
ASAMI
 11
0.0000000000000001
 21
1.0
 31
0.0
1001
ACAD
1000
MTEXTBEGIN
1070
    73
1070
     1
1070
    44
1040
1.0
1070
    74
1070
     0
1000
MTEXTEND
  0
POINT
  5
207F
330
11B3
100
AcDbEntity
  8
DEFPOINTS
 62
     0
100
AcDbPoint
 10
17.38137561999187
 20
7.583849450900538
 30
0.0
  0
POINT
  5
2080
330
11B3
100
AcDbEntity
  8
DEFPOINTS
 62
     0
100
AcDbPoint
 10
-0.1999975822122958
 20
-0.0000054097840669
 30
0.0
  0
POINT
  5
2081
330
11B3
100
AcDbEntity
  8
DEFPOINTS
 62
     0
100
AcDbPoint
 10
-0.1999964695926248
 20
-0.0000076350239893
 30
0.0
  0
POINT
  5
2082
330
11B3
100
AcDbEntity
  8
DEFPOINTS
 62
     0
100
AcDbPoint
 10
-0.6670877120647898
 20
1.283315017156934
 30
0.0
  0
POINT
  5
2083
330
11B3
100
AcDbEntity
  8
DEFPOINTS
 62
     0
100
AcDbPoint
 10
-0.6670955004047916
 20
-1.283343638645574
 30
0.0
  0
ENDBLK
  5
11C2
330
11B3
100
AcDbEntity
  8
0
100
AcDbBlockEnd
  0
BLOCK
  5
1E8D
330
1E81
100
AcDbEntity
  8
0
100
AcDbBlockBegin
  2
*D10
 70
     1
 10
0.0
 20
0.0
 30
0.0
  3
*D10
  1

  0
LINE
  5
2143
330
1E81
100
AcDbEntity
  8
AM_5
 62
     3
100
AcDbLine
 10
-1.175701200648723
 20
-3.500007489632914
 30
0.0
 11
10.80588507278867
 21
-3.500007489632918
 31
0.0
  0
LINE
  5
2144
330
1E81
100
AcDbEntity
  8
AM_5
 62
     3
100
AcDbLine
 10
-1.175698909960538
 20
3.499990285127163
 30
0.0
 11
10.80588507278867
 21
3.49999028512716
 31
0.0
  0
LINE
  5
2145
330
1E81
100
AcDbEntity
  8
AM_5
 62
     3
100
AcDbLine
 10
10.30588507278867
 20
-2.250007489632918
 30
0.0
 11
10.30588507278867
 21
2.24999028512716
 31
0.0
  0
INSERT
  5
2146
330
1E81
100
AcDbEntity
  8
AM_5
 62
     3
100
AcDbBlockReference
  2
_OPEN30
 10
10.30588507278867
 20
-3.500007489632918
 30
0.0
 41
1.25
 42
1.25
 43
1.25
 50
270.0
  0
INSERT
  5
2147
330
1E81
100
AcDbEntity
  8
AM_5
 62
     3
100
AcDbBlockReference
  2
_OPEN30
 10
10.30588507278867
 20
3.49999028512716
 30
0.0
 41
1.25
 42
1.25
 43
1.25
 50
90.0
  0
MTEXT
  5
2148
330
1E81
100
AcDbEntity
  8
AM_5
 62
     2
100
AcDbMText
 10
8.605885072788677
 20
-0.0000086022528775
 30
0.0
 40
1.9
 41
0.0
 71
     5
 72
     1
  1
%%c7
 11
0.0000000000000001
 21
1.0
 31
0.0
1001
ACAD
1000
MTEXTBEGIN
1070
    73
1070
     1
1070
    44
1040
1.0
1070
    74
1070
     0
1000
MTEXTEND
  0
POINT
  5
2149
330
1E81
100
AcDbEntity
  8
DEFPOINTS
 62
     0
100
AcDbPoint
 10
-1.575701200648722
 20
-3.500007489632914
 30
0.0
  0
POINT
  5
214A
330
1E81
100
AcDbEntity
  8
DEFPOINTS
 62
     0
100
AcDbPoint
 10
-1.575698909960538
 20
3.499990285127163
 30
0.0
  0
POINT
  5
214B
330
1E81
100
AcDbEntity
  8
DEFPOINTS
 62
     0
100
AcDbPoint
 10
10.30588507278867
 20
3.49999028512716
 30
0.0
  0
ENDBLK
  5
1E8E
330
1E81
100
AcDbEntity
  8
0
100
AcDbBlockEnd
  0
BLOCK
  5
1EDD
330
1ED1
100
AcDbEntity
  8
0
100
AcDbBlockBegin
  2
*D11
 70
     1
 10
0.0
 20
0.0
 30
0.0
  3
*D11
  1

  0
LINE
  5
20C5
330
1ED1
100
AcDbEntity
  8
AM_5
 62
     3
100
AcDbLine
 10
-110.5876500268995
 20
-3.500007635024313
 30
0.0
 11
-120.5822058755195
 21
-3.500007635024332
 31
0.0
  0
LINE
  5
20C6
330
1ED1
100
AcDbEntity
  8
AM_5
 62
     3
100
AcDbLine
 10
-110.5876500268995
 20
3.499992364975686
 30
0.0
 11
-120.5822058755195
 21
3.499992364975667
 31
0.0
  0
LINE
  5
20C7
330
1ED1
100
AcDbEntity
  8
AM_5
 62
     3
100
AcDbLine
 10
-120.0822058755195
 20
-2.250007635024331
 30
0.0
 11
-120.0822058755195
 21
2.249992364975668
 31
0.0
  0
INSERT
  5
20C8
330
1ED1
100
AcDbEntity
  8
AM_5
 62
     3
100
AcDbBlockReference
  2
_OPEN30
 10
-120.0822058755195
 20
-3.500007635024331
 30
0.0
 41
1.25
 42
1.25
 43
1.25
 50
270.0000000000001
  0
INSERT
  5
20C9
330
1ED1
100
AcDbEntity
  8
AM_5
 62
     3
100
AcDbBlockReference
  2
_OPEN30
 10
-120.0822058755195
 20
3.499992364975668
 30
0.0
 41
1.25
 42
1.25
 43
1.25
 50
90.0000000000001
  0
MTEXT
  5
20CA
330
1ED1
100
AcDbEntity
  8
AM_5
 62
     2
100
AcDbMText
 10
-121.7822058755195
 20
-0.0000076350245778
 30
0.0
 40
1.9
 41
0.0
 71
     5
 72
     1
  1
%%c7
 11
-0.000000000000002
 21
1.0
 31
0.0
1001
ACAD
1000
MTEXTBEGIN
1070
    73
1070
     1
1070
    44
1040
1.0
1070
    74
1070
     0
1000
MTEXTEND
  0
POINT
  5
20CB
330
1ED1
100
AcDbEntity
  8
DEFPOINTS
 62
     0
100
AcDbPoint
 10
-110.1876500268995
 20
-3.500007635024067
 30
0.0
  0
POINT
  5
20CC
330
1ED1
100
AcDbEntity
  8
DEFPOINTS
 62
     0
100
AcDbPoint
 10
-110.1876500268994
 20
3.499992364975932
 30
0.0
  0
POINT
  5
20CD
330
1ED1
100
AcDbEntity
  8
DEFPOINTS
 62
     0
100
AcDbPoint
 10
-120.0822058755195
 20
3.499992364975935
 30
0.0
  0
ENDBLK
  5
1EDE
330
1ED1
100
AcDbEntity
  8
0
100
AcDbBlockEnd
  0
ENDSEC
  0
SECTION
  2
ENTITIES
  0
LINE
  5
C30
330
1F
100
AcDbEntity
  8
AM_0
 48
0.5
100
AcDbLine
 10
-110.4740517267965
 20
-3.250007635024068
 30
0.0
 11
-110.4740517267965
 21
3.249992364975931
 31
0.0
  0
LINE
  5
C9F
330
1F
100
AcDbEntity
  8
AM_7
100
AcDbLine
 10
-112.2864130319866
 20
-0.0000076350240696
 30
0.0
 11
1.550008088803923
 21
-0.0000076350239727
 31
0.0
1001
GENIUS_GENODEF_13
1002
{
1000
HIER
1070
     0
1002
}
1002
{
1000
MANEDIT
1070
     0
1002
}
1002
{
1000
NOSEL
1070
     0
1002
}
1002
{
1000
BEHIND
1070
     0
1002
}
1002
{
1000
REACTOR
1002
}
1001
GENIUS_GENOBJ-N-CEN_13
1002
{
1000
OWNER
1000
GEN
1002
}
  0
DIMENSION
  5
CC6
330
1F
100
AcDbEntity
  8
AM_5
100
AcDbDimension
  2
*D5
 10
-1.465130983322207
 20
-20.81779369863935
 30
0.0
 11
-55.96959135505938
 21
-19.11779369863935
 31
0.0
 70
    32
  1
<>
  3
AM_JIS$0
100
AcDbAlignedDimension
 13
-110.4740517267965
 23
-3.250007635024068
 33
0.0
 14
-1.465130983322206
 24
-3.475945667818524
 34
0.0
 50
0.0000000000001132
100
AcDbRotatedDimension
1001
GENIUS_GENDTOL_13
1000

1000
h7
1000

1040
0.0
1001
ACAD
1000
DSTYLE
1002
{
1070
   271
1070
     1
1002
}
  0
DIMENSION
  5
DF5
330
1F
100
AcDbEntity
  8
AM_5
100
AcDbDimension
  2
*D7
 10
-1.465130983322206
 20
-14.00383205187571
 30
0.0
 11
-29.46936905749696
 21
-12.30383205187571
 31
0.0
 70
    32
  1
<>
  3
AM_JIS$0
100
AcDbAlignedDimension
 13
-57.47360713167172
 23
-2.368886807869907
 33
0.0
 14
-1.465130983322206
 24
-3.475945667818524
 34
0.0
 50
0.0000000000001527
100
AcDbRotatedDimension
1001
GENIUS_GENDTOL_13
1000

1000
h7
1000

1040
0.0
1001
ACAD
1000
DSTYLE
1002
{
1070
   271
1070
     1
1002
}
  0
DIMENSION
  5
11B2
330
1F
100
AcDbEntity
  8
AM_5
100
AcDbDimension
  2
*D9
 10
-0.6670955004047916
 20
-1.283343638645574
 30
0.0
 11
17.39731377969732
 21
-0.0000116225847063
 31
0.0
 70
    34
  1
<>
  3
AM_JIS$2
100
AcDb2LineAngularDimension
 13
-0.1999964695926248
 23
-0.0000076350239893
 33
0.0
 14
-0.6670877120647898
 24
1.283315017156934
 34
0.0
 15
-0.1999975822122958
 25
-0.0000054097840669
 35
0.0
 16
17.38137561999187
 26
7.583849450900538
 36
0.0
1001
ACAD
1000
DSTYLE
1002
{
1070
   179
1070
     3
1002
}
1001
GENIUS_GENDTOL_13
1000

1000
h7
1000

1040
0.0
  0
TEXT
  5
19BD
330
1F
100
AcDbEntity
  8
AM_6
100
AcDbText
 10
-68.96321310467532
 20
-32.06779369863938
 30
0.0
 40
2.5
  1
MDW0700LDLH
 50
0.0000000000001527
 72
     4
 11
-55.98702262848484
 21
-30.81779369863935
 31
0.0
100
AcDbText
  0
LINE
  5
1CF0
330
1F
100
AcDbEntity
  8
AM_0
100
AcDbLine
 10
-110.2240517267965
 20
3.499992364975931
 30
0.0
 11
-57.53638632910996
 21
3.499992364975972
 31
0.0
1001
GENIUS_GENODEF_13
1002
{
1000
HIER
1070
     0
1002
}
1002
{
1000
MANEDIT
1070
     0
1002
}
1002
{
1000
NOSEL
1070
     0
1002
}
1002
{
1000
BEHIND
1070
     0
1002
}
1002
{
1000
REACTOR
1002
}
1001
GENIUS_GENOBJ-N-CEN_13
1002
{
1000
OWNER
1000
GEN
1002
}
  0
LINE
  5
1CF4
330
1F
100
AcDbEntity
  8
AM_0
100
AcDbLine
 10
-110.2240517267965
 20
-3.500007635024067
 30
0.0
 11
-57.53638632910995
 21
-3.500007635024022
 31
0.0
1001
GENIUS_GENODEF_13
1002
{
1000
HIER
1070
     0
1002
}
1002
{
1000
MANEDIT
1070
     0
1002
}
1002
{
1000
NOSEL
1070
     0
1002
}
1002
{
1000
BEHIND
1070
     0
1002
}
1002
{
1000
REACTOR
1002
}
1001
GENIUS_GENOBJ-N-CEN_13
1002
{
1000
OWNER
1000
GEN
1002
}
  0
LINE
  5
1CF9
330
1F
100
AcDbEntity
  8
AM_0
100
AcDbLine
 10
-110.4740517267965
 20
3.249992364975931
 30
0.0
 11
-110.2240517267965
 21
3.499992364975931
 31
0.0
1001
GENIUS_GENFIL_13
1070
     0
1040
0.25
1040
0.25
1040
20.0
1040
0.0
1002
{
1002
}
1001
GENIUS_GENODEF_13
1002
{
1000
HIER
1070
     0
1002
}
1002
{
1000
MANEDIT
1070
     0
1002
}
1002
{
1000
NOSEL
1070
     0
1002
}
1002
{
1000
BEHIND
1070
     0
1002
}
1002
{
1000
REACTOR
1002
}
1001
GENIUS_GENOBJ-N-CHA_13
1002
{
1000
OWNER
1000
GEN
1002
}
  0
LINE
  5
1CFD
330
1F
100
AcDbEntity
  8
AM_0
100
AcDbLine
 10
-110.4740517267965
 20
-3.250007635024068
 30
0.0
 11
-110.2240517267965
 21
-3.500007635024068
 31
0.0
1001
GENIUS_GENFIL_13
1070
     0
1040
0.25
1040
0.25
1040
20.0
1040
0.0
1002
{
1002
}
1001
GENIUS_GENODEF_13
1002
{
1000
HIER
1070
     0
1002
}
1002
{
1000
MANEDIT
1070
     0
1002
}
1002
{
1000
NOSEL
1070
     0
1002
}
1002
{
1000
BEHIND
1070
     0
1002
}
1002
{
1000
REACTOR
1002
}
1001
GENIUS_GENOBJ-N-CHA_13
1002
{
1000
OWNER
1000
GEN
1002
}
  0
LINE
  5
1CFE
330
1F
100
AcDbEntity
  8
AM_0
100
AcDbLine
 10
-110.2240517267965
 20
-3.500007635024068
 30
0.0
 11
-110.2240517267965
 21
3.499992364975931
 31
0.0
  0
DIMENSION
  5
1E80
330
1F
100
AcDbEntity
  8
AM_5
100
AcDbDimension
  2
*D10
 10
10.30588507278867
 20
3.49999028512716
 30
0.0
 11
10.30588507278867
 21
-0.0000086022528777
 31
0.0
 70
   160
  1
%%c<>
  3
AM_JIS$0
100
AcDbAlignedDimension
 13
-1.575701200648722
 23
-3.500007489632914
 33
0.0
 14
-1.575698909960538
 24
3.499990285127163
 34
0.0
 50
89.99999999999991
100
AcDbRotatedDimension
1001
ACAD
1000
DSTYLE
1002
{
1070
   271
1070
     1
1002
}
1001
GENIUS_GENDTOL_13
1000

1000
h7
1000

1040
0.0
  0
LINE
  5
1E8F
330
1F
100
AcDbEntity
  8
AM_0
 48
0.5
100
AcDbLine
 10
-0.1999920128978321
 20
-0.0000052643929961
 30
0.0
 11
-2.001178295191755
 21
1.361650840830847
 31
0.0
  0
ELLIPSE
  5
1E90
330
1F
100
AcDbEntity
  8
AM_0
 48
0.5
100
AcDbEllipse
 10
-6.724135026312647
 20
6.657377722324958
 30
0.0
 11
-9.462061011342107
 21
0.0000000000077701
 31
0.0
210
0.0
220
0.0
230
1.0
 40
0.9714285714285802
 41
2.209222767765132
 42
2.331601982791085
  0
LINE
  5
1E92
330
1F
100
AcDbEntity
  8
AM_0
 48
0.5
100
AcDbLine
 10
-3.520083251106936
 20
3.499992510367091
 30
0.0
 11
-1.473888103251029
 21
3.499992510367085
 31
0.0
  0
LINE
  5
1E94
330
1F
100
AcDbEntity
  8
AM_0
 48
0.5
100
AcDbLine
 10
-3.520083251106964
 20
-3.500007489632907
 30
0.0
 11
-1.475281825864797
 21
-3.500007489632915
 31
0.0
  0
ELLIPSE
  5
1EA0
330
1F
100
AcDbEntity
  8
AM_0
 48
0.5
100
AcDbEllipse
 10
3.462191271861575
 20
-0.778009274911039
 30
0.0
 11
5.663769393377918
 21
1.094314013644688
 31
0.0
210
0.0
220
0.0
230
0.9999999999999998
 40
0.818199733601237
 41
3.059430502140342
 42
3.518227111407037
  0
ELLIPSE
  5
1EA1
330
1F
100
AcDbEntity
  8
AM_0
 48
0.5
100
AcDbEllipse
 10
-6.50120334196522
 20
5.874261360057595
 30
0.0
 11
-8.687072910514148
 21
0.0000000000019198
 31
0.0
210
0.0
220
0.0
230
1.0
 40
0.9714285714285738
 41
2.081379652023514
 42
2.169874429703012
  0
ELLIPSE
  5
1EAD
330
1F
100
AcDbEntity
  8
AM_0
 48
0.5
100
AcDbEllipse
 10
-1.337799475627495
 20
-0.9121578726287534
 30
0.0
 11
-0.1063160901898015
 21
0.57410591850176
 31
0.0
210
0.0
220
0.0
230
0.9999999999999998
 40
0.5137611483160624
 41
1.798941069288444
 42
4.934282959000418
  0
ELLIPSE
  5
1EAE
330
1F
100
AcDbEntity
  8
AM_0
 48
0.5
100
AcDbEllipse
 10
-1.337799475627495
 20
-0.9121578726287534
 30
0.0
 11
-0.5224234360865267
 21
0.2875029079761611
 31
0.0
210
0.0
220
0.0
230
0.9999999999999998
 40
0.4925520901164431
 41
4.467505614991662
 42
7.610945956321172
  0
SPLINE
  5
1EB3
330
1F
100
AcDbEntity
  8
AM_0
100
AcDbSpline
210
0.0
220
0.0
230
1.0
 70
     8
 71
     3
 72
    46
 73
    42
 74
     0
 42
0.0000000001
 43
0.0000000001
 40
0.0
 40
0.0
 40
0.0
 40
0.0
 40
1.1797905410792
 40
1.771725346678784
 40
2.365928389391084
 40
2.963054206943358
 40
3.563679428541708
 40
4.168281726368678
 40
4.777234562424272
 40
5.390806270667785
 40
6.009119932596676
 40
6.632207668849522
 40
7.259973746737163
 40
7.892212608053092
 40
8.52861341801536
 40
9.168769217093204
 40
9.81218940415078
 40
10.45831090818787
 40
11.1065110782032
 40
11.75612220391374
 40
12.40644563990895
 40
13.05676907590469
 40
13.70638020161522
 40
14.35458037163003
 40
15.0007018756671
 40
15.64412206272523
 40
16.28427786180231
 40
16.92067867176479
 40
17.5529216827261
 40
18.18068776061372
 40
18.80377549686657
 40
19.42208915879529
 40
20.03565231513329
 40
20.64460515118888
 40
21.24920744901585
 40
21.84983224434128
 40
22.44695841635484
 40
23.04117028960383
 40
23.63310489365486
 40
24.22349090745283
 40
24.81309134934788
 40
24.81309134934788
 40
24.81309134934788
 40
24.81309134934788
 10
-1.820245921765895
 20
-3.500007489632914
 30
0.0
 10
-2.225185358391359
 20
-3.492034219079712
 30
0.0
 10
-2.833294542825816
 20
-3.480060529646576
 30
0.0
 10
-3.641923843937725
 20
-3.406340723490528
 30
0.0
 10
-4.2490989881474
 20
-3.332011548547496
 30
0.0
 10
-4.85622223333631
 20
-3.236585513911596
 30
0.0
 10
-5.463291980133954
 20
-3.121331534129555
 30
0.0
 10
-6.070305109903975
 20
-2.986800621411972
 30
0.0
 10
-6.67726060599059
 20
-2.833869159255483
 30
0.0
 10
-7.284155767227464
 20
-2.663476169476446
 30
0.0
 10
-7.890991806652468
 20
-2.476678492586598
 30
0.0
 10
-8.497767092061168
 20
-2.27462798865177
 30
0.0
 10
-9.104491371623158
 20
-2.058579764108533
 30
0.0
 10
-9.711167594139741
 20
-1.829861982596716
 30
0.0
 10
-10.31780133856457
 20
-1.589885032999806
 30
0.0
 10
-10.92439934619457
 20
-1.34012942050563
 30
0.0
 10
-11.53096693328541
 20
-1.082131005305947
 30
0.0
 10
-12.13751000327011
 20
-0.8174766134646938
 30
0.0
 10
-12.7440349872343
 20
-0.547795037686906
 30
0.0
 10
-13.35054742582334
 20
-0.2747446300940891
 30
0.0
 10
-13.95705476596172
 20
-0.0000074896884569
 30
0.0
 10
-14.56356210596686
 20
0.2747296510510377
 30
0.0
 10
-15.17007454495556
 20
0.5477800576427596
 30
0.0
 10
-15.77659952745894
 20
0.8174616370791031
 30
0.0
 10
-16.38314260286043
 20
1.082116015352104
 30
0.0
 10
-16.98971016986634
 20
1.340114480861499
 30
0.0
 10
-17.59630825187761
 20
1.589869907041094
 30
0.0
 10
-18.20294303996318
 20
1.829848067517031
 30
0.0
 10
-18.80962161973089
 20
2.058563771011861
 30
0.0
 10
-19.416346981596
 20
2.274613103376406
 30
0.0
 10
-20.02312225287726
 20
2.476663667432012
 30
0.0
 10
-20.62995579948875
 20
2.663459627810842
 30
0.0
 10
-21.23684691710795
 20
2.833855253425094
 30
0.0
 10
-21.84379993564296
 20
2.986787340323341
 30
0.0
 10
-22.45081271410565
 20
3.121309451322338
 30
0.0
 10
-23.05788290596967
 20
3.236596859300228
 30
0.0
 10
-23.66501002586599
 20
3.331886624335045
 30
0.0
 10
-24.27218204145607
 20
3.406739062822781
 30
0.0
 10
-24.87939162248329
 20
3.4601423362448
 30
0.0
 10
-25.48662324476663
 20
3.493746968837253
 30
0.0
 10
-25.89154306723926
 20
3.497911587384003
 30
0.0
 10
-26.09386819148971
 20
3.499992510367179
 30
0.0
  0
DIMENSION
  5
1ED0
330
1F
100
AcDbEntity
  8
AM_5
100
AcDbDimension
  2
*D11
 10
-120.0822058755195
 20
3.499992364975935
 30
0.0
 11
-120.0822058755195
 21
-0.0000076350243319
 31
0.0
 70
   160
  1
%%c<>
 51
359.9999999999998
  3
AM_JIS$0
100
AcDbAlignedDimension
 13
-110.1876500268995
 23
-3.500007635024067
 33
0.0
 14
-110.1876500268994
 24
3.499992364975932
 34
0.0
 50
270.0000000000001
100
AcDbRotatedDimension
1001
ACAD
1000
DSTYLE
1002
{
1070
   271
1070
     0
1002
}
1001
GENIUS_GENDTOL_13
1000

1000
h7
1000

1040
0.0
  0
LINE
  5
206C
330
1F
100
AcDbEntity
  8
AM_0
100
AcDbLine
 10
-1.473888103251029
 20
3.499992510367085
 30
0.0
 11
-0.1999926168162368
 21
-0.0000065733576496
 31
0.0
  0
LINE
  5
206D
330
1F
100
AcDbEntity
  8
AM_0
100
AcDbLine
 10
-1.474051726796525
 20
-3.500455209078965
 30
0.0
 11
-0.1999926168162368
 21
-0.0000065733576477
 31
0.0
  0
SPLINE
  5
21AB
330
1F
100
AcDbEntity
  8
AM_0
 48
0.5
100
AcDbSpline
210
0.0
220
0.0
230
1.0
 70
     8
 71
     3
 72
    10
 73
     6
 74
     0
 42
0.0000000001
 43
0.0000000001
 40
0.0
 40
0.0
 40
0.0
 40
0.0
 40
2.69986029516136
 40
4.147722969032201
 40
6.285750005020438
 40
6.285750005020438
 40
6.285750005020438
 40
6.285750005020438
 10
-4.115539452291158
 20
0.6334738539542767
 30
0.0
 10
-3.695444303995675
 20
0.3082996678642123
 30
0.0
 10
-3.050063393403052
 20
-0.1912567139972087
 30
0.0
 10
-1.523824235429602
 20
0.0505872819514052
 30
0.0
 10
-1.811259462278943
 20
0.8651498610301626
 30
0.0
 10
-2.001178295191755
 20
1.361650840830847
 30
0.0
  0
SPLINE
  5
21AC
330
1F
100
AcDbEntity
  8
AM_0
 48
0.5
100
AcDbSpline
210
0.0
220
0.0
230
1.0
 70
     8
 71
     3
 72
    16
 73
    12
 74
     0
 42
0.0000000001
 43
0.0000000001
 40
0.0
 40
0.0
 40
0.0
 40
0.0
 40
1.010743614677189
 40
2.022833924044153
 40
3.037578959561199
 40
4.056212747067873
 40
5.079857613375832
 40
6.109500119648989
 40
7.14596120163808
 40
8.18989512056258
 40
8.545190612624931
 40
8.545190612624931
 40
8.545190612624931
 40
8.545190612624931
 10
-3.427249978790456
 20
3.499992510367098
 30
0.0
 10
-3.62390693648666
 20
3.499971478344673
 30
0.0
 10
-4.017520770825428
 20
3.492789784606154
 30
0.0
 10
-4.607767060877567
 20
3.460399562001799
 30
0.0
 10
-5.197997262521758
 20
3.406670453927899
 30
0.0
 10
-5.788188438337941
 20
3.331904470497606
 30
0.0
 10
-6.378336913294845
 20
3.23659194014065
 30
0.0
 10
-6.968432619729469
 20
3.121310670546661
 30
0.0
 10
-7.558475776297734
 20
2.986786791689399
 30
0.0
 10
-8.017261678160238
 20
2.867861006500382
 30
0.0
 10
-8.279494319353371
 20
2.794718704018622
 30
0.0
 10
-8.345995052618585
 20
2.775843801996185
 30
0.0
  0
SPLINE
  5
21AD
330
1F
100
AcDbEntity
  8
AM_0
 48
0.5
100
AcDbSpline
210
0.0
220
0.0
230
1.0
 70
     8
 71
     3
 72
    17
 73
    13
 74
     0
 42
0.0000000001
 43
0.0000000001
 40
0.0
 40
0.0
 40
0.0
 40
0.0
 40
1.010743614677189
 40
2.022833924044153
 40
3.037578959561199
 40
4.056212747067873
 40
5.079857613375832
 40
6.109500119648989
 40
7.14596120163808
 40
8.18989512056258
 40
9.241717674284874
 40
9.693948937866434
 40
9.693948937866434
 40
9.693948937866434
 40
9.693948937866434
 10
-3.427249978790456
 20
3.499992510367098
 30
0.0
 10
-3.623917869940994
 20
3.497911595849439
 30
0.0
 10
-4.017515688628785
 20
3.493746994245038
 30
0.0
 10
-4.607768432037417
 20
3.460142234344119
 30
0.0
 10
-5.197996875083218
 20
3.406739712121888
 30
0.0
 10
-5.788188610942878
 20
3.331885976600409
 30
0.0
 10
-6.378336610603814
 20
3.236596216249575
 30
0.0
 10
-6.968433665991585
 20
3.121312228501176
 30
0.0
 10
-7.558471857011954
 20
2.98677613451011
 30
0.0
 10
-8.148474079515217
 20
2.833893665909561
 30
0.0
 10
-8.624739258581488
 20
2.696169671650403
 30
0.0
 10
-8.904430095670887
 20
2.610072369661454
 30
0.0
 10
-8.988378279366211
 20
2.583718561883272
 30
0.0
  0
ELLIPSE
  5
21AE
330
1F
100
AcDbEntity
  8
AM_0
 48
0.5
100
AcDbEllipse
 10
1.973157992998659
 20
4.2019578423983
 30
0.0
 11
-4.482837636956421
 21
6.060020239259874
 31
0.0
210
0.0
220
0.0
230
1.0
 40
0.9355880530571376
 41
1.470820175263276
 42
1.847543830854432
  0
SPLINE
  5
21AF
330
1F
100
AcDbEntity
  8
AM_0
100
AcDbSpline
210
0.0
220
0.0
230
1.0
 70
     8
 71
     3
 72
    11
 73
     7
 74
     0
 42
0.0000000001
 43
0.0000000001
 40
11.27226913003534
 40
11.27226913003534
 40
11.27226913003534
 40
11.2722691300354
 40
12.28301561507924
 40
13.29510212255852
 40
14.30984805882082
 40
15.18258238371378
 40
15.18258238371378
 40
15.18258238371378
 40
15.18258238371378
 10
-14.54610110035597
 20
-3.500007489632833
 30
0.0
 10
-14.74202112512273
 20
-3.482877472539475
 30
0.0
 10
-15.13349163223403
 20
-3.441406446685237
 30
0.0
 10
-15.71867591218288
 20
-3.357749129703315
 30
0.0
 10
-16.27402611225996
 20
-3.257829637235477
 30
0.0
 10
-16.63319402326708
 20
-3.181018549580588
 30
0.0
 10
-16.79870882395606
 20
-3.143075993877761
 30
0.0
  0
LINE
  5
21B0
330
1F
100
AcDbEntity
  8
AM_11
 48
0.5
100
AcDbLine
 10
-34.11776544040365
 20
3.500489748885696
 30
0.0
 11
-27.02214093400142
 21
3.49999251036724
 31
0.0
  0
LINE
  5
21B1
330
1F
100
AcDbEntity
  8
AM_11
 48
0.5
100
AcDbLine
 10
-35.55900006842157
 20
-3.50000748963278
 30
0.0
 11
-24.4401489468575
 21
-3.500504728151249
 31
0.0
  0
SPLINE
  5
21B2
330
1F
100
AcDbEntity
  8
AM_0
100
AcDbSpline
210
0.0
220
0.0
230
1.0
 70
     8
 71
     3
 72
    17
 73
    13
 74
     0
 42
0.0000000001
 43
0.0000000001
 40
1.580019955310467
 40
1.580019955310467
 40
1.580019955310467
 40
1.580019955310467
 40
2.030549285115227
 40
3.082371838836284
 40
4.126290986361125
 40
5.162752068350215
 40
6.192395305374981
 40
7.216039564037012
 40
8.234688489606833
 40
9.249433870634691
 40
10.26152376260694
 40
11.27226744710342
 40
11.27226744710342
 40
11.27226744710342
 40
11.27226744710352
 10
-29.99914076458932
 20
-2.583110552699074
 30
0.0
 10
-30.08265174592192
 20
-2.60971436836705
 30
0.0
 10
-30.36160648010548
 20
-2.696911927666369
 30
0.0
 10
-30.83785138923591
 20
-2.833684419410158
 30
0.0
 10
-31.42775116223935
 20
-2.986851466051047
 30
0.0
 10
-32.01781333409801
 20
-3.121311796760969
 30
0.0
 10
-32.60790254239938
 20
-3.236613863529014
 30
0.0
 10
-33.19805603986243
 20
-3.331918953553242
 30
0.0
 10
-33.78825030933717
 20
-3.40668320270862
 30
0.0
 10
-34.37848132903158
 20
-3.460422113644195
 30
0.0
 10
-34.96873455718185
 20
-3.492789762749474
 30
0.0
 10
-35.36233221565823
 20
-3.500007509659965
 30
0.0
 10
-35.55900006842293
 20
-3.50000748963278
 30
0.0
  0
SPLINE
  5
21B3
330
1F
100
AcDbEntity
  8
AM_0
100
AcDbSpline
210
0.0
220
0.0
230
1.0
 70
     8
 71
     3
 72
    23
 73
    19
 74
     0
 42
0.0000000001
 43
0.0000000001
 40
16.03460024169435
 40
16.03460024169435
 40
16.03460024169435
 40
16.03460024169435
 40
16.35212704903564
 40
17.38177054169784
 40
18.41822485651776
 40
19.46214173629503
 40
20.51396345435107
 40
21.57393551351153
 40
22.64208202342361
 40
23.7182574881101
 40
24.80209208578934
 40
25.89306333925047
 40
26.99048218457928
 40
28.09348763352352
 40
29.20111863782268
 40
30.31232390128032
 40
31.42594612798585
 40
32.5407912310448
 40
32.5407912310486
 40
32.5407912310486
 40
32.5407912310486
 10
-34.11776544040366
 20
3.500489748885697
 30
0.0
 10
-34.05712417385183
 20
3.488674365234349
 30
0.0
 10
-33.80009983947331
 20
3.437221694945278
 30
0.0
 10
-33.34734870650317
 20
3.336408040181272
 30
0.0
 10
-32.7610348040734
 20
3.186499238034585
 30
0.0
 10
-32.17526549757454
 20
3.018176640491414
 30
0.0
 10
-31.59000617343112
 20
2.83241441289287
 30
0.0
 10
-31.00523605975257
 20
2.630248183816477
 30
0.0
 10
-30.4209213582278
 20
2.412833620683793
 30
0.0
 10
-29.83702137940186
 20
2.181436021716902
 30
0.0
 10
-29.25350294398084
 20
1.937365778027417
 30
0.0
 10
-28.67031926917585
 20
1.682043077493725
 30
0.0
 10
-28.0874230944716
 20
1.416951965963077
 30
0.0
 10
-27.50477558315849
 20
1.143616606193461
 30
0.0
 10
-26.92232798582688
 20
0.8636264058701815
 30
0.0
 10
-26.34002635549383
 20
0.57861630234633
 30
0.0
 10
-25.75782327636909
 20
0.2902378519938136
 30
0.0
 10
-25.36979214331525
 20
0.0968958694031422
 30
0.0
 10
-25.1756707583047
 20
0.0001705295721493
 30
0.0
  0
SPLINE
  5
21B4
330
1F
100
AcDbEntity
  8
AM_0
100
AcDbSpline
210
0.0
220
0.0
230
1.0
 70
     8
 71
     3
 72
    22
 73
    18
 74
     0
 42
0.0000000001
 43
0.0000000001
 40
17.17441611292
 40
17.17441611292
 40
17.17441611292
 40
17.17441611292
 40
17.38177636558528
 40
18.41823744757437
 40
19.46215659509824
 40
20.51397914882054
 40
21.57394542641293
 40
22.64209583141747
 40
23.71826625065247
 40
24.80210429862395
 40
25.8930771157021
 40
26.99048705697709
 40
28.09349309193389
 40
29.20112995599786
 40
30.31233024745139
 40
31.42594771747373
 40
32.5407895042663
 40
32.54078950426994
 40
32.54078950426994
 40
32.54078950426994
 10
-16.7989669620428
 20
-3.143032821404525
 30
0.0
 10
-16.8384911596614
 20
-3.13493066469072
 30
0.0
 10
-17.07541713896336
 20
-3.085579542559372
 30
0.0
 10
-17.50945218231878
 20
-2.986624119494464
 30
0.0
 10
-18.09943407945243
 20
-2.833692265019117
 30
0.0
 10
-18.68935585866919
 20
-2.663296564383216
 30
0.0
 10
-19.27922168478378
 20
-2.476500669800269
 30
0.0
 10
-19.86903077862445
 20
-2.27444991628527
 30
0.0
 10
-20.45879040005721
 20
-2.058401759043903
 30
0.0
 10
-21.04850327983488
 20
-1.829683960536929
 30
0.0
 10
-21.63817487420392
 20
-1.589707010895455
 30
0.0
 10
-22.22781173993859
 20
-1.339951415894832
 30
0.0
 10
-22.81741899473112
 20
-1.081952930241516
 30
0.0
 10
-23.40700257393179
 20
-0.8172988042157523
 30
0.0
 10
-23.99656770368589
 20
-0.5476163611213547
 30
0.0
 10
-24.58612311788807
 20
-0.2745696873977336
 30
0.0
 10
-24.97908291224446
 20
-0.091443075231945
 30
0.0
 10
-25.17567075830731
 20
0.0001705295734068
 30
0.0
  0
LINE
  5
21B5
330
1F
100
AcDbEntity
  8
AM_0
 48
0.5
100
AcDbLine
 10
-27.0221505106025
 20
3.49999251036724
 30
0.0
 11
-14.54610110035594
 21
3.499992510367166
 31
0.0
  0
LINE
  5
21B6
330
1F
100
AcDbEntity
  8
AM_0
 48
0.5
100
AcDbLine
 10
-24.44014894685749
 20
-3.500007489632846
 30
0.0
 11
-14.54610110035599
 21
-3.500007489632833
 31
0.0
  0
SPLINE
  5
21B7
330
1F
100
AcDbEntity
  8
AM_0
100
AcDbSpline
210
0.0
220
0.0
230
1.0
 70
     8
 71
     3
 72
    22
 73
    18
 74
     0
 42
0.0000000001
 43
0.0000000001
 40
17.17441611292
 40
17.17441611292
 40
17.17441611292
 40
17.17441611292
 40
17.38177636558528
 40
18.41823744757437
 40
19.46215659509824
 40
20.51397914882054
 40
21.57394542641293
 40
22.64209583141747
 40
23.71826625065247
 40
24.80210429862395
 40
25.8930771157021
 40
26.99048705697709
 40
28.09349309193389
 40
29.20112995599786
 40
30.31233024745139
 40
31.42594771747373
 40
32.5407895042663
 40
32.54078950426994
 40
32.54078950426994
 40
32.54078950426994
 10
-37.8118659301098
 20
-3.143032821404471
 30
0.0
 10
-37.8513901277284
 20
-3.134930664690666
 30
0.0
 10
-38.08831610703036
 20
-3.085579542559318
 30
0.0
 10
-38.52235115038577
 20
-2.98662411949441
 30
0.0
 10
-39.11233304751942
 20
-2.833692265019063
 30
0.0
 10
-39.7022548267362
 20
-2.66329656438316
 30
0.0
 10
-40.29212065285078
 20
-2.476500669800215
 30
0.0
 10
-40.88192974669144
 20
-2.274449916285215
 30
0.0
 10
-41.47168936812421
 20
-2.058401759043849
 30
0.0
 10
-42.06140224790188
 20
-1.829683960536875
 30
0.0
 10
-42.6510738422709
 20
-1.589707010895401
 30
0.0
 10
-43.24071070800558
 20
-1.339951415894778
 30
0.0
 10
-43.83031796279811
 20
-1.081952930241461
 30
0.0
 10
-44.41990154199879
 20
-0.817298804215698
 30
0.0
 10
-45.00946667175289
 20
-0.5476163611213007
 30
0.0
 10
-45.59902208595506
 20
-0.2745696873976794
 30
0.0
 10
-45.99198188031145
 20
-0.0914430752318909
 30
0.0
 10
-46.1885697263743
 20
0.000170529573461
 30
0.0
  0
LINE
  5
21B8
330
1F
100
AcDbEntity
  8
AM_0
100
AcDbLine
 10
-55.0531340220781
 20
3.500489748885766
 30
0.0
 11
-57.30262754008607
 21
3.500489748885774
 31
0.0
  0
LINE
  5
21B9
330
1F
100
AcDbEntity
  8
AM_11
 48
0.5
100
AcDbLine
 10
-55.05313402207813
 20
3.500489748885766
 30
0.0
 11
-48.01910112012073
 21
3.499992510367299
 31
0.0
  0
ELLIPSE
  5
21BA
330
1F
100
AcDbEntity
  8
AM_0
 48
0.5
100
AcDbEllipse
 10
-56.31612730312041
 20
-2.333340822965983
 30
0.0
 11
0.0000000000009111
 21
1.166666666666666
 31
0.0
210
0.0
220
0.0
230
1.0
 40
0.9919439369703686
 41
1.570796326795661
 42
3.141592339674058
  0
LINE
  5
21BB
330
1F
100
AcDbEntity
  8
AM_0
100
AcDbLine
 10
-56.20925519857149
 20
-3.500007489632635
 30
0.0
 11
-57.30179715930315
 21
-3.50000748963263
 31
0.0
  0
ELLIPSE
  5
21BC
330
1F
100
AcDbEntity
  8
AM_0
 48
0.5
100
AcDbEllipse
 10
-56.60565618682265
 20
-2.368886807869903
 30
0.0
 11
-0.0000000000000044
 21
0.8750000000000028
 31
0.0
210
0.0
220
0.0
230
1.0
 40
0.9919439369703631
 41
-0.3953601559016211
 42
1.570796326794882
  0
SPLINE
  5
21BD
330
1F
100
AcDbEntity
  8
AM_0
 48
0.5
100
AcDbSpline
210
0.0
220
0.0
230
1.0
 70
     8
 71
     3
 72
    22
 73
    18
 74
     0
 42
0.0000000001
 43
0.0000000001
 40
0.0
 40
0.0
 40
0.0
 40
0.0
 40
1.010743684496582
 40
2.022833993863546
 40
3.037578683882831
 40
4.056212471389632
 40
5.079857945358201
 40
6.109499720892564
 40
7.145961650132166
 40
8.189873411961459
 40
9.241710626092514
 40
10.30166235592959
 40
11.36982472628033
 40
12.44598212828784
 40
13.52983440361964
 40
14.62080578343036
 40
14.90544694398022
 40
14.90544694398022
 40
14.90544694398022
 40
14.90544694398022
 10
-48.01910553474783
 20
-3.500007489632701
 30
0.0
 10
-48.21406656960938
 20
-3.49792569655115
 30
0.0
 10
-48.60424838805246
 20
-3.493759336792369
 30
0.0
 10
-49.18937827546376
 20
-3.460154411565142
 30
0.0
 10
-49.77448443211315
 20
-3.406755227958049
 30
0.0
 10
-50.35955405443079
 20
-3.331901570336504
 30
0.0
 10
-50.94457972186876
 20
-3.236608088166845
 30
0.0
 10
-51.52955533126417
 20
-3.121325898386365
 30
0.0
 10
-52.11447231064817
 20
-2.986800171185185
 30
0.0
 10
-52.69933468211397
 20
-2.833865449325851
 30
0.0
 10
-53.28413717811518
 20
-2.663476631644434
 30
0.0
 10
-53.86888285477215
 20
-2.476670723678523
 30
0.0
 10
-54.45357548154603
 20
-2.274636456829212
 30
0.0
 10
-55.03821461926401
 20
-2.058574916260155
 30
0.0
 10
-55.62281122045162
 20
-1.829862511807372
 30
0.0
 10
-56.06217642044272
 20
-1.649498035129434
 30
0.0
 10
-56.30700604212876
 20
-1.546407497920464
 30
0.0
 10
-56.35762866668875
 20
-1.524986201901795
 30
0.0
  0
LINE
  5
21BE
330
1F
100
AcDbEntity
  8
AM_11
 48
0.5
100
AcDbLine
 10
-56.21113864868938
 20
-3.500007489632635
 30
0.0
 11
-48.01910112012078
 21
-3.5000074896327
 31
0.0
  0
SPLINE
  5
21BF
330
1F
100
AcDbEntity
  8
AM_0
100
AcDbSpline
210
0.0
220
0.0
230
1.0
 70
     8
 71
     3
 72
    13
 73
     9
 74
     0
 42
0.0000000001
 43
0.0000000001
 40
16.03460056234195
 40
16.03460056234195
 40
16.03460056234195
 40
16.03460056234195
 40
16.35212717791071
 40
17.38177067057215
 40
18.41822498539278
 40
19.46214186516937
 40
20.5139635832251
 40
21.34083983469381
 40
21.34083983469381
 40
21.34083983469381
 40
21.34083983469381
 10
-56.21087436170731
 20
-3.500325799207311
 30
0.0
 10
-56.15075936938895
 20
-3.488510763529784
 30
0.0
 10
-55.89596550888169
 20
-3.437059504936089
 30
0.0
 10
-55.4471439957068
 20
-3.336244673148998
 30
0.0
 10
-54.86591857121954
 20
-3.186336286663511
 30
0.0
 10
-54.28523310913121
 20
-3.018013576552249
 30
0.0
 10
-53.7479080290214
 20
-2.845972659408827
 30
0.0
 10
-53.40510409015474
 20
-2.727510244438964
 30
0.0
 10
-53.25471805674206
 20
-2.673964153442862
 30
0.0
  0
LINE
  5
21C0
330
1F
100
AcDbEntity
  8
AM_0
 48
0.5
100
AcDbLine
 10
-49.86045520006348
 20
1.773377558279646
 30
0.0
 11
-57.47339081495875
 21
-0.2830691529424566
 31
0.0
  0
LINE
  5
21C1
330
1F
100
AcDbEntity
  8
AM_0
 48
0.5
100
AcDbLine
 10
-48.03513498078443
 20
-3.500007489632657
 30
0.0
 11
-36.55921571471659
 21
-3.500007489632701
 31
0.0
  0
SPLINE
  5
21C2
330
1F
100
AcDbEntity
  8
AM_0
100
AcDbSpline
210
0.0
220
0.0
230
1.0
 70
     8
 71
     3
 72
    23
 73
    19
 74
     0
 42
0.0000000001
 43
0.0000000001
 40
16.03460024169435
 40
16.03460024169435
 40
16.03460024169435
 40
16.03460024169435
 40
16.35212704903564
 40
17.38177054169784
 40
18.41822485651776
 40
19.46214173629503
 40
20.51396345435107
 40
21.57393551351153
 40
22.64208202342361
 40
23.7182574881101
 40
24.80209208578934
 40
25.89306333925047
 40
26.99048218457928
 40
28.09348763352352
 40
29.20111863782268
 40
30.31232390128032
 40
31.42594612798585
 40
32.5407912310448
 40
32.5407912310486
 40
32.5407912310486
 40
32.5407912310486
 10
-55.05313402207813
 20
3.500489748885766
 30
0.0
 10
-54.9930190541209
 20
3.48867436523442
 30
0.0
 10
-54.73822540445017
 20
3.437221694945347
 30
0.0
 10
-54.28940364661561
 20
3.33640804018134
 30
0.0
 10
-53.70817829527293
 20
3.186499238034651
 30
0.0
 10
-53.12749281337556
 20
3.018176640491479
 30
0.0
 10
-52.54731288775527
 20
2.832414412892935
 30
0.0
 10
-51.96761792679836
 20
2.630248183816541
 30
0.0
 10
-51.38837442552541
 20
2.412833620683856
 30
0.0
 10
-50.80954204762058
 20
2.181436021716963
 30
0.0
 10
-50.2310879017492
 20
1.937365778027478
 30
0.0
 10
-49.65296561114495
 20
1.682043077493784
 30
0.0
 10
-49.07512832546099
 20
1.416951965963135
 30
0.0
 10
-48.49753754504714
 20
1.143616606193517
 30
0.0
 10
-47.92014494358427
 20
0.8636264058702366
 30
0.0
 10
-47.34289704228913
 20
0.5786163023463843
 30
0.0
 10
-46.76574683688769
 20
0.2902378519938667
 30
0.0
 10
-46.38108338151595
 20
0.0968958694031945
 30
0.0
 10
-46.18864675373294
 20
0.0001705295722013
 30
0.0
  0
SPLINE
  5
21C3
330
1F
100
AcDbEntity
  8
AM_0
 48
0.5
100
AcDbSpline
210
0.0
220
0.0
230
1.0
 70
     8
 71
     3
 72
    26
 73
    22
 74
     0
 42
0.0000000001
 43
0.0000000001
 40
0.0
 40
0.0
 40
0.0
 40
0.0
 40
0.5896004826229707
 40
1.179986252940122
 40
1.771921058539713
 40
2.366124101252007
 40
2.963249918804864
 40
3.563875140402651
 40
4.168477438229614
 40
4.777430274285771
 40
5.390993430623067
 40
6.009307092551945
 40
6.63239903939448
 40
7.260156758871202
 40
7.892403919481949
 40
8.528804729444196
 40
9.168960528521511
 40
9.812380715579642
 40
10.45850221961671
 40
11.10670238963151
 40
11.73624999718734
 40
11.73624999718734
 40
11.73624999718734
 40
11.73624999718734
 10
-46.38113772586282
 20
-3.500007489632715
 30
0.0
 10
-46.57609872349408
 20
-3.497925074516141
 30
0.0
 10
-46.96628038691633
 20
-3.493757470718498
 30
0.0
 10
-47.55141088708179
 20
-3.460161902558518
 30
0.0
 10
-48.13651641193096
 20
-3.406753732701877
 30
0.0
 10
-48.72158571808792
 20
-3.331900124512184
 30
0.0
 10
-49.30661299796883
 20
-3.236615605580343
 30
0.0
 10
-49.89158659556085
 20
-3.121323447411209
 30
0.0
 10
-50.47650612170706
 20
-2.986802608559032
 30
0.0
 10
-51.06136758726918
 20
-2.833870100848879
 30
0.0
 10
-51.64616960957808
 20
-2.663474844938927
 30
0.0
 10
-52.23091700157627
 20
-2.476677395074883
 30
0.0
 10
-52.8156073402615
 20
-2.274631165298494
 30
0.0
 10
-53.40024725033996
 20
-2.058575557285341
 30
0.0
 10
-53.98484454885024
 20
-1.829864350580999
 30
0.0
 10
-54.56940049888734
 20
-1.589884966304997
 30
0.0
 10
-55.15391945800882
 20
-1.3401283414396
 30
0.0
 10
-55.7384121602176
 20
-1.082135420437438
 30
0.0
 10
-56.32286894612287
 20
-0.8174599428329411
 30
0.0
 10
-56.90132209103412
 20
-0.5506401424145631
 30
0.0
 10
-57.28456906320871
 20
-0.3713887288626311
 30
0.0
 10
-57.47339522958581
 20
-0.283071378182379
 30
0.0
  0
SPLINE
  5
21C4
330
1F
100
AcDbEntity
  8
AM_0
100
AcDbSpline
210
0.0
220
0.0
230
1.0
 70
     8
 71
     3
 72
    55
 73
    51
 74
     0
 42
0.0000000001
 43
0.0000000001
 40
0.0
 40
0.0
 40
0.0
 40
0.0
 40
1.010743684496582
 40
2.022833576467832
 40
3.037578957496688
 40
4.056212745003489
 40
5.079857003664532
 40
6.109500240690281
 40
7.145961322679372
 40
8.189895241603872
 40
9.241717795325891
 40
10.30168407291828
 40
11.36983447792315
 40
12.44600489715814
 40
13.52984294512926
 40
14.62081576220742
 40
15.7182257034828
 40
16.82123173843959
 40
17.92886860250316
 40
19.0400688939571
 40
20.15368796660465
 40
21.26852814259644
 40
22.38336992938901
 40
23.49698739941135
 40
24.6081876908653
 40
25.71582455492886
 40
26.81883757994213
 40
27.91624752121713
 40
29.00722033829659
 40
30.09105838626677
 40
31.16722880550176
 40
32.23537921050758
 40
33.29534548809967
 40
34.347168041821
 40
35.39108718934584
 40
36.42754827133493
 40
37.45720575381954
 40
38.48085062012849
 40
39.49948440763516
 40
40.51422944315121
 40
41.52631975251916
 40
42.53706336719636
 40
43.54780698187354
 40
44.55989729124051
 40
45.57464232675757
 40
46.59327611426424
 40
47.6169209805722
 40
48.64656348684535
 40
49.68302456883444
 40
50.58557219878025
 40
50.58557219878025
 40
50.58557219878025
 40
50.58557219878025
 10
-24.44014894685749
 20
-3.500007489632846
 30
0.0
 10
-24.63681680221682
 20
-3.497925074425528
 30
0.0
 10
-25.03041445445537
 20
-3.493757470446288
 30
0.0
 10
-25.62066769512524
 20
-3.460161903650893
 30
0.0
 10
-26.21089574010979
 20
-3.406753728587377
 30
0.0
 10
-26.80108725577304
 20
-3.331900139970018
 30
0.0
 10
-27.39123635293273
 20
-3.236615547438291
 30
0.0
 10
-27.98133138926665
 20
-3.121323666390551
 30
0.0
 10
-28.57137433861653
 20
-2.986801144031042
 30
0.0
 10
-29.16135996849387
 20
-2.833871731922607
 30
0.0
 10
-29.75128426002128
 20
-2.663474407378288
 30
0.0
 10
-30.34115015364521
 20
-2.476678736790054
 30
0.0
 10
-30.93095922914419
 20
-2.274627922467773
 30
0.0
 10
-31.52071885571014
 20
-2.058579782055009
 30
0.0
 10
-32.11043173348235
 20
-1.829861977664279
 30
0.0
 10
-32.70010333071371
 20
-1.58988503461589
 30
0.0
 10
-33.28974018694207
 20
-1.340129419006413
 30
0.0
 10
-33.87934747713529
 20
-1.082131009703783
 30
0.0
 10
-34.46893092349931
 20
-0.8174765972890678
 30
0.0
 10
-35.05849683482751
 20
-0.5477950982281659
 30
0.0
 10
-35.64805038217418
 20
-0.2747444035479185
 30
0.0
 10
-36.23759989094859
 20
-0.0000082037599152
 30
0.0
 10
-36.827146753139
 20
0.2747329414509018
 30
0.0
 10
-37.41670227654066
 20
0.5477793840095972
 30
0.0
 10
-38.00626746004184
 20
0.8174616993810438
 30
0.0
 10
-38.59585195762661
 20
1.082117120011108
 30
0.0
 10
-39.1854616937937
 20
1.34011332751001
 30
0.0
 10
-39.77509948062481
 20
1.589870209727963
 30
0.0
 10
-40.36477116298513
 20
1.829846958179792
 30
0.0
 10
-40.95448401929957
 20
2.058564810669016
 30
0.0
 10
-41.54424364737566
 20
2.274612951397817
 30
0.0
 10
-42.13405273789752
 20
2.476663717406701
 30
0.0
 10
-42.72391857064087
 20
2.663459578730499
 30
0.0
 10
-43.31384032689038
 20
2.833855398668628
 30
0.0
 10
-43.90382230838805
 20
2.986786813770809
 30
0.0
 10
-44.49386503886262
 20
3.12131204120901
 30
0.0
 10
-45.08396428867287
 20
3.236590754323511
 30
0.0
 10
-45.67411533551841
 20
3.331904839450912
 30
0.0
 10
-46.26430702614083
 20
3.406669698800515
 30
0.0
 10
-46.85453548123376
 20
3.460402202255489
 30
0.0
 10
-47.44478822143922
 20
3.492780007540583
 30
0.0
 10
-48.0350539320907
 20
3.503596360935476
 30
0.0
 10
-48.62531964187366
 20
3.492780007523629
 30
0.0
 10
-49.21557238468965
 20
3.460402202323529
 30
0.0
 10
-49.80580083017133
 20
3.406669698544119
 30
0.0
 10
-50.39599255682869
 20
3.331904840414398
 30
0.0
 10
-50.98614059110639
 20
3.236591215372098
 30
0.0
 10
-51.5762375161502
 20
3.121313219871557
 30
0.0
 10
-52.13945228416446
 20
2.992893407412101
 30
0.0
 10
-52.50487243972421
 20
2.898978784521519
 30
0.0
 10
-52.67440609367686
 20
2.853209607355734
 30
0.0
  0
SPLINE
  5
21C5
330
1F
100
AcDbEntity
  8
AM_0
100
AcDbSpline
210
0.0
220
0.0
230
1.0
 70
     8
 71
     3
 72
    46
 73
    42
 74
     0
 42
0.0000000001
 43
0.0000000001
 40
0.0
 40
0.0
 40
0.0
 40
0.0
 40
1.179790541079198
 40
1.771725346678782
 40
2.365928389391083
 40
2.963054206943358
 40
3.56367942854171
 40
4.168281726368679
 40
4.777234562424272
 40
5.390806270667778
 40
6.009119932596676
 40
6.632207668849522
 40
7.259973746737163
 40
7.892212608053084
 40
8.52861341801536
 40
9.168769217093196
 40
9.812189404150775
 40
10.45831090818786
 40
11.10651107820319
 40
11.75612220391373
 40
12.40644563990894
 40
13.05676907590468
 40
13.70638020161522
 40
14.35458037163002
 40
15.0007018756671
 40
15.64412206272522
 40
16.2842778618023
 40
16.92067867176477
 40
17.55292168272609
 40
18.18068776061372
 40
18.80377549686656
 40
19.42208915879528
 40
20.03565231513328
 40
20.64460515118887
 40
21.24920744901584
 40
21.84983224434128
 40
22.44695841635482
 40
23.04117028960381
 40
23.63310489365484
 40
24.22349090745283
 40
24.81309134934786
 40
24.81309134934786
 40
24.81309134934786
 40
24.81309134934786
 10
-22.78784094641807
 20
-3.500007489632857
 30
0.0
 10
-23.18145782921064
 20
-3.492034219079654
 30
0.0
 10
-23.77256360929798
 20
-3.480060529646514
 30
0.0
 10
-24.55858274216106
 20
-3.406340723490469
 30
0.0
 10
-25.14878059881979
 20
-3.332011548547432
 30
0.0
 10
-25.7389280076117
 20
-3.236585513911533
 30
0.0
 10
-26.32902341388644
 20
-3.12133153412949
 30
0.0
 10
-26.91906378620817
 20
-2.986800621411905
 30
0.0
 10
-27.50904813634793
 20
-2.833869159255418
 30
0.0
 10
-28.09897383866696
 20
-2.663476169476374
 30
0.0
 10
-28.68884207228529
 20
-2.47667849258653
 30
0.0
 10
-29.2786512506367
 20
-2.274627988651698
 30
0.0
 10
-29.8684108493212
 20
-2.058579764108464
 30
0.0
 10
-30.45812373468835
 20
-1.829861982596638
 30
0.0
 10
-31.04779532969811
 20
-1.589885032999738
 30
0.0
 10
-31.63743218715328
 20
-1.34012942050555
 30
0.0
 10
-32.22703947466115
 20
-1.082131005305873
 30
0.0
 10
-32.81662293058827
 20
-0.8174766134646137
 30
0.0
 10
-33.40618880619997
 20
-0.5477950376868284
 30
0.0
 10
-33.99574248721907
 20
-0.2747446300940089
 30
0.0
 10
-34.58529121234582
 20
-0.0000074896883751
 30
0.0
 10
-35.17483993734305
 20
0.2747296510511199
 30
0.0
 10
-35.76439361875063
 20
0.5477800576428431
 30
0.0
 10
-36.35395949294237
 20
0.8174616370791888
 30
0.0
 10
-36.9435429541348
 20
1.082116015352187
 30
0.0
 10
-37.53315022211935
 20
1.340114480861589
 30
0.0
 10
-38.12278715187602
 20
1.589869907041183
 30
0.0
 10
-38.71245976136458
 20
1.82984806751712
 30
0.0
 10
-39.30217493807152
 20
2.058563771011954
 30
0.0
 10
-39.89193558879675
 20
2.274613103376497
 30
0.0
 10
-40.48174475341574
 20
2.476663667432106
 30
0.0
 10
-41.07161056392236
 20
2.663459627810936
 30
0.0
 10
-41.66153233568777
 20
2.833855253425191
 30
0.0
 10
-42.25151427755099
 20
2.986787340323438
 30
0.0
 10
-42.84155430838834
 20
3.121309451322435
 30
0.0
 10
-43.43165014728491
 20
3.236596859300328
 30
0.0
 10
-44.02180132244311
 20
3.331886624335146
 30
0.0
 10
-44.6119961379619
 20
3.406739062822882
 30
0.0
 10
-45.20222746854676
 20
3.460142336244904
 30
0.0
 10
-45.79248022408982
 20
3.493746968837357
 30
0.0
 10
-46.18607804116296
 20
3.497911587384107
 30
0.0
 10
-46.38274593150661
 20
3.499992510367285
 30
0.0
  0
SPLINE
  5
21C6
330
1F
100
AcDbEntity
  8
AM_0
100
AcDbSpline
210
0.0
220
0.0
230
1.0
 70
     8
 71
     3
 72
    11
 73
     7
 74
     0
 42
0.0000000001
 43
0.0000000001
 40
11.27226913003534
 40
11.27226913003534
 40
11.27226913003534
 40
11.2722691300354
 40
12.28301561507924
 40
13.29510212255852
 40
14.30984805882082
 40
15.18258238371378
 40
15.18258238371378
 40
15.18258238371378
 40
15.18258238371378
 10
-35.55900006842296
 20
-3.50000748963278
 30
0.0
 10
-35.75492009318972
 20
-3.482877472539421
 30
0.0
 10
-36.14639060030103
 20
-3.441406446685183
 30
0.0
 10
-36.73157488024988
 20
-3.357749129703261
 30
0.0
 10
-37.28692508032696
 20
-3.257829637235422
 30
0.0
 10
-37.64609299133407
 20
-3.181018549580534
 30
0.0
 10
-37.81160779202306
 20
-3.143075993877708
 30
0.0
  0
LINE
  5
21C7
330
1F
100
AcDbEntity
  8
AM_0
100
AcDbLine
 10
-48.03513052748741
 20
3.499992510367296
 30
0.0
 11
-34.11776544040365
 21
3.500489748885696
 31
0.0
  0
LINE
  5
21C8
330
1F
100
AcDbEntity
  8
AM_11
 48
0.5
100
AcDbLine
 10
-14.54610110035599
 20
-3.500007489632833
 30
0.0
 11
-3.427249978790498
 21
-3.500007489632901
 31
0.0
  0
SPLINE
  5
21C9
330
1F
100
AcDbEntity
  8
AM_0
100
AcDbSpline
210
0.0
220
0.0
230
1.0
 70
     8
 71
     3
 72
    17
 73
    13
 74
     0
 42
0.0000000001
 43
0.0000000001
 40
1.580019955310467
 40
1.580019955310467
 40
1.580019955310467
 40
1.580019955310467
 40
2.030549285115227
 40
3.082371838836284
 40
4.126290986361125
 40
5.162752068350215
 40
6.192395305374981
 40
7.216039564037012
 40
8.234688489606833
 40
9.249433870634691
 40
10.26152376260694
 40
11.27226744710342
 40
11.27226744710342
 40
11.27226744710342
 40
11.27226744710352
 10
-8.986241796522328
 20
-2.583110552699128
 30
0.0
 10
-9.069752777854937
 20
-2.609714368367106
 30
0.0
 10
-9.348707512038499
 20
-2.696911927666422
 30
0.0
 10
-9.824952421168919
 20
-2.833684419410211
 30
0.0
 10
-10.41485219417235
 20
-2.986851466051101
 30
0.0
 10
-11.004914366031
 20
-3.121311796761023
 30
0.0
 10
-11.59500357433239
 20
-3.236613863529067
 30
0.0
 10
-12.18515707179544
 20
-3.331918953553297
 30
0.0
 10
-12.77535134127018
 20
-3.406683202708674
 30
0.0
 10
-13.36558236096459
 20
-3.46042211364425
 30
0.0
 10
-13.95583558911486
 20
-3.492789762749528
 30
0.0
 10
-14.34943324759124
 20
-3.500007509660019
 30
0.0
 10
-14.54610110035594
 20
-3.500007489632833
 30
0.0
  0
SPLINE
  5
21CA
330
1F
100
AcDbEntity
  8
AM_0
100
AcDbSpline
210
0.0
220
0.0
230
1.0
 70
     8
 71
     3
 72
    55
 73
    51
 74
     0
 42
0.0000000001
 43
0.0000000001
 40
0.0
 40
0.0
 40
0.0
 40
0.0
 40
1.010743684496582
 40
2.022833576467832
 40
3.037578957496688
 40
4.056212745003489
 40
5.079857003664532
 40
6.109500240690281
 40
7.145961322679372
 40
8.189895241603872
 40
9.241717795325891
 40
10.30168407291828
 40
11.36983447792315
 40
12.44600489715814
 40
13.52984294512926
 40
14.62081576220742
 40
15.7182257034828
 40
16.82123173843959
 40
17.92886860250316
 40
19.0400688939571
 40
20.15368796660465
 40
21.26852814259644
 40
22.38336992938901
 40
23.49698739941135
 40
24.6081876908653
 40
25.71582455492886
 40
26.81883757994213
 40
27.91624752121713
 40
29.00722033829659
 40
30.09105838626677
 40
31.16722880550176
 40
32.23537921050758
 40
33.29534548809967
 40
34.347168041821
 40
35.39108718934584
 40
36.42754827133493
 40
37.45720575381954
 40
38.48085062012849
 40
39.49948440763516
 40
40.51422944315121
 40
41.52631975251916
 40
42.53706336719636
 40
43.54780698187354
 40
44.55989729124051
 40
45.57464232675757
 40
46.59327611426424
 40
47.6169209805722
 40
48.64656348684535
 40
49.68302456883444
 40
50.58557219878025
 40
50.58557219878025
 40
50.58557219878025
 40
50.58557219878025
 10
-3.427249978790497
 20
-3.500007489632901
 30
0.0
 10
-3.623917834149835
 20
-3.497925074425583
 30
0.0
 10
-4.017515486388383
 20
-3.493757470446342
 30
0.0
 10
-4.607768727058251
 20
-3.460161903650949
 30
0.0
 10
-5.197996772042797
 20
-3.406753728587432
 30
0.0
 10
-5.788188287706046
 20
-3.331900139970072
 30
0.0
 10
-6.378337384865734
 20
-3.236615547438345
 30
0.0
 10
-6.968432421199655
 20
-3.121323666390605
 30
0.0
 10
-7.558475370549538
 20
-2.986801144031095
 30
0.0
 10
-8.14846100042688
 20
-2.833871731922663
 30
0.0
 10
-8.738385291954292
 20
-2.663474407378342
 30
0.0
 10
-9.328251185578231
 20
-2.476678736790109
 30
0.0
 10
-9.918060261077199
 20
-2.274627922467829
 30
0.0
 10
-10.50781988764314
 20
-2.058579782055063
 30
0.0
 10
-11.09753276541534
 20
-1.829861977664333
 30
0.0
 10
-11.68720436264672
 20
-1.589885034615945
 30
0.0
 10
-12.27684121887508
 20
-1.340129419006468
 30
0.0
 10
-12.86644850906831
 20
-1.082131009703837
 30
0.0
 10
-13.45603195543232
 20
-0.8174765972891224
 30
0.0
 10
-14.04559786676052
 20
-0.5477950982282199
 30
0.0
 10
-14.63515141410719
 20
-0.2747444035479725
 30
0.0
 10
-15.2247009228816
 20
-0.0000082037599694
 30
0.0
 10
-15.814247785072
 20
0.2747329414508475
 30
0.0
 10
-16.40380330847366
 20
0.5477793840095434
 30
0.0
 10
-16.99336849197485
 20
0.8174616993809896
 30
0.0
 10
-17.5829529895596
 20
1.082117120011054
 30
0.0
 10
-18.1725627257267
 20
1.340113327509956
 30
0.0
 10
-18.76220051255781
 20
1.589870209727909
 30
0.0
 10
-19.35187219491815
 20
1.829846958179738
 30
0.0
 10
-19.94158505123258
 20
2.058564810668962
 30
0.0
 10
-20.53134467930868
 20
2.274612951397763
 30
0.0
 10
-21.12115376983055
 20
2.476663717406648
 30
0.0
 10
-21.71101960257388
 20
2.663459578730446
 30
0.0
 10
-22.30094135882338
 20
2.833855398668573
 30
0.0
 10
-22.89092334032105
 20
2.986786813770755
 30
0.0
 10
-23.48096607079563
 20
3.121312041208954
 30
0.0
 10
-24.07106532060588
 20
3.236590754323457
 30
0.0
 10
-24.66121636745142
 20
3.331904839450858
 30
0.0
 10
-25.25140805807383
 20
3.40666969880046
 30
0.0
 10
-25.84163651316677
 20
3.460402202255435
 30
0.0
 10
-26.43188925337223
 20
3.492780007540529
 30
0.0
 10
-27.0221549640237
 20
3.503596360935422
 30
0.0
 10
-27.61242067380666
 20
3.492780007523575
 30
0.0
 10
-28.20267341662265
 20
3.460402202323474
 30
0.0
 10
-28.79290186210433
 20
3.406669698544066
 30
0.0
 10
-29.38309358876169
 20
3.331904840414344
 30
0.0
 10
-29.97324162303939
 20
3.236591215372043
 30
0.0
 10
-30.5633385480832
 20
3.121313219871504
 30
0.0
 10
-31.12655331609746
 20
2.992893407412045
 30
0.0
 10
-31.49197347165722
 20
2.898978784521464
 30
0.0
 10
-31.66150712560988
 20
2.85320960735568
 30
0.0
  0
SPLINE
  5
21CB
330
1F
100
AcDbEntity
  8
AM_0
 48
0.5
100
AcDbSpline
210
0.0
220
0.0
230
1.0
 70
     8
 71
     3
 72
    25
 73
    21
 74
     0
 42
0.0000000001
 43
0.0000000001
 40
6.846175049578289
 40
6.846175049578289
 40
6.846175049578289
 40
6.846175049578289
 40
7.604337694224321
 40
8.711974558287883
 40
9.814980593243754
 40
10.91239053451967
 40
12.0033633515982
 40
13.08720139956839
 40
14.16337181880432
 40
15.23152222380919
 40
16.29148850140128
 40
17.34331105512262
 40
18.38723020264746
 40
19.42369128463655
 40
20.45333379090873
 40
21.47697865721768
 40
22.49561244472435
 40
23.5103574802404
 40
24.52244778960836
 40
25.53320666051913
 40
25.53320666051913
 40
25.53320666051913
 40
25.53320666051913
 10
-4.115633820789437
 20
0.6335154243450376
 30
0.0
 10
-4.2497191520451
 20
0.694969199617955
 30
0.0
 10
-4.579978486110598
 20
0.8455888465086863
 30
0.0
 10
-5.106902623477177
 20
1.082115912601158
 30
0.0
 10
-5.696509846047143
 20
1.340114471157636
 30
0.0
 10
-6.286146720347265
 20
1.589870046745339
 30
0.0
 10
-6.875818312457176
 20
1.829847001631883
 30
0.0
 10
-7.465531192773618
 20
2.058564798423377
 30
0.0
 10
-8.055290814288413
 20
2.274612957312878
 30
0.0
 10
-8.645099907277995
 20
2.476663705986182
 30
0.0
 10
-9.234965736677303
 20
2.663459618106678
 30
0.0
 10
-9.824887503737604
 20
2.833855254123049
 30
0.0
 10
-10.41486944574316
 20
2.986787347050632
 30
0.0
 10
-11.00490948062057
 20
3.121309424010225
 30
0.0
 10
-11.59500530337524
 20
3.236596960916105
 30
0.0
 10
-12.18515363040129
 20
3.331885778499001
 30
0.0
 10
-12.7753452792277
 20
3.406739765315802
 30
0.0
 10
-13.36557374534351
 20
3.460142218509103
 30
0.0
 10
-13.95582944756219
 20
3.493747173378431
 30
0.0
 10
-14.34943023871497
 20
3.497911645055415
 30
0.0
 10
-14.54610110035594
 20
3.499992510367166
 30
0.0
  0
LINE
  5
21CC
330
1F
100
AcDbEntity
  8
AM_11
 48
0.5
100
AcDbLine
 10
-14.54610110035594
 20
3.499992510367166
 30
0.0
 11
-3.427249978790456
 21
3.499992510367098
 31
0.0
  0
VIEWPORT
  5
110
330
101
100
AcDbEntity
 67
     1
  8
0
100
AcDbViewport
 10
420.5
 20
297.0
 30
0.0
 40
948.9782706766916
 41
628.452
 68
     1
 69
     1
1001
ACAD
1000
MVIEW
1002
{
1070
    16
1010
0.0
1020
0.0
1030
0.0
1010
0.0
1020
0.0
1030
1.0
1040
0.0
1040
628.452
1040
420.5
1040
297.0
1040
50.0
1040
0.0
1040
0.0
1070
     0
1070
   100
1070
     1
1070
     1
1070
     0
1070
     0
1070
     0
1070
     0
1040
0.0
1040
0.0
1040
0.0
1040
10.0
1040
10.0
1040
10.0
1040
10.0
1070
     0
1002
{
1002
}
1002
}
  0
ENDSEC
  0
SECTION
  2
OBJECTS
  0
DICTIONARY
  5
C
330
0
100
AcDbDictionary
  3
ACAD_GROUP
350
D
  3
ACAD_LAYOUT
350
1A
  3
ACAD_MLINESTYLE
350
17
  3
ACAD_PLOTSETTINGS
350
19
  3
ACAD_PLOTSTYLENAME
350
E
  3
ACDBVARIABLEDICTIONARY
350
34
  3
ACMDICTIONARY
350
43
  3
AMG
350
2B
  3
AMGSNAPSETTINGS
350
6E
  3
DWGPROPS
350
2209
  3
ACDBHEADERROUNDTRIPXREC
350
2216
  0
DICTIONARY
  5
74
330
1F
100
AcDbDictionary
280
     1
  3
ACAD_INDEX
360
220B
  3
ACAD_LAYOUTSELFREF
360
2239
  0
DICTIONARY
  5
223E
330
101
100
AcDbDictionary
280
     1
  3
ACAD_LAYOUTSELFREF
360
223F
  0
DICTIONARY
  5
D
102
{ACAD_REACTORS
330
C
102
}
330
C
100
AcDbDictionary
  0
DICTIONARY
  5
1A
102
{ACAD_REACTORS
330
C
102
}
330
C
100
AcDbDictionary
  0
DICTIONARY
  5
17
102
{ACAD_REACTORS
330
C
102
}
330
C
100
AcDbDictionary
  3
STANDARD
350
18
  0
DICTIONARY
  5
19
102
{ACAD_REACTORS
330
C
102
}
330
C
100
AcDbDictionary
  0
ACDBDICTIONARYWDFLT
  5
E
102
{ACAD_REACTORS
330
C
102
}
330
C
100
AcDbDictionary
281
     1
  3
Normal
350
F
100
AcDbDictionaryWithDefault
340
F
  0
DICTIONARY
  5
34
102
{ACAD_REACTORS
330
C
102
}
330
C
100
AcDbDictionary
  3
INDEXCTL
350
35
  3
SORTENTS
350
B5E
  0
DICTIONARY
  5
43
102
{ACAD_REACTORS
330
C
102
}
330
C
100
AcDbDictionary
  3
ACMSTDDICTIONARY
350
260
  0
DICTIONARY
  5
2B
102
{ACAD_REACTORS
330
C
102
}
330
C
100
AcDbDictionary
  3
ACMGSETTINGS
350
2C
  0
DICTIONARY
  5
6E
102
{ACAD_REACTORS
330
C
102
}
330
C
100
AcDbDictionary
  0
XRECORD
  5
2209
102
{ACAD_REACTORS
330
C
102
}
330
C
100
AcDbXrecord
  1
DWGPROPS COOKIE
  2

  3

  4

  6

  7

  8

  9

300
AmdtFileType=82
301
=
302
=
303
=
304
=
305
=
306
=
307
=
308
=
309
=
 40
0.0933216203703704
 41
2452800.443498622
 42
2452982.702122372
  1

 90
        1
  0
DICTIONARY
  5
2216
102
{ACAD_REACTORS
330
C
102
}
330
C
100
AcDbDictionary
  3
TSTACKALIGN
350
2217
  3
TSTACKSIZE
350
2218
  3
HYPERLINKBASE
350
2219
  3
STYLESHEET
350
221A
  3
LAYOUTDICT
350
221B
  3
PLOTSETDICT
350
221C
  3
PLOTSTYLNAMDICT
350
221D
  3
LWETCUNION
350
221E
  3
INSUNITS
350
221F
  3
CEPSNTYPE
350
2220
  3
FINGERPRINTGUID
350
2221
  3
VERSIONGUID
350
2222
  3
PSVPSCALE
350
2223
  3
DIMSTYLEDATA
350
2224
  3
PUCSORTHOREF
350
2225
  3
PUCSORTHOVIEW
350
2226
  3
PUCSBASE
350
2227
  3
PUCSORGTOP
350
2228
  3
PUCSORGBOTTOM
350
2229
  3
PUCSORGLEFT
350
222A
  3
PUCSORGRIGHT
350
222B
  3
PUCSORGFRONT
350
222C
  3
PUCSORGBACK
350
222D
  3
UCSORTHOREF
350
222E
  3
UCSORTHOVIEW
350
222F
  3
UCSBASE
350
2230
  3
UCSORGTOP
350
2231
  3
UCSORGBOTTOM
350
2232
  3
UCSORGLEFT
350
2233
  3
UCSORGRIGHT
350
2234
  3
UCSORGFRONT
350
2235
  3
UCSORGBACK
350
2236
  0
DICTIONARY
  5
220B
102
{ACAD_REACTORS
330
74
102
}
330
74
100
AcDbDictionary
  3
*A1
350
220C
  0
XRECORD
  5
2239
102
{ACAD_REACTORS
330
74
102
}
330
74
100
AcDbXrecord
340
1F
  0
XRECORD
  5
223F
102
{ACAD_REACTORS
330
223E
102
}
330
223E
100
AcDbXrecord
340
101
  0
MLINESTYLE
  5
18
102
{ACAD_REACTORS
330
17
102
}
330
17
100
AcDbMlineStyle
  2
STANDARD
 70
     0
  3

 62
   256
 51
90.0
 52
90.0
 71
     2
 49
0.5
 62
   256
  6
BYLAYER
 49
-0.5
 62
   256
  6
BYLAYER
  0
ACDBPLACEHOLDER
  5
F
102
{ACAD_REACTORS
330
E
102
}
330
E
100
AcDbPlaceHolder
280
     0
  0
DICTIONARYVAR
  5
35
102
{ACAD_REACTORS
330
34
102
}
330
34
100
DictionaryVariables
280
     0
  1
1
  0
DICTIONARYVAR
  5
B5E
102
{ACAD_REACTORS
330
34
102
}
330
34
100
DictionaryVariables
280
     0
  1
96
  0
DICTIONARY
  5
260
102
{ACAD_REACTORS
330
43
102
}
330
43
100
AcDbDictionary
  0
DICTIONARY
  5
2C
102
{ACAD_REACTORS
330
2B
102
}
330
2B
100
AcDbDictionary
  3
DWGSETTINGS
350
2D
  0
XRECORD
  5
2217
102
{ACAD_REACTORS
330
2216
102
}
330
2216
100
AcDbXrecord
 90
        1
  0
XRECORD
  5
2218
102
{ACAD_REACTORS
330
2216
102
}
330
2216
100
AcDbXrecord
 90
       70
  0
XRECORD
  5
2219
102
{ACAD_REACTORS
330
2216
102
}
330
2216
100
AcDbXrecord
  1

  0
XRECORD
  5
221A
102
{ACAD_REACTORS
330
2216
102
}
330
2216
100
AcDbXrecord
  1
ASAMI.ctb
  0
XRECORD
  5
221B
102
{ACAD_REACTORS
330
2216
102
}
330
2216
100
AcDbXrecord
340
1A
  0
XRECORD
  5
221C
102
{ACAD_REACTORS
330
2216
102
}
330
2216
100
AcDbXrecord
340
19
  0
XRECORD
  5
221D
102
{ACAD_REACTORS
330
2216
102
}
330
2216
100
AcDbXrecord
340
E
  0
XRECORD
  5
221E
102
{ACAD_REACTORS
330
2216
102
}
330
2216
100
AcDbXrecord
 90
    10781
  0
XRECORD
  5
221F
102
{ACAD_REACTORS
330
2216
102
}
330
2216
100
AcDbXrecord
 90
        4
  0
XRECORD
  5
2220
102
{ACAD_REACTORS
330
2216
102
}
330
2216
100
AcDbXrecord
 90
        0
  0
XRECORD
  5
2221
102
{ACAD_REACTORS
330
2216
102
}
330
2216
100
AcDbXrecord
  1
{AFB28963-8C59-40AE-9337-C84526B81ACE}
  0
XRECORD
  5
2222
102
{ACAD_REACTORS
330
2216
102
}
330
2216
100
AcDbXrecord
  1
{75AE6CF8-9D3C-4BE4-8CF9-D715FA109A9D}
  0
XRECORD
  5
2223
102
{ACAD_REACTORS
330
2216
102
}
330
2216
100
AcDbXrecord
 40
0.0
  0
XRECORD
  5
2224
102
{ACAD_REACTORS
330
2216
102
}
330
2216
100
AcDbXrecord
1000
DSTYLE
1002
{
1070
    79
 70
     2
1070
   341
340
59
1070
   342
340
59
1070
   371
 70
    -1
1070
   372
 70
    -1
1002
}
  0
XRECORD
  5
2225
102
{ACAD_REACTORS
330
2216
102
}
330
2216
100
AcDbXrecord
340
0
  0
XRECORD
  5
2226
102
{ACAD_REACTORS
330
2216
102
}
330
2216
100
AcDbXrecord
 70
     0
  0
XRECORD
  5
2227
102
{ACAD_REACTORS
330
2216
102
}
330
2216
100
AcDbXrecord
340
0
  0
XRECORD
  5
2228
102
{ACAD_REACTORS
330
2216
102
}
330
2216
100
AcDbXrecord
 10
0.0
 20
0.0
 30
0.0
  0
XRECORD
  5
2229
102
{ACAD_REACTORS
330
2216
102
}
330
2216
100
AcDbXrecord
 10
0.0
 20
0.0
 30
0.0
  0
XRECORD
  5
222A
102
{ACAD_REACTORS
330
2216
102
}
330
2216
100
AcDbXrecord
 10
0.0
 20
0.0
 30
0.0
  0
XRECORD
  5
222B
102
{ACAD_REACTORS
330
2216
102
}
330
2216
100
AcDbXrecord
 10
0.0
 20
0.0
 30
0.0
  0
XRECORD
  5
222C
102
{ACAD_REACTORS
330
2216
102
}
330
2216
100
AcDbXrecord
 10
0.0
 20
0.0
 30
0.0
  0
XRECORD
  5
222D
102
{ACAD_REACTORS
330
2216
102
}
330
2216
100
AcDbXrecord
 10
0.0
 20
0.0
 30
0.0
  0
XRECORD
  5
222E
102
{ACAD_REACTORS
330
2216
102
}
330
2216
100
AcDbXrecord
340
0
  0
XRECORD
  5
222F
102
{ACAD_REACTORS
330
2216
102
}
330
2216
100
AcDbXrecord
 70
     0
  0
XRECORD
  5
2230
102
{ACAD_REACTORS
330
2216
102
}
330
2216
100
AcDbXrecord
340
0
  0
XRECORD
  5
2231
102
{ACAD_REACTORS
330
2216
102
}
330
2216
100
AcDbXrecord
 10
0.0
 20
0.0
 30
0.0
  0
XRECORD
  5
2232
102
{ACAD_REACTORS
330
2216
102
}
330
2216
100
AcDbXrecord
 10
0.0
 20
0.0
 30
0.0
  0
XRECORD
  5
2233
102
{ACAD_REACTORS
330
2216
102
}
330
2216
100
AcDbXrecord
 10
0.0
 20
0.0
 30
0.0
  0
XRECORD
  5
2234
102
{ACAD_REACTORS
330
2216
102
}
330
2216
100
AcDbXrecord
 10
0.0
 20
0.0
 30
0.0
  0
XRECORD
  5
2235
102
{ACAD_REACTORS
330
2216
102
}
330
2216
100
AcDbXrecord
 10
0.0
 20
0.0
 30
0.0
  0
XRECORD
  5
2236
102
{ACAD_REACTORS
330
2216
102
}
330
2216
100
AcDbXrecord
 10
0.0
 20
0.0
 30
0.0
  0
LAYER_INDEX
  5
220C
102
{ACAD_REACTORS
330
220B
102
}
330
220B
100
AcDbIndex
 40
2453151.584860011
100
AcDbLayerIndex
  8
0
360
220D
 90
        0
  8
AM_0
360
220E
 90
       45
  8
AM_7
360
220F
 90
        1
  8
AM_11
360
2210
 90
        6
  8
AM_5
360
2211
 90
        5
  8
Defpoints
360
2212
 90
        0
  8
AM_6
360
2213
 90
        1
  8
AM_CL
360
2214
 90
        0
  0
XRECORD
  5
2D
102
{ACAD_REACTORS
330
2C
102
}
330
2C
100
AcDbXrecord
  1
VERSION
140
15.0
  1
PRODUCT
  2
AutoCAD Mechanical 2000
  0
IDBUFFER
  5
220D
330
0
100
AcDbIdBuffer
  0
IDBUFFER
  5
220E
330
0
100
AcDbIdBuffer
330
206D
330
21AB
330
21AC
330
21AD
330
21AE
330
21AF
330
21B2
330
21B3
330
21B4
330
21B5
330
21B6
330
21B7
330
21B8
330
21BA
330
21BB
330
21BC
330
21BD
330
21BF
330
21C0
330
21C1
330
21C2
330
21C3
330
21C4
330
21C5
330
21C6
330
21C7
330
21C9
330
21CA
330
21CB
330
C30
330
1CF0
330
1CF4
330
1CF9
330
1CFD
330
1CFE
330
1E8F
330
1E90
330
1E92
330
1E94
330
1EA0
330
1EA1
330
1EAD
330
1EAE
330
1EB3
330
206C
  0
IDBUFFER
  5
220F
330
0
100
AcDbIdBuffer
330
C9F
  0
IDBUFFER
  5
2210
330
0
100
AcDbIdBuffer
330
21B0
330
21B1
330
21B9
330
21BE
330
21C8
330
21CC
  0
IDBUFFER
  5
2211
330
0
100
AcDbIdBuffer
330
CC6
330
DF5
330
11B2
330
1E80
330
1ED0
  0
IDBUFFER
  5
2212
330
0
100
AcDbIdBuffer
  0
IDBUFFER
  5
2213
330
0
100
AcDbIdBuffer
330
19BD
  0
IDBUFFER
  5
2214
330
0
100
AcDbIdBuffer
  0
ENDSEC
  0
EOF
