  0
SECTION
  2
HEADER
  9
$ACADVER
  1
AC1014
  9
$ACADMAINTVER
 70
     9
  9
$DWGCODEPAGE
  3
ANSI_932
  9
$INSBASE
 10
0.0
 20
0.0
 30
0.0
  9
$EXTMIN
 10
-141.4000010004113
 20
-26.7556519466985
 30
-0.00000001
  9
$EXTMAX
 10
12.01926064385549
 20
11.76425684472645
 30
0.00000001
  9
$LIMMIN
 10
-146.8918855778464
 20
-49.00444319852494
  9
$LIMMAX
 10
26.32873230791153
 20
27.7040929388018
  9
$ORTHOMODE
 70
     0
  9
$REGENMODE
 70
     1
  9
$FILLMODE
 70
     1
  9
$QTEXTMODE
 70
     0
  9
$MIRRTEXT
 70
     0
  9
$DRAGMODE
 70
     2
  9
$LTSCALE
 40
1.0
  9
$OSMODE
 70
    55
  9
$ATTMODE
 70
     1
  9
$TEXTSIZE
 40
2.5
  9
$TRACEWID
 40
1.0
  9
$TEXTSTYLE
  7
STANDARD
  9
$CLAYER
  8
AM_0
  9
$CELTYPE
  6
BYLAYER
  9
$CECOLOR
 62
   256
  9
$CELTSCALE
 40
1.0
  9
$DELOBJ
 70
     1
  9
$DISPSILH
 70
     0
  9
$DIMSCALE
 40
0.5
  9
$DIMASZ
 40
2.5
  9
$DIMEXO
 40
1.0
  9
$DIMDLI
 40
12.0
  9
$DIMRND
 40
0.0
  9
$DIMDLE
 40
0.0
  9
$DIMEXE
 40
1.0
  9
$DIMTP
 40
0.1
  9
$DIMTM
 40
0.1
  9
$DIMTXT
 40
3.2
  9
$DIMCEN
 40
0.0
  9
$DIMTSZ
 40
0.0
  9
$DIMTOL
 70
     0
  9
$DIMLIM
 70
     0
  9
$DIMTIH
 70
     0
  9
$DIMTOH
 70
     0
  9
$DIMSE1
 70
     0
  9
$DIMSE2
 70
     0
  9
$DIMTAD
 70
     3
  9
$DIMZIN
 70
     8
  9
$DIMBLK
  1
OPEN30
  9
$DIMASO
 70
     1
  9
$DIMSHO
 70
     1
  9
$DIMPOST
  1

  9
$DIMAPOST
  1
"
  9
$DIMALT
 70
     0
  9
$DIMALTD
 70
     2
  9
$DIMALTF
 40
0.0393701
  9
$DIMLFAC
 40
1.0
  9
$DIMTOFL
 70
     1
  9
$DIMTVP
 40
0.0
  9
$DIMTIX
 70
     0
  9
$DIMSOXD
 70
     0
  9
$DIMSAH
 70
     0
  9
$DIMBLK1
  1

  9
$DIMBLK2
  1

  9
$DIMSTYLE
  2
AM_JIS
  9
$DIMCLRD
 70
   256
  9
$DIMCLRE
 70
   256
  9
$DIMCLRT
 70
     2
  9
$DIMTFAC
 40
0.71
  9
$DIMGAP
 40
1.5
  9
$DIMJUST
 70
     0
  9
$DIMSD1
 70
     0
  9
$DIMSD2
 70
     0
  9
$DIMTOLJ
 70
     0
  9
$DIMTZIN
 70
     0
  9
$DIMALTZ
 70
     0
  9
$DIMALTTZ
 70
     0
  9
$DIMFIT
 70
     3
  9
$DIMUPT
 70
     0
  9
$DIMUNIT
 70
     2
  9
$DIMDEC
 70
     3
  9
$DIMTDEC
 70
     3
  9
$DIMALTU
 70
     2
  9
$DIMALTTD
 70
     2
  9
$DIMTXSTY
  7
ASAMI
  9
$DIMAUNIT
 70
     0
  9
$LUNITS
 70
     2
  9
$LUPREC
 70
     2
  9
$SKETCHINC
 40
1.0
  9
$FILLETRAD
 40
2.5
  9
$AUNITS
 70
     0
  9
$AUPREC
 70
     0
  9
$MENU
  1
.
  9
$ELEVATION
 40
0.0
  9
$PELEVATION
 40
0.0
  9
$THICKNESS
 40
0.0
  9
$LIMCHECK
 70
     0
  9
$BLIPMODE
 70
     0
  9
$CHAMFERA
 40
0.5
  9
$CHAMFERB
 40
0.5
  9
$CHAMFERC
 40
20.0
  9
$CHAMFERD
 40
0.0
  9
$SKPOLY
 70
     0
  9
$TDCREATE
 40
2452800.443498622
  9
$TDUPDATE
 40
2453151.722965845
  9
$TDINDWG
 40
0.1464093171
  9
$TDUSRTIMER
 40
0.1464093171
  9
$USRTIMER
 70
     1
  9
$ANGBASE
 50
0.0
  9
$ANGDIR
 70
     0
  9
$PDMODE
 70
     0
  9
$PDSIZE
 40
0.0
  9
$PLINEWID
 40
0.0
  9
$COORDS
 70
     1
  9
$SPLFRAME
 70
     0
  9
$SPLINETYPE
 70
     6
  9
$SPLINESEGS
 70
     8
  9
$ATTDIA
 70
     1
  9
$ATTREQ
 70
     1
  9
$HANDLING
 70
 12289
  9
$HANDSEED
  5
53D8
  9
$SURFTAB1
 70
     6
  9
$SURFTAB2
 70
     6
  9
$SURFTYPE
 70
     6
  9
$SURFU
 70
     6
  9
$SURFV
 70
     6
  9
$UCSNAME
  2

  9
$UCSORG
 10
0.0
 20
0.0
 30
0.0
  9
$UCSXDIR
 10
1.0
 20
0.000000000000002
 30
0.0
  9
$UCSYDIR
 10
-0.000000000000002
 20
1.0
 30
0.0
  9
$PUCSNAME
  2

  9
$PUCSORG
 10
0.0
 20
0.0
 30
0.0
  9
$PUCSXDIR
 10
1.0
 20
0.0
 30
0.0
  9
$PUCSYDIR
 10
0.0
 20
1.0
 30
0.0
  9
$USERI1
 70
     0
  9
$USERI2
 70
     0
  9
$USERI3
 70
     0
  9
$USERI4
 70
     0
  9
$USERI5
 70
     0
  9
$USERR1
 40
0.0
  9
$USERR2
 40
0.0
  9
$USERR3
 40
0.0
  9
$USERR4
 40
0.0
  9
$USERR5
 40
0.0
  9
$WORLDVIEW
 70
     1
  9
$SHADEDGE
 70
     3
  9
$SHADEDIF
 70
    70
  9
$TILEMODE
 70
     1
  9
$MAXACTVP
 70
    64
  9
$PINSBASE
 10
0.0
 20
0.0
 30
0.0
  9
$PLIMCHECK
 70
     0
  9
$PEXTMIN
 10
1.000000000000000E+20
 20
1.000000000000000E+20
 30
1.000000000000000E+20
  9
$PEXTMAX
 10
-1.000000000000000E+20
 20
-1.000000000000000E+20
 30
-1.000000000000000E+20
  9
$PLIMMIN
 10
0.0
 20
0.0
  9
$PLIMMAX
 10
841.0
 20
594.0
  9
$UNITMODE
 70
     0
  9
$VISRETAIN
 70
     1
  9
$PLINEGEN
 70
     0
  9
$PSLTSCALE
 70
     0
  9
$TREEDEPTH
 70
  3020
  9
$PICKSTYLE
 70
     0
  9
$CMLSTYLE
  2
STANDARD
  9
$CMLJUST
 70
     0
  9
$CMLSCALE
 40
20.0
  9
$PROXYGRAPHICS
 70
     1
  9
$MEASUREMENT
 70
     1
  0
ENDSEC
  0
SECTION
  2
CLASSES
  0
CLASS
  1
ACDBDICTIONARYWDFLT
  2
AcDbDictionaryWithDefault
  3
AutoCAD 2000
 90
        0
280
     0
281
     0
  0
CLASS
  1
ACDBPLACEHOLDER
  2
AcDbPlaceHolder
  3
AutoCAD 2000
 90
        0
280
     0
281
     0
  0
CLASS
  1
LAYOUT
  2
AcDbLayout
  3
AutoCAD 2000
 90
        0
280
     0
281
     0
  0
CLASS
  1
AMGSETTINGSOBJ
  2
AmgSettingsObj
  3
"AcadM|Product Description: AutoCAD Mechanical 2000|Company: Autodesk"
 90
        0
280
     0
281
     0
  0
CLASS
  1
ACME_DOCUMENT
  2
AcMeDbDoc
  3
AcMeServices
 90
        0
280
     0
281
     0
  0
CLASS
  1
ACMESCOPE
  2
AcMeScope
  3
AcMeServices
 90
        0
280
     0
281
     0
  0
CLASS
  1
ACMECOMMANDHISTORY
  2
AcMeCommandHistory
  3
AcMeServices
 90
        0
280
     0
281
     0
  0
CLASS
  1
DICTIONARYVAR
  2
AcDbDictionaryVar
  3
AutoCAD 2000
 90
        0
280
     0
281
     0
  0
CLASS
  1
ACIMSYSVARMAN
  2
AcImSysVarManager
  3
AcMeServices
 90
        0
280
     0
281
     0
  0
CLASS
  1
ACIMREALSYSVAR
  2
AcImRealSysVar
  3
AcMeServices
 90
        0
280
     0
281
     0
  0
CLASS
  1
ACIMINTSYSVAR
  2
AcImIntSysVar
  3
AcMeServices
 90
        0
280
     0
281
     0
  0
CLASS
  1
ACMEDRAWINGMAN
  2
AcMeDrawingMan
  3
AcMeServices
 90
        0
280
     0
281
     0
  0
CLASS
  1
ACMEVIEW
  2
AcMeView
  3
AcMeServices
 90
        0
280
     0
281
     0
  0
CLASS
  1
ACDBENTITYCACHE
  2
AcMeEntityCache
  3
AcMeServices
 90
        0
280
     0
281
     0
  0
CLASS
  1
GSMANAGER
  2
AcMeGSManager
  3
AcMeServices
 90
        0
280
     0
281
     0
  0
CLASS
  1
AmdtInternalReactor
  2
AmdtInternalReactor
  3
AcMeServices
 90
        0
280
     0
281
     0
  0
CLASS
  1
ACMESTATEMGR
  2
AcMeStateMgr
  3
AcMeServices
 90
        0
280
     0
281
     0
  0
CLASS
  1
ACME_DATABASE
  2
AcMeDbDatabase
  3
AcMeServices
 90
        0
280
     0
281
     0
  0
CLASS
  1
ACRFINSADJUSTERMGR
  2
AcRfInsAdjusterMgr
  3
AcMeServices
 90
        0
280
     0
281
     0
  0
CLASS
  1
ACMDATADICTIONARY
  2
AcmDataDictionary
  3
"AcmSymBB|Product Description: AutoCAD Mechanical 2000|Company: Autodesk"
 90
        0
280
     0
281
     0
  0
CLASS
  1
ACMDATAENTRYBLOCK
  2
AcmDataEntryBlock
  3
"AcmSymBB|Product Description: AutoCAD Mechanical 2000|Company: Autodesk"
 90
        0
280
     0
281
     0
  0
CLASS
  1
AMGOBJPROPCFG
  2
AmgObjPropCfg
  3
"AmgLay|Product Description: AutoCAD Mechanical 2000|Company: Autodesk"
 90
        1
280
     0
281
     0
  0
CLASS
  1
ACAMGFILTERDAT
  2
AcAmgFilterDat
  3
"AcadM|Product Description: AutoCAD Mechanical 2000|Company: Autodesk"
 90
        0
280
     0
281
     0
  0
CLASS
  1
LAYER_INDEX
  2
AcDbLayerIndex
  3
AutoCAD 2000
 90
        0
280
     0
281
     0
  0
CLASS
  1
IDBUFFER
  2
AcDbIdBuffer
  3
AutoCAD 2000
 90
        0
280
     0
281
     0
  0
CLASS
  1
ACIMSTRSYSVAR
  2
AcImStrSysVar
  3
AcMeServices
 90
        0
280
     0
281
     0
  0
CLASS
  1
ACMSTANDARDJIS
  2
AcmStandardJIS
  3
"AcmSymBB|Product Description: AutoCAD Mechanical 2000|Company: Autodesk"
 90
        0
280
     0
281
     0
  0
CLASS
  1
ACMSURFSTANDARDJIS
  2
AcmSurfTextStdJIS
  3
"AcmSymBB|Product Description: AutoCAD Mechanical 2000|Company: Autodesk"
 90
        0
280
     0
281
     0
  0
CLASS
  1
ACMFCFSTANDARDJIS
  2
AcmFCFStdJIS
  3
"AcmSymBB|Product Description: AutoCAD Mechanical 2000|Company: Autodesk"
 90
        0
280
     0
281
     0
  0
CLASS
  1
ACMWELDSTANDARDJIS
  2
AcmWeldingStdJIS
  3
"AcmSymBB|Product Description: AutoCAD Mechanical 2000|Company: Autodesk"
 90
        0
280
     0
281
     0
  0
CLASS
  1
ACMIDSTANDARDJIS
  2
AcmIdStdJIS
  3
"AcmSymBB|Product Description: AutoCAD Mechanical 2000|Company: Autodesk"
 90
        0
280
     0
281
     0
  0
CLASS
  1
ACMDATUMSTANDARDJIS
  2
AcmDatumStdJIS
  3
"AcmSymBB|Product Description: AutoCAD Mechanical 2000|Company: Autodesk"
 90
        0
280
     0
281
     0
  0
CLASS
  1
ACMBOMSTANDARDJIS
  2
AcmBOMStdJIS
  3
"AcmSymBB|Product Description: AutoCAD Mechanical 2000|Company: Autodesk"
 90
        0
280
     0
281
     0
  0
CLASS
  1
ACMSTANDARDANSI
  2
AcmStandardANSI
  3
"AcmSymBB|Product Description: AutoCAD Mechanical 2000|Company: Autodesk"
 90
        0
280
     0
281
     0
  0
CLASS
  1
ACMSURFSTANDARDANSI
  2
AcmSurfTextStdANSI
  3
"AcmSymBB|Product Description: AutoCAD Mechanical 2000|Company: Autodesk"
 90
        0
280
     0
281
     0
  0
CLASS
  1
ACMFCFSTANDARDANSI
  2
AcmFCFStdANSI
  3
"AcmSymBB|Product Description: AutoCAD Mechanical 2000|Company: Autodesk"
 90
        0
280
     0
281
     0
  0
CLASS
  1
ACMWELDSTANDARDANSI
  2
AcmWeldingStdANSI
  3
"AcmSymBB|Product Description: AutoCAD Mechanical 2000|Company: Autodesk"
 90
        0
280
     0
281
     0
  0
CLASS
  1
ACMIDSTANDARDANSI
  2
AcmIdStdANSI
  3
"AcmSymBB|Product Description: AutoCAD Mechanical 2000|Company: Autodesk"
 90
        0
280
     0
281
     0
  0
CLASS
  1
ACMDATUMSTANDARDANSI
  2
AcmDatumStdANSI
  3
"AcmSymBB|Product Description: AutoCAD Mechanical 2000|Company: Autodesk"
 90
        0
280
     0
281
     0
  0
CLASS
  1
ACMBOMSTANDARDANSI
  2
AcmBOMStdANSI
  3
"AcmSymBB|Product Description: AutoCAD Mechanical 2000|Company: Autodesk"
 90
        0
280
     0
281
     0
  0
CLASS
  1
ACMSTANDARDBSI
  2
AcmStandardBSI
  3
"AcmSymBB|Product Description: AutoCAD Mechanical 2000|Company: Autodesk"
 90
        0
280
     0
281
     0
  0
CLASS
  1
ACMSURFSTANDARDBSI
  2
AcmSurfTextStdBSI
  3
"AcmSymBB|Product Description: AutoCAD Mechanical 2000|Company: Autodesk"
 90
        0
280
     0
281
     0
  0
CLASS
  1
ACMFCFSTANDARDBSI
  2
AcmFCFStdBSI
  3
"AcmSymBB|Product Description: AutoCAD Mechanical 2000|Company: Autodesk"
 90
        0
280
     0
281
     0
  0
CLASS
  1
ACMWELDSTANDARDBSI
  2
AcmWeldingStdBSI
  3
"AcmSymBB|Product Description: AutoCAD Mechanical 2000|Company: Autodesk"
 90
        0
280
     0
281
     0
  0
CLASS
  1
ACMIDSTANDARDBSI
  2
AcmIdStdBSI
  3
"AcmSymBB|Product Description: AutoCAD Mechanical 2000|Company: Autodesk"
 90
        0
280
     0
281
     0
  0
CLASS
  1
ACMDATUMSTANDARDBSI
  2
AcmDatumStdBSI
  3
"AcmSymBB|Product Description: AutoCAD Mechanical 2000|Company: Autodesk"
 90
        0
280
     0
281
     0
  0
CLASS
  1
ACMBOMSTANDARDBSI
  2
AcmBOMStdBSI
  3
"AcmSymBB|Product Description: AutoCAD Mechanical 2000|Company: Autodesk"
 90
        0
280
     0
281
     0
  0
CLASS
  1
LONG_TRANSACTION
  2
AcDbLongTransaction
  3
AutoCAD 2000
 90
        0
280
     0
281
     0
  0
CLASS
  1
LWPOLYLINE
  2
AcDbPolyline
  3
AutoCAD 2000
 90
        0
280
     0
281
     1
  0
CLASS
  1
HATCH
  2
AcDbHatch
  3
AutoCAD 2000
 90
        0
280
     0
281
     1
  0
CLASS
  1
XRECORD
  2
AcDbXrecord
  3
AutoCAD 2000
 90
        0
280
     0
281
     0
  0
ENDSEC
  0
SECTION
  2
TABLES
  0
TABLE
  2
VPORT
  5
8
330
0
100
AcDbSymbolTable
 70
     3
  0
VPORT
  5
53AD
330
8
100
AcDbSymbolTableRecord
100
AcDbViewportTableRecord
  2
*ACTIVE
 70
     0
 10
0.0
 20
0.0
 11
1.0
 21
1.0
 12
-50.46092736124068
 22
-15.62885417560342
 13
0.0
 23
0.0
 14
2.5
 24
2.5
 15
10.0
 25
10.0
 16
0.0
 26
0.0
 36
1.0
 17
0.0
 27
0.0
 37
0.0
 40
147.3320194887276
 41
1.56570841889117
 42
50.0
 43
0.0
 44
0.0
 50
0.0
 51
0.0
 71
     0
 72
   100
 73
     1
 74
     1
 75
     0
 76
     0
 77
     0
 78
     0
  0
ENDTAB
  0
TABLE
  2
LTYPE
  5
5
330
0
100
AcDbSymbolTable
 70
    10
  0
LTYPE
  5
14
330
5
100
AcDbSymbolTableRecord
100
AcDbLinetypeTableRecord
  2
BYBLOCK
 70
     0
  3

 72
    65
 73
     0
 40
0.0
  0
LTYPE
  5
15
330
5
100
AcDbSymbolTableRecord
100
AcDbLinetypeTableRecord
  2
BYLAYER
 70
     0
  3

 72
    65
 73
     0
 40
0.0
  0
LTYPE
  5
16
330
5
100
AcDbSymbolTableRecord
100
AcDbLinetypeTableRecord
  2
CONTINUOUS
 70
     0
  3
Solid line
 72
    65
 73
     0
 40
0.0
  0
LTYPE
  5
4B
330
5
100
AcDbSymbolTableRecord
100
AcDbLinetypeTableRecord
  2
AM_ISO02W050
 70
     0
  3
__ __ __ __ __ __ __ __ __ __ __ __ __ __ __
 72
    65
 73
     2
 40
7.5
 49
6.0
 74
     0
 49
-1.5
 74
     0
  0
LTYPE
  5
4C
330
5
100
AcDbSymbolTableRecord
100
AcDbLinetypeTableRecord
  2
AM_ISO08W050
 70
     0
  3
____ . ____ . ____ . ____ . ____ . ____ . ____
 72
    65
 73
     4
 40
18.0
 49
12.0
 74
     0
 49
-1.5
 74
     0
 49
3.0
 74
     0
 49
-1.5
 74
     0
  0
LTYPE
  5
4D
330
5
100
AcDbSymbolTableRecord
100
AcDbLinetypeTableRecord
  2
AM_ISO09W050
 70
     0
  3
_____ . . _____ . . _____ . . ____ .. ____
 72
    65
 73
     6
 40
22.5
 49
12.0
 74
     0
 49
-1.5
 74
     0
 49
3.0
 74
     0
 49
-1.5
 74
     0
 49
3.0
 74
     0
 49
-1.5
 74
     0
  0
LTYPE
  5
4E
330
5
100
AcDbSymbolTableRecord
100
AcDbLinetypeTableRecord
  2
AMCONSTR
 70
     0
  3
_______________________
 72
    65
 73
     2
 40
9999.0
 49
9999.0
 74
     0
 49
0.0
 74
     0
  0
LTYPE
  5
4F
330
5
100
AcDbSymbolTableRecord
100
AcDbLinetypeTableRecord
  2
AM_ISO02W050X2
 70
     0
  3
 _ _ _ _ _ _ _ _ _ _ _ _
 72
    65
 73
     2
 40
3.75
 49
3.0
 74
     0
 49
-0.75
 74
     0
  0
LTYPE
  5
50
330
5
100
AcDbSymbolTableRecord
100
AcDbLinetypeTableRecord
  2
AM_ISO08W050X2
 70
     0
  3
__ . __ . __ . __ . __ . __
 72
    65
 73
     4
 40
9.0
 49
6.0
 74
     0
 49
-0.75
 74
     0
 49
1.5
 74
     0
 49
-0.75
 74
     0
  0
LTYPE
  5
53
330
5
100
AcDbSymbolTableRecord
100
AcDbLinetypeTableRecord
  2
AMZIGZAG
 70
     0
  3
/\/-/\/-/\/-/\/-/\/-/\/
 72
    65
 73
     2
 40
11.00009999999999
 49
0.0001
 74
     4
 75
   135
340
52
 46
0.04
 50
0.0
 44
0.0
 45
0.0
 49
-11.0
 74
     0
  0
LTYPE
  5
166
330
5
100
AcDbSymbolTableRecord
100
AcDbLinetypeTableRecord
  2
ACJISTGL
 70
     0
  3
_ _ _ _ _
 72
    65
 73
     2
 40
3.0
 49
2.0
 74
     0
 49
-1.0
 74
     0
  0
LTYPE
  5
26A
330
5
100
AcDbSymbolTableRecord
100
AcDbLinetypeTableRecord
  2
ACJISTGB
 70
     0
  3
__ . . __ . .
 72
    65
 73
     6
 40
9.0
 49
4.0
 74
     0
 49
-1.0
 74
     0
 49
1.0
 74
     0
 49
-1.0
 74
     0
 49
1.0
 74
     0
 49
-1.0
 74
     0
  0
ENDTAB
  0
TABLE
  2
LAYER
  5
2
330
0
100
AcDbSymbolTable
 70
     7
  0
LAYER
  5
10
330
2
100
AcDbSymbolTableRecord
100
AcDbLayerTableRecord
  2
0
 70
     0
 62
     7
  6
CONTINUOUS
  0
LAYER
  5
3F9
330
2
100
AcDbSymbolTableRecord
100
AcDbLayerTableRecord
  2
AM_0
 70
     0
 62
     7
  6
CONTINUOUS
  0
LAYER
  5
C7C
330
2
100
AcDbSymbolTableRecord
100
AcDbLayerTableRecord
  2
AM_7
 70
     0
 62
     4
  6
AM_ISO08W050
  0
LAYER
  5
C97
330
2
100
AcDbSymbolTableRecord
100
AcDbLayerTableRecord
  2
AM_11
 70
     0
 62
     3
  6
AM_ISO09W050
  0
LAYER
  5
CC5
330
2
100
AcDbSymbolTableRecord
100
AcDbLayerTableRecord
  2
AM_5
 70
     0
 62
     3
  6
CONTINUOUS
  0
LAYER
  5
CC7
330
2
100
AcDbSymbolTableRecord
100
AcDbLayerTableRecord
  2
DEFPOINTS
 70
     0
 62
     7
  6
CONTINUOUS
  0
LAYER
  5
19BC
330
2
100
AcDbSymbolTableRecord
100
AcDbLayerTableRecord
  2
AM_6
 70
     0
 62
     2
  6
CONTINUOUS
  0
ENDTAB
  0
TABLE
  2
STYLE
  5
3
330
0
100
AcDbSymbolTable
 70
     5
  0
STYLE
  5
11
330
3
100
AcDbSymbolTableRecord
100
AcDbTextStyleTableRecord
  2
STANDARD
 70
     0
 40
0.0
 41
1.0
 50
0.0
 71
     0
 42
2.5
  3
simplex.shx
  4
EXTFONT.SHX
  0
STYLE
  5
52
330
3
100
AcDbSymbolTableRecord
100
AcDbTextStyleTableRecord
  2

 70
     1
 40
0.0
 41
1.0
 50
0.0
 71
     0
 42
2.5
  3
ltypeshp.shx
  4

  0
STYLE
  5
6B
330
3
100
AcDbSymbolTableRecord
100
AcDbTextStyleTableRecord
  2
ASAMI
 70
     0
 40
0.0
 41
1.0
 50
0.0
 71
     0
 42
2.5
  3
simplex.shx
  4
EXTFONT.SHX
  0
STYLE
  5
262
330
3
100
AcDbSymbolTableRecord
100
AcDbTextStyleTableRecord
  2
ACJISTS
 70
     0
 40
1.0
 41
1.0
 50
0.0
 71
     0
 42
2.5
  3
simplex.shx
  4
bigfont.shx
  0
STYLE
  5
269
330
3
100
AcDbSymbolTableRecord
100
AcDbTextStyleTableRecord
  2
ACJISGDT
 70
     0
 40
0.0
 41
1.0
 50
0.0
 71
     0
 42
2.5
  3
amgdtans.shx
  4

  0
ENDTAB
  0
TABLE
  2
VIEW
  5
6
330
0
100
AcDbSymbolTable
 70
     0
  0
ENDTAB
  0
TABLE
  2
UCS
  5
7
330
0
100
AcDbSymbolTable
 70
     0
  0
ENDTAB
  0
TABLE
  2
APPID
  5
9
330
0
100
AcDbSymbolTable
 70
    18
  0
APPID
  5
12
330
9
100
AcDbSymbolTableRecord
100
AcDbRegAppTableRecord
  2
ACAD
 70
     0
  0
APPID
  5
30
330
9
100
AcDbSymbolTableRecord
100
AcDbRegAppTableRecord
  2
MCAD_NO_VIS
 70
     0
  0
APPID
  5
31
330
9
100
AcDbSymbolTableRecord
100
AcDbRegAppTableRecord
  2
ACAD_TEMP_GRAPHIC
 70
     0
  0
APPID
  5
2C2
330
9
100
AcDbSymbolTableRecord
100
AcDbRegAppTableRecord
  2
GENIUS_GENDTOL_13
 70
     0
  0
APPID
  5
339
330
9
100
AcDbSymbolTableRecord
100
AcDbRegAppTableRecord
  2
GENIUS_GENODEF_13
 70
     0
  0
APPID
  5
33A
330
9
100
AcDbSymbolTableRecord
100
AcDbRegAppTableRecord
  2
GENIUS_GENOBJ-N-RSBK_13
 70
     0
  0
APPID
  5
33B
330
9
100
AcDbSymbolTableRecord
100
AcDbRegAppTableRecord
  2
GENIUS_GENOBJ-N-LIB_13
 70
     0
  0
APPID
  5
33C
330
9
100
AcDbSymbolTableRecord
100
AcDbRegAppTableRecord
  2
GENIUS_GENSCALE_13
 70
     0
  0
APPID
  5
378
330
9
100
AcDbSymbolTableRecord
100
AcDbRegAppTableRecord
  2
GENIUS_GENDIMSH_14
 70
     0
  0
APPID
  5
C82
330
9
100
AcDbSymbolTableRecord
100
AcDbRegAppTableRecord
  2
GENIUS_GENOBJ-N-CRS_13
 70
     0
  0
APPID
  5
C83
330
9
100
AcDbSymbolTableRecord
100
AcDbRegAppTableRecord
  2
GENIUS_GENOENT_13
 70
     0
  0
APPID
  5
C84
330
9
100
AcDbSymbolTableRecord
100
AcDbRegAppTableRecord
  2
GENIUS_GENOREF_13
 70
     0
  0
APPID
  5
C85
330
9
100
AcDbSymbolTableRecord
100
AcDbRegAppTableRecord
  2
GENIUS_GENOLIS_13
 70
     0
  0
APPID
  5
CA0
330
9
100
AcDbSymbolTableRecord
100
AcDbRegAppTableRecord
  2
GENIUS_GENOBJ-N-CEN_13
 70
     0
  0
APPID
  5
1B5D
330
9
100
AcDbSymbolTableRecord
100
AcDbRegAppTableRecord
  2
GENIUS_GENFIL_13
 70
     0
  0
APPID
  5
1B5E
330
9
100
AcDbSymbolTableRecord
100
AcDbRegAppTableRecord
  2
GENIUS_GENOBJ-N-CHA_13
 70
     0
  0
APPID
  5
1FBC
330
9
100
AcDbSymbolTableRecord
100
AcDbRegAppTableRecord
  2
GENIUS_GENREC_14
 70
     0
  0
APPID
  5
1FBD
330
9
100
AcDbSymbolTableRecord
100
AcDbRegAppTableRecord
  2
GENIUS_GENOBJ-N-REC_13
 70
     0
  0
ENDTAB
  0
TABLE
  2
DIMSTYLE
  5
A
330
0
100
AcDbSymbolTable
 70
     9
  0
DIMSTYLE
105
58
330
A
100
AcDbSymbolTableRecord
100
AcDbDimStyleTableRecord
  2
AM_JIS
 70
     0
  3

  4
"
  5
OPEN30
  6

  7

 40
0.5
 41
2.5
 42
1.0
 43
12.0
 44
1.0
 45
0.0
 46
0.0
 47
0.1
 48
0.1
140
3.2
141
0.0
142
0.0
143
0.0393701
144
1.0
145
0.0
146
0.71
147
1.5
 71
     0
 72
     0
 73
     0
 74
     0
 75
     0
 76
     0
 77
     3
 78
     8
170
     0
171
     2
172
     1
173
     0
174
     0
175
     0
176
   256
177
   256
178
     2
270
     2
271
     3
272
     3
273
     2
274
     2
340
6B
275
     0
280
     0
281
     0
282
     0
283
     0
284
     0
285
     0
286
     0
287
     3
288
     0
  0
DIMSTYLE
105
5F
330
A
100
AcDbSymbolTableRecord
100
AcDbDimStyleTableRecord
  2
AM_JIS$3
 70
     0
  3

  4
"
  5
OPEN30
  6

  7

 40
0.5
 41
2.5
 42
1.0
 43
10.0
 44
1.0
 45
0.0
 46
0.0
 47
0.1
 48
0.1
140
3.2
141
0.0
142
0.0
143
0.0393701
144
1.0
145
0.0
146
0.71
147
1.5
 71
     0
 72
     0
 73
     0
 74
     1
 75
     0
 76
     0
 77
     3
 78
     8
170
     0
171
     2
172
     0
173
     0
174
     0
175
     0
176
   256
177
   256
178
     2
270
     2
271
     2
272
     3
273
     2
274
     2
340
6B
275
     0
280
     0
281
     0
282
     0
283
     0
284
     0
285
     0
286
     0
287
     0
288
     1
  0
DIMSTYLE
105
60
330
A
100
AcDbSymbolTableRecord
100
AcDbDimStyleTableRecord
  2
AM_JIS$4
 70
     0
  3

  4
"
  5
OPEN30
  6

  7

 40
0.5
 41
2.5
 42
1.0
 43
10.0
 44
1.0
 45
0.0
 46
0.0
 47
0.1
 48
0.1
140
3.2
141
0.0
142
0.0
143
0.0393701
144
1.0
145
0.0
146
0.71
147
1.5
 71
     0
 72
     0
 73
     0
 74
     1
 75
     0
 76
     0
 77
     3
 78
     8
170
     0
171
     2
172
     0
173
     0
174
     0
175
     0
176
   256
177
   256
178
     2
270
     2
271
     2
272
     3
273
     2
274
     2
340
6B
275
     0
280
     0
281
     0
282
     0
283
     0
284
     0
285
     0
286
     0
287
     0
288
     1
  0
DIMSTYLE
105
61
330
A
100
AcDbSymbolTableRecord
100
AcDbDimStyleTableRecord
  2
AM_JIS$6
 70
     0
  3

  4
"
  5
OPEN30
  6

  7

 40
0.5
 41
2.5
 42
1.0
 43
10.0
 44
1.0
 45
0.0
 46
0.0
 47
0.1
 48
0.1
140
3.2
141
0.0
142
0.0
143
0.0393701
144
1.0
145
0.0
146
0.71
147
1.5
 71
     0
 72
     0
 73
     0
 74
     0
 75
     0
 76
     0
 77
     0
 78
     8
170
     0
171
     2
172
     1
173
     0
174
     0
175
     0
176
   256
177
   256
178
     2
270
     2
271
     2
272
     2
273
     2
274
     2
340
6B
275
     0
280
     0
281
     0
282
     0
283
     0
284
     0
285
     0
286
     0
287
     3
288
     0
  0
DIMSTYLE
105
62
330
A
100
AcDbSymbolTableRecord
100
AcDbDimStyleTableRecord
  2
AM_JIS$7
 70
     0
  3

  4
"
  5
OPEN30
  6

  7

 40
0.5
 41
2.5
 42
1.0
 43
10.0
 44
1.0
 45
0.0
 46
0.0
 47
0.1
 48
0.1
140
3.2
141
0.0
142
0.0
143
0.0393701
144
1.0
145
0.0
146
0.71
147
1.5
 71
     0
 72
     0
 73
     0
 74
     0
 75
     0
 76
     0
 77
     3
 78
     8
170
     0
171
     2
172
     1
173
     0
174
     0
175
     0
176
   256
177
   256
178
     2
270
     2
271
     2
272
     3
273
     2
274
     2
340
6B
275
     0
280
     0
281
     0
282
     0
283
     0
284
     0
285
     0
286
     0
287
     3
288
     0
  0
DIMSTYLE
105
63
330
A
100
AcDbSymbolTableRecord
100
AcDbDimStyleTableRecord
  2
AM_JIS$SF
 70
     0
  3

  4
"
  5
OPEN30
  6

  7

 40
0.5
 41
2.5
 42
1.0
 43
10.0
 44
1.0
 45
0.0
 46
0.0
 47
0.1
 48
0.1
140
3.2
141
0.0
142
0.0
143
0.0393701
144
1.0
145
0.0
146
0.71
147
1.5
 71
     0
 72
     0
 73
     0
 74
     0
 75
     1
 76
     1
 77
     3
 78
     8
170
     0
171
     2
172
     1
173
     0
174
     0
175
     0
176
   256
177
   256
178
     2
270
     2
271
     2
272
     2
273
     2
274
     2
340
6B
275
     0
280
     0
281
     0
282
     0
283
     0
284
     0
285
     0
286
     0
287
     3
288
     0
  0
DIMSTYLE
105
68
330
A
100
AcDbSymbolTableRecord
100
AcDbDimStyleTableRecord
  2
AM_JIS$SH
 70
     0
  3

  4
"
  5

  6
GENAXEH
  7
OPEN30
 40
0.5
 41
2.5
 42
1.0
 43
10.0
 44
1.0
 45
0.0
 46
0.0
 47
0.1
 48
0.1
140
3.2
141
0.0
142
0.0
143
0.0393701
144
2.0
145
0.0
146
0.71
147
1.5
 71
     0
 72
     0
 73
     0
 74
     0
 75
     1
 76
     1
 77
     3
 78
     8
170
     0
171
     2
172
     1
173
     1
174
     0
175
     0
176
   256
177
   256
178
     2
270
     2
271
     2
272
     2
273
     2
274
     2
340
6B
275
     0
280
     0
281
     0
282
     0
283
     0
284
     0
285
     0
286
     0
287
     3
288
     0
  0
DIMSTYLE
105
B34
102
{ACAD_REACTORS
330
48D2
102
}
330
A
100
AcDbSymbolTableRecord
100
AcDbDimStyleTableRecord
  2
AM_JIS$2
 70
     0
  3

  4
"
  5
OPEN30
  6

  7

 40
0.5
 41
2.5
 42
1.0
 43
12.0
 44
1.0
 45
0.0
 46
0.0
 47
0.1
 48
0.1
140
3.2
141
0.0
142
0.0
143
0.0393701
144
1.0
145
0.0
146
0.71
147
1.5
 71
     0
 72
     0
 73
     0
 74
     0
 75
     0
 76
     0
 77
     3
 78
     8
170
     0
171
     2
172
     1
173
     0
174
     0
175
     0
176
   256
177
   256
178
     2
270
     2
271
     3
272
     3
273
     2
274
     2
340
6B
275
     0
280
     0
281
     0
282
     0
283
     0
284
     0
285
     0
286
     0
287
     3
288
     0
  0
DIMSTYLE
105
BA5
102
{ACAD_REACTORS
330
CC6
330
DF5
330
4A9C
330
510B
102
}
330
A
100
AcDbSymbolTableRecord
100
AcDbDimStyleTableRecord
  2
AM_JIS$0
 70
     0
  3

  4
"
  5
OPEN30
  6

  7

 40
0.5
 41
2.5
 42
0.0
 43
10.0
 44
1.0
 45
0.0
 46
0.0
 47
0.1
 48
0.1000000001
140
3.799999999999999
141
0.0
142
0.0
143
0.0393701
144
1.0
145
0.0
146
0.71
147
1.5
 71
     0
 72
     0
 73
     0
 74
     0
 75
     0
 76
     0
 77
     3
 78
     1
170
     0
171
     2
172
     1
173
     0
174
     0
175
     0
176
     3
177
     3
178
     2
270
     2
271
     2
272
     2
273
     2
274
     2
340
11
275
     1
280
     0
281
     0
282
     0
283
     0
284
     8
285
     0
286
     0
287
     0
288
     0
  0
ENDTAB
  0
TABLE
  2
BLOCK_RECORD
  5
1
330
0
100
AcDbSymbolTable
 70
    10
  0
BLOCK_RECORD
  5
1F
102
{ACAD_XDICTIONARY
360
74
102
}
330
1
100
AcDbSymbolTableRecord
100
AcDbBlockTableRecord
  2
*MODEL_SPACE
  0
BLOCK_RECORD
  5
101
102
{ACAD_XDICTIONARY
360
53D6
102
}
330
1
100
AcDbSymbolTableRecord
100
AcDbBlockTableRecord
  2
*PAPER_SPACE
  0
BLOCK_RECORD
  5
59
330
1
100
AcDbSymbolTableRecord
100
AcDbBlockTableRecord
  2
_OPEN30
  0
BLOCK_RECORD
  5
64
330
1
100
AcDbSymbolTableRecord
100
AcDbBlockTableRecord
  2
GENAXEH
  0
BLOCK_RECORD
  5
CC8
330
1
100
AcDbSymbolTableRecord
100
AcDbBlockTableRecord
  2
*D5
  0
BLOCK_RECORD
  5
DF6
330
1
100
AcDbSymbolTableRecord
100
AcDbBlockTableRecord
  2
*D6
  0
BLOCK_RECORD
  5
48D3
330
1
100
AcDbSymbolTableRecord
100
AcDbBlockTableRecord
  2
*D7
  0
BLOCK_RECORD
  5
4A9D
330
1
100
AcDbSymbolTableRecord
100
AcDbBlockTableRecord
  2
*D8
  0
BLOCK_RECORD
  5
510C
330
1
100
AcDbSymbolTableRecord
100
AcDbBlockTableRecord
  2
*D9
  0
ENDTAB
  0
ENDSEC
  0
SECTION
  2
BLOCKS
  0
BLOCK
  5
20
330
1F
100
AcDbEntity
  8
0
100
AcDbBlockBegin
  2
*MODEL_SPACE
 70
     0
 10
0.0
 20
0.0
 30
0.0
  3
*MODEL_SPACE
  1

  0
ENDBLK
  5
21
330
1F
100
AcDbEntity
  8
0
100
AcDbBlockEnd
  0
BLOCK
  5
103
330
101
100
AcDbEntity
 67
     1
  8
0
100
AcDbBlockBegin
  2
*PAPER_SPACE
 70
     0
 10
0.0
 20
0.0
 30
0.0
  3
*PAPER_SPACE
  1

  0
ENDBLK
  5
104
330
101
100
AcDbEntity
 67
     1
  8
0
100
AcDbBlockEnd
  0
BLOCK
  5
5D
330
59
100
AcDbEntity
  8
0
100
AcDbBlockBegin
  2
_OPEN30
 70
     0
 10
0.0
 20
0.0
 30
0.0
  3
_OPEN30
  1

  0
LINE
  5
5A
330
59
100
AcDbEntity
  8
0
 62
     0
100
AcDbLine
 10
-1.0
 20
0.26794919
 30
0.0
 11
0.0
 21
0.0
 31
0.0
  0
LINE
  5
5B
330
59
100
AcDbEntity
  8
0
 62
     0
100
AcDbLine
 10
0.0
 20
0.0
 30
0.0
 11
-1.0
 21
-0.26794919
 31
0.0
  0
LINE
  5
5C
330
59
100
AcDbEntity
  8
0
 62
     0
100
AcDbLine
 10
0.0
 20
0.0
 30
0.0
 11
-1.0
 21
0.0
 31
0.0
  0
ENDBLK
  5
5E
330
59
100
AcDbEntity
  8
0
100
AcDbBlockEnd
  0
BLOCK
  5
66
330
64
100
AcDbEntity
  8
0
100
AcDbBlockBegin
  2
GENAXEH
 70
     0
 10
0.0
 20
0.0
 30
0.0
  3
GENAXEH
  1

  0
LINE
  5
65
330
64
100
AcDbEntity
  8
0
100
AcDbLine
 10
-1.0
 20
0.0
 30
0.0
 11
1.0
 21
0.0
 31
0.0
  0
ENDBLK
  5
67
330
64
100
AcDbEntity
  8
0
100
AcDbBlockEnd
  0
BLOCK
  5
CD2
330
CC8
100
AcDbEntity
  8
0
100
AcDbBlockBegin
  2
*D5
 70
     1
 10
0.0
 20
0.0
 30
0.0
  3
*D5
  1

  0
LINE
  5
5364
330
CC8
100
AcDbEntity
  8
AM_5
 62
     3
100
AcDbLine
 10
-131.0000000000002
 20
-3.000000517103929
 30
0.0
 11
-131.0000000000002
 21
-16.00565194669846
 31
0.0
  0
LINE
  5
5365
330
CC8
100
AcDbEntity
  8
AM_5
 62
     3
100
AcDbLine
 10
-0.9999999984656684
 20
-3.499999995830755
 30
0.0
 11
-0.9999999984656691
 21
-16.00565194669846
 31
0.0
  0
LINE
  5
5366
330
CC8
100
AcDbEntity
  8
AM_5
 62
     3
100
AcDbLine
 10
-129.7500000000002
 20
-15.50565194669846
 30
0.0
 11
-2.249999998465669
 21
-15.50565194669846
 31
0.0
  0
INSERT
  5
5367
330
CC8
100
AcDbEntity
  8
AM_5
 62
     3
100
AcDbBlockReference
  2
_OPEN30
 10
-131.0000000000002
 20
-15.50565194669846
 30
0.0
 41
1.25
 42
1.25
 43
1.25
 50
180.0
  0
INSERT
  5
5368
330
CC8
100
AcDbEntity
  8
AM_5
 62
     3
100
AcDbBlockReference
  2
_OPEN30
 10
-0.9999999984656691
 20
-15.50565194669846
 30
0.0
 41
1.25
 42
1.25
 43
1.25
  0
MTEXT
  5
5369
330
CC8
100
AcDbEntity
  8
AM_5
 62
     2
100
AcDbMText
 10
-65.99999999923297
 20
-13.80565194669846
 30
0.0
 40
1.9
 41
0.0
 71
     5
 72
     1
  1
130
1001
ACAD
1000
MTEXTBEGIN
1070
    73
1070
     1
1070
    44
1040
1.0
1070
    74
1070
     0
1000
MTEXTEND
  0
POINT
  5
536A
330
CC8
100
AcDbEntity
  8
DEFPOINTS
 62
     0
100
AcDbPoint
 10
-131.0000000000002
 20
-3.000000517103929
 30
0.0
  0
POINT
  5
536B
330
CC8
100
AcDbEntity
  8
DEFPOINTS
 62
     0
100
AcDbPoint
 10
-0.9999999984656684
 20
-3.499999995830755
 30
0.0
  0
POINT
  5
536C
330
CC8
100
AcDbEntity
  8
DEFPOINTS
 62
     0
100
AcDbPoint
 10
-0.9999999984656691
 20
-15.50565194669846
 30
0.0
  0
ENDBLK
  5
CD3
330
CC8
100
AcDbEntity
  8
0
100
AcDbBlockEnd
  0
BLOCK
  5
E00
330
DF6
100
AcDbEntity
  8
0
100
AcDbBlockBegin
  2
*D6
 70
     1
 10
0.0
 20
0.0
 30
0.0
  3
*D6
  1

  0
LINE
  5
535B
330
DF6
100
AcDbEntity
  8
AM_5
 62
     3
100
AcDbLine
 10
-78.00000000000014
 20
-3.500000473195787
 30
0.0
 11
-78.00000000000014
 21
-11.00565194669837
 31
0.0
  0
LINE
  5
535C
330
DF6
100
AcDbEntity
  8
AM_5
 62
     3
100
AcDbLine
 10
-0.9999999984656684
 20
-3.499999995830755
 30
0.0
 11
-0.9999999984656687
 21
-11.00565194669837
 31
0.0
  0
LINE
  5
535D
330
DF6
100
AcDbEntity
  8
AM_5
 62
     3
100
AcDbLine
 10
-76.75000000000014
 20
-10.50565194669837
 30
0.0
 11
-2.249999998465668
 21
-10.50565194669837
 31
0.0
  0
INSERT
  5
535E
330
DF6
100
AcDbEntity
  8
AM_5
 62
     3
100
AcDbBlockReference
  2
_OPEN30
 10
-78.00000000000014
 20
-10.50565194669837
 30
0.0
 41
1.25
 42
1.25
 43
1.25
 50
180.0
  0
INSERT
  5
535F
330
DF6
100
AcDbEntity
  8
AM_5
 62
     3
100
AcDbBlockReference
  2
_OPEN30
 10
-0.9999999984656687
 20
-10.50565194669837
 30
0.0
 41
1.25
 42
1.25
 43
1.25
  0
MTEXT
  5
5360
330
DF6
100
AcDbEntity
  8
AM_5
 62
     2
100
AcDbMText
 10
-39.4999999992329
 20
-8.805651946698377
 30
0.0
 40
1.9
 41
0.0
 71
     5
 72
     1
  1
77
1001
ACAD
1000
MTEXTBEGIN
1070
    73
1070
     1
1070
    44
1040
1.0
1070
    74
1070
     0
1000
MTEXTEND
  0
POINT
  5
5361
330
DF6
100
AcDbEntity
  8
DEFPOINTS
 62
     0
100
AcDbPoint
 10
-78.00000000000014
 20
-3.500000473195787
 30
0.0
  0
POINT
  5
5362
330
DF6
100
AcDbEntity
  8
DEFPOINTS
 62
     0
100
AcDbPoint
 10
-0.9999999984656684
 20
-3.499999995830755
 30
0.0
  0
POINT
  5
5363
330
DF6
100
AcDbEntity
  8
DEFPOINTS
 62
     0
100
AcDbPoint
 10
-0.9999999984656687
 20
-10.50565194669837
 30
0.0
  0
ENDBLK
  5
E01
330
DF6
100
AcDbEntity
  8
0
100
AcDbBlockEnd
  0
BLOCK
  5
48E1
330
48D3
100
AcDbEntity
  8
0
100
AcDbBlockBegin
  2
*D7
 70
     1
 10
0.0
 20
0.0
 30
0.0
  3
*D7
  1

  0
LINE
  5
5376
330
48D3
100
AcDbEntity
  8
AM_5
100
AcDbLine
 10
0.1710100716628357
 20
-0.4698463103929535
 30
0.0
 11
4.281839319742896
 21
-11.76425684472641
 31
0.0
  0
LINE
  5
5377
330
48D3
100
AcDbEntity
  8
AM_5
100
AcDbLine
 10
0.1710100716628321
 20
0.4698463103929581
 30
0.0
 11
4.281839319742807
 21
11.76425684472645
 31
0.0
  0
ARC
  5
5378
330
48D3
100
AcDbEntity
  8
AM_5
100
AcDbCircle
 10
-0.000000000000001
 20
0.0000000000000017
 30
0.0
 40
12.01926064385547
100
AcDbArc
 50
295.9614349262927
 51
64.03856507370768
  0
INSERT
  5
5379
330
48D3
100
AcDbEntity
  8
AM_5
100
AcDbBlockReference
  2
_OPEN30
 10
4.11082924808006
 20
-11.29441053433346
 30
0.0
 41
1.25
 42
1.25
 43
1.25
 50
202.9807174631464
  0
INSERT
  5
537A
330
48D3
100
AcDbEntity
  8
AM_5
100
AcDbBlockReference
  2
_OPEN30
 10
4.110829248079974
 20
11.29441053433349
 30
0.0
 41
1.25
 42
1.25
 43
1.25
 50
157.0192825368539
  0
MTEXT
  5
537B
330
48D3
100
AcDbEntity
  8
AM_5
 62
     2
100
AcDbMText
 10
10.46926064385547
 20
0.0000000000000414
 30
0.0
 40
1.6
 41
0.0
 71
     5
 72
     1
  1
140°
  7
ASAMI
 11
-0.000000000000002
 21
1.0
 31
0.0
1001
ACAD
1000
MTEXTBEGIN
1070
    73
1070
     1
1070
    44
1040
1.0
1070
    74
1070
     0
1000
MTEXTEND
  0
POINT
  5
537C
330
48D3
100
AcDbEntity
  8
DEFPOINTS
 62
     0
100
AcDbPoint
 10
11.03627871598027
 20
-4.760585943781904
 30
0.0
  0
POINT
  5
537D
330
48D3
100
AcDbEntity
  8
DEFPOINTS
 62
     0
100
AcDbPoint
 10
-0.0000000000000004
 20
0.0000000000000032
 30
0.0
  0
POINT
  5
537E
330
48D3
100
AcDbEntity
  8
DEFPOINTS
 62
     0
100
AcDbPoint
 10
-0.0000000000000004
 20
0.0000000000000001
 30
0.0
  0
POINT
  5
537F
330
48D3
100
AcDbEntity
  8
DEFPOINTS
 62
     0
100
AcDbPoint
 10
-0.2431446527750277
 20
0.6680344431605186
 30
0.0
  0
POINT
  5
5380
330
48D3
100
AcDbEntity
  8
DEFPOINTS
 62
     0
100
AcDbPoint
 10
-0.243144652775025
 20
-0.6680344431605163
 30
0.0
  0
ENDBLK
  5
48E2
330
48D3
100
AcDbEntity
  8
0
100
AcDbBlockEnd
  0
BLOCK
  5
4AA7
330
4A9D
100
AcDbEntity
  8
0
100
AcDbBlockBegin
  2
*D8
 70
     1
 10
0.0
 20
0.0
 30
0.0
  3
*D8
  1

  0
LINE
  5
536D
330
4A9D
100
AcDbEntity
  8
AM_5
 62
     3
100
AcDbLine
 10
-130.5
 20
3.499999999999462
 30
0.0
 11
-139.2500010004113
 21
3.499999999999445
 31
0.0
  0
LINE
  5
536E
330
4A9D
100
AcDbEntity
  8
AM_5
 62
     3
100
AcDbLine
 10
-130.4999999999995
 20
-3.500000000000537
 30
0.0
 11
-139.2500010004113
 21
-3.500000000000554
 31
0.0
  0
LINE
  5
536F
330
4A9D
100
AcDbEntity
  8
AM_5
 62
     3
100
AcDbLine
 10
-138.7500010004113
 20
2.249999999999446
 30
0.0
 11
-138.7500010004113
 21
-2.250000000000553
 31
0.0
  0
INSERT
  5
5370
330
4A9D
100
AcDbEntity
  8
AM_5
 62
     3
100
AcDbBlockReference
  2
_OPEN30
 10
-138.7500010004113
 20
3.499999999999446
 30
0.0
 41
1.25
 42
1.25
 43
1.25
 50
90.0000000000001
  0
INSERT
  5
5371
330
4A9D
100
AcDbEntity
  8
AM_5
 62
     3
100
AcDbBlockReference
  2
_OPEN30
 10
-138.7500010004113
 20
-3.500000000000553
 30
0.0
 41
1.25
 42
1.25
 43
1.25
 50
270.0000000000001
  0
MTEXT
  5
5372
330
4A9D
100
AcDbEntity
  8
AM_5
 62
     2
100
AcDbMText
 10
-140.4500010004113
 20
-0.0000000000005514
 30
0.0
 40
1.9
 41
0.0
 71
     5
 72
     1
  1
%%c7
 11
-0.000000000000002
 21
1.0
 31
0.0
1001
ACAD
1000
MTEXTBEGIN
1070
    73
1070
     1
1070
    44
1040
1.0
1070
    74
1070
     0
1000
MTEXTEND
  0
POINT
  5
5373
330
4A9D
100
AcDbEntity
  8
DEFPOINTS
 62
     0
100
AcDbPoint
 10
-130.5
 20
3.499999999999752
 30
0.0
  0
POINT
  5
5374
330
4A9D
100
AcDbEntity
  8
DEFPOINTS
 62
     0
100
AcDbPoint
 10
-130.4999999999995
 20
-3.500000000000247
 30
0.0
  0
POINT
  5
5375
330
4A9D
100
AcDbEntity
  8
DEFPOINTS
 62
     0
100
AcDbPoint
 10
-138.7500010004113
 20
-3.500000000000245
 30
0.0
  0
ENDBLK
  5
4AA8
330
4A9D
100
AcDbEntity
  8
0
100
AcDbBlockEnd
  0
BLOCK
  5
5116
330
510C
100
AcDbEntity
  8
0
100
AcDbBlockBegin
  2
*D9
 70
     1
 10
0.0
 20
0.0
 30
0.0
  3
*D9
  1

  0
LINE
  5
5381
330
510C
100
AcDbEntity
  8
AM_5
 62
     3
100
AcDbLine
 10
-1.000000000000001
 20
3.500000000000006
 30
0.0
 11
8.225244180351669
 21
3.500000000000023
 31
0.0
  0
LINE
  5
5382
330
510C
100
AcDbEntity
  8
AM_5
 62
     3
100
AcDbLine
 10
-0.9999999999999717
 20
-3.499999999999992
 30
0.0
 11
8.225244180351683
 21
-3.499999999999975
 31
0.0
  0
LINE
  5
5383
330
510C
100
AcDbEntity
  8
AM_5
 62
     3
100
AcDbLine
 10
7.725244180351671
 20
2.250000000000023
 30
0.0
 11
7.72524418035168
 21
-2.249999999999976
 31
0.0
  0
INSERT
  5
5384
330
510C
100
AcDbEntity
  8
AM_5
 62
     3
100
AcDbBlockReference
  2
_OPEN30
 10
7.725244180351668
 20
3.500000000000023
 30
0.0
 41
1.25
 42
1.25
 43
1.25
 50
90.0000000000001
  0
INSERT
  5
5385
330
510C
100
AcDbEntity
  8
AM_5
 62
     3
100
AcDbBlockReference
  2
_OPEN30
 10
7.725244180351682
 20
-3.499999999999976
 30
0.0
 41
1.25
 42
1.25
 43
1.25
 50
270.0000000000001
  0
MTEXT
  5
5386
330
510C
100
AcDbEntity
  8
AM_5
 62
     2
100
AcDbMText
 10
6.025244180351675
 20
0.0000000000000199
 30
0.0
 40
1.9
 41
0.0
 71
     5
 72
     1
  1
%%c7
 11
-0.000000000000002
 21
1.0
 31
0.0
1001
ACAD
1000
MTEXTBEGIN
1070
    73
1070
     1
1070
    44
1040
1.0
1070
    74
1070
     0
1000
MTEXTEND
  0
POINT
  5
5387
330
510C
100
AcDbEntity
  8
DEFPOINTS
 62
     0
100
AcDbPoint
 10
-0.9999999999999943
 20
3.500000000000007
 30
0.0
  0
POINT
  5
5388
330
510C
100
AcDbEntity
  8
DEFPOINTS
 62
     0
100
AcDbPoint
 10
-0.9999999999999793
 20
-3.499999999999991
 30
0.0
  0
POINT
  5
5389
330
510C
100
AcDbEntity
  8
DEFPOINTS
 62
     0
100
AcDbPoint
 10
7.725244180351674
 20
-3.499999999999993
 30
0.0
  0
ENDBLK
  5
5117
330
510C
100
AcDbEntity
  8
0
100
AcDbBlockEnd
  0
ENDSEC
  0
SECTION
  2
ENTITIES
  0
LINE
  5
C1D
330
1F
100
AcDbEntity
  8
AM_0
 48
0.5
100
AcDbLine
 10
0.0
 20
0.0
 30
0.0
 11
-0.2618480876038755
 21
0.7194217080190199
 31
0.0
  0
LINE
  5
C9F
330
1F
100
AcDbEntity
  8
AM_7
100
AcDbLine
 10
-131.7499999999999
 20
-0.0000000000002504
 30
0.0
 11
0.7252484813720005
 21
0.0000000000000026
 31
0.0
1001
GENIUS_GENODEF_13
1002
{
1000
HIER
1070
     0
1002
}
1002
{
1000
MANEDIT
1070
     0
1002
}
1002
{
1000
NOSEL
1070
     0
1002
}
1002
{
1000
BEHIND
1070
     0
1002
}
1002
{
1000
REACTOR
1002
}
1001
GENIUS_GENOBJ-N-CEN_13
1002
{
1000
OWNER
1000
GEN
1002
}
  0
DIMENSION
  5
CC6
330
1F
100
AcDbEntity
  8
AM_5
100
AcDbDimension
  2
*D5
 10
-0.9999999984656691
 20
-15.50565194669846
 30
0.0
 11
-65.99999999923297
 21
-13.80565194669846
 31
0.0
 70
    32
  1
<>
  3
AM_JIS$0
100
AcDbAlignedDimension
 13
-131.0000000000002
 23
-3.000000517103929
 33
0.0
 14
-0.9999999984656684
 24
-3.499999995830755
 34
0.0
 50
0.0000000000001132
100
AcDbRotatedDimension
1001
GENIUS_GENDTOL_13
1000

1000
h7
1000

1040
0.0
1001
ACAD
1000
DSTYLE
1002
{
1070
   271
1070
     0
1002
}
  0
DIMENSION
  5
DF5
330
1F
100
AcDbEntity
  8
AM_5
100
AcDbDimension
  2
*D6
 10
-0.9999999984656687
 20
-10.50565194669837
 30
0.0
 11
-39.4999999992329
 21
-8.805651946698377
 31
0.0
 70
    32
  1
<>
  3
AM_JIS$0
100
AcDbAlignedDimension
 13
-78.00000000000014
 23
-3.500000473195787
 33
0.0
 14
-0.9999999984656684
 24
-3.499999995830755
 34
0.0
 50
0.0000000000001527
100
AcDbRotatedDimension
1001
GENIUS_GENDTOL_13
1000

1000
h7
1000

1040
0.0
1001
ACAD
1000
DSTYLE
1002
{
1070
   271
1070
     0
1002
}
  0
TEXT
  5
19BD
330
1F
100
AcDbEntity
  8
AM_6
100
AcDbText
 10
-77.07142857066149
 20
-26.7556519466985
 30
0.0
 40
2.5
  1
MDW070DHK
 50
0.0000000000001527
 72
     4
 11
-65.99999999923293
 21
-25.50565194669847
 31
0.0
100
AcDbText
  0
LINE
  5
4522
330
1F
100
AcDbEntity
  8
AM_0
 48
0.5
100
AcDbLine
 10
-78.00000000000015
 20
-3.499950217241543
 30
0.0
 11
-130.4999999999995
 21
-3.500000000000247
 31
0.0
  0
LINE
  5
4525
330
1F
100
AcDbEntity
  8
AM_0
 48
0.5
100
AcDbLine
 10
-130.4999999999995
 20
-3.500000000000247
 30
0.0
 11
-130.5
 21
3.499999999999752
 31
0.0
  0
LINE
  5
4526
330
1F
100
AcDbEntity
  8
AM_0
 48
0.5
100
AcDbLine
 10
-131.0000000000002
 20
-3.000000517103931
 30
0.0
 11
-131.0
 21
2.999999480851437
 31
0.0
  0
LINE
  5
4536
330
1F
100
AcDbEntity
  8
AM_0
 48
0.5
100
AcDbLine
 10
-78.00000000000015
 20
3.499999526804213
 30
0.0
 11
-130.5
 21
3.499999999999752
 31
0.0
  0
LINE
  5
4544
330
1F
100
AcDbEntity
  8
AM_0
 48
0.5
100
AcDbLine
 10
-130.5
 20
3.499999999999752
 30
0.0
 11
-130.9999999999997
 21
2.999999480851736
 31
0.0
1001
GENIUS_GENFIL_13
1070
     0
1040
0.5
1040
0.5
1040
20.0
1040
0.0
1002
{
1002
}
1001
GENIUS_GENODEF_13
1002
{
1000
HIER
1070
     0
1002
}
1002
{
1000
MANEDIT
1070
     0
1002
}
1002
{
1000
NOSEL
1070
     0
1002
}
1002
{
1000
BEHIND
1070
     0
1002
}
1002
{
1000
REACTOR
1002
}
1001
GENIUS_GENOBJ-N-CHA_13
1002
{
1000
OWNER
1000
GEN
1002
}
  0
LINE
  5
4547
330
1F
100
AcDbEntity
  8
AM_0
 48
0.5
100
AcDbLine
 10
-131.0000000000002
 20
-3.000000517103929
 30
0.0
 11
-130.4999999999995
 21
-3.500000000000247
 31
0.0
1001
GENIUS_GENFIL_13
1070
     0
1040
0.5
1040
0.5
1040
20.0
1040
0.0
1002
{
1002
}
1001
GENIUS_GENODEF_13
1002
{
1000
HIER
1070
     0
1002
}
1002
{
1000
MANEDIT
1070
     0
1002
}
1002
{
1000
NOSEL
1070
     0
1002
}
1002
{
1000
BEHIND
1070
     0
1002
}
1002
{
1000
REACTOR
1002
}
1001
GENIUS_GENOBJ-N-CHA_13
1002
{
1000
OWNER
1000
GEN
1002
}
  0
LINE
  5
4658
330
1F
100
AcDbEntity
  8
AM_0
 48
0.5
100
AcDbLine
 10
0.0
 20
0.0000000000000034
 30
0.0
 11
-0.2618480876038726
 21
-0.7194217080190175
 31
0.0
  0
DIMENSION
  5
48D2
330
1F
100
AcDbEntity
  8
AM_5
100
AcDbDimension
  2
*D7
 10
-0.243144652775025
 20
-0.6680344431605163
 30
0.0
 11
10.46926064385547
 21
0.0000000000000186
 31
0.0
 70
    34
  1
<>
 51
359.9999999999998
  3
AM_JIS$2
100
AcDb2LineAngularDimension
 13
-0.0000000000000004
 23
0.0000000000000001
 33
0.0
 14
-0.2431446527750277
 24
0.6680344431605186
 34
0.0
 15
-0.0000000000000004
 25
0.0000000000000032
 35
0.0
 16
11.03627871598027
 26
-4.760585943781904
 36
0.0
1001
ACAD
1000
DSTYLE
1002
{
1070
   179
1070
     3
1002
}
1001
GENIUS_GENDTOL_13
1000

1000
h7
1000

1040
0.0
  0
DIMENSION
  5
4A9C
330
1F
100
AcDbEntity
  8
AM_5
100
AcDbDimension
  2
*D8
 10
-138.7500010004113
 20
-3.500000000000245
 30
0.0
 11
-140.4500010004113
 21
-0.0000000000002675
 31
0.0
 70
    32
  1
%%c<>
 51
359.9999999999998
  3
AM_JIS$0
100
AcDbAlignedDimension
 13
-130.5
 23
3.499999999999752
 33
0.0
 14
-130.4999999999995
 24
-3.500000000000247
 34
0.0
 50
270.000004170476
100
AcDbRotatedDimension
1001
ACAD
1000
DSTYLE
1002
{
1070
   271
1070
     0
1002
}
1001
GENIUS_GENDTOL_13
1000

1000
h7
1000

1040
0.0
  0
ELLIPSE
  5
4BB1
330
1F
100
AcDbEntity
  8
AM_0
 48
0.5
100
AcDbEllipse
 10
1.388645562138835
 20
-5.903476772684879
 30
0.0
 11
-0.8437198879304691
 21
5.876960331746348
 31
0.0
210
0.0
220
0.0
230
-1.0
 40
0.3530315924421318
 41
-1.003307944949282
 42
-0.4422545206818754
  0
LINE
  5
4BB2
330
1F
100
AcDbEntity
  8
AM_0
 48
0.5
100
AcDbLine
 10
-0.814410015677341
 20
-2.995688997828965
 30
0.0
 11
-0.999999999999977
 21
-3.499999999999992
 31
0.0
  0
ELLIPSE
  5
4D8F
330
1F
100
AcDbEntity
  8
AM_0
 48
0.5
100
AcDbEllipse
 10
1.388645562138813
 20
5.903476772684885
 30
0.0
 11
-0.8437198879304469
 21
-5.876960331746352
 31
0.0
210
0.0
220
0.0
230
0.9999999999999998
 40
0.3530315924421318
 41
-1.003307944949282
 42
-0.4422545206818754
  0
LINE
  5
4D90
330
1F
100
AcDbEntity
  8
AM_0
 48
0.5
100
AcDbLine
 10
-0.8144100156773523
 20
2.995688997828965
 30
0.0
 11
-0.9999999999999902
 21
3.499999999999997
 31
0.0
  0
LINE
  5
4E4E
330
1F
100
AcDbEntity
  8
AM_0
100
AcDbLine
 10
-78.61538461538458
 20
-3.499950177071501
 30
0.0
 11
-83.5336775787892
 21
-3.499992454522526
 31
0.0
  0
LINE
  5
4F53
330
1F
100
AcDbEntity
  8
AM_0
100
AcDbLine
 10
-78.61538461538462
 20
3.500000205170612
 30
0.0
 11
-83.53367975368486
 21
3.500000021661166
 31
0.0
  0
ELLIPSE
  5
5064
330
1F
100
AcDbEntity
  8
AM_11
 48
0.5
100
AcDbEllipse
 10
1.799739850621785
 20
14.35514506069502
 30
0.0
 11
-16.32528419494653
 21
0.0000000000066024
 31
0.0
210
0.0
220
0.0
230
1.0
 40
0.9722222222221985
 41
1.130070686340713
 42
1.291800737381399
  0
ELLIPSE
  5
5065
330
1F
100
AcDbEntity
  8
AM_11
 48
0.5
100
AcDbEllipse
 10
-12.12883157794966
 20
-14.35513472191797
 30
0.0
 11
16.32528419494606
 21
0.0000000000000731
 31
0.0
210
0.0
220
0.0
230
1.0
 40
0.9722222222222224
 41
1.130071552591889
 42
2.011521013575197
  0
ELLIPSE
  5
5066
330
1F
100
AcDbEntity
  8
AM_11
 48
0.5
100
AcDbEllipse
 10
-12.12883157794966
 20
14.35514506069502
 30
0.0
 11
-16.32528419494607
 21
0.0000000000000086
 31
0.0
210
0.0
220
0.0
230
1.0
 40
0.9722222222222221
 41
1.130070686340307
 42
2.011520147323599
  0
ELLIPSE
  5
5067
330
1F
100
AcDbEntity
  8
AM_11
 48
0.5
100
AcDbEllipse
 10
-26.05740300652108
 20
-14.35513472191797
 30
0.0
 11
-16.32528419494607
 21
-0.0000000000000059
 31
0.0
210
0.0
220
0.0
230
1.0
 40
0.9722222222222221
 41
4.271664206181687
 42
5.153113667164993
  0
ELLIPSE
  5
5068
330
1F
100
AcDbEntity
  8
AM_11
 48
0.5
100
AcDbEllipse
 10
-26.05740300652108
 20
14.35514506069502
 30
0.0
 11
16.32528419494606
 21
0.0000000000001565
 31
0.0
210
0.0
220
0.0
230
1.0
 40
0.9722222222222223
 41
4.271663339930089
 42
5.153112800913382
  0
ELLIPSE
  5
5069
330
1F
100
AcDbEntity
  8
AM_11
 48
0.5
100
AcDbEllipse
 10
-39.9859744350886
 20
-14.35513472191797
 30
0.0
 11
-16.32528419494606
 21
-0.000000000000024
 31
0.0
210
0.0
220
0.0
230
1.0
 40
0.9722222222222224
 41
4.271664206181685
 42
5.153113667164992
  0
ELLIPSE
  5
506A
330
1F
100
AcDbEntity
  8
AM_11
 48
0.5
100
AcDbEllipse
 10
-39.9859744350886
 20
14.35514506069502
 30
0.0
 11
-16.32528419494606
 21
-0.0000000000000313
 31
0.0
210
0.0
220
0.0
230
1.0
 40
0.9722222222222223
 41
1.130070686340304
 42
2.011520147323597
  0
ELLIPSE
  5
506F
330
1F
100
AcDbEntity
  8
AM_11
 48
0.5
100
AcDbEllipse
 10
-67.8431463885627
 20
-14.35512137937865
 30
0.0
 11
-16.32528419494606
 21
-0.000000000000024
 31
0.0
210
0.0
220
0.0
230
1.0
 40
0.9722222222222224
 41
4.271664206181685
 42
5.153113667164992
  0
ELLIPSE
  5
5070
330
1F
100
AcDbEntity
  8
AM_11
 48
0.5
100
AcDbEllipse
 10
-67.8431463885627
 20
14.35515840323434
 30
0.0
 11
-16.32528419494606
 21
-0.0000000000000313
 31
0.0
210
0.0
220
0.0
230
1.0
 40
0.9722222222222223
 41
1.130070686340304
 42
2.011520147323597
  0
ELLIPSE
  5
5071
330
1F
100
AcDbEntity
  8
AM_11
 48
0.5
100
AcDbEllipse
 10
-53.91457495999518
 20
-14.35512137937865
 30
0.0
 11
-16.32528419494607
 21
-0.0000000000000059
 31
0.0
210
0.0
220
0.0
230
1.0
 40
0.9722222222222221
 41
4.271664206181687
 42
5.153113667164993
  0
ELLIPSE
  5
5072
330
1F
100
AcDbEntity
  8
AM_11
 48
0.5
100
AcDbEllipse
 10
-53.91457495999518
 20
14.35515840323434
 30
0.0
 11
16.32528419494606
 21
0.0000000000001565
 31
0.0
210
0.0
220
0.0
230
1.0
 40
0.9722222222222223
 41
4.271663339930089
 42
5.153112800913382
  0
ELLIPSE
  5
5073
330
1F
100
AcDbEntity
  8
AM_11
 48
0.5
100
AcDbEllipse
 10
-95.70025749017352
 20
-14.35509469429995
 30
0.0
 11
-16.32528419494606
 21
-0.000000000000024
 31
0.0
210
0.0
220
0.0
230
1.0
 40
0.9722222222222224
 41
4.271664206181685
 42
5.153113667164992
  0
ELLIPSE
  5
5074
330
1F
100
AcDbEntity
  8
AM_11
 48
0.5
100
AcDbEllipse
 10
-95.70025749017352
 20
14.35518508831304
 30
0.0
 11
-16.32528419494606
 21
-0.0000000000000313
 31
0.0
210
0.0
220
0.0
230
1.0
 40
0.9722222222222223
 41
1.130070686340304
 42
2.011520147323597
  0
ELLIPSE
  5
5075
330
1F
100
AcDbEntity
  8
AM_11
 48
0.5
100
AcDbEllipse
 10
-81.771686061606
 20
14.35518508831304
 30
0.0
 11
16.32528419494606
 21
0.0000000000001565
 31
0.0
210
0.0
220
0.0
230
1.0
 40
0.9722222222222223
 41
4.271663339930089
 42
5.153112800913382
  0
ELLIPSE
  5
5076
330
1F
100
AcDbEntity
  8
AM_11
 48
0.5
100
AcDbEllipse
 10
-81.771686061606
 20
-14.35509469429995
 30
0.0
 11
-16.32528419494607
 21
-0.0000000000000059
 31
0.0
210
0.0
220
0.0
230
1.0
 40
0.9722222222222221
 41
4.271664206181687
 42
5.153113667164993
  0
ELLIPSE
  5
5077
330
1F
100
AcDbEntity
  8
AM_11
 48
0.5
100
AcDbEllipse
 10
-123.5572522055515
 20
-14.35512137937876
 30
0.0
 11
-16.32528419494606
 21
-0.000000000000024
 31
0.0
210
0.0
220
0.0
230
1.0
 40
0.9722222222222224
 41
4.271664206181685
 42
5.153113667164992
  0
ELLIPSE
  5
5078
330
1F
100
AcDbEntity
  8
AM_11
 48
0.5
100
AcDbEllipse
 10
-123.5572522055515
 20
14.35515840323424
 30
0.0
 11
-16.32528419494606
 21
-0.0000000000000313
 31
0.0
210
0.0
220
0.0
230
1.0
 40
0.9722222222222223
 41
1.130070686340304
 42
2.011520147323597
  0
ELLIPSE
  5
5079
330
1F
100
AcDbEntity
  8
AM_11
 48
0.5
100
AcDbEllipse
 10
-109.628680776984
 20
14.35515840323424
 30
0.0
 11
16.32528419494606
 21
0.0000000000001565
 31
0.0
210
0.0
220
0.0
230
1.0
 40
0.9722222222222223
 41
4.271663339930089
 42
5.153112800913382
  0
ELLIPSE
  5
507A
330
1F
100
AcDbEntity
  8
AM_11
 48
0.5
100
AcDbEllipse
 10
-109.628680776984
 20
-14.35512137937875
 30
0.0
 11
-16.32528419494607
 21
-0.0000000000000059
 31
0.0
210
0.0
220
0.0
230
1.0
 40
0.9722222222222221
 41
4.271664206181687
 42
5.153113667164993
  0
ELLIPSE
  5
507D
330
1F
100
AcDbEntity
  8
AM_11
 48
0.5
100
AcDbEllipse
 10
-137.4857918785948
 20
14.35515840323411
 30
0.0
 11
16.32528419494606
 21
0.0000000000001565
 31
0.0
210
0.0
220
0.0
230
1.0
 40
0.9722222222222223
 41
5.12094551664477
 42
5.153112800913382
  0
ELLIPSE
  5
507E
330
1F
100
AcDbEntity
  8
AM_11
 48
0.5
100
AcDbEllipse
 10
-137.4857918785948
 20
-14.35512137937888
 30
0.0
 11
-16.32528419494607
 21
-0.0000000000000059
 31
0.0
210
0.0
220
0.0
230
1.0
 40
0.9722222222222221
 41
4.271664206181687
 42
4.303832444124589
  0
DIMENSION
  5
510B
330
1F
100
AcDbEntity
  8
AM_5
100
AcDbDimension
  2
*D9
 10
7.725244180351674
 20
-3.499999999999993
 30
0.0
 11
6.025244180351675
 21
0.0000000000000077
 31
0.0
 70
    32
  1
%%c<>
 51
359.9999999999998
  3
AM_JIS$0
100
AcDbAlignedDimension
 13
-0.9999999999999943
 23
3.500000000000007
 33
0.0
 14
-0.9999999999999793
 24
-3.499999999999991
 34
0.0
 50
89.99995660842881
100
AcDbRotatedDimension
1001
ACAD
1000
DSTYLE
1002
{
1070
   271
1070
     0
1002
}
1001
GENIUS_GENDTOL_13
1000

1000
h7
1000

1040
0.0
  0
ELLIPSE
  5
5253
330
1F
100
AcDbEntity
  8
AM_0
 48
0.5
100
AcDbEllipse
 10
1.697053547101555
 20
4.201968087653068
 30
0.0
 11
9.084730815878137
 21
2.033069034583103
 31
0.0
210
0.0
220
0.0
230
1.0
 40
0.6456016253003081
 41
3.239350465924395
 42
3.957836155852993
  0
ELLIPSE
  5
5254
330
1F
100
AcDbEntity
  8
AM_0
 48
0.5
100
AcDbEllipse
 10
-0.7956109617851741
 20
-1.12404291740699
 30
0.0
 11
-2.989606422946032
 21
1.867179531789333
 31
0.0
210
0.0
220
0.0
230
1.0
 40
0.6332027150932137
 41
0.9066556076337279
 42
1.883774014038533
  0
ELLIPSE
  5
5255
330
1F
100
AcDbEntity
  8
AM_0
 48
0.5
100
AcDbEllipse
 10
-9.54257916477259
 20
5.874271452945985
 30
0.0
 11
-12.03953565673847
 21
3.101434982126117
 31
0.0
210
0.0
220
0.0
230
0.9999999999999998
 40
0.5234126761154699
 41
2.452929804274267
 42
2.608317855779867
  0
ELLIPSE
  5
5256
330
1F
100
AcDbEntity
  8
AM_0
 48
0.5
100
AcDbEllipse
 10
-28.90803621403155
 20
102.5801599288199
 30
0.0
 11
-24.20757540958113
 21
104.357022510559
 31
0.0
210
0.0
220
0.0
230
1.0
 40
0.3605903426840306
 41
3.17195231554608
 42
3.213158034901113
  0
ELLIPSE
  5
5257
330
1F
100
AcDbEntity
  8
AM_0
 48
0.5
100
AcDbEllipse
 10
-1.682524891220239
 20
-0.7050056070323747
 30
0.0
 11
-0.8234236194582274
 21
0.2435477520212581
 31
0.0
210
0.0
220
0.0
230
1.0
 40
0.3634335018677632
 41
4.309885585735571
 42
7.453325927065083
  0
ELLIPSE
  5
5258
330
1F
100
AcDbEntity
  8
AM_0
 48
0.5
100
AcDbEllipse
 10
-1.682524891220239
 20
-0.7050056070323747
 30
0.0
 11
-0.2717704322523357
 21
0.5414984482968098
 31
0.0
210
0.0
220
0.0
230
1.0
 40
0.7300087876094819
 41
1.542603607398389
 42
4.677945497110362
  0
LINE
  5
5259
330
1F
100
AcDbEntity
  8
AM_0
 48
0.5
100
AcDbLine
 10
-0.0000000000000013
 20
0.0000000000000063
 30
0.0
 11
-3.292900306742652
 21
1.064717688912239
 31
0.0
  0
SPLINE
  5
525A
330
1F
100
AcDbEntity
  8
AM_0
 48
0.5
100
AcDbSpline
210
0.0
220
0.0
230
1.0
 70
     8
 71
     3
 72
    10
 73
     6
 74
     0
 42
0.0000000001
 43
0.0000000001
 40
0.0
 40
0.0
 40
0.0
 40
0.0
 40
2.69986029516136
 40
4.147722969032201
 40
6.201687855798567
 40
6.201687855798567
 40
6.201687855798567
 40
6.201687855798567
 10
-7.216194300872057
 20
1.606157710461572
 30
0.0
 10
-5.770873564571934
 20
0.0698660429305686
 30
0.0
 10
-4.839220216343585
 20
-0.4296903389308762
 30
0.0
 10
-2.66545004740134
 20
-0.1910806310242554
 30
0.0
 10
-3.032383064845094
 20
0.588897324554729
 30
0.0
 10
-3.292900306742649
 20
1.064717688912238
 30
0.0
  0
ELLIPSE
  5
525B
330
1F
100
AcDbEntity
  8
AM_0
100
AcDbEllipse
 10
-76.50507854950487
 20
-3.746802698226447
 30
0.0
 11
0.0000000000327868
 21
1.899643407403297
 31
0.0
210
0.0
220
0.0
230
1.0
 40
0.985856399682596
 41
-0.3424012338020208
 42
-0.1877332661537954
  0
ELLIPSE
  5
525C
330
1F
100
AcDbEntity
  8
AM_0
100
AcDbEllipse
 10
-76.6961027120782
 20
-3.875691201646064
 30
0.0
 11
0.0000000000020255
 21
2.069124308562591
 31
0.0
210
0.0
220
0.0
230
1.0
 40
0.9858563996833565
 41
-0.2681948460321841
 42
-0.0735832027599504
  0
ELLIPSE
  5
525D
330
1F
100
AcDbEntity
  8
AM_0
100
AcDbEllipse
 10
-76.7513965868903
 20
-6.576676265496627
 30
0.0
 11
-0.000000000000436
 21
4.769057189871827
 31
0.0
210
0.0
220
0.0
230
1.0
 40
0.9858563996834849
 41
-0.0436708493382643
 42
0.1276600234897189
  0
ELLIPSE
  5
525E
330
1F
100
AcDbEntity
  8
AM_0
100
AcDbEllipse
 10
-75.64889243483571
 20
1.987826495717254
 30
0.0
 11
0.0000000000115702
 21
5.136927924311582
 31
0.0
210
0.0
220
0.0
230
1.0
 40
0.9858563996833128
 41
2.806097075230672
 42
2.963480633384493
  0
ELLIPSE
  5
525F
330
1F
100
AcDbEntity
  8
AM_0
100
AcDbEllipse
 10
-77.24743717269082
 20
-2.882925563336358
 30
0.0
 11
-0.0000000000022368
 21
1.041703738160094
 31
0.0
210
0.0
220
0.0
230
1.0
 40
0.9858563996833359
 41
0.1000113452939726
 42
0.4663880400682277
  0
ELLIPSE
  5
5260
330
1F
100
AcDbEntity
  8
AM_0
100
AcDbEllipse
 10
-77.39440863120774
 20
-2.626179546730474
 30
0.0
 11
-0.0000000000149172
 21
0.7455532248063137
 31
0.0
210
0.0
220
0.0
230
0.9999999999999998
 40
0.9858563996832375
 41
0.44263324945956
 42
0.8332770159407409
  0
ELLIPSE
  5
5261
330
1F
100
AcDbEntity
  8
AM_0
100
AcDbEllipse
 10
-77.7506436418388
 20
-2.291976501477985
 30
0.0
 11
-0.0000000000041449
 21
0.2534086595794036
 31
0.0
210
0.0
220
0.0
230
1.0
 40
0.9858563996838071
 41
0.8505161907289963
 42
1.50956458056761
  0
ELLIPSE
  5
5262
330
1F
100
AcDbEntity
  8
AM_0
100
AcDbEllipse
 10
-77.72101973299877
 20
-2.273302265551934
 30
0.0
 11
0.0000000000049722
 21
0.2830003849165444
 31
0.0
210
0.0
220
0.0
230
0.9999999999999998
 40
0.985856399684005
 41
1.581988331622016
 42
2.197008321707681
  0
ELLIPSE
  5
5263
330
1F
100
AcDbEntity
  8
AM_0
100
AcDbEllipse
 10
-77.15750323141314
 20
-1.828581023537957
 30
0.0
 11
-0.0000000000151258
 21
1.007102805455452
 31
0.0
210
0.0
220
0.0
230
1.0
 40
0.9858563996834181
 41
2.222165445278891
 42
2.552396541800313
  0
ELLIPSE
  5
5264
330
1F
100
AcDbEntity
  8
AM_0
100
AcDbEllipse
 10
-76.82875302162031
 20
-1.35919484632631
 30
0.0
 11
-0.0000000000078112
 21
1.582734732715668
 31
0.0
210
0.0
220
0.0
230
1.0
 40
0.9858563996835993
 41
2.542031073029558
 42
2.823851770163848
  0
SPLINE
  5
5265
330
1F
100
AcDbEntity
  8
AM_0
100
AcDbSpline
210
0.0
220
0.0
230
1.0
 70
     8
 71
     3
 72
    15
 73
    11
 74
     0
 42
0.0000000001
 43
0.0000000001
 40
10.32789992158508
 40
10.32789992158508
 40
10.32789992158508
 40
10.32789992158508
 40
10.37139106676736
 40
11.27458944007584
 40
12.18373345430765
 40
13.09824173870457
 40
14.01741343450111
 40
14.9404441545541
 40
15.86644439743314
 40
16.55140071192301
 40
16.55140071192301
 40
16.55140071192301
 40
16.55140071192301
 10
-73.46408887565954
 20
1.619914964111432
 30
0.0
 10
-73.69568682115897
 20
1.551942675127642
 30
0.0
 10
-73.92466591102493
 20
1.474066962667051
 30
0.0
 10
-74.37186127684454
 20
1.317389790573281
 30
0.0
 10
-75.0246326352065
 20
1.077412840976362
 30
0.0
 10
-75.6773655388067
 20
0.8276572284821993
 30
0.0
 10
-76.33006570822944
 20
0.5696588132825183
 30
0.0
 10
-76.98273949589408
 20
0.3050044214412672
 30
0.0
 10
-77.5782705921243
 20
0.0589265850872917
 30
0.0
 10
-77.80437019790685
 20
-0.0517695927710351
 30
0.0
 10
-77.99999999999982
 20
-0.164987197773579
 30
0.0
  0
LINE
  5
5266
330
1F
100
AcDbEntity
  8
AM_0
 48
0.5
100
AcDbLine
 10
-6.102642680864647
 20
-3.499997244377843
 30
0.0
 11
-0.9999999984656684
 21
-3.499999995830755
 31
0.0
  0
LINE
  5
5267
330
1F
100
AcDbEntity
  8
AM_0
 48
0.5
100
AcDbLine
 10
-26.70418907431196
 20
-3.499997244376828
 30
0.0
 11
-16.23523209424212
 21
-3.499997244377287
 31
0.0
  0
LINE
  5
5268
330
1F
100
AcDbEntity
  8
AM_11
 48
0.5
100
AcDbLine
 10
-57.92624474841723
 20
-3.500319145213666
 30
0.0
 11
-48.95621500155602
 21
-3.499816469547092
 31
0.0
  0
LINE
  5
5269
330
1F
100
AcDbEntity
  8
AM_0
 48
0.5
100
AcDbLine
 10
-48.95621500155602
 20
-3.499816469547092
 30
0.0
 11
-38.46911844047011
 21
-3.499997244376159
 31
0.0
  0
LINE
  5
526A
330
1F
100
AcDbEntity
  8
AM_11
 48
0.5
100
AcDbLine
 10
-38.46911844046775
 20
-3.499997244376228
 30
0.0
 11
-26.70418907431196
 21
-3.500494482895232
 31
0.0
  0
LINE
  5
526B
330
1F
100
AcDbEntity
  8
AM_11
 48
0.5
100
AcDbLine
 10
-16.23523036088052
 20
-3.499997244377276
 30
0.0
 11
-6.102642680864544
 21
-3.499997244377867
 31
0.0
  0
SPLINE
  5
526C
330
1F
100
AcDbEntity
  8
AM_0
100
AcDbSpline
210
0.0
220
0.0
230
1.0
 70
     8
 71
     3
 72
    11
 73
     7
 74
     0
 42
0.0000000001
 43
0.0000000001
 40
11.27226913003534
 40
11.27226913003534
 40
11.27226913003534
 40
11.2722691300354
 40
12.28301561507924
 40
13.29510212255852
 40
14.30984805882082
 40
15.18258238371378
 40
15.18258238371378
 40
15.18258238371378
 40
15.18258238371378
 10
-38.46911844046922
 20
-3.499997244376229
 30
0.0
 10
-38.67642270487531
 20
-3.482867227282862
 30
0.0
 10
-39.09064021842446
 20
-3.441396201428606
 30
0.0
 10
-39.70982754672952
 20
-3.357738884446655
 30
0.0
 10
-40.29744723926376
 20
-3.257819391978791
 30
0.0
 10
-40.67748516381096
 20
-3.181008304323885
 30
0.0
 10
-40.85261746101229
 20
-3.143065748621054
 30
0.0
  0
SPLINE
  5
526D
330
1F
100
AcDbEntity
  8
AM_0
100
AcDbSpline
210
0.0
220
0.0
230
1.0
 70
     8
 71
     3
 72
    17
 73
    13
 74
     0
 42
0.0000000001
 43
0.0000000001
 40
1.580019955310467
 40
1.580019955310467
 40
1.580019955310467
 40
1.580019955310467
 40
2.030549285115227
 40
3.082371838836284
 40
4.126290986361125
 40
5.162752068350215
 40
6.192395305374981
 40
7.216039564037012
 40
8.234688489606833
 40
9.249433870634691
 40
10.26152376260694
 40
11.27226744710342
 40
11.27226744710342
 40
11.27226744710342
 40
11.27226744710352
 10
-32.58619481102094
 20
-2.583100307442789
 30
0.0
 10
-32.67455832861232
 20
-2.609704123110763
 30
0.0
 10
-32.969722164169
 20
-2.696901682410068
 30
0.0
 10
-33.47364002903221
 20
-2.833674174153833
 30
0.0
 10
-34.09781685149521
 20
-2.986841220794693
 30
0.0
 10
-34.72216550925301
 20
-3.12130155150459
 30
0.0
 10
-35.34654277444839
 20
-3.236603618272605
 30
0.0
 10
-35.97098806442777
 20
-3.331908708296804
 30
0.0
 10
-36.59547649554037
 20
-3.406672957452156
 30
0.0
 10
-37.22000381230166
 20
-3.460411868387701
 30
0.0
 10
-37.84455462797591
 20
-3.492779517492953
 30
0.0
 10
-38.26102289434905
 20
-3.499997264403424
 30
0.0
 10
-38.46911844046918
 20
-3.499997244376229
 30
0.0
  0
SPLINE
  5
526E
330
1F
100
AcDbEntity
  8
AM_0
100
AcDbSpline
210
0.0
220
0.0
230
1.0
 70
     8
 71
     3
 72
    11
 73
     7
 74
     0
 42
0.0000000001
 43
0.0000000001
 40
11.27226913003534
 40
11.27226913003534
 40
11.27226913003534
 40
11.2722691300354
 40
12.28301561507924
 40
13.29510212255852
 40
14.30984805882082
 40
15.18258238371378
 40
15.18258238371378
 40
15.18258238371378
 40
15.18258238371378
 10
-16.2352320942421
 20
-3.499997244377288
 30
0.0
 10
-16.44253635864817
 20
-3.482867227283917
 30
0.0
 10
-16.85675387219734
 20
-3.441396201429662
 30
0.0
 10
-17.4759412005024
 20
-3.357738884447712
 30
0.0
 10
-18.06356089303663
 20
-3.257819391979847
 30
0.0
 10
-18.44359881758381
 20
-3.181008304324943
 30
0.0
 10
-18.61873111478514
 20
-3.143065748622108
 30
0.0
  0
SPLINE
  5
526F
330
1F
100
AcDbEntity
  8
AM_0
100
AcDbSpline
210
0.0
220
0.0
230
1.0
 70
     8
 71
     3
 72
    17
 73
    13
 74
     0
 42
0.0000000001
 43
0.0000000001
 40
1.580019955310467
 40
1.580019955310467
 40
1.580019955310467
 40
1.580019955310467
 40
2.030549285115227
 40
3.082371838836284
 40
4.126290986361125
 40
5.162752068350215
 40
6.192395305374981
 40
7.216039564037012
 40
8.234688489606833
 40
9.249433870634691
 40
10.26152376260694
 40
11.27226744710342
 40
11.27226744710342
 40
11.27226744710342
 40
11.27226744710352
 10
-10.35230846479378
 20
-2.583100307443847
 30
0.0
 10
-10.44067198238518
 20
-2.609704123111817
 30
0.0
 10
-10.73583581794185
 20
-2.696901682411124
 30
0.0
 10
-11.23975368280509
 20
-2.83367417415489
 30
0.0
 10
-11.86393050526807
 20
-2.986841220795749
 30
0.0
 10
-12.48827916302588
 20
-3.121301551505645
 30
0.0
 10
-13.11265642822125
 20
-3.236603618273661
 30
0.0
 10
-13.73710171820063
 20
-3.331908708297863
 30
0.0
 10
-14.36159014931325
 20
-3.406672957453213
 30
0.0
 10
-14.98611746607456
 20
-3.460411868388756
 30
0.0
 10
-15.6106682817488
 20
-3.49277951749401
 30
0.0
 10
-16.02713654812195
 20
-3.499997264404481
 30
0.0
 10
-16.23523209424206
 20
-3.499997244377288
 30
0.0
  0
SPLINE
  5
5270
330
1F
100
AcDbEntity
  8
AM_0
100
AcDbSpline
210
0.0
220
0.0
230
1.0
 70
     8
 71
     3
 72
    22
 73
    18
 74
     0
 42
0.0000000001
 43
0.0000000001
 40
17.17441611292
 40
17.17441611292
 40
17.17441611292
 40
17.17441611292
 40
17.38177636558528
 40
18.41823744757437
 40
19.46215659509824
 40
20.51397914882054
 40
21.57394542641293
 40
22.64209583141747
 40
23.71826625065247
 40
24.80210429862395
 40
25.8930771157021
 40
26.99048705697709
 40
28.09349309193389
 40
29.20112995599786
 40
30.31233024745139
 40
31.42594771747373
 40
32.5407895042663
 40
32.54078950426994
 40
32.54078950426994
 40
32.54078950426994
 10
-18.61900425238939
 20
-3.14302257614887
 30
0.0
 10
-18.66082506536302
 20
-3.134920419435061
 30
0.0
 10
-18.91151799946383
 20
-3.085569297303705
 30
0.0
 10
-19.37077332824589
 20
-2.986613874238774
 30
0.0
 10
-19.99503704679018
 20
-2.833682019763399
 30
0.0
 10
-20.61923715417196
 20
-2.663286319127471
 30
0.0
 10
-21.24337805720898
 20
-2.476490424544497
 30
0.0
 10
-21.86745893145451
 20
-2.274439671029468
 30
0.0
 10
-22.49148745862047
 20
-2.058391513788073
 30
0.0
 10
-23.11546652813433
 20
-1.829673715281072
 30
0.0
 10
-23.73940191328627
 20
-1.589696765639569
 30
0.0
 10
-24.36330055184219
 20
-1.339941170638918
 30
0.0
 10
-24.98716785886581
 20
-1.081942684985574
 30
0.0
 10
-25.61101011459027
 20
-0.817288558959782
 30
0.0
 10
-26.23483284883421
 20
-0.5476061158653572
 30
0.0
 10
-26.85864530298889
 20
-0.2745594421417085
 30
0.0
 10
-27.27443864114914
 20
-0.091432829975901
 30
0.0
 10
-27.4824495316528
 20
0.0001807748294601
 30
0.0
  0
SPLINE
  5
5271
330
1F
100
AcDbEntity
  8
AM_0
100
AcDbSpline
210
0.0
220
0.0
230
1.0
 70
     8
 71
     3
 72
    22
 73
    18
 74
     0
 42
0.0000000001
 43
0.0000000001
 40
17.17441611292
 40
17.17441611292
 40
17.17441611292
 40
17.17441611292
 40
17.38177636558528
 40
18.41823744757437
 40
19.46215659509824
 40
20.51397914882054
 40
21.57394542641293
 40
22.64209583141747
 40
23.71826625065247
 40
24.80210429862395
 40
25.8930771157021
 40
26.99048705697709
 40
28.09349309193389
 40
29.20112995599786
 40
30.31233024745139
 40
31.42594771747373
 40
32.5407895042663
 40
32.54078950426994
 40
32.54078950426994
 40
32.54078950426994
 10
-40.85289059861656
 20
-3.143022576147815
 30
0.0
 10
-40.89471141159018
 20
-3.134920419434008
 30
0.0
 10
-41.14540434569098
 20
-3.085569297302649
 30
0.0
 10
-41.60465967447306
 20
-2.986613874237718
 30
0.0
 10
-42.22892339301735
 20
-2.833682019762345
 30
0.0
 10
-42.8531235003991
 20
-2.663286319126413
 30
0.0
 10
-43.47726440343607
 20
-2.476490424543441
 30
0.0
 10
-44.10134527768163
 20
-2.274439671028412
 30
0.0
 10
-44.72537380484754
 20
-2.058391513787017
 30
0.0
 10
-45.3493528743614
 20
-1.829673715280015
 30
0.0
 10
-45.97328825951329
 20
-1.589696765638515
 30
0.0
 10
-46.59718689806923
 20
-1.339941170637862
 30
0.0
 10
-47.22105420509289
 20
-1.081942684984518
 30
0.0
 10
-47.84489646081738
 20
-0.8172885589587265
 30
0.0
 10
-48.46871919506132
 20
-0.5476061158643022
 30
0.0
 10
-49.092531649216
 20
-0.2745594421406532
 30
0.0
 10
-49.50832498737626
 20
-0.0914328299748455
 30
0.0
 10
-49.7163358778799
 20
0.0001807748305157
 30
0.0
  0
SPLINE
  5
5272
330
1F
100
AcDbEntity
  8
AM_0
100
AcDbSpline
210
0.0
220
0.0
230
1.0
 70
     8
 71
     3
 72
    15
 73
    11
 74
     0
 42
0.0000000001
 43
0.0000000001
 40
4.116313036328508
 40
4.116313036328508
 40
4.116313036328508
 40
4.116313036328508
 40
4.126290986361125
 40
5.162752068350215
 40
6.192395305374981
 40
7.216039564037012
 40
8.234688489606833
 40
9.249433870634691
 40
10.26152376260694
 40
11.27226744710342
 40
11.27226744710342
 40
11.27226744710342
 40
11.27226744710352
 10
-53.21327020143217
 20
-3.005642005254255
 30
0.0
 10
-53.21535806157662
 20
-3.006102106302262
 30
0.0
 10
-53.43433045956349
 20
-3.054326877943179
 30
0.0
 10
-53.87037369103567
 20
-3.144085270920089
 30
0.0
 10
-54.5236073507836
 20
-3.25938733768813
 30
0.0
 10
-55.17691217916802
 20
-3.354692427712359
 30
0.0
 10
-55.83026214250836
 20
-3.429456676867734
 30
0.0
 10
-56.48365278864743
 20
-3.483195587803308
 30
0.0
 10
-57.10730954808695
 20
-3.485377835003806
 30
0.0
 10
-57.48421002706077
 20
-3.488757034019199
 30
0.0
 10
-57.7777071924009
 20
-3.500310821248517
 30
0.0
  0
LINE
  5
5273
330
1F
100
AcDbEntity
  8
AM_11
100
AcDbLine
 10
-68.66351277740017
 20
-3.499999999999733
 30
0.0
 11
-78.00000000000015
 21
-3.499950217241543
 31
0.0
  0
SPLINE
  5
5274
330
1F
100
AcDbEntity
  8
AM_0
100
AcDbSpline
210
0.0
220
0.0
230
1.0
 70
     8
 71
     3
 72
    22
 73
    18
 74
     0
 42
0.0000000001
 43
0.0000000001
 40
17.17441611292
 40
17.17441611292
 40
17.17441611292
 40
17.17441611292
 40
17.38177636558528
 40
18.41823744757437
 40
19.46215659509824
 40
20.51397914882054
 40
21.57394542641293
 40
22.64209583141747
 40
23.71826625065247
 40
24.80210429862395
 40
25.8930771157021
 40
26.99048705697709
 40
28.09349309193389
 40
29.20112995599786
 40
30.31233024745139
 40
31.42594771747373
 40
32.5407895042663
 40
32.54078950426994
 40
32.54078950426994
 40
32.54078950426994
 10
-60.28415232710361
 20
-3.16584946803681
 30
0.0
 10
-60.32790594248208
 20
-3.157747311323005
 30
0.0
 10
-60.59018497143483
 20
-3.108396189191651
 30
0.0
 10
-61.07066537311183
 20
-3.009440766126748
 30
0.0
 10
-61.72378023850487
 20
-2.856508911651395
 30
0.0
 10
-62.37682855286408
 20
-2.686113211015493
 30
0.0
 10
-63.02981492667398
 20
-2.499317316432547
 30
0.0
 10
-63.68273849738494
 20
-2.297266562917547
 30
0.0
 10
-64.33560730172903
 20
-2.081218405676175
 30
0.0
 10
-64.98842436267231
 20
-1.8525006071692
 30
0.0
 10
-65.64119572032495
 20
-1.612523657527725
 30
0.0
 10
-66.29392863309064
 20
-1.362768062527097
 30
0.0
 10
-66.94662876629718
 20
-1.10476957687378
 30
0.0
 10
-67.59930269042671
 20
-0.8401154508480162
 30
0.0
 10
-68.25195619086547
 20
-0.570433007753624
 30
0.0
 10
-68.90459893610747
 20
-0.2973863340300026
 30
0.0
 10
-69.33960869563204
 20
-0.1142597218642082
 30
0.0
 10
-69.55723307570716
 20
-0.0226461170588562
 30
0.0
  0
SPLINE
  5
5275
330
1F
100
AcDbEntity
  8
AM_0
100
AcDbSpline
210
0.0
220
0.0
230
1.0
 70
     8
 71
     3
 72
    14
 73
    10
 74
     0
 42
0.0000000001
 43
0.0000000001
 40
1.580019955310467
 40
1.580019955310467
 40
1.580019955310467
 40
1.580019955310467
 40
2.030549285115227
 40
3.082371838836284
 40
4.126290986361125
 40
5.162752068350215
 40
6.192395305374981
 40
7.216039564037012
 40
8.092146932806128
 40
8.092146932806128
 40
8.092146932806128
 40
8.092146932806128
 10
-73.85436213019225
 20
-2.606424437849805
 30
0.0
 10
-73.94680948085994
 20
-2.633028253517782
 30
0.0
 10
-74.25561469090482
 20
-2.720225812817106
 30
0.0
 10
-74.7828217649388
 20
-2.856998304560888
 30
0.0
 10
-75.43584571823686
 20
-3.010165351201778
 30
0.0
 10
-76.08904944841791
 20
-3.144625681911699
 30
0.0
 10
-76.74228310816584
 20
-3.259927748679737
 30
0.0
 10
-77.3652738041812
 20
-3.350810567523779
 30
0.0
 10
-77.80474646950867
 20
-3.456513848880514
 30
0.0
 10
-78.00000000000015
 20
-3.499950177071352
 30
0.0
  0
ELLIPSE
  5
5276
330
1F
100
AcDbEntity
  8
AM_0
100
AcDbEllipse
 10
-76.1666469369718
 20
-1.128914415565517
 30
0.0
 11
0.000000000002911
 21
1.976762164980894
 31
0.0
210
0.0
220
0.0
230
1.0
 40
0.9858563996831581
 41
2.945609816913154
 42
3.13789147566459
  0
ELLIPSE
  5
5277
330
1F
100
AcDbEntity
  8
AM_0
100
AcDbEllipse
 10
-76.09687484367007
 20
0.4296928661813194
 30
0.0
 11
-0.0000000000000683
 21
3.536218226671906
 31
0.0
210
0.0
220
0.0
230
1.0
 40
0.9858563996833472
 41
3.119508111767925
 42
3.205549794956173
  0
SPLINE
  5
5278
330
1F
100
AcDbEntity
  8
AM_0
100
AcDbSpline
210
0.0
220
0.0
230
1.0
 70
     8
 71
     3
 72
    25
 73
    21
 74
     0
 42
0.0000000001
 43
0.0000000001
 40
1.163660092745933
 40
1.163660092745933
 40
1.163660092745933
 40
1.163660092745933
 40
1.685415058684573
 40
2.531036209541122
 40
3.379897699130124
 40
4.232934581347659
 40
5.09097061220244
 40
5.954688180526682
 40
6.824620803463244
 40
7.701151815239697
 40
8.58445704656667
 40
9.47458238407075
 40
10.37139106676736
 40
11.27458944007584
 40
12.18373345430765
 40
13.09824173870457
 40
14.01741343450111
 40
14.9404441545541
 40
15.86644439743314
 40
16.55140071192301
 40
16.55140071192301
 40
16.55140071192301
 40
16.55140071192301
 10
-66.43223839460201
 20
-3.499999999999748
 30
0.0
 10
-66.56694905182416
 20
-3.494702830469222
 30
0.0
 10
-66.91977618977988
 20
-3.477496290789019
 30
0.0
 10
-67.49033020325438
 20
-3.429157370122739
 30
0.0
 10
-68.14368413763722
 20
-3.3548281951797
 30
0.0
 10
-68.79698222581203
 20
-3.259402160543796
 30
0.0
 10
-69.45022274676801
 20
-3.144148180761754
 30
0.0
 10
-70.10340234468043
 20
-3.009617268044165
 30
0.0
 10
-70.75651992557161
 20
-2.856685805887677
 30
0.0
 10
-71.40957258283766
 20
-2.686292816108637
 30
0.0
 10
-72.06256162177422
 20
-2.499495139218781
 30
0.0
 10
-72.71548528603926
 20
-2.29744463528396
 30
0.0
 10
-73.36835406520084
 20
-2.081396410740708
 30
0.0
 10
-74.02117113233174
 20
-1.852678629228901
 30
0.0
 10
-74.67394249069369
 20
-1.612701679631981
 30
0.0
 10
-75.3266753942939
 20
-1.362946067137809
 30
0.0
 10
-75.9793755637166
 20
-1.104947651938115
 30
0.0
 10
-76.63204935138125
 20
-0.8402932600968618
 30
0.0
 10
-77.22758044761153
 20
-0.5942154237428794
 30
0.0
 10
-77.54683575836724
 20
-0.436372755416527
 30
0.0
 10
-78.00000000000015
 20
-0.1649871977733791
 30
0.0
  0
SPLINE
  5
5279
330
1F
100
AcDbEntity
  8
AM_0
100
AcDbSpline
210
0.0
220
0.0
230
1.0
 70
     8
 71
     3
 72
    19
 73
    15
 74
     0
 42
0.0000000001
 43
0.0000000001
 40
1.479671614733745
 40
1.479671614733745
 40
1.479671614733745
 40
1.479671614733745
 40
2.022833576467832
 40
3.037578957496688
 40
4.056212745003489
 40
5.079857003664532
 40
6.109500240690281
 40
7.145961322679372
 40
8.189895241603872
 40
9.241717795325891
 40
10.30168407291828
 40
11.36983447792315
 40
12.44600489715814
 40
13.01371853178965
 40
13.01371853178965
 40
13.01371853178965
 40
13.01371853178965
 10
-68.6559266192464
 20
-3.499999999999734
 30
0.0
 10
-68.7727560605
 20
-3.494319951746777
 30
0.0
 10
-69.10767417469346
 20
-3.474754994406311
 30
0.0
 10
-69.66045581714005
 20
-3.42957037521964
 30
0.0
 10
-70.31380273198816
 20
-3.354716786602275
 30
0.0
 10
-70.96710268920019
 20
-3.259432194070553
 30
0.0
 10
-71.62034280062862
 20
-3.144140313022806
 30
0.0
 10
-72.27352525133264
 20
-3.009617790663302
 30
0.0
 10
-72.92664424890396
 20
-2.856688378554863
 30
0.0
 10
-73.57969534441193
 20
-2.686291054010543
 30
0.0
 10
-74.23268179295522
 20
-2.499495383422304
 30
0.0
 10
-74.88560534336179
 20
-2.297444569100023
 30
0.0
 10
-75.43409219918427
 20
-2.115938631886594
 30
0.0
 10
-75.74793326598154
 20
-1.991778721764593
 30
0.0
 10
-75.87629432015154
 20
-1.957431372049275
 30
0.0
  0
LINE
  5
527A
330
1F
100
AcDbEntity
  8
AM_0
100
AcDbLine
 10
-57.92624474841723
 20
-3.500319145213666
 30
0.0
 11
-68.66351277740017
 21
-3.499999999999733
 31
0.0
  0
SPLINE
  5
527B
330
1F
100
AcDbEntity
  8
AM_0
100
AcDbSpline
210
0.0
220
0.0
230
1.0
 70
     8
 71
     3
 72
    11
 73
     7
 74
     0
 42
0.0000000001
 43
0.0000000001
 40
11.27226913003534
 40
11.27226913003534
 40
11.27226913003534
 40
11.2722691300354
 40
12.28301561507924
 40
13.29510212255852
 40
14.30984805882082
 40
15.18258238371378
 40
15.18258238371378
 40
15.18258238371378
 40
15.18258238371378
 10
-57.77770719240092
 20
-3.500310821248517
 30
0.0
 10
-58.00738194464772
 20
-3.50565094669853
 30
0.0
 10
-58.44074305080964
 20
-3.464179920844292
 30
0.0
 10
-59.08854691409043
 20
-3.380522603862367
 30
0.0
 10
-59.7033242029047
 20
-3.280603111394528
 30
0.0
 10
-60.10092606660693
 20
-3.203792023739638
 30
0.0
 10
-60.28415232710361
 20
-3.16584946803681
 30
0.0
  0
LINE
  5
527C
330
1F
100
AcDbEntity
  8
AM_0
100
AcDbLine
 10
-78.00000000000015
 20
3.499999526804213
 30
0.0
 11
-77.79840523104607
 21
3.395728178081962
 31
0.0
  0
LINE
  5
527D
330
1F
100
AcDbEntity
  8
AM_0
100
AcDbLine
 10
-0.9999999999999902
 20
3.499999999999997
 30
0.0
 11
-4.602756142250063
 21
3.500002755622107
 31
0.0
  0
LINE
  5
527E
330
1F
100
AcDbEntity
  8
AM_0
 48
0.5
100
AcDbLine
 10
-29.43622187955817
 20
3.500002755623384
 30
0.0
 11
-16.23523209424185
 21
3.500002755622712
 31
0.0
  0
LINE
  5
527F
330
1F
100
AcDbEntity
  8
AM_0
100
AcDbLine
 10
-51.67019398407159
 20
3.500002755624438
 30
0.0
 11
-36.94413861896389
 21
3.500499994142177
 31
0.0
  0
LINE
  5
5280
330
1F
100
AcDbEntity
  8
AM_11
 48
0.5
100
AcDbLine
 10
-36.94413861896389
 20
3.500499994142177
 30
0.0
 11
-29.4362117464937
 21
3.500002755623384
 31
0.0
  0
LINE
  5
5281
330
1F
100
AcDbEntity
  8
AM_11
 48
0.5
100
AcDbLine
 10
-16.23523209422814
 20
3.500002755622598
 30
0.0
 11
-4.470302728087695
 21
3.500002755622086
 31
0.0
  0
SPLINE
  5
5282
330
1F
100
AcDbEntity
  8
AM_0
 48
0.5
100
AcDbSpline
210
0.0
220
0.0
230
1.0
 70
     8
 71
     3
 72
    20
 73
    16
 74
     0
 42
0.0000000001
 43
0.0000000001
 40
12.04260318190555
 40
12.04260318190555
 40
12.04260318190555
 40
12.04260318190555
 40
13.08720139956839
 40
14.16337181880432
 40
15.23152222380919
 40
16.29148850140128
 40
17.34331105512262
 40
18.38723020264746
 40
19.42369128463655
 40
20.45333379090873
 40
21.47697865721768
 40
22.49561244472435
 40
23.5103574802404
 40
24.52244778960836
 40
25.53320666051913
 40
25.53320666051913
 40
25.53320666051913
 40
25.53320666051913
 10
-7.216194300872063
 20
1.606157710461594
 30
0.0
 10
-7.404988400654884
 20
1.698976475189558
 30
0.0
 10
-7.99392089691061
 20
1.889417305354516
 30
0.0
 10
-9.367263118868129
 20
2.274623202568114
 30
0.0
 10
-9.991343992213122
 20
2.476673951241448
 30
0.0
 10
-10.61548489872572
 20
2.663469863361971
 30
0.0
 10
-11.23968499324465
 20
2.833865499378368
 30
0.0
 10
-11.86394875926821
 20
2.986797592305983
 30
0.0
 10
-12.48827399374084
 20
3.121319669265601
 30
0.0
 10
-13.11265825773265
 20
3.236607206171511
 30
0.0
 10
-13.73709807683868
 20
3.331896023754434
 30
0.0
 10
-14.36158373502609
 20
3.406750010571265
 30
0.0
 10
-14.98610834982912
 20
3.460152463764595
 30
0.0
 10
-15.61066178333138
 20
3.493757418633948
 30
0.0
 10
-16.02713336440999
 20
3.497921890310954
 30
0.0
 10
-16.23523209424185
 20
3.50000275562271
 30
0.0
  0
SPLINE
  5
5283
330
1F
100
AcDbEntity
  8
AM_0
100
AcDbSpline
210
0.0
220
0.0
230
1.0
 70
     8
 71
     3
 72
    42
 73
    38
 74
     0
 42
0.0000000001
 43
0.0000000001
 40
1.278384351700087
 40
1.278384351700087
 40
1.278384351700087
 40
1.278384351700087
 40
1.527291183660732
 40
1.786406454158005
 40
2.047386241038974
 40
2.310345544571907
 40
2.575337113970003
 40
2.842374715221223
 40
3.111417320030211
 40
3.382376832022752
 40
3.655120036292296
 40
3.929472521611371
 40
4.205224030350333
 40
4.482133246366229
 40
4.759933319229942
 40
5.038338087391601
 40
5.317048131389549
 40
5.595758175387723
 40
5.874162943549383
 40
6.151963016412869
 40
6.428872232428759
 40
6.704623741167955
 40
6.978976226486705
 40
7.251719430756336
 40
7.522680721168327
 40
7.791723325977311
 40
8.058760927228529
 40
8.32375249662655
 40
8.586708135057122
 40
8.84768792193809
 40
9.106803192435362
 40
9.364213819003406
 40
9.620125035580644
 40
9.87478726697307
 40
10.12847352585208
 40
10.38149610319407
 40
10.63418200686337
 40
10.63418200686337
 40
10.63418200686337
 40
10.63418200686337
 10
-4.218549913540981
 20
-3.499997244377962
 30
0.0
 10
-5.909183488836363
 20
-3.300081509655863
 30
0.0
 10
-6.321466278972994
 20
-3.222959732011045
 30
0.0
 10
-7.09325879349293
 20
-2.986790376156823
 30
0.0
 10
-7.717525107579081
 20
-2.833858914000307
 30
0.0
 10
-8.341729366021116
 20
-2.663465924221239
 30
0.0
 10
-8.96587281645365
 20
-2.476668247331365
 30
0.0
 10
-9.589953780120554
 20
-2.274617743396506
 30
0.0
 10
-10.21398228321642
 20
-2.05856951885324
 30
0.0
 10
-10.83796135864454
 20
-1.829851737341392
 30
0.0
 10
-11.46189674447442
 20
-1.589874787744456
 30
0.0
 10
-12.08579537426975
 20
-1.340119175250248
 30
0.0
 10
-12.70966271590973
 20
-1.082120760050537
 30
0.0
 10
-13.33350484119764
 20
-0.8174663682092521
 30
0.0
 10
-13.95732836463839
 20
-0.5477847924314378
 30
0.0
 10
-14.58113898490065
 20
-0.2747343848385912
 30
0.0
 10
-15.20494436130071
 20
0.0000027555670713
 30
0.0
 10
-15.8287497375637
 20
0.2747398963065934
 30
0.0
 10
-16.45256035823703
 20
0.5477903028983459
 30
0.0
 10
-17.07638388017531
 20
0.8174718823347193
 30
0.0
 10
-17.70022601103446
 20
1.082126260607747
 30
0.0
 10
-18.3240933320167
 20
1.340124726117175
 30
0.0
 10
-18.94799203831471
 20
1.589880152296796
 30
0.0
 10
-19.57192849757131
 20
1.829858312772765
 30
0.0
 10
-20.19590999748108
 20
2.058574016267624
 30
0.0
 10
-20.81993961374816
 20
2.274623348632197
 30
0.0
 10
-21.44402056288469
 20
2.476673912687834
 30
0.0
 10
-22.06816144940686
 20
2.663469873066691
 30
0.0
 10
-22.69236154890426
 20
2.833865498680975
 30
0.0
 10
-23.31662531477719
 20
2.98679758557925
 30
0.0
 10
-23.94095054497502
 20
3.121319696578274
 30
0.0
 10
-24.56533482604668
 20
3.236607104556196
 30
0.0
 10
-25.18977765878003
 20
3.331896869591041
 30
0.0
 10
-25.81426666766545
 20
3.406749308078808
 30
0.0
 10
-26.43879431338197
 20
3.460152581500854
 30
0.0
 10
-27.06334462898743
 20
3.493757214093335
 30
0.0
 10
-27.47981306317284
 20
3.497921832640107
 30
0.0
 10
-27.6879086490555
 20
3.500002755623294
 30
0.0
  0
SPLINE
  5
5284
330
1F
100
AcDbEntity
  8
AM_0
100
AcDbSpline
210
0.0
220
0.0
230
1.0
 70
     8
 71
     3
 72
    46
 73
    42
 74
     0
 42
0.0000000001
 43
0.0000000001
 40
0.0
 40
0.0
 40
0.0
 40
0.0
 40
0.5056245176053715
 40
0.759310862862336
 40
1.013969309739036
 40
1.269880374404297
 40
1.527291183660732
 40
1.786406454158005
 40
2.047386241038974
 40
2.310345544571907
 40
2.575337113970003
 40
2.842374715221223
 40
3.111417320030211
 40
3.382376832022752
 40
3.655120036292296
 40
3.929472521611371
 40
4.205224030350333
 40
4.482133246366229
 40
4.759933319229942
 40
5.038338087391601
 40
5.317048131389549
 40
5.595758175387723
 40
5.874162943549382
 40
6.151963016412868
 40
6.428872232428759
 40
6.704623741167953
 40
6.978976226486702
 40
7.251719430756334
 40
7.522680721168324
 40
7.791723325977308
 40
8.058760927228528
 40
8.323752496626548
 40
8.586708135057122
 40
8.84768792193809
 40
9.106803192435362
 40
9.364213819003406
 40
9.620125035580642
 40
9.874787266973068
 40
10.12847352585207
 40
10.38149610319407
 40
10.63418200686337
 40
10.63418200686337
 40
10.63418200686337
 40
10.63418200686337
 10
-24.95587113176815
 20
-3.499997244376915
 30
0.0
 10
-25.37235973951648
 20
-3.492023973823696
 30
0.0
 10
-25.9978126459923
 20
-3.480050284390527
 30
0.0
 10
-26.82950465063172
 20
-3.406330478234441
 30
0.0
 10
-27.45399687736726
 20
-3.332001303291379
 30
0.0
 10
-28.07843572488373
 20
-3.236575268655453
 30
0.0
 10
-28.70281954819537
 20
-3.12132128887338
 30
0.0
 10
-29.32714513972006
 20
-2.986790376155768
 30
0.0
 10
-29.95141145380621
 20
-2.833858913999253
 30
0.0
 10
-30.57561571224825
 20
-2.663465924220183
 30
0.0
 10
-31.19975916268079
 20
-2.476668247330307
 30
0.0
 10
-31.8238401263477
 20
-2.274617743395448
 30
0.0
 10
-32.44786862944357
 20
-2.058569518852181
 30
0.0
 10
-33.07184770487168
 20
-1.829851737340337
 30
0.0
 10
-33.69578309070158
 20
-1.589874787743398
 30
0.0
 10
-34.31968172049686
 20
-1.340119175249192
 30
0.0
 10
-34.94354906213684
 20
-1.082120760049482
 30
0.0
 10
-35.56739118742472
 20
-0.817466368208197
 30
0.0
 10
-36.19121471086551
 20
-0.5477847924303823
 30
0.0
 10
-36.81502533112776
 20
-0.2747343848375355
 30
0.0
 10
-37.43883070752784
 20
0.0000027555681263
 30
0.0
 10
-38.06263608379083
 20
0.2747398963076499
 30
0.0
 10
-38.68644670446417
 20
0.5477903028994005
 30
0.0
 10
-39.31027022640246
 20
0.8174718823357759
 30
0.0
 10
-39.93411235726167
 20
1.082126260608802
 30
0.0
 10
-40.55797967824385
 20
1.340124726118232
 30
0.0
 10
-41.18187838454186
 20
1.589880152297853
 30
0.0
 10
-41.80581484379845
 20
1.829858312773819
 30
0.0
 10
-42.42979634370821
 20
2.058574016268682
 30
0.0
 10
-43.05382595997526
 20
2.274623348633253
 30
0.0
 10
-43.67790690911184
 20
2.476673912688889
 30
0.0
 10
-44.30204779563391
 20
2.663469873067748
 30
0.0
 10
-44.92624789513135
 20
2.833865498682029
 30
0.0
 10
-45.55051166100429
 20
2.986797585580304
 30
0.0
 10
-46.17483689120207
 20
3.121319696579331
 30
0.0
 10
-46.79922117227377
 20
3.236607104557249
 30
0.0
 10
-47.4236640050071
 20
3.331896869592097
 30
0.0
 10
-48.04815301389252
 20
3.406749308079861
 30
0.0
 10
-48.67268065960901
 20
3.460152581501912
 30
0.0
 10
-49.29723097521451
 20
3.493757214094392
 30
0.0
 10
-49.7136994093999
 20
3.49792183264116
 30
0.0
 10
-49.92179499528259
 20
3.500002755624348
 30
0.0
  0
SPLINE
  5
5285
330
1F
100
AcDbEntity
  8
AM_0
100
AcDbSpline
210
0.0
220
0.0
230
1.0
 70
     8
 71
     3
 72
    23
 73
    19
 74
     0
 42
0.0000000001
 43
0.0000000001
 40
16.03460024169435
 40
16.03460024169435
 40
16.03460024169435
 40
16.03460024169435
 40
16.35212704903564
 40
17.38177054169784
 40
18.41822485651776
 40
19.46214173629503
 40
20.51396345435107
 40
21.57393551351153
 40
22.64208202342361
 40
23.7182574881101
 40
24.80209208578934
 40
25.89306333925047
 40
26.99048218457928
 40
28.09348763352352
 40
29.20111863782268
 40
30.31232390128032
 40
31.42594612798585
 40
32.5407912310448
 40
32.5407912310486
 40
32.5407912310486
 40
32.5407912310486
 10
-36.94413861896387
 20
3.500499994142177
 30
0.0
 10
-36.87997369671999
 20
3.488684610490828
 30
0.0
 10
-36.6080145611685
 20
3.437231940201742
 30
0.0
 10
-36.12895561509533
 20
3.336418285437713
 30
0.0
 10
-35.50857302582735
 20
3.186509483291001
 30
0.0
 10
-34.88876667708908
 20
3.018186885747803
 30
0.0
 10
-34.26949994402908
 20
2.83242465814923
 30
0.0
 10
-33.65075084777362
 20
2.630258429072807
 30
0.0
 10
-33.03248362610778
 20
2.412843865940098
 30
0.0
 10
-32.41465522525223
 20
2.181446266973177
 30
0.0
 10
-31.7972305379782
 20
1.937376023283666
 30
0.0
 10
-31.18016006310973
 20
1.682053322749945
 30
0.0
 10
-30.56339379398523
 20
1.416962211219269
 30
0.0
 10
-29.94689063722738
 20
1.143626851449624
 30
0.0
 10
-29.33059901076574
 20
0.863636651126318
 30
0.0
 10
-28.71446183294356
 20
0.5786265476024389
 30
0.0
 10
-28.09842893280185
 20
0.2902480972498942
 30
0.0
 10
-27.68785064352211
 20
0.0969061146592049
 30
0.0
 10
-27.48244953165002
 20
0.0001807748282026
 30
0.0
  0
SPLINE
  5
5286
330
1F
100
AcDbEntity
  8
AM_0
100
AcDbSpline
210
0.0
220
0.0
230
1.0
 70
     8
 71
     3
 72
    52
 73
    48
 74
     0
 42
0.0000000001
 43
0.0000000001
 40
3.537595802313026
 40
3.537595802313026
 40
3.537595802313026
 40
3.537595802313026
 40
4.056212745003489
 40
5.079857003664532
 40
6.109500240690281
 40
7.145961322679372
 40
8.189895241603872
 40
9.241717795325891
 40
10.30168407291828
 40
11.36983447792315
 40
12.44600489715814
 40
13.52984294512926
 40
14.62081576220742
 40
15.7182257034828
 40
16.82123173843959
 40
17.92886860250316
 40
19.0400688939571
 40
20.15368796660465
 40
21.26852814259644
 40
22.38336992938901
 40
23.49698739941135
 40
24.6081876908653
 40
25.71582455492886
 40
26.81883757994213
 40
27.91624752121713
 40
29.00722033829659
 40
30.09105838626677
 40
31.16722880550176
 40
32.23537921050758
 40
33.29534548809967
 40
34.347168041821
 40
35.39108718934584
 40
36.42754827133493
 40
37.45720575381954
 40
38.48085062012849
 40
39.49948440763516
 40
40.51422944315121
 40
41.52631975251916
 40
42.53706336719636
 40
43.54780698187354
 40
44.55989729124051
 40
45.57464232675757
 40
46.59327611426424
 40
47.6169209805722
 40
48.64656348684535
 40
49.68302456883444
 40
50.58557219878025
 40
50.58557219878025
 40
50.58557219878025
 40
50.58557219878025
 10
-6.102642680864544
 20
-3.499997244377867
 30
0.0
 10
-6.755395406293862
 20
-3.407800698652291
 30
0.0
 10
-7.070067298349238
 20
-3.316380414840571
 30
0.0
 10
-7.592867686121898
 20
-3.236605302183187
 30
0.0
 10
-8.217251117996742
 20
-3.121313421135418
 30
0.0
 10
-8.84157943629183
 20
-2.986790898775881
 30
0.0
 10
-9.465847104476729
 20
-2.83386148666742
 30
0.0
 10
-10.09004987015087
 20
-2.663464162123071
 30
0.0
 10
-10.71419084461998
 20
-2.476668491534811
 30
0.0
 10
-11.33827169945805
 20
-2.2746176772125
 30
0.0
 10
-11.96230023205547
 20
-2.058569536799708
 30
0.0
 10
-12.5862792994473
 20
-1.82985173240895
 30
0.0
 10
-13.21021468762789
 20
-1.589874789360534
 30
0.0
 10
-13.83411331612513
 20
-1.340119173751028
 30
0.0
 10
-14.45798066060649
 20
-1.08212076444837
 30
0.0
 10
-15.08182277577563
 20
-0.817466352033626
 30
0.0
 10
-15.70564633700824
 20
-0.5477848529726969
 30
0.0
 10
-16.32945681583083
 20
-0.2747341582924219
 30
0.0
 10
-16.95326302141362
 20
0.0000020414956096
 30
0.0
 10
-17.57706642662849
 20
0.2747431867064542
 30
0.0
 10
-18.20087899632784
 20
0.5477896292651784
 30
0.0
 10
-18.82470178744192
 20
0.817471944636653
 30
0.0
 10
-19.4485450149146
 20
1.082127365266746
 30
0.0
 10
-20.07241494749697
 20
1.340123572765675
 30
0.0
 10
-20.69631456067109
 20
1.589880454983655
 30
0.0
 10
-21.32025003892719
 20
1.829857203435515
 30
0.0
 10
-21.94422908361443
 20
2.058575055924767
 30
0.0
 10
-22.56825761780974
 20
2.274623196653597
 30
0.0
 10
-23.19233848854364
 20
2.476673962662505
 30
0.0
 10
-23.8164793985946
 20
2.663469823986332
 30
0.0
 10
-24.44067948167454
 20
2.83386564392449
 30
0.0
 10
-25.06494328948496
 20
2.986797059026697
 30
0.0
 10
-25.68927137618664
 20
3.121322286464926
 30
0.0
 10
-26.31365926636845
 20
3.236600999579456
 30
0.0
 10
-26.93810196333334
 20
3.331915084706885
 30
0.0
 10
-27.56258766574537
 20
3.406679944056516
 30
0.0
 10
-28.18711226888502
 20
3.460412447511518
 30
0.0
 10
-28.81166256826167
 20
3.492790252796643
 30
0.0
 10
-29.43622659175238
 20
3.50360660619156
 30
0.0
 10
-30.06079061432411
 20
3.492790252779744
 30
0.0
 10
-30.68534091646299
 20
3.46041244757967
 30
0.0
 10
-31.30986550943287
 20
3.406679943800292
 30
0.0
 10
-31.93435124997373
 20
3.331915085670595
 30
0.0
 10
-32.55879075932083
 20
3.236601460628323
 30
0.0
 10
-33.18317618965202
 20
3.121323465127813
 30
0.0
 10
-33.77911743315089
 20
2.992903652668384
 30
0.0
 10
-34.16577089870474
 20
2.898989029777818
 30
0.0
 10
-34.34515557092785
 20
2.853219852612042
 30
0.0
  0
SPLINE
  5
5287
330
1F
100
AcDbEntity
  8
AM_0
100
AcDbSpline
210
0.0
220
0.0
230
1.0
 70
     8
 71
     3
 72
    55
 73
    51
 74
     0
 42
0.0000000001
 43
0.0000000001
 40
0.0
 40
0.0
 40
0.0
 40
0.0
 40
1.010743684496582
 40
2.022833576467832
 40
3.037578957496688
 40
4.056212745003489
 40
5.079857003664532
 40
6.109500240690281
 40
7.145961322679372
 40
8.189895241603872
 40
9.241717795325891
 40
10.30168407291828
 40
11.36983447792315
 40
12.44600489715814
 40
13.52984294512926
 40
14.62081576220742
 40
15.7182257034828
 40
16.82123173843959
 40
17.92886860250316
 40
19.0400688939571
 40
20.15368796660465
 40
21.26852814259644
 40
22.38336992938901
 40
23.49698739941135
 40
24.6081876908653
 40
25.71582455492886
 40
26.81883757994213
 40
27.91624752121713
 40
29.00722033829659
 40
30.09105838626677
 40
31.16722880550176
 40
32.23537921050758
 40
33.29534548809967
 40
34.347168041821
 40
35.39108718934584
 40
36.42754827133493
 40
37.45720575381954
 40
38.48085062012849
 40
39.49948440763516
 40
40.51422944315121
 40
41.52631975251916
 40
42.53706336719636
 40
43.54780698187354
 40
44.55989729124051
 40
45.57464232675757
 40
46.59327611426424
 40
47.6169209805722
 40
48.64656348684535
 40
49.68302456883444
 40
50.58557219878025
 40
50.58557219878025
 40
50.58557219878025
 40
50.58557219878025
 10
-26.70418907431197
 20
-3.499997244376828
 30
0.0
 10
-26.9122846231775
 20
-3.497914829169499
 30
0.0
 10
-27.32875288295034
 20
-3.493747225190245
 30
0.0
 10
-27.95330371187167
 20
-3.460151658394817
 30
0.0
 10
-28.57782788107293
 20
-3.406743483331276
 30
0.0
 10
-29.20231339835952
 20
-3.331889894713888
 30
0.0
 10
-29.82675403234905
 20
-3.236605302182133
 30
0.0
 10
-30.45113746422387
 20
-3.121313421134362
 30
0.0
 10
-31.07546578251897
 20
-2.986790898774825
 30
0.0
 10
-31.69973345070385
 20
-2.833861486666364
 30
0.0
 10
-32.323936216378
 20
-2.663464162122016
 30
0.0
 10
-32.94807719084714
 20
-2.476668491533755
 30
0.0
 10
-33.5721580456852
 20
-2.274617677211445
 30
0.0
 10
-34.1961865782826
 20
-2.058569536798653
 30
0.0
 10
-34.82016564567448
 20
-1.829851732407894
 30
0.0
 10
-35.44410103385505
 20
-1.589874789359479
 30
0.0
 10
-36.06799966235224
 20
-1.340119173749973
 30
0.0
 10
-36.69186700683358
 20
-1.082120764447315
 30
0.0
 10
-37.31570912200271
 20
-0.8174663520325712
 30
0.0
 10
-37.93953268323535
 20
-0.5477848529716411
 30
0.0
 10
-38.56334316205797
 20
-0.2747341582913665
 30
0.0
 10
-39.18714936764074
 20
0.0000020414966652
 30
0.0
 10
-39.8109527728556
 20
0.2747431867075098
 30
0.0
 10
-40.43476534255498
 20
0.5477896292662342
 30
0.0
 10
-41.05858813366905
 20
0.8174719446377094
 30
0.0
 10
-41.68243136114176
 20
1.0821273652678
 30
0.0
 10
-42.30630129372412
 20
1.340123572766732
 30
0.0
 10
-42.93020090689824
 20
1.589880454984712
 30
0.0
 10
-43.55413638515435
 20
1.82985720343657
 30
0.0
 10
-44.1781154298416
 20
2.058575055925821
 30
0.0
 10
-44.80214396403687
 20
2.274623196654651
 30
0.0
 10
-45.42622483477076
 20
2.476673962663565
 30
0.0
 10
-46.05036574482165
 20
2.66346982398739
 30
0.0
 10
-46.6745658279016
 20
2.833865643925546
 30
0.0
 10
-47.29882963571204
 20
2.986797059027754
 30
0.0
 10
-47.92315772241369
 20
3.121322286465983
 30
0.0
 10
-48.54754561259551
 20
3.236600999580515
 30
0.0
 10
-49.17198830956043
 20
3.33191508470794
 30
0.0
 10
-49.79647401197246
 20
3.406679944057573
 30
0.0
 10
-50.42099861511212
 20
3.460412447512577
 30
0.0
 10
-51.04554891448876
 20
3.492790252797697
 30
0.0
 10
-51.67011293797944
 20
3.503606606192616
 30
0.0
 10
-52.2946769605512
 20
3.4927902527808
 30
0.0
 10
-52.91922726269006
 20
3.460412447580729
 30
0.0
 10
-53.54375185565995
 20
3.406679943801348
 30
0.0
 10
-54.16823759620081
 20
3.331915085671652
 30
0.0
 10
-54.79267710554791
 20
3.23660146062938
 30
0.0
 10
-55.41706253587914
 20
3.12132346512887
 30
0.0
 10
-56.01300377937799
 20
2.992903652669438
 30
0.0
 10
-56.39965724493187
 20
2.898989029778875
 30
0.0
 10
-56.57904191715498
 20
2.853219852613097
 30
0.0
  0
SPLINE
  5
5288
330
1F
100
AcDbEntity
  8
AM_0
 48
0.5
100
AcDbSpline
210
0.0
220
0.0
230
1.0
 70
     8
 71
     3
 72
    17
 73
    13
 74
     0
 42
0.0000000001
 43
0.0000000001
 40
0.0
 40
0.0
 40
0.0
 40
0.0
 40
1.010743614677189
 40
2.022833924044153
 40
3.037578959561199
 40
4.056212747067873
 40
5.079857613375832
 40
6.109500119648989
 40
7.14596120163808
 40
8.18989512056258
 40
9.241717674284874
 40
9.693948937866434
 40
9.693948937866434
 40
9.693948937866434
 40
9.693948937866434
 10
-4.470302728084586
 20
3.500002755622116
 30
0.0
 10
-4.678398314821016
 20
3.497921841104468
 30
0.0
 10
-5.094866750714912
 20
3.493757239500082
 30
0.0
 10
-5.719417053480846
 20
3.460152479599195
 30
0.0
 10
-6.343941643873346
 20
3.406749957376988
 30
0.0
 10
-6.968427394151207
 20
3.331896221855538
 30
0.0
 10
-7.592866866870069
 20
3.23660646150473
 30
0.0
 10
-8.217252435119059
 20
3.121322473756362
 30
0.0
 10
-8.841575718594461
 20
2.986786379765325
 30
0.0
 10
-9.465860943545775
 20
2.833903911164803
 30
0.0
 10
-9.969800256161207
 20
2.696179916905669
 30
0.0
 10
-10.26574296703499
 20
2.610082614916732
 30
0.0
 10
-10.35456909131658
 20
2.583728807138553
 30
0.0
  0
LINE
  5
5289
330
1F
100
AcDbEntity
  8
AM_11
100
AcDbLine
 10
-73.90408504209593
 20
3.500002755624469
 30
0.0
 11
-78.00000000000015
 21
3.499999526804213
 31
0.0
  0
LINE
  5
528A
330
1F
100
AcDbEntity
  8
AM_0
100
AcDbLine
 10
-59.75351457050352
 20
3.500002755624586
 30
0.0
 11
-73.90408504209593
 21
3.500002755624469
 31
0.0
  0
SPLINE
  5
528B
330
1F
100
AcDbEntity
  8
AM_0
100
AcDbSpline
210
0.0
220
0.0
230
1.0
 70
     8
 71
     3
 72
    20
 73
    16
 74
     0
 42
0.0000000001
 43
0.0000000001
 40
19.06958205160103
 40
19.06958205160103
 40
19.06958205160103
 40
19.06958205160103
 40
19.46214173629503
 40
20.51396345435107
 40
21.57393551351153
 40
22.64208202342361
 40
23.7182574881101
 40
24.80209208578934
 40
25.89306333925047
 40
26.99048218457928
 40
28.09348763352352
 40
29.20111863782268
 40
30.31232390128032
 40
31.42594612798585
 40
32.5407912310448
 40
32.5407912310486
 40
32.5407912310486
 40
32.5407912310486
 10
-77.79840523104609
 20
3.395728178081962
 30
0.0
 10
-77.51832557555258
 20
3.15539331760718
 30
0.0
 10
-77.38464307046214
 20
2.9796636972208
 30
0.0
 10
-76.86713989820609
 20
2.832243883320055
 30
0.0
 10
-76.21558442804225
 20
2.630077654243663
 30
0.0
 10
-75.56453638168997
 20
2.412663091110979
 30
0.0
 10
-74.91395042263781
 20
2.181265492144091
 30
0.0
 10
-74.26378958225495
 20
1.937195248454606
 30
0.0
 10
-73.61400173478926
 20
1.681872547920915
 30
0.0
 10
-72.9645342222021
 20
1.41678143639027
 30
0.0
 10
-72.31534377232541
 20
1.143446076620653
 30
0.0
 10
-71.66637606818274
 20
0.8634558762973721
 30
0.0
 10
-71.0175710016205
 20
0.5784457727735245
 30
0.0
 10
-70.36887574159138
 20
0.2900673224210115
 30
0.0
 10
-69.93652839445235
 20
0.0967253398303389
 30
0.0
 10
-69.72023681709426
 20
-0.0000000000006519
 30
0.0
  0
SPLINE
  5
528C
330
1F
100
AcDbEntity
  8
AM_0
100
AcDbSpline
210
0.0
220
0.0
230
1.0
 70
     8
 71
     3
 72
    46
 73
    42
 74
     0
 42
0.0000000001
 43
0.0000000001
 40
0.0
 40
0.0
 40
0.0
 40
0.0
 40
0.5056245176053715
 40
0.759310862862336
 40
1.013969309739036
 40
1.269880374404297
 40
1.527291183660732
 40
1.786406454158005
 40
2.047386241038974
 40
2.310345544571907
 40
2.575337113970003
 40
2.842374715221223
 40
3.111417320030211
 40
3.382376832022752
 40
3.655120036292296
 40
3.929472521611371
 40
4.205224030350333
 40
4.482133246366229
 40
4.759933319229942
 40
5.038338087391601
 40
5.317048131389549
 40
5.595758175387723
 40
5.874162943549382
 40
6.151963016412868
 40
6.428872232428759
 40
6.704623741167953
 40
6.978976226486702
 40
7.251719430756334
 40
7.522680721168324
 40
7.791723325977308
 40
8.058760927228528
 40
8.323752496626548
 40
8.586708135057122
 40
8.84768792193809
 40
9.106803192435362
 40
9.364213819003406
 40
9.620125035580642
 40
9.874787266973068
 40
10.12847352585207
 40
10.38149610319407
 40
10.63418200686337
 40
10.63418200686337
 40
10.63418200686337
 40
10.63418200686337
 10
-47.18984323628161
 20
-3.4999972443768
 30
0.0
 10
-47.60633184402995
 20
-3.49202397382358
 30
0.0
 10
-48.23178475050577
 20
-3.480050284390412
 30
0.0
 10
-49.06347675514519
 20
-3.406330478234326
 30
0.0
 10
-49.68796898188073
 20
-3.332001303291264
 30
0.0
 10
-50.31240782939719
 20
-3.236575268655338
 30
0.0
 10
-50.93679165270883
 20
-3.121321288873265
 30
0.0
 10
-51.56111724423351
 20
-2.986790376155653
 30
0.0
 10
-52.18538355831969
 20
-2.833858913999138
 30
0.0
 10
-52.8095878167617
 20
-2.663465924220068
 30
0.0
 10
-53.43373126719426
 20
-2.476668247330192
 30
0.0
 10
-54.05781223086116
 20
-2.274617743395334
 30
0.0
 10
-54.68184073395701
 20
-2.058569518852066
 30
0.0
 10
-55.30581980938513
 20
-1.829851737340222
 30
0.0
 10
-55.92975519521502
 20
-1.589874787743283
 30
0.0
 10
-56.55365382501034
 20
-1.340119175249077
 30
0.0
 10
-57.1775211666503
 20
-1.082120760049367
 30
0.0
 10
-57.80136329193819
 20
-0.8174663682080817
 30
0.0
 10
-58.42518681537896
 20
-0.5477847924302669
 30
0.0
 10
-59.04899743564122
 20
-0.2747343848374204
 30
0.0
 10
-59.67280281204131
 20
0.0000027555682414
 30
0.0
 10
-60.29660818830428
 20
0.2747398963077651
 30
0.0
 10
-60.92041880897764
 20
0.5477903028995156
 30
0.0
 10
-61.54424233091592
 20
0.8174718823358912
 30
0.0
 10
-62.16808446177513
 20
1.082126260608917
 30
0.0
 10
-62.79195178275731
 20
1.340124726118347
 30
0.0
 10
-63.41585048905533
 20
1.589880152297968
 30
0.0
 10
-64.03978694831192
 20
1.829858312773934
 30
0.0
 10
-64.66376844822169
 20
2.058574016268796
 30
0.0
 10
-65.28779806448871
 20
2.274623348633369
 30
0.0
 10
-65.9118790136253
 20
2.476673912689004
 30
0.0
 10
-66.53601990014738
 20
2.663469873067863
 30
0.0
 10
-67.16021999964479
 20
2.833865498682144
 30
0.0
 10
-67.78448376551772
 20
2.986797585580419
 30
0.0
 10
-68.40880899571553
 20
3.121319696579446
 30
0.0
 10
-69.03319327678726
 20
3.236607104557363
 30
0.0
 10
-69.65763610952058
 20
3.331896869592212
 30
0.0
 10
-70.28212511840601
 20
3.406749308079977
 30
0.0
 10
-70.90665276412249
 20
3.460152581502027
 30
0.0
 10
-71.531203079728
 20
3.493757214094508
 30
0.0
 10
-71.94767151391338
 20
3.497921832641276
 30
0.0
 10
-72.15576709979607
 20
3.500002755624464
 30
0.0
  0
SPLINE
  5
528D
330
1F
100
AcDbEntity
  8
AM_0
100
AcDbSpline
210
0.0
220
0.0
230
1.0
 70
     8
 71
     3
 72
    53
 73
    49
 74
     0
 42
0.0000000001
 43
0.0000000001
 40
0.0
 40
0.0
 40
0.0
 40
0.0
 40
1.010743684496582
 40
2.022833576467832
 40
3.037578957496688
 40
4.056212745003489
 40
5.079857003664532
 40
6.109500240690281
 40
7.145961322679372
 40
8.189895241603872
 40
9.241717795325891
 40
10.30168407291828
 40
11.36983447792315
 40
12.44600489715814
 40
13.52984294512926
 40
14.62081576220742
 40
15.7182257034828
 40
16.82123173843959
 40
17.92886860250316
 40
19.0400688939571
 40
20.15368796660465
 40
21.26852814259644
 40
22.38336992938901
 40
23.49698739941135
 40
24.6081876908653
 40
25.71582455492886
 40
26.81883757994213
 40
27.91624752121713
 40
29.00722033829659
 40
30.09105838626677
 40
31.16722880550176
 40
32.23537921050758
 40
33.29534548809967
 40
34.347168041821
 40
35.39108718934584
 40
36.42754827133493
 40
37.45720575381954
 40
38.48085062012849
 40
39.49948440763516
 40
40.51422944315121
 40
41.52631975251916
 40
42.53706336719636
 40
43.54780698187354
 40
44.55989729124051
 40
45.57464232675757
 40
46.59327611426424
 40
47.6169209805722
 40
48.03779390694803
 40
48.03779390694803
 40
48.03779390694803
 40
48.03779390694803
 10
-48.93816117882543
 20
-3.499997244376714
 30
0.0
 10
-49.14625672769095
 20
-3.497914829169384
 30
0.0
 10
-49.5627249874638
 20
-3.493747225190128
 30
0.0
 10
-50.18727581638512
 20
-3.460151658394702
 30
0.0
 10
-50.81179998558639
 20
-3.406743483331161
 30
0.0
 10
-51.43628550287298
 20
-3.331889894713772
 30
0.0
 10
-52.0607261368625
 20
-3.236605302182017
 30
0.0
 10
-52.68510956873733
 20
-3.121313421134247
 30
0.0
 10
-53.30943788703243
 20
-2.986790898774709
 30
0.0
 10
-53.9337055552173
 20
-2.833861486666249
 30
0.0
 10
-54.55790832089146
 20
-2.6634641621219
 30
0.0
 10
-55.18204929536059
 20
-2.47666849153364
 30
0.0
 10
-55.80613015019865
 20
-2.274617677211329
 30
0.0
 10
-56.43015868279608
 20
-2.058569536798538
 30
0.0
 10
-57.05413775018793
 20
-1.829851732407779
 30
0.0
 10
-57.67807313836849
 20
-1.589874789359364
 30
0.0
 10
-58.3019717668657
 20
-1.340119173749857
 30
0.0
 10
-58.92583911134704
 20
-1.082120764447199
 30
0.0
 10
-59.54968122651617
 20
-0.8174663520324562
 30
0.0
 10
-60.1735047877488
 20
-0.547784852971526
 30
0.0
 10
-60.79731526657141
 20
-0.2747341582912513
 30
0.0
 10
-61.4211214721542
 20
0.0000020414967803
 30
0.0
 10
-62.04492487736906
 20
0.2747431867076249
 30
0.0
 10
-62.66873744706844
 20
0.5477896292663493
 30
0.0
 10
-63.29256023818253
 20
0.8174719446378249
 30
0.0
 10
-63.91640346565523
 20
1.082127365267915
 30
0.0
 10
-64.54027339823759
 20
1.340123572766847
 30
0.0
 10
-65.16417301141169
 20
1.589880454984827
 30
0.0
 10
-65.78810848966782
 20
1.829857203436685
 30
0.0
 10
-66.41208753435506
 20
2.058575055925936
 30
0.0
 10
-67.03611606855034
 20
2.274623196654766
 30
0.0
 10
-67.66019693928422
 20
2.476673962663679
 30
0.0
 10
-68.2843378493351
 20
2.663469823987505
 30
0.0
 10
-68.90853793241508
 20
2.833865643925661
 30
0.0
 10
-69.53280174022552
 20
2.986797059027868
 30
0.0
 10
-70.15712982692718
 20
3.121322286466098
 30
0.0
 10
-70.78151771710899
 20
3.23660099958063
 30
0.0
 10
-71.40596041407391
 20
3.331915084708055
 30
0.0
 10
-72.03044611648592
 20
3.406679944057688
 30
0.0
 10
-72.6549707196256
 20
3.460412447512692
 30
0.0
 10
-73.27952101900223
 20
3.492790252797811
 30
0.0
 10
-73.90408504249291
 20
3.503606606192732
 30
0.0
 10
-74.52864906506469
 20
3.492790252780914
 30
0.0
 10
-75.15319936720354
 20
3.460412447580845
 30
0.0
 10
-75.77772396017344
 20
3.406679943801463
 30
0.0
 10
-76.40220970071429
 20
3.331915085671768
 30
0.0
 10
-76.90290261697964
 20
3.255489977766379
 30
0.0
 10
-77.19532481193585
 20
3.204285905339737
 30
0.0
 10
-77.51035060427439
 20
3.138696995764252
 30
0.0
  0
SPLINE
  5
528E
330
1F
100
AcDbEntity
  8
AM_0
100
AcDbSpline
210
0.0
220
0.0
230
1.0
 70
     8
 71
     3
 72
    23
 73
    19
 74
     0
 42
0.0000000001
 43
0.0000000001
 40
16.03460024169435
 40
16.03460024169435
 40
16.03460024169435
 40
16.03460024169435
 40
16.35212704903564
 40
17.38177054169784
 40
18.41822485651776
 40
19.46214173629503
 40
20.51396345435107
 40
21.57393551351153
 40
22.64208202342361
 40
23.7182574881101
 40
24.80209208578934
 40
25.89306333925047
 40
26.99048218457928
 40
28.09348763352352
 40
29.20111863782268
 40
30.31232390128032
 40
31.42594612798585
 40
32.5407912310448
 40
32.5407912310486
 40
32.5407912310486
 40
32.5407912310486
 10
-59.7535145705035
 20
3.500002755624586
 30
0.0
 10
-59.11790248584189
 20
3.449972095610236
 30
0.0
 10
-58.81534766717408
 20
3.404299882915522
 30
0.0
 10
-58.36292771960877
 20
3.336418285438769
 30
0.0
 10
-57.74254513034077
 20
3.186509483292053
 30
0.0
 10
-57.1227387816025
 20
3.018186885748855
 30
0.0
 10
-56.50347204854254
 20
2.832424658150283
 30
0.0
 10
-55.88472295228705
 20
2.63025842907386
 30
0.0
 10
-55.26645573062128
 20
2.412843865941151
 30
0.0
 10
-54.64862732976573
 20
2.181446266974231
 30
0.0
 10
-54.03120264249174
 20
1.93737602328472
 30
0.0
 10
-53.41413216762325
 20
1.682053322750999
 30
0.0
 10
-52.79736589849876
 20
1.416962211220322
 30
0.0
 10
-52.18086274174085
 20
1.143626851450678
 30
0.0
 10
-51.56457111527919
 20
0.863636651127372
 30
0.0
 10
-50.94843393745701
 20
0.5786265476034927
 30
0.0
 10
-50.33240103731529
 20
0.2902480972509479
 30
0.0
 10
-49.92182274803554
 20
0.0969061146602582
 30
0.0
 10
-49.71642163616348
 20
0.000180774829256
 30
0.0
  0
LINE
  5
528F
330
1F
100
AcDbEntity
  8
AM_11
 48
0.5
100
AcDbLine
 10
-59.75351457050352
 20
3.500002755624586
 30
0.0
 11
-51.67019398407159
 21
3.500002755624438
 31
0.0
  0
VIEWPORT
  5
110
330
101
100
AcDbEntity
 67
     1
  8
0
100
AcDbViewport
 10
420.5
 20
297.0
 30
0.0
 40
948.9782706766916
 41
628.452
 68
     1
 69
     1
1001
ACAD
1000
MVIEW
1002
{
1070
    16
1010
0.0
1020
0.0
1030
0.0
1010
0.0
1020
0.0
1030
1.0
1040
0.0
1040
628.452
1040
420.5
1040
297.0
1040
50.0
1040
0.0
1040
0.0
1070
     0
1070
   100
1070
     1
1070
     1
1070
     0
1070
     0
1070
     0
1070
     0
1040
0.0
1040
0.0
1040
0.0
1040
10.0
1040
10.0
1040
10.0
1040
10.0
1070
     0
1002
{
1002
}
1002
}
  0
ENDSEC
  0
SECTION
  2
OBJECTS
  0
DICTIONARY
  5
C
330
0
100
AcDbDictionary
  3
ACAD_GROUP
350
D
  3
ACAD_LAYOUT
350
1A
  3
ACAD_MLINESTYLE
350
17
  3
ACAD_PLOTSETTINGS
350
19
  3
ACAD_PLOTSTYLENAME
350
E
  3
ACDBVARIABLEDICTIONARY
350
34
  3
ACMDICTIONARY
350
43
  3
AMG
350
2B
  3
AMGSNAPSETTINGS
350
6E
  3
DWGPROPS
350
53A2
  3
ACDBHEADERROUNDTRIPXREC
350
53AE
  0
DICTIONARY
  5
74
330
1F
100
AcDbDictionary
280
     1
  3
ACAD_INDEX
360
53A4
  3
ACAD_LAYOUTSELFREF
360
53D1
  0
DICTIONARY
  5
53D6
330
101
100
AcDbDictionary
280
     1
  3
ACAD_LAYOUTSELFREF
360
53D7
  0
DICTIONARY
  5
D
102
{ACAD_REACTORS
330
C
102
}
330
C
100
AcDbDictionary
  0
DICTIONARY
  5
1A
102
{ACAD_REACTORS
330
C
102
}
330
C
100
AcDbDictionary
  0
DICTIONARY
  5
17
102
{ACAD_REACTORS
330
C
102
}
330
C
100
AcDbDictionary
  3
STANDARD
350
18
  0
DICTIONARY
  5
19
102
{ACAD_REACTORS
330
C
102
}
330
C
100
AcDbDictionary
  0
ACDBDICTIONARYWDFLT
  5
E
102
{ACAD_REACTORS
330
C
102
}
330
C
100
AcDbDictionary
281
     1
  3
Normal
350
F
100
AcDbDictionaryWithDefault
340
F
  0
DICTIONARY
  5
34
102
{ACAD_REACTORS
330
C
102
}
330
C
100
AcDbDictionary
  3
INDEXCTL
350
35
  3
SORTENTS
350
B5E
  0
DICTIONARY
  5
43
102
{ACAD_REACTORS
330
C
102
}
330
C
100
AcDbDictionary
  3
ACMSTDDICTIONARY
350
260
  0
DICTIONARY
  5
2B
102
{ACAD_REACTORS
330
C
102
}
330
C
100
AcDbDictionary
  3
ACMGSETTINGS
350
2C
  0
DICTIONARY
  5
6E
102
{ACAD_REACTORS
330
C
102
}
330
C
100
AcDbDictionary
  0
XRECORD
  5
53A2
102
{ACAD_REACTORS
330
C
102
}
330
C
100
AcDbXrecord
  1
DWGPROPS COOKIE
  2

  3

  4

  6

  7

  8

  9

300
AmdtFileType=82
301
=
302
=
303
=
304
=
305
=
306
=
307
=
308
=
309
=
 40
0.1462337152777778
 41
2452800.443498622
 42
2452946.58414405
  1

 90
        1
  0
DICTIONARY
  5
53AE
102
{ACAD_REACTORS
330
C
102
}
330
C
100
AcDbDictionary
  3
TSTACKALIGN
350
53AF
  3
TSTACKSIZE
350
53B0
  3
HYPERLINKBASE
350
53B1
  3
STYLESHEET
350
53B2
  3
LAYOUTDICT
350
53B3
  3
PLOTSETDICT
350
53B4
  3
PLOTSTYLNAMDICT
350
53B5
  3
LWETCUNION
350
53B6
  3
INSUNITS
350
53B7
  3
CEPSNTYPE
350
53B8
  3
FINGERPRINTGUID
350
53B9
  3
VERSIONGUID
350
53BA
  3
PSVPSCALE
350
53BB
  3
DIMSTYLEDATA
350
53BC
  3
PUCSORTHOREF
350
53BD
  3
PUCSORTHOVIEW
350
53BE
  3
PUCSBASE
350
53BF
  3
PUCSORGTOP
350
53C0
  3
PUCSORGBOTTOM
350
53C1
  3
PUCSORGLEFT
350
53C2
  3
PUCSORGRIGHT
350
53C3
  3
PUCSORGFRONT
350
53C4
  3
PUCSORGBACK
350
53C5
  3
UCSORTHOREF
350
53C6
  3
UCSORTHOVIEW
350
53C7
  3
UCSBASE
350
53C8
  3
UCSORGTOP
350
53C9
  3
UCSORGBOTTOM
350
53CA
  3
UCSORGLEFT
350
53CB
  3
UCSORGRIGHT
350
53CC
  3
UCSORGFRONT
350
53CD
  3
UCSORGBACK
350
53CE
  0
DICTIONARY
  5
53A4
102
{ACAD_REACTORS
330
74
102
}
330
74
100
AcDbDictionary
  3
*A1
350
53A5
  0
XRECORD
  5
53D1
102
{ACAD_REACTORS
330
74
102
}
330
74
100
AcDbXrecord
340
1F
  0
XRECORD
  5
53D7
102
{ACAD_REACTORS
330
53D6
102
}
330
53D6
100
AcDbXrecord
340
101
  0
MLINESTYLE
  5
18
102
{ACAD_REACTORS
330
17
102
}
330
17
100
AcDbMlineStyle
  2
STANDARD
 70
     0
  3

 62
   256
 51
90.0
 52
90.0
 71
     2
 49
0.5
 62
   256
  6
BYLAYER
 49
-0.5
 62
   256
  6
BYLAYER
  0
ACDBPLACEHOLDER
  5
F
102
{ACAD_REACTORS
330
E
102
}
330
E
100
AcDbPlaceHolder
280
     0
  0
DICTIONARYVAR
  5
35
102
{ACAD_REACTORS
330
34
102
}
330
34
100
DictionaryVariables
280
     0
  1
1
  0
DICTIONARYVAR
  5
B5E
102
{ACAD_REACTORS
330
34
102
}
330
34
100
DictionaryVariables
280
     0
  1
96
  0
DICTIONARY
  5
260
102
{ACAD_REACTORS
330
43
102
}
330
43
100
AcDbDictionary
  0
DICTIONARY
  5
2C
102
{ACAD_REACTORS
330
2B
102
}
330
2B
100
AcDbDictionary
  3
DWGSETTINGS
350
2D
  0
XRECORD
  5
53AF
102
{ACAD_REACTORS
330
53AE
102
}
330
53AE
100
AcDbXrecord
 90
        1
  0
XRECORD
  5
53B0
102
{ACAD_REACTORS
330
53AE
102
}
330
53AE
100
AcDbXrecord
 90
       70
  0
XRECORD
  5
53B1
102
{ACAD_REACTORS
330
53AE
102
}
330
53AE
100
AcDbXrecord
  1

  0
XRECORD
  5
53B2
102
{ACAD_REACTORS
330
53AE
102
}
330
53AE
100
AcDbXrecord
  1
ASAMI.ctb
  0
XRECORD
  5
53B3
102
{ACAD_REACTORS
330
53AE
102
}
330
53AE
100
AcDbXrecord
340
1A
  0
XRECORD
  5
53B4
102
{ACAD_REACTORS
330
53AE
102
}
330
53AE
100
AcDbXrecord
340
19
  0
XRECORD
  5
53B5
102
{ACAD_REACTORS
330
53AE
102
}
330
53AE
100
AcDbXrecord
340
E
  0
XRECORD
  5
53B6
102
{ACAD_REACTORS
330
53AE
102
}
330
53AE
100
AcDbXrecord
 90
    10781
  0
XRECORD
  5
53B7
102
{ACAD_REACTORS
330
53AE
102
}
330
53AE
100
AcDbXrecord
 90
        4
  0
XRECORD
  5
53B8
102
{ACAD_REACTORS
330
53AE
102
}
330
53AE
100
AcDbXrecord
 90
        0
  0
XRECORD
  5
53B9
102
{ACAD_REACTORS
330
53AE
102
}
330
53AE
100
AcDbXrecord
  1
{AFB28963-8C59-40AE-9337-C84526B81ACE}
  0
XRECORD
  5
53BA
102
{ACAD_REACTORS
330
53AE
102
}
330
53AE
100
AcDbXrecord
  1
{2B9D4179-658A-4D4C-8435-046359CAC96A}
  0
XRECORD
  5
53BB
102
{ACAD_REACTORS
330
53AE
102
}
330
53AE
100
AcDbXrecord
 40
0.0
  0
XRECORD
  5
53BC
102
{ACAD_REACTORS
330
53AE
102
}
330
53AE
100
AcDbXrecord
1000
DSTYLE
1002
{
1070
    79
 70
     2
1070
   341
340
59
1070
   342
340
59
1070
   371
 70
    -1
1070
   372
 70
    -1
1002
}
  0
XRECORD
  5
53BD
102
{ACAD_REACTORS
330
53AE
102
}
330
53AE
100
AcDbXrecord
340
0
  0
XRECORD
  5
53BE
102
{ACAD_REACTORS
330
53AE
102
}
330
53AE
100
AcDbXrecord
 70
     0
  0
XRECORD
  5
53BF
102
{ACAD_REACTORS
330
53AE
102
}
330
53AE
100
AcDbXrecord
340
0
  0
XRECORD
  5
53C0
102
{ACAD_REACTORS
330
53AE
102
}
330
53AE
100
AcDbXrecord
 10
0.0
 20
0.0
 30
0.0
  0
XRECORD
  5
53C1
102
{ACAD_REACTORS
330
53AE
102
}
330
53AE
100
AcDbXrecord
 10
0.0
 20
0.0
 30
0.0
  0
XRECORD
  5
53C2
102
{ACAD_REACTORS
330
53AE
102
}
330
53AE
100
AcDbXrecord
 10
0.0
 20
0.0
 30
0.0
  0
XRECORD
  5
53C3
102
{ACAD_REACTORS
330
53AE
102
}
330
53AE
100
AcDbXrecord
 10
0.0
 20
0.0
 30
0.0
  0
XRECORD
  5
53C4
102
{ACAD_REACTORS
330
53AE
102
}
330
53AE
100
AcDbXrecord
 10
0.0
 20
0.0
 30
0.0
  0
XRECORD
  5
53C5
102
{ACAD_REACTORS
330
53AE
102
}
330
53AE
100
AcDbXrecord
 10
0.0
 20
0.0
 30
0.0
  0
XRECORD
  5
53C6
102
{ACAD_REACTORS
330
53AE
102
}
330
53AE
100
AcDbXrecord
340
0
  0
XRECORD
  5
53C7
102
{ACAD_REACTORS
330
53AE
102
}
330
53AE
100
AcDbXrecord
 70
     0
  0
XRECORD
  5
53C8
102
{ACAD_REACTORS
330
53AE
102
}
330
53AE
100
AcDbXrecord
340
0
  0
XRECORD
  5
53C9
102
{ACAD_REACTORS
330
53AE
102
}
330
53AE
100
AcDbXrecord
 10
0.0
 20
0.0
 30
0.0
  0
XRECORD
  5
53CA
102
{ACAD_REACTORS
330
53AE
102
}
330
53AE
100
AcDbXrecord
 10
0.0
 20
0.0
 30
0.0
  0
XRECORD
  5
53CB
102
{ACAD_REACTORS
330
53AE
102
}
330
53AE
100
AcDbXrecord
 10
0.0
 20
0.0
 30
0.0
  0
XRECORD
  5
53CC
102
{ACAD_REACTORS
330
53AE
102
}
330
53AE
100
AcDbXrecord
 10
0.0
 20
0.0
 30
0.0
  0
XRECORD
  5
53CD
102
{ACAD_REACTORS
330
53AE
102
}
330
53AE
100
AcDbXrecord
 10
0.0
 20
0.0
 30
0.0
  0
XRECORD
  5
53CE
102
{ACAD_REACTORS
330
53AE
102
}
330
53AE
100
AcDbXrecord
 10
0.0
 20
0.0
 30
0.0
  0
LAYER_INDEX
  5
53A5
102
{ACAD_REACTORS
330
53A4
102
}
330
53A4
100
AcDbIndex
 40
2453151.722965845
100
AcDbLayerIndex
  8
0
360
53A6
 90
        0
  8
AM_0
360
53A7
 90
       67
  8
AM_7
360
53A8
 90
        1
  8
AM_11
360
53A9
 90
       29
  8
AM_5
360
53AA
 90
        5
  8
Defpoints
360
53AB
 90
        0
  8
AM_6
360
53AC
 90
        1
  0
XRECORD
  5
2D
102
{ACAD_REACTORS
330
2C
102
}
330
2C
100
AcDbXrecord
  1
VERSION
140
15.0
  1
PRODUCT
  2
AutoCAD Mechanical 2000
  0
IDBUFFER
  5
53A6
330
0
100
AcDbIdBuffer
  0
IDBUFFER
  5
53A7
330
0
100
AcDbIdBuffer
330
5279
330
527A
330
527B
330
527C
330
527D
330
527E
330
527F
330
5282
330
5283
330
5284
330
5285
330
5286
330
5287
330
5288
330
528A
330
528B
330
528C
330
528D
330
528E
330
C1D
330
4522
330
4525
330
4526
330
4536
330
4544
330
4547
330
4658
330
4BB1
330
4BB2
330
4D8F
330
4D90
330
4E4E
330
4F53
330
5253
330
5254
330
5255
330
5256
330
5257
330
5258
330
5259
330
525A
330
525B
330
525C
330
525D
330
525E
330
525F
330
5260
330
5261
330
5262
330
5263
330
5264
330
5265
330
5266
330
5267
330
5269
330
526C
330
526D
330
526E
330
526F
330
5270
330
5271
330
5272
330
5274
330
5275
330
5276
330
5277
330
5278
  0
IDBUFFER
  5
53A8
330
0
100
AcDbIdBuffer
330
C9F
  0
IDBUFFER
  5
53A9
330
0
100
AcDbIdBuffer
330
5078
330
5079
330
507A
330
507D
330
507E
330
5268
330
526A
330
526B
330
5273
330
5280
330
5281
330
5289
330
528F
330
5064
330
5065
330
5066
330
5067
330
5068
330
5069
330
506A
330
506F
330
5070
330
5071
330
5072
330
5073
330
5074
330
5075
330
5076
330
5077
  0
IDBUFFER
  5
53AA
330
0
100
AcDbIdBuffer
330
CC6
330
DF5
330
48D2
330
4A9C
330
510B
  0
IDBUFFER
  5
53AB
330
0
100
AcDbIdBuffer
  0
IDBUFFER
  5
53AC
330
0
100
AcDbIdBuffer
330
19BD
  0
ENDSEC
  0
EOF
