  0
SECTION
  2
HEADER
  9
$ACADVER
  1
AC1014
  9
$ACADMAINTVER
 70
     9
  9
$DWGCODEPAGE
  3
ANSI_932
  9
$INSBASE
 10
0.0
 20
0.0
 30
0.0
  9
$EXTMIN
 10
-131.6500009999998
 20
-26.97293740283332
 30
-0.00000001
  9
$EXTMAX
 10
13.54182334646827
 20
13.24320052285234
 30
0.00000001
  9
$LIMMIN
 10
-138.8290064717842
 20
-45.22474571374511
  9
$LIMMAX
 10
23.05023987897198
 20
30.30997914579825
  9
$ORTHOMODE
 70
     0
  9
$REGENMODE
 70
     1
  9
$FILLMODE
 70
     1
  9
$QTEXTMODE
 70
     0
  9
$MIRRTEXT
 70
     0
  9
$DRAGMODE
 70
     2
  9
$LTSCALE
 40
1.0
  9
$OSMODE
 70
    55
  9
$ATTMODE
 70
     1
  9
$TEXTSIZE
 40
2.5
  9
$TRACEWID
 40
1.0
  9
$TEXTSTYLE
  7
STANDARD
  9
$CLAYER
  8
AM_0
  9
$CELTYPE
  6
BYLAYER
  9
$CECOLOR
 62
   256
  9
$CELTSCALE
 40
1.0
  9
$DELOBJ
 70
     1
  9
$DISPSILH
 70
     0
  9
$DIMSCALE
 40
0.5
  9
$DIMASZ
 40
2.5
  9
$DIMEXO
 40
1.0
  9
$DIMDLI
 40
12.0
  9
$DIMRND
 40
0.0
  9
$DIMDLE
 40
0.0
  9
$DIMEXE
 40
1.0
  9
$DIMTP
 40
0.1
  9
$DIMTM
 40
0.1
  9
$DIMTXT
 40
3.2
  9
$DIMCEN
 40
0.0
  9
$DIMTSZ
 40
0.0
  9
$DIMTOL
 70
     0
  9
$DIMLIM
 70
     0
  9
$DIMTIH
 70
     0
  9
$DIMTOH
 70
     0
  9
$DIMSE1
 70
     0
  9
$DIMSE2
 70
     0
  9
$DIMTAD
 70
     3
  9
$DIMZIN
 70
     8
  9
$DIMBLK
  1
OPEN30
  9
$DIMASO
 70
     1
  9
$DIMSHO
 70
     1
  9
$DIMPOST
  1

  9
$DIMAPOST
  1
"
  9
$DIMALT
 70
     0
  9
$DIMALTD
 70
     2
  9
$DIMALTF
 40
0.0393701
  9
$DIMLFAC
 40
1.0
  9
$DIMTOFL
 70
     1
  9
$DIMTVP
 40
0.0
  9
$DIMTIX
 70
     0
  9
$DIMSOXD
 70
     0
  9
$DIMSAH
 70
     0
  9
$DIMBLK1
  1

  9
$DIMBLK2
  1

  9
$DIMSTYLE
  2
AM_JIS
  9
$DIMCLRD
 70
   256
  9
$DIMCLRE
 70
   256
  9
$DIMCLRT
 70
     2
  9
$DIMTFAC
 40
0.71
  9
$DIMGAP
 40
1.5
  9
$DIMJUST
 70
     0
  9
$DIMSD1
 70
     0
  9
$DIMSD2
 70
     0
  9
$DIMTOLJ
 70
     0
  9
$DIMTZIN
 70
     0
  9
$DIMALTZ
 70
     0
  9
$DIMALTTZ
 70
     0
  9
$DIMFIT
 70
     3
  9
$DIMUPT
 70
     0
  9
$DIMUNIT
 70
     2
  9
$DIMDEC
 70
     3
  9
$DIMTDEC
 70
     3
  9
$DIMALTU
 70
     2
  9
$DIMALTTD
 70
     2
  9
$DIMTXSTY
  7
ASAMI
  9
$DIMAUNIT
 70
     0
  9
$LUNITS
 70
     2
  9
$LUPREC
 70
     2
  9
$SKETCHINC
 40
1.0
  9
$FILLETRAD
 40
2.5
  9
$AUNITS
 70
     0
  9
$AUPREC
 70
     0
  9
$MENU
  1
.
  9
$ELEVATION
 40
0.0
  9
$PELEVATION
 40
0.0
  9
$THICKNESS
 40
0.0
  9
$LIMCHECK
 70
     0
  9
$BLIPMODE
 70
     0
  9
$CHAMFERA
 40
0.25
  9
$CHAMFERB
 40
0.25
  9
$CHAMFERC
 40
20.0
  9
$CHAMFERD
 40
0.0
  9
$SKPOLY
 70
     0
  9
$TDCREATE
 40
2452800.443498622
  9
$TDUPDATE
 40
2453151.677195984
  9
$TDINDWG
 40
0.0363103819
  9
$TDUSRTIMER
 40
0.0363103819
  9
$USRTIMER
 70
     1
  9
$ANGBASE
 50
0.0
  9
$ANGDIR
 70
     0
  9
$PDMODE
 70
     3
  9
$PDSIZE
 40
0.0
  9
$PLINEWID
 40
0.0
  9
$COORDS
 70
     1
  9
$SPLFRAME
 70
     0
  9
$SPLINETYPE
 70
     6
  9
$SPLINESEGS
 70
     8
  9
$ATTDIA
 70
     1
  9
$ATTREQ
 70
     1
  9
$HANDLING
 70
 12289
  9
$HANDSEED
  5
270E
  9
$SURFTAB1
 70
     6
  9
$SURFTAB2
 70
     6
  9
$SURFTYPE
 70
     6
  9
$SURFU
 70
     6
  9
$SURFV
 70
     6
  9
$UCSNAME
  2

  9
$UCSORG
 10
0.0
 20
0.0
 30
0.0
  9
$UCSXDIR
 10
1.0
 20
0.0000000000000027
 30
0.0
  9
$UCSYDIR
 10
-0.0000000000000027
 20
1.0
 30
0.0
  9
$PUCSNAME
  2

  9
$PUCSORG
 10
0.0
 20
0.0
 30
0.0
  9
$PUCSXDIR
 10
1.0
 20
0.0
 30
0.0
  9
$PUCSYDIR
 10
0.0
 20
1.0
 30
0.0
  9
$USERI1
 70
     0
  9
$USERI2
 70
     0
  9
$USERI3
 70
     0
  9
$USERI4
 70
     0
  9
$USERI5
 70
     0
  9
$USERR1
 40
0.0
  9
$USERR2
 40
0.0
  9
$USERR3
 40
0.0
  9
$USERR4
 40
0.0
  9
$USERR5
 40
0.0
  9
$WORLDVIEW
 70
     1
  9
$SHADEDGE
 70
     3
  9
$SHADEDIF
 70
    70
  9
$TILEMODE
 70
     1
  9
$MAXACTVP
 70
    64
  9
$PINSBASE
 10
0.0
 20
0.0
 30
0.0
  9
$PLIMCHECK
 70
     0
  9
$PEXTMIN
 10
1.000000000000000E+20
 20
1.000000000000000E+20
 30
1.000000000000000E+20
  9
$PEXTMAX
 10
-1.000000000000000E+20
 20
-1.000000000000000E+20
 30
-1.000000000000000E+20
  9
$PLIMMIN
 10
0.0
 20
0.0
  9
$PLIMMAX
 10
841.0
 20
594.0
  9
$UNITMODE
 70
     0
  9
$VISRETAIN
 70
     1
  9
$PLINEGEN
 70
     0
  9
$PSLTSCALE
 70
     0
  9
$TREEDEPTH
 70
  3020
  9
$PICKSTYLE
 70
     0
  9
$CMLSTYLE
  2
STANDARD
  9
$CMLJUST
 70
     0
  9
$CMLSCALE
 40
20.0
  9
$PROXYGRAPHICS
 70
     1
  9
$MEASUREMENT
 70
     1
  0
ENDSEC
  0
SECTION
  2
CLASSES
  0
CLASS
  1
ACDBDICTIONARYWDFLT
  2
AcDbDictionaryWithDefault
  3
AutoCAD 2000
 90
        0
280
     0
281
     0
  0
CLASS
  1
ACDBPLACEHOLDER
  2
AcDbPlaceHolder
  3
AutoCAD 2000
 90
        0
280
     0
281
     0
  0
CLASS
  1
LAYOUT
  2
AcDbLayout
  3
AutoCAD 2000
 90
        0
280
     0
281
     0
  0
CLASS
  1
AMGSETTINGSOBJ
  2
AmgSettingsObj
  3
"AcadM|Product Description: AutoCAD Mechanical 2000|Company: Autodesk"
 90
        0
280
     0
281
     0
  0
CLASS
  1
ACME_DOCUMENT
  2
AcMeDbDoc
  3
AcMeServices
 90
        0
280
     0
281
     0
  0
CLASS
  1
ACMESCOPE
  2
AcMeScope
  3
AcMeServices
 90
        0
280
     0
281
     0
  0
CLASS
  1
ACMECOMMANDHISTORY
  2
AcMeCommandHistory
  3
AcMeServices
 90
        0
280
     0
281
     0
  0
CLASS
  1
DICTIONARYVAR
  2
AcDbDictionaryVar
  3
AutoCAD 2000
 90
        0
280
     0
281
     0
  0
CLASS
  1
ACIMSYSVARMAN
  2
AcImSysVarManager
  3
AcMeServices
 90
        0
280
     0
281
     0
  0
CLASS
  1
ACIMREALSYSVAR
  2
AcImRealSysVar
  3
AcMeServices
 90
        0
280
     0
281
     0
  0
CLASS
  1
ACIMINTSYSVAR
  2
AcImIntSysVar
  3
AcMeServices
 90
        0
280
     0
281
     0
  0
CLASS
  1
ACMEDRAWINGMAN
  2
AcMeDrawingMan
  3
AcMeServices
 90
        0
280
     0
281
     0
  0
CLASS
  1
ACMEVIEW
  2
AcMeView
  3
AcMeServices
 90
        0
280
     0
281
     0
  0
CLASS
  1
ACDBENTITYCACHE
  2
AcMeEntityCache
  3
AcMeServices
 90
        0
280
     0
281
     0
  0
CLASS
  1
GSMANAGER
  2
AcMeGSManager
  3
AcMeServices
 90
        0
280
     0
281
     0
  0
CLASS
  1
AmdtInternalReactor
  2
AmdtInternalReactor
  3
AcMeServices
 90
        0
280
     0
281
     0
  0
CLASS
  1
ACMESTATEMGR
  2
AcMeStateMgr
  3
AcMeServices
 90
        0
280
     0
281
     0
  0
CLASS
  1
ACME_DATABASE
  2
AcMeDbDatabase
  3
AcMeServices
 90
        0
280
     0
281
     0
  0
CLASS
  1
ACRFINSADJUSTERMGR
  2
AcRfInsAdjusterMgr
  3
AcMeServices
 90
        0
280
     0
281
     0
  0
CLASS
  1
ACMDATADICTIONARY
  2
AcmDataDictionary
  3
"AcmSymBB|Product Description: AutoCAD Mechanical 2000|Company: Autodesk"
 90
        0
280
     0
281
     0
  0
CLASS
  1
ACMDATAENTRYBLOCK
  2
AcmDataEntryBlock
  3
"AcmSymBB|Product Description: AutoCAD Mechanical 2000|Company: Autodesk"
 90
        0
280
     0
281
     0
  0
CLASS
  1
AMGOBJPROPCFG
  2
AmgObjPropCfg
  3
"AmgLay|Product Description: AutoCAD Mechanical 2000|Company: Autodesk"
 90
        1
280
     0
281
     0
  0
CLASS
  1
ACAMGFILTERDAT
  2
AcAmgFilterDat
  3
"AcadM|Product Description: AutoCAD Mechanical 2000|Company: Autodesk"
 90
        0
280
     0
281
     0
  0
CLASS
  1
LAYER_INDEX
  2
AcDbLayerIndex
  3
AutoCAD 2000
 90
        0
280
     0
281
     0
  0
CLASS
  1
IDBUFFER
  2
AcDbIdBuffer
  3
AutoCAD 2000
 90
        0
280
     0
281
     0
  0
CLASS
  1
ACIMSTRSYSVAR
  2
AcImStrSysVar
  3
AcMeServices
 90
        0
280
     0
281
     0
  0
CLASS
  1
ACMSTANDARDJIS
  2
AcmStandardJIS
  3
"AcmSymBB|Product Description: AutoCAD Mechanical 2000|Company: Autodesk"
 90
        0
280
     0
281
     0
  0
CLASS
  1
ACMSURFSTANDARDJIS
  2
AcmSurfTextStdJIS
  3
"AcmSymBB|Product Description: AutoCAD Mechanical 2000|Company: Autodesk"
 90
        0
280
     0
281
     0
  0
CLASS
  1
ACMFCFSTANDARDJIS
  2
AcmFCFStdJIS
  3
"AcmSymBB|Product Description: AutoCAD Mechanical 2000|Company: Autodesk"
 90
        0
280
     0
281
     0
  0
CLASS
  1
ACMWELDSTANDARDJIS
  2
AcmWeldingStdJIS
  3
"AcmSymBB|Product Description: AutoCAD Mechanical 2000|Company: Autodesk"
 90
        0
280
     0
281
     0
  0
CLASS
  1
ACMIDSTANDARDJIS
  2
AcmIdStdJIS
  3
"AcmSymBB|Product Description: AutoCAD Mechanical 2000|Company: Autodesk"
 90
        0
280
     0
281
     0
  0
CLASS
  1
ACMDATUMSTANDARDJIS
  2
AcmDatumStdJIS
  3
"AcmSymBB|Product Description: AutoCAD Mechanical 2000|Company: Autodesk"
 90
        0
280
     0
281
     0
  0
CLASS
  1
ACMBOMSTANDARDJIS
  2
AcmBOMStdJIS
  3
"AcmSymBB|Product Description: AutoCAD Mechanical 2000|Company: Autodesk"
 90
        0
280
     0
281
     0
  0
CLASS
  1
ACMSTANDARDANSI
  2
AcmStandardANSI
  3
"AcmSymBB|Product Description: AutoCAD Mechanical 2000|Company: Autodesk"
 90
        0
280
     0
281
     0
  0
CLASS
  1
ACMSURFSTANDARDANSI
  2
AcmSurfTextStdANSI
  3
"AcmSymBB|Product Description: AutoCAD Mechanical 2000|Company: Autodesk"
 90
        0
280
     0
281
     0
  0
CLASS
  1
ACMFCFSTANDARDANSI
  2
AcmFCFStdANSI
  3
"AcmSymBB|Product Description: AutoCAD Mechanical 2000|Company: Autodesk"
 90
        0
280
     0
281
     0
  0
CLASS
  1
ACMWELDSTANDARDANSI
  2
AcmWeldingStdANSI
  3
"AcmSymBB|Product Description: AutoCAD Mechanical 2000|Company: Autodesk"
 90
        0
280
     0
281
     0
  0
CLASS
  1
ACMIDSTANDARDANSI
  2
AcmIdStdANSI
  3
"AcmSymBB|Product Description: AutoCAD Mechanical 2000|Company: Autodesk"
 90
        0
280
     0
281
     0
  0
CLASS
  1
ACMDATUMSTANDARDANSI
  2
AcmDatumStdANSI
  3
"AcmSymBB|Product Description: AutoCAD Mechanical 2000|Company: Autodesk"
 90
        0
280
     0
281
     0
  0
CLASS
  1
ACMBOMSTANDARDANSI
  2
AcmBOMStdANSI
  3
"AcmSymBB|Product Description: AutoCAD Mechanical 2000|Company: Autodesk"
 90
        0
280
     0
281
     0
  0
CLASS
  1
ACMSTANDARDBSI
  2
AcmStandardBSI
  3
"AcmSymBB|Product Description: AutoCAD Mechanical 2000|Company: Autodesk"
 90
        0
280
     0
281
     0
  0
CLASS
  1
ACMSURFSTANDARDBSI
  2
AcmSurfTextStdBSI
  3
"AcmSymBB|Product Description: AutoCAD Mechanical 2000|Company: Autodesk"
 90
        0
280
     0
281
     0
  0
CLASS
  1
ACMFCFSTANDARDBSI
  2
AcmFCFStdBSI
  3
"AcmSymBB|Product Description: AutoCAD Mechanical 2000|Company: Autodesk"
 90
        0
280
     0
281
     0
  0
CLASS
  1
ACMWELDSTANDARDBSI
  2
AcmWeldingStdBSI
  3
"AcmSymBB|Product Description: AutoCAD Mechanical 2000|Company: Autodesk"
 90
        0
280
     0
281
     0
  0
CLASS
  1
ACMIDSTANDARDBSI
  2
AcmIdStdBSI
  3
"AcmSymBB|Product Description: AutoCAD Mechanical 2000|Company: Autodesk"
 90
        0
280
     0
281
     0
  0
CLASS
  1
ACMDATUMSTANDARDBSI
  2
AcmDatumStdBSI
  3
"AcmSymBB|Product Description: AutoCAD Mechanical 2000|Company: Autodesk"
 90
        0
280
     0
281
     0
  0
CLASS
  1
ACMBOMSTANDARDBSI
  2
AcmBOMStdBSI
  3
"AcmSymBB|Product Description: AutoCAD Mechanical 2000|Company: Autodesk"
 90
        0
280
     0
281
     0
  0
CLASS
  1
LONG_TRANSACTION
  2
AcDbLongTransaction
  3
AutoCAD 2000
 90
        0
280
     0
281
     0
  0
CLASS
  1
LWPOLYLINE
  2
AcDbPolyline
  3
AutoCAD 2000
 90
        0
280
     0
281
     1
  0
CLASS
  1
HATCH
  2
AcDbHatch
  3
AutoCAD 2000
 90
        0
280
     0
281
     1
  0
CLASS
  1
XRECORD
  2
AcDbXrecord
  3
AutoCAD 2000
 90
        0
280
     0
281
     0
  0
ENDSEC
  0
SECTION
  2
TABLES
  0
TABLE
  2
VPORT
  5
8
330
0
100
AcDbSymbolTable
 70
     3
  0
VPORT
  5
26E3
330
8
100
AcDbSymbolTableRecord
100
AcDbViewportTableRecord
  2
*ACTIVE
 70
     0
 10
0.0
 20
0.0
 11
1.0
 21
1.0
 12
-56.34031553300201
 22
-6.863810364148676
 13
0.0
 23
0.0
 14
2.5
 24
2.5
 15
10.0
 25
10.0
 16
0.0
 26
0.0
 36
1.0
 17
0.0
 27
0.0
 37
0.0
 40
96.67089625713479
 41
1.56570841889117
 42
50.0
 43
0.0
 44
0.0
 50
0.0
 51
0.0
 71
     0
 72
   100
 73
     1
 74
     1
 75
     0
 76
     0
 77
     0
 78
     0
  0
ENDTAB
  0
TABLE
  2
LTYPE
  5
5
330
0
100
AcDbSymbolTable
 70
    10
  0
LTYPE
  5
14
330
5
100
AcDbSymbolTableRecord
100
AcDbLinetypeTableRecord
  2
BYBLOCK
 70
     0
  3

 72
    65
 73
     0
 40
0.0
  0
LTYPE
  5
15
330
5
100
AcDbSymbolTableRecord
100
AcDbLinetypeTableRecord
  2
BYLAYER
 70
     0
  3

 72
    65
 73
     0
 40
0.0
  0
LTYPE
  5
16
330
5
100
AcDbSymbolTableRecord
100
AcDbLinetypeTableRecord
  2
CONTINUOUS
 70
     0
  3
Solid line
 72
    65
 73
     0
 40
0.0
  0
LTYPE
  5
4B
330
5
100
AcDbSymbolTableRecord
100
AcDbLinetypeTableRecord
  2
AM_ISO02W050
 70
     0
  3
__ __ __ __ __ __ __ __ __ __ __ __ __ __ __
 72
    65
 73
     2
 40
7.5
 49
6.0
 74
     0
 49
-1.5
 74
     0
  0
LTYPE
  5
4C
330
5
100
AcDbSymbolTableRecord
100
AcDbLinetypeTableRecord
  2
AM_ISO08W050
 70
     0
  3
____ . ____ . ____ . ____ . ____ . ____ . ____
 72
    65
 73
     4
 40
18.0
 49
12.0
 74
     0
 49
-1.5
 74
     0
 49
3.0
 74
     0
 49
-1.5
 74
     0
  0
LTYPE
  5
4D
330
5
100
AcDbSymbolTableRecord
100
AcDbLinetypeTableRecord
  2
AM_ISO09W050
 70
     0
  3
_____ . . _____ . . _____ . . ____ .. ____
 72
    65
 73
     6
 40
22.5
 49
12.0
 74
     0
 49
-1.5
 74
     0
 49
3.0
 74
     0
 49
-1.5
 74
     0
 49
3.0
 74
     0
 49
-1.5
 74
     0
  0
LTYPE
  5
4E
330
5
100
AcDbSymbolTableRecord
100
AcDbLinetypeTableRecord
  2
AMCONSTR
 70
     0
  3
_______________________
 72
    65
 73
     2
 40
9999.0
 49
9999.0
 74
     0
 49
0.0
 74
     0
  0
LTYPE
  5
4F
330
5
100
AcDbSymbolTableRecord
100
AcDbLinetypeTableRecord
  2
AM_ISO02W050X2
 70
     0
  3
 _ _ _ _ _ _ _ _ _ _ _ _
 72
    65
 73
     2
 40
3.75
 49
3.0
 74
     0
 49
-0.75
 74
     0
  0
LTYPE
  5
50
330
5
100
AcDbSymbolTableRecord
100
AcDbLinetypeTableRecord
  2
AM_ISO08W050X2
 70
     0
  3
__ . __ . __ . __ . __ . __
 72
    65
 73
     4
 40
9.0
 49
6.0
 74
     0
 49
-0.75
 74
     0
 49
1.5
 74
     0
 49
-0.75
 74
     0
  0
LTYPE
  5
53
330
5
100
AcDbSymbolTableRecord
100
AcDbLinetypeTableRecord
  2
AMZIGZAG
 70
     0
  3
/\/-/\/-/\/-/\/-/\/-/\/
 72
    65
 73
     2
 40
11.00009999999999
 49
0.0001
 74
     4
 75
   135
340
52
 46
0.04
 50
0.0
 44
0.0
 45
0.0
 49
-11.0
 74
     0
  0
LTYPE
  5
166
330
5
100
AcDbSymbolTableRecord
100
AcDbLinetypeTableRecord
  2
ACJISTGL
 70
     0
  3
_ _ _ _ _
 72
    65
 73
     2
 40
3.0
 49
2.0
 74
     0
 49
-1.0
 74
     0
  0
LTYPE
  5
26A
330
5
100
AcDbSymbolTableRecord
100
AcDbLinetypeTableRecord
  2
ACJISTGB
 70
     0
  3
__ . . __ . .
 72
    65
 73
     6
 40
9.0
 49
4.0
 74
     0
 49
-1.0
 74
     0
 49
1.0
 74
     0
 49
-1.0
 74
     0
 49
1.0
 74
     0
 49
-1.0
 74
     0
  0
ENDTAB
  0
TABLE
  2
LAYER
  5
2
330
0
100
AcDbSymbolTable
 70
     8
  0
LAYER
  5
10
330
2
100
AcDbSymbolTableRecord
100
AcDbLayerTableRecord
  2
0
 70
     0
 62
     7
  6
CONTINUOUS
  0
LAYER
  5
3F9
330
2
100
AcDbSymbolTableRecord
100
AcDbLayerTableRecord
  2
AM_0
 70
     0
 62
     7
  6
CONTINUOUS
  0
LAYER
  5
C7C
330
2
100
AcDbSymbolTableRecord
100
AcDbLayerTableRecord
  2
AM_7
 70
     0
 62
     4
  6
AM_ISO08W050
  0
LAYER
  5
C97
330
2
100
AcDbSymbolTableRecord
100
AcDbLayerTableRecord
  2
AM_11
 70
     0
 62
     3
  6
AM_ISO09W050
  0
LAYER
  5
CC5
330
2
100
AcDbSymbolTableRecord
100
AcDbLayerTableRecord
  2
AM_5
 70
     0
 62
     3
  6
CONTINUOUS
  0
LAYER
  5
CC7
330
2
100
AcDbSymbolTableRecord
100
AcDbLayerTableRecord
  2
DEFPOINTS
 70
     0
 62
     7
  6
CONTINUOUS
  0
LAYER
  5
19BC
330
2
100
AcDbSymbolTableRecord
100
AcDbLayerTableRecord
  2
AM_6
 70
     0
 62
     2
  6
CONTINUOUS
  0
LAYER
  5
24DD
330
2
100
AcDbSymbolTableRecord
100
AcDbLayerTableRecord
  2
AM_CL
 70
     0
 62
     1
  6
AMCONSTR
  0
ENDTAB
  0
TABLE
  2
STYLE
  5
3
330
0
100
AcDbSymbolTable
 70
     5
  0
STYLE
  5
11
330
3
100
AcDbSymbolTableRecord
100
AcDbTextStyleTableRecord
  2
STANDARD
 70
     0
 40
0.0
 41
1.0
 50
0.0
 71
     0
 42
2.5
  3
simplex.shx
  4
EXTFONT.SHX
  0
STYLE
  5
52
330
3
100
AcDbSymbolTableRecord
100
AcDbTextStyleTableRecord
  2

 70
     1
 40
0.0
 41
1.0
 50
0.0
 71
     0
 42
2.5
  3
ltypeshp.shx
  4

  0
STYLE
  5
6B
330
3
100
AcDbSymbolTableRecord
100
AcDbTextStyleTableRecord
  2
ASAMI
 70
     0
 40
0.0
 41
1.0
 50
0.0
 71
     0
 42
2.5
  3
simplex.shx
  4
EXTFONT.SHX
  0
STYLE
  5
262
330
3
100
AcDbSymbolTableRecord
100
AcDbTextStyleTableRecord
  2
ACJISTS
 70
     0
 40
1.0
 41
1.0
 50
0.0
 71
     0
 42
2.5
  3
simplex.shx
  4
bigfont.shx
  0
STYLE
  5
269
330
3
100
AcDbSymbolTableRecord
100
AcDbTextStyleTableRecord
  2
ACJISGDT
 70
     0
 40
0.0
 41
1.0
 50
0.0
 71
     0
 42
2.5
  3
amgdtans.shx
  4

  0
ENDTAB
  0
TABLE
  2
VIEW
  5
6
330
0
100
AcDbSymbolTable
 70
     0
  0
ENDTAB
  0
TABLE
  2
UCS
  5
7
330
0
100
AcDbSymbolTable
 70
     0
  0
ENDTAB
  0
TABLE
  2
APPID
  5
9
330
0
100
AcDbSymbolTable
 70
    16
  0
APPID
  5
12
330
9
100
AcDbSymbolTableRecord
100
AcDbRegAppTableRecord
  2
ACAD
 70
     0
  0
APPID
  5
30
330
9
100
AcDbSymbolTableRecord
100
AcDbRegAppTableRecord
  2
MCAD_NO_VIS
 70
     0
  0
APPID
  5
31
330
9
100
AcDbSymbolTableRecord
100
AcDbRegAppTableRecord
  2
ACAD_TEMP_GRAPHIC
 70
     0
  0
APPID
  5
2C2
330
9
100
AcDbSymbolTableRecord
100
AcDbRegAppTableRecord
  2
GENIUS_GENDTOL_13
 70
     0
  0
APPID
  5
339
330
9
100
AcDbSymbolTableRecord
100
AcDbRegAppTableRecord
  2
GENIUS_GENODEF_13
 70
     0
  0
APPID
  5
33A
330
9
100
AcDbSymbolTableRecord
100
AcDbRegAppTableRecord
  2
GENIUS_GENOBJ-N-RSBK_13
 70
     0
  0
APPID
  5
33B
330
9
100
AcDbSymbolTableRecord
100
AcDbRegAppTableRecord
  2
GENIUS_GENOBJ-N-LIB_13
 70
     0
  0
APPID
  5
33C
330
9
100
AcDbSymbolTableRecord
100
AcDbRegAppTableRecord
  2
GENIUS_GENSCALE_13
 70
     0
  0
APPID
  5
378
330
9
100
AcDbSymbolTableRecord
100
AcDbRegAppTableRecord
  2
GENIUS_GENDIMSH_14
 70
     0
  0
APPID
  5
C82
330
9
100
AcDbSymbolTableRecord
100
AcDbRegAppTableRecord
  2
GENIUS_GENOBJ-N-CRS_13
 70
     0
  0
APPID
  5
C83
330
9
100
AcDbSymbolTableRecord
100
AcDbRegAppTableRecord
  2
GENIUS_GENOENT_13
 70
     0
  0
APPID
  5
C84
330
9
100
AcDbSymbolTableRecord
100
AcDbRegAppTableRecord
  2
GENIUS_GENOREF_13
 70
     0
  0
APPID
  5
C85
330
9
100
AcDbSymbolTableRecord
100
AcDbRegAppTableRecord
  2
GENIUS_GENOLIS_13
 70
     0
  0
APPID
  5
CA0
330
9
100
AcDbSymbolTableRecord
100
AcDbRegAppTableRecord
  2
GENIUS_GENOBJ-N-CEN_13
 70
     0
  0
APPID
  5
1E1E
330
9
100
AcDbSymbolTableRecord
100
AcDbRegAppTableRecord
  2
GENIUS_GENFIL_13
 70
     0
  0
APPID
  5
1E1F
330
9
100
AcDbSymbolTableRecord
100
AcDbRegAppTableRecord
  2
GENIUS_GENOBJ-N-CHA_13
 70
     0
  0
ENDTAB
  0
TABLE
  2
DIMSTYLE
  5
A
330
0
100
AcDbSymbolTable
 70
     9
  0
DIMSTYLE
105
58
330
A
100
AcDbSymbolTableRecord
100
AcDbDimStyleTableRecord
  2
AM_JIS
 70
     0
  3

  4
"
  5
OPEN30
  6

  7

 40
0.5
 41
2.5
 42
1.0
 43
12.0
 44
1.0
 45
0.0
 46
0.0
 47
0.1
 48
0.1
140
3.2
141
0.0
142
0.0
143
0.0393701
144
1.0
145
0.0
146
0.71
147
1.5
 71
     0
 72
     0
 73
     0
 74
     0
 75
     0
 76
     0
 77
     3
 78
     8
170
     0
171
     2
172
     1
173
     0
174
     0
175
     0
176
   256
177
   256
178
     2
270
     2
271
     3
272
     3
273
     2
274
     2
340
6B
275
     0
280
     0
281
     0
282
     0
283
     0
284
     0
285
     0
286
     0
287
     3
288
     0
  0
DIMSTYLE
105
5F
330
A
100
AcDbSymbolTableRecord
100
AcDbDimStyleTableRecord
  2
AM_JIS$3
 70
     0
  3

  4
"
  5
OPEN30
  6

  7

 40
0.5
 41
2.5
 42
1.0
 43
10.0
 44
1.0
 45
0.0
 46
0.0
 47
0.1
 48
0.1
140
3.2
141
0.0
142
0.0
143
0.0393701
144
1.0
145
0.0
146
0.71
147
1.5
 71
     0
 72
     0
 73
     0
 74
     1
 75
     0
 76
     0
 77
     3
 78
     8
170
     0
171
     2
172
     0
173
     0
174
     0
175
     0
176
   256
177
   256
178
     2
270
     2
271
     2
272
     3
273
     2
274
     2
340
6B
275
     0
280
     0
281
     0
282
     0
283
     0
284
     0
285
     0
286
     0
287
     0
288
     1
  0
DIMSTYLE
105
60
330
A
100
AcDbSymbolTableRecord
100
AcDbDimStyleTableRecord
  2
AM_JIS$4
 70
     0
  3

  4
"
  5
OPEN30
  6

  7

 40
0.5
 41
2.5
 42
1.0
 43
10.0
 44
1.0
 45
0.0
 46
0.0
 47
0.1
 48
0.1
140
3.2
141
0.0
142
0.0
143
0.0393701
144
1.0
145
0.0
146
0.71
147
1.5
 71
     0
 72
     0
 73
     0
 74
     1
 75
     0
 76
     0
 77
     3
 78
     8
170
     0
171
     2
172
     0
173
     0
174
     0
175
     0
176
   256
177
   256
178
     2
270
     2
271
     2
272
     3
273
     2
274
     2
340
6B
275
     0
280
     0
281
     0
282
     0
283
     0
284
     0
285
     0
286
     0
287
     0
288
     1
  0
DIMSTYLE
105
61
330
A
100
AcDbSymbolTableRecord
100
AcDbDimStyleTableRecord
  2
AM_JIS$6
 70
     0
  3

  4
"
  5
OPEN30
  6

  7

 40
0.5
 41
2.5
 42
1.0
 43
10.0
 44
1.0
 45
0.0
 46
0.0
 47
0.1
 48
0.1
140
3.2
141
0.0
142
0.0
143
0.0393701
144
1.0
145
0.0
146
0.71
147
1.5
 71
     0
 72
     0
 73
     0
 74
     0
 75
     0
 76
     0
 77
     0
 78
     8
170
     0
171
     2
172
     1
173
     0
174
     0
175
     0
176
   256
177
   256
178
     2
270
     2
271
     2
272
     2
273
     2
274
     2
340
6B
275
     0
280
     0
281
     0
282
     0
283
     0
284
     0
285
     0
286
     0
287
     3
288
     0
  0
DIMSTYLE
105
62
330
A
100
AcDbSymbolTableRecord
100
AcDbDimStyleTableRecord
  2
AM_JIS$7
 70
     0
  3

  4
"
  5
OPEN30
  6

  7

 40
0.5
 41
2.5
 42
1.0
 43
10.0
 44
1.0
 45
0.0
 46
0.0
 47
0.1
 48
0.1
140
3.2
141
0.0
142
0.0
143
0.0393701
144
1.0
145
0.0
146
0.71
147
1.5
 71
     0
 72
     0
 73
     0
 74
     0
 75
     0
 76
     0
 77
     3
 78
     8
170
     0
171
     2
172
     1
173
     0
174
     0
175
     0
176
   256
177
   256
178
     2
270
     2
271
     2
272
     3
273
     2
274
     2
340
6B
275
     0
280
     0
281
     0
282
     0
283
     0
284
     0
285
     0
286
     0
287
     3
288
     0
  0
DIMSTYLE
105
63
330
A
100
AcDbSymbolTableRecord
100
AcDbDimStyleTableRecord
  2
AM_JIS$SF
 70
     0
  3

  4
"
  5
OPEN30
  6

  7

 40
0.5
 41
2.5
 42
1.0
 43
10.0
 44
1.0
 45
0.0
 46
0.0
 47
0.1
 48
0.1
140
3.2
141
0.0
142
0.0
143
0.0393701
144
1.0
145
0.0
146
0.71
147
1.5
 71
     0
 72
     0
 73
     0
 74
     0
 75
     1
 76
     1
 77
     3
 78
     8
170
     0
171
     2
172
     1
173
     0
174
     0
175
     0
176
   256
177
   256
178
     2
270
     2
271
     2
272
     2
273
     2
274
     2
340
6B
275
     0
280
     0
281
     0
282
     0
283
     0
284
     0
285
     0
286
     0
287
     3
288
     0
  0
DIMSTYLE
105
68
330
A
100
AcDbSymbolTableRecord
100
AcDbDimStyleTableRecord
  2
AM_JIS$SH
 70
     0
  3

  4
"
  5

  6
GENAXEH
  7
OPEN30
 40
0.5
 41
2.5
 42
1.0
 43
10.0
 44
1.0
 45
0.0
 46
0.0
 47
0.1
 48
0.1
140
3.2
141
0.0
142
0.0
143
0.0393701
144
2.0
145
0.0
146
0.71
147
1.5
 71
     0
 72
     0
 73
     0
 74
     0
 75
     1
 76
     1
 77
     3
 78
     8
170
     0
171
     2
172
     1
173
     1
174
     0
175
     0
176
   256
177
   256
178
     2
270
     2
271
     2
272
     2
273
     2
274
     2
340
6B
275
     0
280
     0
281
     0
282
     0
283
     0
284
     0
285
     0
286
     0
287
     3
288
     0
  0
DIMSTYLE
105
B34
102
{ACAD_REACTORS
330
258B
102
}
330
A
100
AcDbSymbolTableRecord
100
AcDbDimStyleTableRecord
  2
AM_JIS$2
 70
     0
  3

  4
"
  5
OPEN30
  6

  7

 40
0.5
 41
2.5
 42
1.0
 43
12.0
 44
1.0
 45
0.0
 46
0.0
 47
0.1
 48
0.1
140
3.2
141
0.0
142
0.0
143
0.0393701
144
1.0
145
0.0
146
0.71
147
1.5
 71
     0
 72
     0
 73
     0
 74
     0
 75
     0
 76
     0
 77
     3
 78
     8
170
     0
171
     2
172
     1
173
     0
174
     0
175
     0
176
   256
177
   256
178
     2
270
     2
271
     3
272
     3
273
     2
274
     2
340
6B
275
     0
280
     0
281
     0
282
     0
283
     0
284
     0
285
     0
286
     0
287
     3
288
     0
  0
DIMSTYLE
105
BA5
102
{ACAD_REACTORS
330
CC6
330
DF5
330
228A
330
23E9
102
}
330
A
100
AcDbSymbolTableRecord
100
AcDbDimStyleTableRecord
  2
AM_JIS$0
 70
     0
  3

  4
"
  5
OPEN30
  6

  7

 40
0.5
 41
2.5
 42
0.0
 43
10.0
 44
1.0
 45
0.0
 46
0.0
 47
0.1
 48
0.1000000001
140
3.799999999999999
141
0.0
142
0.0
143
0.0393701
144
1.0
145
0.0
146
0.71
147
1.5
 71
     0
 72
     0
 73
     0
 74
     0
 75
     0
 76
     0
 77
     3
 78
     1
170
     0
171
     2
172
     1
173
     0
174
     0
175
     0
176
     3
177
     3
178
     2
270
     2
271
     2
272
     2
273
     2
274
     2
340
11
275
     1
280
     0
281
     0
282
     0
283
     0
284
     8
285
     0
286
     0
287
     0
288
     0
  0
ENDTAB
  0
TABLE
  2
BLOCK_RECORD
  5
1
330
0
100
AcDbSymbolTable
 70
    11
  0
BLOCK_RECORD
  5
1F
102
{ACAD_XDICTIONARY
360
74
102
}
330
1
100
AcDbSymbolTableRecord
100
AcDbBlockTableRecord
  2
*MODEL_SPACE
  0
BLOCK_RECORD
  5
101
102
{ACAD_XDICTIONARY
360
270C
102
}
330
1
100
AcDbSymbolTableRecord
100
AcDbBlockTableRecord
  2
*PAPER_SPACE
  0
BLOCK_RECORD
  5
59
330
1
100
AcDbSymbolTableRecord
100
AcDbBlockTableRecord
  2
_OPEN30
  0
BLOCK_RECORD
  5
64
330
1
100
AcDbSymbolTableRecord
100
AcDbBlockTableRecord
  2
GENAXEH
  0
BLOCK_RECORD
  5
CC8
330
1
100
AcDbSymbolTableRecord
100
AcDbBlockTableRecord
  2
*D5
  0
BLOCK_RECORD
  5
DF6
330
1
100
AcDbSymbolTableRecord
100
AcDbBlockTableRecord
  2
*D6
  0
BLOCK_RECORD
  5
228B
330
1
100
AcDbSymbolTableRecord
100
AcDbBlockTableRecord
  2
*D7
  0
BLOCK_RECORD
  5
23EA
330
1
100
AcDbSymbolTableRecord
100
AcDbBlockTableRecord
  2
*D8
  0
BLOCK_RECORD
  5
24FF
330
1
100
AcDbSymbolTableRecord
100
AcDbBlockTableRecord
  2
A$C0A020B99
  0
BLOCK_RECORD
  5
258C
330
1
100
AcDbSymbolTableRecord
100
AcDbBlockTableRecord
  2
*D10
  0
ENDTAB
  0
ENDSEC
  0
SECTION
  2
BLOCKS
  0
BLOCK
  5
20
330
1F
100
AcDbEntity
  8
0
100
AcDbBlockBegin
  2
*MODEL_SPACE
 70
     0
 10
0.0
 20
0.0
 30
0.0
  3
*MODEL_SPACE
  1

  0
ENDBLK
  5
21
330
1F
100
AcDbEntity
  8
0
100
AcDbBlockEnd
  0
BLOCK
  5
103
330
101
100
AcDbEntity
 67
     1
  8
0
100
AcDbBlockBegin
  2
*PAPER_SPACE
 70
     0
 10
0.0
 20
0.0
 30
0.0
  3
*PAPER_SPACE
  1

  0
ENDBLK
  5
104
330
101
100
AcDbEntity
 67
     1
  8
0
100
AcDbBlockEnd
  0
BLOCK
  5
5D
330
59
100
AcDbEntity
  8
0
100
AcDbBlockBegin
  2
_OPEN30
 70
     0
 10
0.0
 20
0.0
 30
0.0
  3
_OPEN30
  1

  0
LINE
  5
5A
330
59
100
AcDbEntity
  8
0
 62
     0
100
AcDbLine
 10
-1.0
 20
0.26794919
 30
0.0
 11
0.0
 21
0.0
 31
0.0
  0
LINE
  5
5B
330
59
100
AcDbEntity
  8
0
 62
     0
100
AcDbLine
 10
0.0
 20
0.0
 30
0.0
 11
-1.0
 21
-0.26794919
 31
0.0
  0
LINE
  5
5C
330
59
100
AcDbEntity
  8
0
 62
     0
100
AcDbLine
 10
0.0
 20
0.0
 30
0.0
 11
-1.0
 21
0.0
 31
0.0
  0
ENDBLK
  5
5E
330
59
100
AcDbEntity
  8
0
100
AcDbBlockEnd
  0
BLOCK
  5
66
330
64
100
AcDbEntity
  8
0
100
AcDbBlockBegin
  2
GENAXEH
 70
     0
 10
0.0
 20
0.0
 30
0.0
  3
GENAXEH
  1

  0
LINE
  5
65
330
64
100
AcDbEntity
  8
0
100
AcDbLine
 10
-1.0
 20
0.0
 30
0.0
 11
1.0
 21
0.0
 31
0.0
  0
ENDBLK
  5
67
330
64
100
AcDbEntity
  8
0
100
AcDbBlockEnd
  0
BLOCK
  5
CD2
330
CC8
100
AcDbEntity
  8
0
100
AcDbBlockBegin
  2
*D5
 70
     1
 10
0.0
 20
0.0
 30
0.0
  3
*D5
  1

  0
LINE
  5
266B
330
CC8
100
AcDbEntity
  8
AM_5
 62
     3
100
AcDbLine
 10
-119.9999999999998
 20
-3.764324189635425
 30
0.0
 11
-119.9999999999998
 21
-16.5000023696538
 31
0.0
  0
LINE
  5
266C
330
CC8
100
AcDbEntity
  8
AM_5
 62
     3
100
AcDbLine
 10
-1.999999999999989
 20
-3.550000748519251
 30
0.0
 11
-1.99999999999999
 21
-16.5000023696538
 31
0.0
  0
LINE
  5
266D
330
CC8
100
AcDbEntity
  8
AM_5
 62
     3
100
AcDbLine
 10
-118.7499999999998
 20
-16.0000023696538
 30
0.0
 11
-3.24999999999999
 21
-16.0000023696538
 31
0.0
  0
INSERT
  5
266E
330
CC8
100
AcDbEntity
  8
AM_5
 62
     3
100
AcDbBlockReference
  2
_OPEN30
 10
-119.9999999999998
 20
-16.0000023696538
 30
0.0
 41
1.25
 42
1.25
 43
1.25
 50
180.0
  0
INSERT
  5
266F
330
CC8
100
AcDbEntity
  8
AM_5
 62
     3
100
AcDbBlockReference
  2
_OPEN30
 10
-1.99999999999999
 20
-16.0000023696538
 30
0.0
 41
1.25
 42
1.25
 43
1.25
  0
MTEXT
  5
2670
330
CC8
100
AcDbEntity
  8
AM_5
 62
     2
100
AcDbMText
 10
-60.99999999999994
 20
-14.3000023696538
 30
0.0
 40
1.9
 41
0.0
 71
     5
 72
     1
  1
118
1001
ACAD
1000
MTEXTBEGIN
1070
    73
1070
     1
1070
    44
1040
1.0
1070
    74
1070
     0
1000
MTEXTEND
  0
POINT
  5
2671
330
CC8
100
AcDbEntity
  8
DEFPOINTS
 62
     0
100
AcDbPoint
 10
-119.9999999999998
 20
-3.764324189635425
 30
0.0
  0
POINT
  5
2672
330
CC8
100
AcDbEntity
  8
DEFPOINTS
 62
     0
100
AcDbPoint
 10
-1.999999999999989
 20
-3.550000748519251
 30
0.0
  0
POINT
  5
2673
330
CC8
100
AcDbEntity
  8
DEFPOINTS
 62
     0
100
AcDbPoint
 10
-1.99999999999999
 20
-16.0000023696538
 30
0.0
  0
ENDBLK
  5
CD3
330
CC8
100
AcDbEntity
  8
0
100
AcDbBlockEnd
  0
BLOCK
  5
E00
330
DF6
100
AcDbEntity
  8
0
100
AcDbBlockBegin
  2
*D6
 70
     1
 10
0.0
 20
0.0
 30
0.0
  3
*D6
  1

  0
LINE
  5
2662
330
DF6
100
AcDbEntity
  8
AM_5
 62
     3
100
AcDbLine
 10
-65.9999999999999
 20
-4.000001369653888
 30
0.0
 11
-65.9999999999999
 21
-11.50000236965372
 31
0.0
  0
LINE
  5
2663
330
DF6
100
AcDbEntity
  8
AM_5
 62
     3
100
AcDbLine
 10
-1.999999999999989
 20
-3.550000748519251
 30
0.0
 11
-1.99999999999999
 21
-11.50000236965372
 31
0.0
  0
LINE
  5
2664
330
DF6
100
AcDbEntity
  8
AM_5
 62
     3
100
AcDbLine
 10
-64.7499999999999
 20
-11.00000236965372
 30
0.0
 11
-3.24999999999999
 21
-11.00000236965372
 31
0.0
  0
INSERT
  5
2665
330
DF6
100
AcDbEntity
  8
AM_5
 62
     3
100
AcDbBlockReference
  2
_OPEN30
 10
-65.9999999999999
 20
-11.00000236965372
 30
0.0
 41
1.25
 42
1.25
 43
1.25
 50
180.0
  0
INSERT
  5
2666
330
DF6
100
AcDbEntity
  8
AM_5
 62
     3
100
AcDbBlockReference
  2
_OPEN30
 10
-1.99999999999999
 20
-11.00000236965372
 30
0.0
 41
1.25
 42
1.25
 43
1.25
  0
MTEXT
  5
2667
330
DF6
100
AcDbEntity
  8
AM_5
 62
     2
100
AcDbMText
 10
-33.99999999999994
 20
-9.300002369653721
 30
0.0
 40
1.9
 41
0.0
 71
     5
 72
     1
  1
64
1001
ACAD
1000
MTEXTBEGIN
1070
    73
1070
     1
1070
    44
1040
1.0
1070
    74
1070
     0
1000
MTEXTEND
  0
POINT
  5
2668
330
DF6
100
AcDbEntity
  8
DEFPOINTS
 62
     0
100
AcDbPoint
 10
-65.9999999999999
 20
-4.000001369653888
 30
0.0
  0
POINT
  5
2669
330
DF6
100
AcDbEntity
  8
DEFPOINTS
 62
     0
100
AcDbPoint
 10
-1.999999999999989
 20
-3.550000748519251
 30
0.0
  0
POINT
  5
266A
330
DF6
100
AcDbEntity
  8
DEFPOINTS
 62
     0
100
AcDbPoint
 10
-1.99999999999999
 20
-11.00000236965372
 30
0.0
  0
ENDBLK
  5
E01
330
DF6
100
AcDbEntity
  8
0
100
AcDbBlockEnd
  0
BLOCK
  5
2297
330
228B
100
AcDbEntity
  8
0
100
AcDbBlockBegin
  2
*D7
 70
     1
 10
0.0
 20
0.0
 30
0.0
  3
*D7
  1

  0
LINE
  5
2674
330
228B
100
AcDbEntity
  8
AM_5
 62
     3
100
AcDbLine
 10
-119.7499999999998
 20
-4.000000000000473
 30
0.0
 11
-129.5000009999998
 21
-4.0000000000005
 31
0.0
  0
LINE
  5
2675
330
228B
100
AcDbEntity
  8
AM_5
 62
     3
100
AcDbLine
 10
-119.7499999999999
 20
3.999999999999525
 30
0.0
 11
-129.5000009999998
 21
3.999999999999497
 31
0.0
  0
LINE
  5
2676
330
228B
100
AcDbEntity
  8
AM_5
 62
     3
100
AcDbLine
 10
-129.0000009999998
 20
-2.750000000000499
 30
0.0
 11
-129.0000009999998
 21
2.749999999999499
 31
0.0
  0
INSERT
  5
2677
330
228B
100
AcDbEntity
  8
AM_5
 62
     3
100
AcDbBlockReference
  2
_OPEN30
 10
-129.0000009999998
 20
-4.000000000000499
 30
0.0
 41
1.25
 42
1.25
 43
1.25
 50
270.0000000000001
  0
INSERT
  5
2678
330
228B
100
AcDbEntity
  8
AM_5
 62
     3
100
AcDbBlockReference
  2
_OPEN30
 10
-129.0000009999998
 20
3.999999999999499
 30
0.0
 41
1.25
 42
1.25
 43
1.25
 50
90.00000000000015
  0
MTEXT
  5
2679
330
228B
100
AcDbEntity
  8
AM_5
 62
     2
100
AcDbMText
 10
-130.7000009999998
 20
-0.0000000000004826
 30
0.0
 40
1.9
 41
0.0
 71
     5
 72
     1
  1
%%c8
 11
-0.0000000000000028
 21
1.0
 31
0.0
1001
ACAD
1000
MTEXTBEGIN
1070
    73
1070
     1
1070
    44
1040
1.0
1070
    74
1070
     0
1000
MTEXTEND
  0
POINT
  5
267A
330
228B
100
AcDbEntity
  8
DEFPOINTS
 62
     0
100
AcDbPoint
 10
-119.7499999999999
 20
-4.000000000000101
 30
0.0
  0
POINT
  5
267B
330
228B
100
AcDbEntity
  8
DEFPOINTS
 62
     0
100
AcDbPoint
 10
-119.7499999999998
 20
3.999999999999897
 30
0.0
  0
POINT
  5
267C
330
228B
100
AcDbEntity
  8
DEFPOINTS
 62
     0
100
AcDbPoint
 10
-129.0000009999998
 20
3.9999999999999
 30
0.0
  0
ENDBLK
  5
2298
330
228B
100
AcDbEntity
  8
0
100
AcDbBlockEnd
  0
BLOCK
  5
23F4
330
23EA
100
AcDbEntity
  8
0
100
AcDbBlockBegin
  2
*D8
 70
     1
 10
0.0
 20
0.0
 30
0.0
  3
*D8
  1

  0
LINE
  5
2688
330
23EA
100
AcDbEntity
  8
AM_5
 62
     3
100
AcDbLine
 10
-2.000000000000002
 20
3.550000748517242
 30
0.0
 11
9.055921024858001
 21
3.550000748517273
 31
0.0
  0
LINE
  5
2689
330
23EA
100
AcDbEntity
  8
AM_5
 62
     3
100
AcDbLine
 10
-2.000000462318705
 20
-3.549999251483051
 30
0.0
 11
9.055921024858022
 21
-3.54999925148302
 31
0.0
  0
LINE
  5
268A
330
23EA
100
AcDbEntity
  8
AM_5
 62
     3
100
AcDbLine
 10
8.555921024858005
 20
2.300000748517272
 30
0.0
 11
8.555921024858019
 21
-2.299999251483021
 31
0.0
  0
INSERT
  5
268B
330
23EA
100
AcDbEntity
  8
AM_5
 62
     3
100
AcDbBlockReference
  2
_OPEN30
 10
8.555921024858001
 20
3.550000748517272
 30
0.0
 41
1.25
 42
1.25
 43
1.25
 50
90.00000000000017
  0
INSERT
  5
268C
330
23EA
100
AcDbEntity
  8
AM_5
 62
     3
100
AcDbBlockReference
  2
_OPEN30
 10
8.555921024858022
 20
-3.549999251483021
 30
0.0
 41
1.25
 42
1.25
 43
1.25
 50
270.0000000000001
  0
MTEXT
  5
268D
330
23EA
100
AcDbEntity
  8
AM_5
 62
     2
100
AcDbMText
 10
6.855921024858012
 20
0.0000007485171202
 30
0.0
 40
1.9
 41
0.0
 71
     5
 72
     1
  1
%%c7.1
 11
-0.0000000000000028
 21
1.0
 31
0.0
1001
ACAD
1000
MTEXTBEGIN
1070
    73
1070
     1
1070
    44
1040
1.0
1070
    74
1070
     0
1000
MTEXTEND
  0
POINT
  5
268E
330
23EA
100
AcDbEntity
  8
DEFPOINTS
 62
     0
100
AcDbPoint
 10
-1.999999999999991
 20
3.550000748517248
 30
0.0
  0
POINT
  5
268F
330
23EA
100
AcDbEntity
  8
DEFPOINTS
 62
     0
100
AcDbPoint
 10
-2.000000462318716
 20
-3.549999251483045
 30
0.0
  0
POINT
  5
2690
330
23EA
100
AcDbEntity
  8
DEFPOINTS
 62
     0
100
AcDbPoint
 10
8.555921024858012
 20
-3.549999251483048
 30
0.0
  0
ENDBLK
  5
23F5
330
23EA
100
AcDbEntity
  8
0
100
AcDbBlockEnd
  0
BLOCK
  5
2510
330
24FF
100
AcDbEntity
  8
0
100
AcDbBlockBegin
  2
A$C0A020B99
 70
     0
 10
0.0
 20
0.0
 30
0.0
  3
A$C0A020B99
  1

  0
LINE
  5
2500
330
24FF
100
AcDbEntity
  8
AM_7
100
AcDbLine
 10
-74.38224513128917
 20
24.85810575281464
 30
0.0
 11
29.76325868653128
 21
24.85810575281515
 31
0.0
1001
GENIUS_GENODEF_13
1002
{
1000
HIER
1070
     0
1002
}
1002
{
1000
MANEDIT
1070
     0
1002
}
1002
{
1000
NOSEL
1070
     0
1002
}
1002
{
1000
BEHIND
1070
     0
1002
}
1002
{
1000
REACTOR
1002
}
1001
GENIUS_GENOBJ-N-CEN_13
1002
{
1000
OWNER
1000
GEN
1002
}
  0
ELLIPSE
  5
2501
330
24FF
100
AcDbEntity
  8
AM_0
 48
0.5
100
AcDbEllipse
 10
31.31258671685181
 20
24.19124746588331
 30
0.0
 11
-1.058250394791793
 21
4.682134020979026
 31
0.0
210
0.0
220
0.0
230
1.0
 40
0.9999502701631778
 41
1.475699570616931
 42
1.85608536665152
  0
ELLIPSE
  5
2502
330
24FF
100
AcDbEntity
  8
AM_0
 48
0.5
100
AcDbEllipse
 10
22.83091094204556
 20
30.56443632065709
 30
0.0
 11
-4.677330502882373
 21
6.340044255684268
 31
0.0
210
0.0
220
0.0
230
0.9999999999999998
 40
0.5700206404056103
 41
3.14653163117385
 42
3.335796059594246
  0
SPLINE
  5
2503
330
24FF
100
AcDbEntity
  8
AM_0
 48
0.5
100
AcDbSpline
210
0.0
220
0.0
230
1.0
 70
     8
 71
     3
 72
    10
 73
     6
 74
     0
 42
0.0000000001
 43
0.0000000001
 40
0.0
 40
0.0
 40
0.0
 40
0.0
 40
2.69986029516136
 40
4.147722969032201
 40
6.285750005020438
 40
6.285750005020438
 40
6.285750005020438
 40
6.285750005020438
 10
24.90918248101182
 20
25.40109014776791
 30
0.0
 10
25.26903794851445
 20
25.12236941683357
 30
0.0
 10
25.82187425295859
 20
24.69417823238092
 30
0.0
 10
27.12925784913157
 20
24.90147308605115
 30
0.0
 10
26.88303949037575
 20
25.59966958240437
 30
0.0
 10
26.72035413044552
 20
26.02524185080496
 30
0.0
  0
ELLIPSE
  5
2504
330
24FF
100
AcDbEntity
  8
AM_0
 48
0.5
100
AcDbEllipse
 10
27.3158597271058
 20
24.07626295355387
 30
0.0
 11
-0.4330139403188403
 21
0.2500000007491372
 31
0.0
210
0.0
220
0.0
230
1.0
 40
0.5000000000001405
 41
4.483836531792615
 42
7.627276873122125
  0
ELLIPSE
  5
2505
330
24FF
100
AcDbEntity
  8
AM_0
 48
0.5
100
AcDbEllipse
 10
27.3158597271058
 20
24.07626295355387
 30
0.0
 11
-0.0868224929270402
 21
0.4924030382084758
 31
0.0
210
0.0
220
0.0
230
1.0
 40
0.4999981224495358
 41
1.805862328724633
 42
4.941204218436607
  0
ELLIPSE
  5
2506
330
24FF
100
AcDbEntity
  8
AM_0
 48
0.5
100
AcDbEllipse
 10
30.12478917046536
 20
28.45979070929133
 30
0.0
 11
-4.275403961277681
 21
4.275403961277646
 31
0.0
210
0.0
220
0.0
230
1.0
 40
0.9999999999999943
 41
1.315765716631529
 42
1.723886646826419
  0
ELLIPSE
  5
2507
330
24FF
100
AcDbEntity
  8
AM_0
 48
0.5
100
AcDbEllipse
 10
23.01653569146137
 20
29.89319372442792
 30
0.0
 11
5.114728103641502
 21
5.114728103641544
 31
0.0
210
0.0
220
0.0
230
0.9999999999999998
 40
0.9999999999999122
 41
4.437574142215648
 42
4.526068919895139
  0
ELLIPSE
  5
2508
330
24FF
100
AcDbEntity
  8
AM_0
 48
0.5
100
AcDbEllipse
 10
32.4909394524757
 20
21.22800122998464
 30
0.0
 11
0.8512848445242719
 21
-5.756478471581333
 31
0.0
210
0.0
220
0.0
230
-1.0
 40
0.8991184301885631
 41
1.890270824098471
 42
2.197796108596753
  0
ELLIPSE
  5
2509
330
24FF
100
AcDbEntity
  8
AM_0
 48
0.5
100
AcDbEllipse
 10
32.49093945247566
 20
28.48821027564568
 30
0.0
 11
0.8512848445242168
 21
5.756478471581342
 31
0.0
210
0.0
220
0.0
230
1.0
 40
0.8991184301885631
 41
1.890270824098471
 42
2.197796108596753
  0
SPLINE
  5
250A
330
24FF
100
AcDbEntity
  8
AM_0
 48
0.5
100
AcDbSpline
210
0.0
220
0.0
230
1.0
 70
     8
 71
     3
 72
    25
 73
    21
 74
     0
 42
0.0000000001
 43
0.0000000001
 40
6.846175049578289
 40
6.846175049578289
 40
6.846175049578289
 40
6.846175049578289
 40
7.604337694224321
 40
8.711974558287883
 40
9.814980593243754
 40
10.91239053451967
 40
12.0033633515982
 40
13.08720139956839
 40
14.16337181880432
 40
15.23152222380919
 40
16.29148850140128
 40
17.34331105512262
 40
18.38723020264746
 40
19.42369128463655
 40
20.45333379090873
 40
21.47697865721768
 40
22.49561244472435
 40
23.5103574802404
 40
24.52244778960836
 40
25.53320666051913
 40
25.53320666051913
 40
25.53320666051913
 40
25.53320666051913
 10
24.90910164451512
 20
25.40112577953142
 30
0.0
 10
24.79424352306328
 20
25.45380044405106
 30
0.0
 10
24.51134183391152
 20
25.58290299852883
 30
0.0
 10
24.0599761550651
 20
25.78564048375096
 30
0.0
 10
23.55491585246049
 20
26.0067821053708
 30
0.0
 10
23.04983015004523
 20
26.2208583130174
 30
0.0
 10
22.54471470819184
 20
26.42655284577731
 30
0.0
 10
22.03956389866776
 20
26.62259667159859
 30
0.0
 10
21.53437305041471
 20
26.80778080778959
 30
0.0
 10
21.02913982466514
 20
26.98096716379529
 30
0.0
 10
20.52385799824182
 20
27.14107794561286
 30
0.0
 10
20.01852825535664
 20
27.28713134791261
 30
0.0
 10
19.5131469663321
 20
27.41821599899339
 30
0.0
 10
19.00771591468202
 20
27.53352063638733
 30
0.0
 10
18.50223707487552
 20
27.63233852516381
 30
0.0
 10
17.99671325966477
 20
27.71401465452058
 30
0.0
 10
17.49115233479734
 20
27.77817521464926
 30
0.0
 10
16.98555987206773
 20
27.82394874595782
 30
0.0
 10
16.47994407876512
 20
27.85275299298867
 30
0.0
 10
16.14278380142226
 20
27.85632254014037
 30
0.0
 10
15.97431462212535
 20
27.85810613897902
 30
0.0
  0
LINE
  5
250B
330
24FF
100
AcDbEntity
  8
AM_0
 48
0.5
100
AcDbLine
 10
27.30971268062518
 20
22.3092483259079
 30
0.0
 11
27.11777775689078
 21
21.85810613897888
 31
0.0
  0
LINE
  5
250C
330
24FF
100
AcDbEntity
  8
AM_0
 48
0.5
100
AcDbLine
 10
28.11775486871086
 20
24.85810575281511
 30
0.0
 11
26.73531430169081
 21
26.01001501349039
 31
0.0
  0
LINE
  5
250D
330
24FF
100
AcDbEntity
  8
AM_0
100
AcDbLine
 10
27.80019266734598
 20
25.73060073033737
 30
0.0
 11
28.11775486871082
 21
24.85810575281514
 31
0.0
  0
LINE
  5
250E
330
24FF
100
AcDbEntity
  8
AM_0
100
AcDbLine
 10
28.11775486871082
 20
24.85810575281514
 30
0.0
 11
27.80019266734599
 21
23.9856107752929
 31
0.0
  0
LINE
  5
250F
330
24FF
100
AcDbEntity
  8
AM_0
 48
0.5
100
AcDbLine
 10
27.30971268062516
 20
27.40696317972237
 30
0.0
 11
27.11775486871083
 21
27.85810613897888
 31
0.0
  0
ENDBLK
  5
2511
330
24FF
100
AcDbEntity
  8
0
100
AcDbBlockEnd
  0
BLOCK
  5
259C
330
258C
100
AcDbEntity
  8
0
100
AcDbBlockBegin
  2
*D10
 70
     1
 10
0.0
 20
0.0
 30
0.0
  3
*D10
  1

  0
LINE
  5
267D
330
258C
100
AcDbEntity
  8
AM_5
100
AcDbLine
 10
0.1710100716627608
 20
-0.4698463103929546
 30
0.0
 11
4.820130796736513
 21
-13.24320052285225
 31
0.0
  0
LINE
  5
267E
330
258C
100
AcDbEntity
  8
AM_5
100
AcDbLine
 10
0.1710100716627526
 20
0.4698463103929626
 30
0.0
 11
4.820130796736282
 21
13.24320052285234
 31
0.0
  0
ARC
  5
267F
330
258C
100
AcDbEntity
  8
AM_5
100
AcDbCircle
 10
-0.0000000000000657
 20
0.0000000000000025
 30
0.0
 40
13.59311963286066
100
AcDbArc
 50
295.2706799729924
 51
64.72932002700855
  0
INSERT
  5
2680
330
258C
100
AcDbEntity
  8
AM_5
100
AcDbBlockReference
  2
_OPEN30
 10
4.649120725073687
 20
-12.7733542124593
 30
0.0
 41
1.25
 42
1.25
 43
1.25
 50
202.6353399864956
  0
INSERT
  5
2681
330
258C
100
AcDbEntity
  8
AM_5
100
AcDbBlockReference
  2
_OPEN30
 10
4.649120725073464
 20
12.77335421245938
 30
0.0
 41
1.25
 42
1.25
 43
1.25
 50
157.3646600135052
  0
MTEXT
  5
2682
330
258C
100
AcDbEntity
  8
AM_5
 62
     2
100
AcDbMText
 10
12.0431196328606
 20
0.0000000000001189
 30
0.0
 40
1.6
 41
0.0
 71
     5
 72
     1
  1
140°
  7
ASAMI
 11
-0.0000000000000028
 21
1.0
 31
0.0
1001
ACAD
1000
MTEXTBEGIN
1070
    73
1070
     1
1070
    44
1040
1.0
1070
    74
1070
     0
1000
MTEXTEND
  0
POINT
  5
2683
330
258C
100
AcDbEntity
  8
DEFPOINTS
 62
     0
100
AcDbPoint
 10
12.48142138964305
 20
-5.383959643925755
 30
0.0
  0
POINT
  5
2684
330
258C
100
AcDbEntity
  8
DEFPOINTS
 62
     0
100
AcDbPoint
 10
-0.0000000000000657
 20
0.0000000000000025
 30
0.0
  0
POINT
  5
2685
330
258C
100
AcDbEntity
  8
DEFPOINTS
 62
     0
100
AcDbPoint
 10
-0.3757819382817846
 20
1.032452390067979
 30
0.0
  0
POINT
  5
2686
330
258C
100
AcDbEntity
  8
DEFPOINTS
 62
     0
100
AcDbPoint
 10
-0.0000000000000657
 20
0.0000000000000025
 30
0.0
  0
POINT
  5
2687
330
258C
100
AcDbEntity
  8
DEFPOINTS
 62
     0
100
AcDbPoint
 10
-0.3757819382817722
 20
-1.032452390067978
 30
0.0
  0
ENDBLK
  5
259D
330
258C
100
AcDbEntity
  8
0
100
AcDbBlockEnd
  0
ENDSEC
  0
SECTION
  2
ENTITIES
  0
LINE
  5
C30
330
1F
100
AcDbEntity
  8
AM_0
 48
0.5
100
AcDbLine
 10
-119.9999999999999
 20
-3.750000000000101
 30
0.0
 11
-119.9999999999998
 21
3.749999999999897
 31
0.0
  0
LINE
  5
C9F
330
1F
100
AcDbEntity
  8
AM_7
100
AcDbLine
 10
-121.9999999999998
 20
-0.0000000000001033
 30
0.0
 11
1.555920024858144
 21
0.0000000000000013
 31
0.0
1001
GENIUS_GENODEF_13
1002
{
1000
HIER
1070
     0
1002
}
1002
{
1000
MANEDIT
1070
     0
1002
}
1002
{
1000
NOSEL
1070
     0
1002
}
1002
{
1000
BEHIND
1070
     0
1002
}
1002
{
1000
REACTOR
1002
}
1001
GENIUS_GENOBJ-N-CEN_13
1002
{
1000
OWNER
1000
GEN
1002
}
  0
DIMENSION
  5
CC6
330
1F
100
AcDbEntity
  8
AM_5
100
AcDbDimension
  2
*D5
 10
-1.99999999999999
 20
-16.0000023696538
 30
0.0
 11
-60.99999999999994
 21
-14.3000023696538
 31
0.0
 70
    32
  1
<>
  3
AM_JIS$0
100
AcDbAlignedDimension
 13
-119.9999999999998
 23
-3.764324189635425
 33
0.0
 14
-1.999999999999989
 24
-3.550000748519251
 34
0.0
 50
0.0000000000001132
100
AcDbRotatedDimension
1001
GENIUS_GENDTOL_13
1000

1000
h7
1000

1040
0.0
1001
ACAD
1000
DSTYLE
1002
{
1070
   271
1070
     0
1002
}
  0
DIMENSION
  5
DF5
330
1F
100
AcDbEntity
  8
AM_5
100
AcDbDimension
  2
*D6
 10
-1.99999999999999
 20
-11.00000236965372
 30
0.0
 11
-33.99999999999994
 21
-9.300002369653721
 31
0.0
 70
    32
  1
<>
  3
AM_JIS$0
100
AcDbAlignedDimension
 13
-65.9999999999999
 23
-4.000001369653888
 33
0.0
 14
-1.999999999999989
 24
-3.550000748519251
 34
0.0
 50
0.0000000000001527
100
AcDbRotatedDimension
1001
GENIUS_GENDTOL_13
1000

1000
h7
1000

1040
0.0
1001
ACAD
1000
DSTYLE
1002
{
1070
   271
1070
     0
1002
}
  0
TEXT
  5
19BD
330
1F
100
AcDbEntity
  8
AM_6
100
AcDbText
 10
-69.35758848938785
 20
-26.97293740283332
 30
0.0
 40
2.5
  1
MDW071LHK
 50
0.0000000000001527
 72
     4
 11
-58.76235039414975
 21
-25.72293740283329
 31
0.0
100
AcDbText
  0
ARC
  5
1BE8
330
1F
100
AcDbEntity
  8
AM_11
 48
0.5
100
AcDbCircle
 10
-65.1857889811198
 20
17.66787048062784
 30
0.0
 40
19.53452809651666
100
AcDbArc
 50
244.7482808787518
 51
295.2516148471758
  0
ARC
  5
1BE9
330
1F
100
AcDbEntity
  8
AM_11
 48
0.5
100
AcDbCircle
 10
-65.18578898111982
 20
-17.66785848258815
 30
0.0
 40
19.53452809651666
100
AcDbArc
 50
64.74833051131179
 51
115.2516644797366
  0
LINE
  5
1CA9
330
1F
100
AcDbEntity
  8
AM_0
 48
0.5
100
AcDbLine
 10
-65.9999999999999
 20
-4.000001369653889
 30
0.0
 11
-65.9999999999999
 21
4.000029622605968
 31
0.0
  0
LINE
  5
1E12
330
1F
100
AcDbEntity
  8
AM_0
 48
0.5
100
AcDbLine
 10
-119.7499999999998
 20
3.999999999999897
 30
0.0
 11
-65.9999999999999
 21
3.999999999999942
 31
0.0
1001
GENIUS_GENODEF_13
1002
{
1000
HIER
1070
     0
1002
}
1002
{
1000
MANEDIT
1070
     0
1002
}
1002
{
1000
NOSEL
1070
     0
1002
}
1002
{
1000
BEHIND
1070
     0
1002
}
1002
{
1000
REACTOR
1002
}
1001
GENIUS_GENOBJ-N-CEN_13
1002
{
1000
OWNER
1000
GEN
1002
}
  0
LINE
  5
1E16
330
1F
100
AcDbEntity
  8
AM_0
 48
0.5
100
AcDbLine
 10
-119.7499999999999
 20
-4.000000000000101
 30
0.0
 11
-65.9999999999999
 21
-4.000000000000056
 31
0.0
1001
GENIUS_GENODEF_13
1002
{
1000
HIER
1070
     0
1002
}
1002
{
1000
MANEDIT
1070
     0
1002
}
1002
{
1000
NOSEL
1070
     0
1002
}
1002
{
1000
BEHIND
1070
     0
1002
}
1002
{
1000
REACTOR
1002
}
1001
GENIUS_GENOBJ-N-CEN_13
1002
{
1000
OWNER
1000
GEN
1002
}
  0
LINE
  5
1E1D
330
1F
100
AcDbEntity
  8
AM_0
 48
0.5
100
AcDbLine
 10
-119.9999999999998
 20
3.749999999999897
 30
0.0
 11
-119.7499999999998
 21
3.999999999999897
 31
0.0
1001
GENIUS_GENFIL_13
1070
     0
1040
0.25
1040
0.25
1040
20.0
1040
0.0
1002
{
1002
}
1001
GENIUS_GENODEF_13
1002
{
1000
HIER
1070
     0
1002
}
1002
{
1000
MANEDIT
1070
     0
1002
}
1002
{
1000
NOSEL
1070
     0
1002
}
1002
{
1000
BEHIND
1070
     0
1002
}
1002
{
1000
REACTOR
1002
}
1001
GENIUS_GENOBJ-N-CHA_13
1002
{
1000
OWNER
1000
GEN
1002
}
  0
LINE
  5
1E21
330
1F
100
AcDbEntity
  8
AM_0
 48
0.5
100
AcDbLine
 10
-119.9999999999999
 20
-3.750000000000101
 30
0.0
 11
-119.7499999999999
 21
-4.000000000000101
 31
0.0
1001
GENIUS_GENFIL_13
1070
     0
1040
0.25
1040
0.25
1040
20.0
1040
0.0
1002
{
1002
}
1001
GENIUS_GENODEF_13
1002
{
1000
HIER
1070
     0
1002
}
1002
{
1000
MANEDIT
1070
     0
1002
}
1002
{
1000
NOSEL
1070
     0
1002
}
1002
{
1000
BEHIND
1070
     0
1002
}
1002
{
1000
REACTOR
1002
}
1001
GENIUS_GENOBJ-N-CHA_13
1002
{
1000
OWNER
1000
GEN
1002
}
  0
LINE
  5
1E22
330
1F
100
AcDbEntity
  8
AM_0
100
AcDbLine
 10
-119.7499999999999
 20
-4.000000000000101
 30
0.0
 11
-119.7499999999998
 21
3.999999999999897
 31
0.0
  0
LINE
  5
1E25
330
1F
100
AcDbEntity
  8
AM_0
100
AcDbLine
 10
-65.9999999999999
 20
-4.000001369653889
 30
0.0
 11
-65.22057346781238
 21
-3.549999251481907
 31
0.0
  0
LINE
  5
1E26
330
1F
100
AcDbEntity
  8
AM_0
100
AcDbLine
 10
-65.9999999999999
 20
3.999999999999942
 30
0.0
 11
-65.22057843306533
 21
3.550000748518083
 31
0.0
  0
ARC
  5
1F66
330
1F
100
AcDbEntity
  8
AM_11
 48
0.5
100
AcDbCircle
 10
-81.8524191904159
 20
17.66787048062779
 30
0.0
 40
19.53452809651666
100
AcDbArc
 50
244.7482808787518
 51
295.2516148471758
  0
ARC
  5
1F67
330
1F
100
AcDbEntity
  8
AM_11
 48
0.5
100
AcDbCircle
 10
-81.85241919041592
 20
-17.66785848258821
 30
0.0
 40
19.53452809651666
100
AcDbArc
 50
64.74833051131179
 51
115.2516644797366
  0
ARC
  5
1F68
330
1F
100
AcDbEntity
  8
AM_11
 48
0.5
100
AcDbCircle
 10
-98.519049399712
 20
17.66787048062773
 30
0.0
 40
19.53452809651666
100
AcDbArc
 50
244.7482808787518
 51
295.2516148471758
  0
ARC
  5
1F69
330
1F
100
AcDbEntity
  8
AM_11
 48
0.5
100
AcDbCircle
 10
-98.51904939971204
 20
-17.66785848258826
 30
0.0
 40
19.53452809651666
100
AcDbArc
 50
64.74833051131179
 51
115.2516644797366
  0
ARC
  5
1F6A
330
1F
100
AcDbEntity
  8
AM_11
 48
0.5
100
AcDbCircle
 10
-115.1856796090081
 20
17.66787048062767
 30
0.0
 40
19.53452809651666
100
AcDbArc
 50
255.732350805167
 51
295.2516148471758
  0
ARC
  5
1F6B
330
1F
100
AcDbEntity
  8
AM_11
 48
0.5
100
AcDbCircle
 10
-115.1856796090081
 20
-17.66785848258832
 30
0.0
 40
19.53452809651666
100
AcDbArc
 50
64.74833051131179
 51
104.2676491948328
  0
LINE
  5
2202
330
1F
100
AcDbEntity
  8
AM_0
 48
0.5
100
AcDbLine
 10
-4.113971477865014
 20
3.550000748517281
 30
0.0
 11
-1.999999999999991
 21
3.550000748517248
 31
0.0
  0
LINE
  5
2204
330
1F
100
AcDbEntity
  8
AM_0
 48
0.5
100
AcDbLine
 10
-4.113971477865133
 20
-3.549999251482716
 30
0.0
 11
-2.000000462318716
 21
-3.549999251483045
 31
0.0
  0
LINE
  5
2206
330
1F
100
AcDbEntity
  8
AM_11
 48
0.5
100
AcDbLine
 10
-16.01954627644875
 20
3.550000748517462
 30
0.0
 11
-4.113971477865014
 21
3.550000748517281
 31
0.0
  0
LINE
  5
2207
330
1F
100
AcDbEntity
  8
AM_11
 48
0.5
100
AcDbLine
 10
-16.01954627644887
 20
-3.549999251482537
 30
0.0
 11
-4.113971477865133
 21
-3.549999251482716
 31
0.0
  0
LINE
  5
2208
330
1F
100
AcDbEntity
  8
AM_11
 48
0.5
100
AcDbLine
 10
-38.51923061111643
 20
-3.549999251482269
 30
0.0
 11
-26.6136558125342
 21
-3.550503593408257
 31
0.0
  0
LINE
  5
2209
330
1F
100
AcDbEntity
  8
AM_11
 48
0.5
100
AcDbLine
 10
-36.97602021297583
 20
3.5505050904436
 30
0.0
 11
-29.37833881765721
 21
3.550000748517666
 31
0.0
  0
LINE
  5
220A
330
1F
100
AcDbEntity
  8
AM_0
 48
0.5
100
AcDbLine
 10
-53.86702228200313
 20
1.79871986854333
 30
0.0
 11
-61.99999999999999
 21
-0.2642795154580778
 31
0.0
  0
LINE
  5
220B
330
1F
100
AcDbEntity
  8
AM_11
 48
0.5
100
AcDbLine
 10
-59.47305978347125
 20
3.55000074851805
 30
0.0
 11
-51.87812019002316
 21
3.550000748517935
 31
0.0
  0
LINE
  5
220C
330
1F
100
AcDbEntity
  8
AM_11
 48
0.5
100
AcDbLine
 10
-60.63464327116165
 20
-3.54999925148193
 30
0.0
 11
-51.87812019002326
 21
-3.549999251482064
 31
0.0
  0
LINE
  5
220D
330
1F
100
AcDbEntity
  8
AM_0
100
AcDbLine
 10
-51.87812019002316
 20
3.550000748517935
 30
0.0
 11
-36.97602021297583
 21
3.5505050904436
 31
0.0
  0
LINE
  5
220E
330
1F
100
AcDbEntity
  8
AM_0
 48
0.5
100
AcDbLine
 10
-51.87812495841701
 20
-3.549999251482018
 30
0.0
 11
-38.51923061111886
 21
-3.549999251482192
 31
0.0
  0
LINE
  5
220F
330
1F
100
AcDbEntity
  8
AM_0
100
AcDbLine
 10
-65.22057433889782
 20
-3.549999251481907
 30
0.0
 11
-65.22057433889759
 21
3.550000748518083
 31
0.0
  0
LINE
  5
2210
330
1F
100
AcDbEntity
  8
AM_0
100
AcDbLine
 10
-60.63464327116165
 20
-3.549999251481931
 30
0.0
 11
-65.22057433889782
 21
-3.549999251481907
 31
0.0
  0
LINE
  5
2211
330
1F
100
AcDbEntity
  8
AM_0
100
AcDbLine
 10
-59.47305978347125
 20
3.55000074851805
 30
0.0
 11
-65.22057843306533
 21
3.550000748518083
 31
0.0
  0
LINE
  5
2212
330
1F
100
AcDbEntity
  8
AM_0
 48
0.5
100
AcDbLine
 10
-29.37834907185876
 20
3.550000748517666
 30
0.0
 11
-16.01954627644875
 21
3.550000748517462
 31
0.0
  0
LINE
  5
2213
330
1F
100
AcDbEntity
  8
AM_0
 48
0.5
100
AcDbLine
 10
-26.6136558125342
 20
-3.549999251482448
 30
0.0
 11
-16.01954627644887
 21
-3.549999251482537
 31
0.0
  0
SPLINE
  5
2215
330
1F
100
AcDbEntity
  8
AM_0
100
AcDbSpline
210
0.0
220
0.0
230
1.0
 70
     8
 71
     3
 72
    23
 73
    19
 74
     0
 42
0.0000000001
 43
0.0000000001
 40
16.03460024169435
 40
16.03460024169435
 40
16.03460024169435
 40
16.03460024169435
 40
16.35212704903564
 40
17.38177054169784
 40
18.41822485651776
 40
19.46214173629503
 40
20.51396345435107
 40
21.57393551351153
 40
22.64208202342361
 40
23.7182574881101
 40
24.80209208578934
 40
25.89306333925047
 40
26.99048218457928
 40
28.09348763352352
 40
29.20111863782268
 40
30.31232390128032
 40
31.42594612798585
 40
32.5407912310448
 40
32.5407912310486
 40
32.5407912310486
 40
32.5407912310486
 10
-36.97602021297583
 20
3.550505090443601
 30
0.0
 10
-36.91108822252826
 20
3.538520915597235
 30
0.0
 10
-36.63587791486756
 20
3.486333207161172
 30
0.0
 10
-36.15109199411132
 20
3.384079357329104
 30
0.0
 10
-35.52329295763639
 20
3.23202900086603
 30
0.0
 10
-34.89607705043619
 20
3.061301794786523
 30
0.0
 10
-34.26940720982256
 20
2.872885821079422
 30
0.0
 10
-33.64326119417232
 20
2.667831503016216
 30
0.0
 10
-33.01760281374642
 20
2.447311017553059
 30
0.0
 10
-32.39238850007326
 20
2.212607738600922
 30
0.0
 10
-31.76758272623001
 20
1.965050777144438
 30
0.0
 10
-31.1431353992722
 20
1.706080609460258
 30
0.0
 10
-30.5189959147269
 20
1.437202482050596
 30
0.0
 10
-29.89512268796044
 20
1.159962331427121
 30
0.0
 10
-29.27146352025763
 20
0.8759722710992186
 30
0.0
 10
-28.64796064757136
 20
0.586890594667878
 30
0.0
 10
-28.02456329916712
 20
0.2943924521674624
 30
0.0
 10
-27.60907669643785
 20
0.0982884412540629
 30
0.0
 10
-27.40122008931365
 20
0.0001813108540539
 30
0.0
  0
SPLINE
  5
2216
330
1F
100
AcDbEntity
  8
AM_0
100
AcDbSpline
210
0.0
220
0.0
230
1.0
 70
     8
 71
     3
 72
    11
 73
     7
 74
     0
 42
0.0000000001
 43
0.0000000001
 40
11.27226913003534
 40
11.27226913003534
 40
11.27226913003534
 40
11.2722691300354
 40
12.28301561507924
 40
13.29510212255852
 40
14.30984805882082
 40
15.18258238371378
 40
15.18258238371378
 40
15.18258238371378
 40
15.18258238371378
 10
-38.51923061111792
 20
-3.54999925148227
 30
0.0
 10
-38.72901312226935
 20
-3.532624519859002
 30
0.0
 10
-39.14818245486465
 20
-3.490561050778272
 30
0.0
 10
-39.7747719414685
 20
-3.405708629268031
 30
0.0
 10
-40.36941641274867
 20
-3.304361715479216
 30
0.0
 10
-40.75399755184249
 20
-3.226453326572111
 30
0.0
 10
-40.93122349167483
 20
-3.187968734359244
 30
0.0
  0
SPLINE
  5
2217
330
1F
100
AcDbEntity
  8
AM_0
100
AcDbSpline
210
0.0
220
0.0
230
1.0
 70
     8
 71
     3
 72
    17
 73
    13
 74
     0
 42
0.0000000001
 43
0.0000000001
 40
1.580019955310467
 40
1.580019955310467
 40
1.580019955310467
 40
1.580019955310467
 40
2.030549285115227
 40
3.082371838836284
 40
4.126290986361125
 40
5.162752068350215
 40
6.192395305374981
 40
7.216039564037012
 40
8.234688489606833
 40
9.249433870634691
 40
10.26152376260694
 40
11.27226744710342
 40
11.27226744710342
 40
11.27226744710342
 40
11.27226744710352
 10
-32.56597877892021
 20
-2.620003786878137
 30
0.0
 10
-32.65539865008209
 20
-2.646987657055657
 30
0.0
 10
-32.95409106145902
 20
-2.735430895773533
 30
0.0
 10
-33.46403308029762
 20
-2.874157280256514
 30
0.0
 10
-34.09567170863921
 20
-3.029512427563697
 30
0.0
 10
-34.72748422650381
 20
-3.165893620140896
 30
0.0
 10
-35.35932569379742
 20
-3.282842859291337
 30
0.0
 10
-35.99123599908649
 20
-3.37950945060162
 30
0.0
 10
-36.62318996124527
 20
-3.45534176045921
 30
0.0
 10
-37.25518327391649
 20
-3.509848370122429
 30
0.0
 10
-37.88720036642156
 20
-3.54267841421492
 30
0.0
 10
-38.30864735876857
 20
-3.549999271795559
 30
0.0
 10
-38.51923061111788
 20
-3.54999925148227
 30
0.0
  0
SPLINE
  5
2218
330
1F
100
AcDbEntity
  8
AM_0
100
AcDbSpline
210
0.0
220
0.0
230
1.0
 70
     8
 71
     3
 72
    22
 73
    18
 74
     0
 42
0.0000000001
 43
0.0000000001
 40
17.17441611292
 40
17.17441611292
 40
17.17441611292
 40
17.17441611292
 40
17.38177636558528
 40
18.41823744757437
 40
19.46215659509824
 40
20.51397914882054
 40
21.57394542641293
 40
22.64209583141747
 40
23.71826625065247
 40
24.80210429862395
 40
25.8930771157021
 40
26.99048705697709
 40
28.09349309193389
 40
29.20112995599786
 40
30.31233024745139
 40
31.42594771747373
 40
32.5407895042663
 40
32.54078950426994
 40
32.54078950426994
 40
32.54078950426994
 10
-40.93149989453934
 20
-3.187924945136389
 30
0.0
 10
-40.97382066005346
 20
-3.179707043326673
 30
0.0
 10
-41.22751053659442
 20
-3.129650905164874
 30
0.0
 10
-41.69225609504983
 20
-3.029281833199036
 30
0.0
 10
-42.32398265828364
 20
-2.874165237945463
 30
0.0
 10
-42.95564484990673
 20
-2.701335313014757
 30
0.0
 10
-43.58724712941874
 20
-2.511870905652048
 30
0.0
 10
-44.21878866251702
 20
-2.306933712801113
 30
0.0
 10
-44.8502772227455
 20
-2.087799153313437
 30
0.0
 10
-45.48171573407372
 20
-1.855813957684929
 30
0.0
 10
-46.11311003880942
 20
-1.612408765905712
 30
0.0
 10
-46.74446715765698
 20
-1.359085233833645
 30
0.0
 10
-47.37579257041522
 20
-1.097401055528134
 30
0.0
 10
-48.00709263239519
 20
-0.8289661562734238
 30
0.0
 10
-48.63837293952245
 20
-0.5554311068491006
 30
0.0
 10
-49.26964284366574
 20
-0.2784837663579932
 30
0.0
 10
-49.69040683927964
 20
-0.0927410597326896
 30
0.0
 10
-49.90090442398551
 20
0.0001813108555979
 30
0.0
  0
SPLINE
  5
2219
330
1F
100
AcDbEntity
  8
AM_0
100
AcDbSpline
210
0.0
220
0.0
230
1.0
 70
     8
 71
     3
 72
    46
 73
    42
 74
     0
 42
0.0000000001
 43
0.0000000001
 40
0.0
 40
0.0
 40
0.0
 40
0.0
 40
1.348332046947654
 40
2.024828967632893
 40
2.703918159304094
 40
3.386347665078122
 40
4.072776489761951
 40
4.763750544421345
 40
5.459696642770595
 40
6.160921452191748
 40
6.867565637253344
 40
7.579665907256597
 40
8.297112853413899
 40
9.019671552060666
 40
9.746986763446125
 40
10.47859339096365
 40
11.21393074760088
 40
11.95235532364327
 40
12.69315551794651
 40
13.43556823304427
 40
14.1787950170388
 40
14.92202180103393
 40
15.66443451613169
 40
16.40523471043432
 40
17.14365928647669
 40
17.87899664311455
 40
18.61060327063121
 40
19.33791848201689
 40
20.06048192311554
 40
20.77792886927282
 40
21.49002913927608
 40
22.19667332433747
 40
22.89788836015233
 40
23.59383445850157
 40
24.28480851316097
 40
24.97123685067575
 40
25.65366676154837
 40
26.33276604526151
 40
27.00926273560554
 40
27.68398960851752
 40
28.35781868496899
 40
28.35781868496899
 40
28.35781868496899
 40
28.35781868496899
 10
-24.84443736770982
 20
-3.549999251482478
 30
0.0
 10
-25.26590494460572
 20
-3.541912077064224
 30
0.0
 10
-25.89883491207832
 20
-3.529767334924891
 30
0.0
 10
-26.74046949078662
 20
-3.454994388680892
 30
0.0
 10
-27.37242729394364
 20
-3.379603368381522
 30
0.0
 10
-28.0043310797525
 20
-3.282814104679389
 30
0.0
 10
-28.63617918356228
 20
-3.165913639471884
 30
0.0
 10
-29.26796835944537
 20
-3.029460856572613
 30
0.0
 10
-29.89969754924978
 20
-2.874344659242453
 30
0.0
 10
-30.53136394155757
 20
-2.701517483895134
 30
0.0
 10
-31.16296879891828
 20
-2.512051268763999
 30
0.0
 10
-31.79451042250692
 20
-2.307114329058665
 30
0.0
 10
-32.42599895837759
 20
-2.087979701307662
 30
0.0
 10
-33.05743747569074
 20
-1.855994522917092
 30
0.0
 10
-33.68883178111252
 20
-1.612589331183086
 30
0.0
 10
-34.32018889109477
 20
-1.359265781367547
 30
0.0
 10
-34.95151433888314
 20
-1.097581674522155
 30
0.0
 10
-35.58281426886721
 20
-0.8291465056545847
 30
0.0
 10
-36.21409537462587
 20
-0.5556123359371115
 30
0.0
 10
-36.84536342295325
 20
-0.2786612082358173
 30
0.0
 10
-37.47662616472993
 20
0.0000007484613327
 30
0.0
 10
-38.10788890636794
 20
0.278662705497111
 30
0.0
 10
-38.73915695511128
 20
0.5556138321830084
 30
0.0
 10
-39.37043805934949
 20
0.8291480056113071
 30
0.0
 10
-40.00173799497144
 20
1.097583160716785
 30
0.0
 10
-40.63306342185511
 20
1.35926731859061
 30
0.0
 10
-41.26442060925459
 20
1.612590679429919
 30
0.0
 10
-41.8958160009355
 20
1.855997099341233
 30
0.0
 10
-42.52725697171412
 20
2.087980170028854
 30
0.0
 10
-43.15874663406353
 20
2.307115921427186
 30
0.0
 10
-43.7902882429481
 20
2.512052922112165
 30
0.0
 10
-44.42189050574781
 20
2.7015173962107
 30
0.0
 10
-45.05355268939231
 20
2.874347245048021
 30
0.0
 10
-45.68527930052058
 20
3.02946407604482
 30
0.0
 10
-46.31706811075726
 20
3.165907931486667
 30
0.0
 10
-46.94891667779941
 20
3.282842302435677
 30
0.0
 10
-47.58082449646699
 20
3.379493349828143
 30
0.0
 10
-48.21277904330566
 20
3.455415108865712
 30
0.0
 10
-48.8447726888646
 20
3.509581286193764
 30
0.0
 10
-49.47678927532276
 20
3.543665984966116
 30
0.0
 10
-49.89823643748816
 20
3.547890098063541
 30
0.0
 10
-50.10881973007536
 20
3.550000748517907
 30
0.0
  0
SPLINE
  5
221A
330
1F
100
AcDbEntity
  8
AM_0
100
AcDbSpline
210
0.0
220
0.0
230
1.0
 70
     8
 71
     3
 72
    55
 73
    51
 74
     0
 42
0.0000000001
 43
0.0000000001
 40
0.0
 40
0.0
 40
0.0
 40
0.0
 40
1.010743684496582
 40
2.022833576467832
 40
3.037578957496688
 40
4.056212745003489
 40
5.079857003664532
 40
6.109500240690281
 40
7.145961322679372
 40
8.189895241603872
 40
9.241717795325891
 40
10.30168407291828
 40
11.36983447792315
 40
12.44600489715814
 40
13.52984294512926
 40
14.62081576220742
 40
15.7182257034828
 40
16.82123173843959
 40
17.92886860250316
 40
19.0400688939571
 40
20.15368796660465
 40
21.26852814259644
 40
22.38336992938901
 40
23.49698739941135
 40
24.6081876908653
 40
25.71582455492886
 40
26.81883757994213
 40
27.91624752121713
 40
29.00722033829659
 40
30.09105838626677
 40
31.16722880550176
 40
32.23537921050758
 40
33.29534548809967
 40
34.347168041821
 40
35.39108718934584
 40
36.42754827133493
 40
37.45720575381954
 40
38.48085062012849
 40
39.49948440763516
 40
40.51422944315121
 40
41.52631975251916
 40
42.53706336719636
 40
43.54780698187354
 40
44.55989729124051
 40
45.57464232675757
 40
46.59327611426424
 40
47.6169209805722
 40
48.64656348684535
 40
49.68302456883444
 40
50.58557219878025
 40
50.58557219878025
 40
50.58557219878025
 40
50.58557219878025
 10
-26.6136558125342
 20
-3.549999251482449
 30
0.0
 10
-26.82423906766173
 20
-3.547887087486454
 30
0.0
 10
-27.24568605332954
 20
-3.543659946307505
 30
0.0
 10
-27.87770315924005
 20
-3.509584442843598
 30
0.0
 10
-28.50969328672329
 20
-3.4554132938506
 30
0.0
 10
-29.14164430022234
 20
-3.379490368252985
 30
0.0
 10
-29.77354989386087
 20
-3.282844567256513
 30
0.0
 10
-30.40539760155436
 20
-3.165905659336655
 30
0.0
 10
-31.03718953680539
 20
-3.029461386657719
 30
0.0
 10
-31.66892009689632
 20
-2.874347268662016
 30
0.0
 10
-32.3005849785907
 20
-2.701515696624201
 30
0.0
 10
-32.93218733038876
 20
-2.512051516456129
 30
0.0
 10
-33.56372884384756
 20
-2.307114261929238
 30
0.0
 10
-34.19521740957243
 20
-2.08797971951057
 30
0.0
 10
-34.82665591875326
 20
-1.855994517914253
 30
0.0
 10
-35.45805022655384
 20
-1.612589332822311
 30
0.0
 10
-36.08940733522248
 20
-1.359265779846978
 30
0.0
 10
-36.7207327858862
 20
-1.097581678982875
 30
0.0
 10
-37.35203270563054
 20
-0.8291464892479432
 30
0.0
 10
-37.98331384963285
 20
-0.555612397343308
 30
0.0
 10
-38.61458175482968
 20
-0.278660978453337
 30
0.0
 10
-39.24584533570168
 20
0.0000000241887866
 30
0.0
 10
-39.87710608272839
 20
0.2786660429026214
 30
0.0
 10
-40.50837610379764
 20
0.5556131489264474
 30
0.0
 10
-41.13965646847492
 20
0.8291480688032063
 30
0.0
 10
-41.77095751382003
 20
1.097584281156563
 30
0.0
 10
-42.40228558352456
 20
1.359266148762597
 30
0.0
 10
-43.03364368864151
 20
1.612590986440813
 30
0.0
 10
-43.66503808759443
 20
1.855995974156246
 30
0.0
 10
-44.29647657379924
 20
2.08798122453818
 30
0.0
 10
-44.9279651411411
 20
2.307115767277398
 30
0.0
 10
-45.55950667068576
 20
2.512052972800701
 30
0.0
 10
-46.19110895729555
 20
2.70151734642913
 30
0.0
 10
-46.82277112432632
 20
2.874347392366381
 30
0.0
 10
-47.45449777789339
 20
3.029463541970029
 30
0.0
 10
-48.0862894787824
 20
3.165910558371638
 30
0.0
 10
-48.71814169808032
 20
3.282836110244925
 30
0.0
 10
-49.35004937935637
 20
3.379511825159863
 30
0.0
 10
-49.98200058019397
 20
3.455344753928752
 30
0.0
 10
-50.61399114680316
 20
3.509844864575947
 30
0.0
 10
-51.24600771683846
 20
3.542685209936548
 30
0.0
 10
-51.87803817505461
 20
3.553656082665661
 30
0.0
 10
-52.51006863234082
 20
3.542685209919364
 30
0.0
 10
-53.14208520517138
 20
3.509844864644982
 30
0.0
 10
-53.77407576148926
 20
3.455344753668732
 30
0.0
 10
-54.40602700091148
 20
3.379511826137163
 30
0.0
 10
-55.03793145646292
 20
3.282836577879979
 30
0.0
 10
-55.66978118650357
 20
3.165911753872292
 30
0.0
 10
-56.27284668984999
 20
3.035657372663422
 30
0.0
 10
-56.66412245632632
 20
2.940401112302977
 30
0.0
 10
-56.84565160677028
 20
2.893978089749111
 30
0.0
  0
SPLINE
  5
221B
330
1F
100
AcDbEntity
  8
AM_0
 48
0.5
100
AcDbSpline
210
0.0
220
0.0
230
1.0
 70
     8
 71
     3
 72
    26
 73
    22
 74
     0
 42
0.0000000001
 43
0.0000000001
 40
0.0
 40
0.0
 40
0.0
 40
0.0
 40
0.6738291229976858
 40
1.34855571764586
 40
2.025052638331105
 40
2.7041418300023
 40
3.386571335776987
 40
4.073000160460178
 40
4.763974215119558
 40
5.459920313469455
 40
6.161135349283505
 40
6.867779534345081
 40
7.579884616450838
 40
8.297322010138517
 40
9.01989019369366
 40
9.747205405079087
 40
10.47881203259601
 40
11.21414938923388
 40
11.95257396527625
 40
12.69337415957888
 40
13.41285713964268
 40
13.41285713964268
 40
13.41285713964268
 40
13.41285713964268
 10
-50.10890651357076
 20
-3.549999251482093
 30
0.0
 10
-50.3194897687236
 20
-3.547887087578138
 30
0.0
 10
-50.74093675444231
 20
-3.543659946583382
 30
0.0
 10
-51.37295385997187
 20
-3.509584441735397
 30
0.0
 10
-52.00494398890875
 20
-3.455413298023657
 30
0.0
 10
-52.63689499694359
 20
-3.379490352574108
 30
0.0
 10
-53.2688006111298
 20
-3.282844626228946
 30
0.0
 10
-53.90064824145631
 20
-3.165905437228825
 30
0.0
 10
-54.53243746758293
 20
-3.029462872107323
 30
0.0
 10
-55.16416398072109
 20
-2.874345614287022
 30
0.0
 10
-55.79582628740818
 20
-2.701516140435493
 30
0.0
 10
-56.42742958624856
 20
-2.512050155573386
 30
0.0
 10
-57.05897126008441
 20
-2.307117551085901
 30
0.0
 10
-57.69045846446078
 20
-2.087975434386842
 30
0.0
 10
-58.32189964279681
 20
-1.855996924729577
 30
0.0
 10
-58.95329615939965
 20
-1.612589263535342
 30
0.0
 10
-59.58465272099846
 20
-1.359264686886147
 30
0.0
 10
-60.21598092171375
 20
-1.097586152726807
 30
0.0
 10
-60.84727032814612
 20
-0.8291295968708141
 30
0.0
 10
-61.47207502082217
 20
-0.5584980850178782
 30
0.0
 10
-61.74264870940075
 20
-0.3766859369866324
 30
0.0
 10
-61.99999999999999
 20
-0.2642795154580778
 30
0.0
  0
SPLINE
  5
221C
330
1F
100
AcDbEntity
  8
AM_0
 48
0.5
100
AcDbSpline
210
0.0
220
0.0
230
1.0
 70
     8
 71
     3
 72
    22
 73
    18
 74
     0
 42
0.0000000001
 43
0.0000000001
 40
0.0
 40
0.0
 40
0.0
 40
0.0
 40
1.010743684496582
 40
2.022833993863546
 40
3.037578683882831
 40
4.056212471389632
 40
5.079857945358201
 40
6.109499720892564
 40
7.145961650132166
 40
8.189873411961459
 40
9.241710626092514
 40
10.30166235592959
 40
11.36982472628033
 40
12.44598212828784
 40
13.52983440361964
 40
14.62080578343036
 40
14.90544694398022
 40
14.90544694398022
 40
14.90544694398022
 40
14.90544694398022
 10
-51.78821553765667
 20
-3.549999251482065
 30
0.0
 10
-51.99879883302305
 20
-3.547887718499346
 30
0.0
 10
-52.42024598618446
 20
-3.543661839315439
 30
0.0
 10
-53.05226242985972
 20
-3.509576843727818
 30
0.0
 10
-53.68425324122313
 20
-3.455414814640618
 30
0.0
 10
-54.31620459075264
 20
-3.379491819053046
 30
0.0
 10
-54.94810846329058
 20
-3.282837001423816
 30
0.0
 10
-55.57995826662661
 20
-3.165907923217897
 30
0.0
 10
-56.21174474191853
 20
-3.029460399913838
 30
0.0
 10
-56.8434722335506
 20
-2.874340896313651
 30
0.0
 10
-57.47513505188702
 20
-2.70151795266535
 30
0.0
 10
-58.10673649793563
 20
-2.512043388871351
 30
0.0
 10
-58.73828064320505
 20
-2.307122918209903
 30
0.0
 10
-59.36976701333155
 20
-2.087974784204141
 30
0.0
 10
-60.00120743846835
 20
-1.855995059687741
 30
0.0
 10
-60.4757790458111
 20
-1.673053947628686
 30
0.0
 10
-60.74022690624932
 20
-1.568490688459586
 30
0.0
 10
-60.79490593022715
 20
-1.546763373926365
 30
0.0
  0
SPLINE
  5
221D
330
1F
100
AcDbEntity
  8
AM_0
100
AcDbSpline
210
0.0
220
0.0
230
1.0
 70
     8
 71
     3
 72
    13
 73
     9
 74
     0
 42
0.0000000001
 43
0.0000000001
 40
16.03460056234195
 40
16.03460056234195
 40
16.03460056234195
 40
16.03460056234195
 40
16.35212717791071
 40
17.38177067057215
 40
18.41822498539278
 40
19.46214186516937
 40
20.5139635832251
 40
21.34083983469381
 40
21.34083983469381
 40
21.34083983469381
 40
21.34083983469381
 10
-60.63639217811179
 20
-3.550322108336244
 30
0.0
 10
-60.57146016135099
 20
-3.538338286434756
 30
0.0
 10
-60.29624962595941
 20
-3.486152009861152
 30
0.0
 10
-59.81146396946746
 20
-3.383896966191391
 30
0.0
 10
-59.18366485398685
 20
-3.231847031327546
 30
0.0
 10
-58.55644896818297
 20
-3.061119711071843
 30
0.0
 10
-57.97606793905634
 20
-2.88662106654066
 30
0.0
 10
-57.6057950629281
 20
-2.766466331356945
 30
0.0
 10
-57.44335857137166
 20
-2.712155296203757
 30
0.0
  0
SPLINE
  5
221E
330
1F
100
AcDbEntity
  8
AM_0
100
AcDbSpline
210
0.0
220
0.0
230
1.0
 70
     8
 71
     3
 72
    23
 73
    19
 74
     0
 42
0.0000000001
 43
0.0000000001
 40
16.03460024169435
 40
16.03460024169435
 40
16.03460024169435
 40
16.03460024169435
 40
16.35212704903564
 40
17.38177054169784
 40
18.41822485651776
 40
19.46214173629503
 40
20.51396345435107
 40
21.57393551351153
 40
22.64208202342361
 40
23.7182574881101
 40
24.80209208578934
 40
25.89306333925047
 40
26.99048218457928
 40
28.09348763352352
 40
29.20111863782268
 40
30.31232390128032
 40
31.42594612798585
 40
32.5407912310448
 40
32.5407912310486
 40
32.5407912310486
 40
32.5407912310486
 10
-59.4757913311402
 20
3.550505090443866
 30
0.0
 10
-59.41085934069263
 20
3.5385209155975
 30
0.0
 10
-59.13564903303194
 20
3.486333207161438
 30
0.0
 10
-58.6508631122757
 20
3.38407935732937
 30
0.0
 10
-58.02306407580076
 20
3.232029000866296
 30
0.0
 10
-57.39584816860056
 20
3.061301794786789
 30
0.0
 10
-56.76917832798693
 20
2.872885821079688
 30
0.0
 10
-56.1430323123367
 20
2.667831503016483
 30
0.0
 10
-55.51737393191079
 20
2.447311017553326
 30
0.0
 10
-54.89215961823764
 20
2.212607738601188
 30
0.0
 10
-54.26735384439439
 20
1.965050777144705
 30
0.0
 10
-53.64290651743655
 20
1.706080609460524
 30
0.0
 10
-53.01876703289126
 20
1.437202482050862
 30
0.0
 10
-52.39489380612484
 20
1.159962331427387
 30
0.0
 10
-51.77123463842203
 20
0.8759722710994848
 30
0.0
 10
-51.14773176573573
 20
0.5868905946681444
 30
0.0
 10
-50.5243344173315
 20
0.2943924521677286
 30
0.0
 10
-50.10884781460223
 20
0.0982884412543292
 30
0.0
 10
-49.90099120747802
 20
0.0001813108543202
 30
0.0
  0
SPLINE
  5
2221
330
1F
100
AcDbEntity
  8
AM_0
 48
0.5
100
AcDbSpline
210
0.0
220
0.0
230
1.0
 70
     8
 71
     3
 72
    17
 73
    13
 74
     0
 42
0.0000000001
 43
0.0000000001
 40
0.0
 40
0.0
 40
0.0
 40
0.0
 40
1.010743614677189
 40
2.022833924044153
 40
3.037578959561199
 40
4.056212747067873
 40
5.079857613375832
 40
6.109500119648989
 40
7.14596120163808
 40
8.18989512056258
 40
9.241717674284874
 40
9.693948937866434
 40
9.693948937866434
 40
9.693948937866434
 40
9.693948937866434
 10
-4.113971477865014
 20
3.550000748517281
 30
0.0
 10
-4.324554771316179
 20
3.547890106649372
 30
0.0
 10
-4.746001935210496
 20
3.543666010736341
 30
0.0
 10
-5.378018508675624
 20
3.509581182836845
 30
0.0
 10
-6.010009062385279
 20
3.455415767440013
 30
0.0
 10
-6.641960311660921
 20
3.379492692839663
 30
0.0
 10
-7.273864730146256
 20
3.282841650198109
 30
0.0
 10
-7.905714599753465
 20
3.165910748339025
 30
0.0
 10
-8.537501439995374
 20
3.029452710148093
 30
0.0
 10
-9.169249766737449
 20
2.874386206281827
 30
0.0
 10
-9.679213489728288
 20
2.7346947263904
 30
0.0
 10
-9.978694087592211
 20
2.647367462944467
 30
0.0
 10
-10.06858209573825
 20
2.620637172198029
 30
0.0
  0
SPLINE
  5
2222
330
1F
100
AcDbEntity
  8
AM_0
 48
0.5
100
AcDbSpline
210
0.0
220
0.0
230
1.0
 70
     8
 71
     3
 72
    16
 73
    12
 74
     0
 42
0.0000000001
 43
0.0000000001
 40
0.0
 40
0.0
 40
0.0
 40
0.0
 40
1.010743614677189
 40
2.022833924044153
 40
3.037578959561199
 40
4.056212747067873
 40
5.079857613375832
 40
6.109500119648989
 40
7.14596120163808
 40
8.18989512056258
 40
8.545190612624931
 40
8.545190612624931
 40
8.545190612624931
 40
8.545190612624931
 10
-4.113971477865014
 20
3.550000748517281
 30
0.0
 10
-4.324543064256076
 20
3.549979416037394
 30
0.0
 10
-4.746007377002243
 20
3.542695126674045
 30
0.0
 10
-5.378017040498204
 20
3.50984218660392
 30
0.0
 10
-6.01000947723736
 20
3.455345519843253
 30
0.0
 10
-6.641960126843176
 20
3.379511450935392
 30
0.0
 10
-7.273865054254446
 20
3.282837313001914
 30
0.0
 10
-7.905713479462192
 20
3.165909168128017
 30
0.0
 10
-8.53750563659352
 20
3.0294635195728
 30
0.0
 10
-9.028753321398449
 20
2.908838794595373
 30
0.0
 10
-9.309540454009635
 20
2.834651602078162
 30
0.0
 10
-9.380746502673609
 20
2.815507058598264
 30
0.0
  0
SPLINE
  5
2225
330
1F
100
AcDbEntity
  8
AM_0
100
AcDbSpline
210
0.0
220
0.0
230
1.0
 70
     8
 71
     3
 72
    46
 73
    42
 74
     0
 42
0.0000000001
 43
0.0000000001
 40
0.0
 40
0.0
 40
0.0
 40
0.0
 40
1.348332046947657
 40
2.024828967632895
 40
2.703918159304097
 40
3.386347665078124
 40
4.072776489761952
 40
4.763750544421347
 40
5.459696642770596
 40
6.160921452191754
 40
6.867565637253344
 40
7.579665907256596
 40
8.297112853413899
 40
9.019671552060676
 40
9.746986763446127
 40
10.47859339096366
 40
11.21393074760089
 40
11.95235532364328
 40
12.69315551794651
 40
13.43556823304427
 40
14.1787950170388
 40
14.92202180103393
 40
15.66443451613169
 40
16.40523471043432
 40
17.14365928647669
 40
17.87899664311455
 40
18.61060327063121
 40
19.3379184820169
 40
20.06048192311554
 40
20.77792886927283
 40
21.49002913927608
 40
22.19667332433747
 40
22.89788836015233
 40
23.59383445850158
 40
24.28480851316097
 40
24.97123685067576
 40
25.65366676154838
 40
26.33276604526152
 40
27.00926273560555
 40
27.68398960851751
 40
28.357818684969
 40
28.357818684969
 40
28.357818684969
 40
28.357818684969
 10
-2.344753033040754
 20
-3.549999251482746
 30
0.0
 10
-2.766220609936646
 20
-3.541912077064493
 30
0.0
 10
-3.399150577409245
 20
-3.529767334925161
 30
0.0
 10
-4.240785156117558
 20
-3.454994388681162
 30
0.0
 10
-4.872742959274563
 20
-3.37960336838179
 30
0.0
 10
-5.504646745083432
 20
-3.28281410467966
 30
0.0
 10
-6.13649484889322
 20
-3.165913639472152
 30
0.0
 10
-6.7682840247763
 20
-3.029460856572881
 30
0.0
 10
-7.40001321458074
 20
-2.874344659242722
 30
0.0
 10
-8.031679606888502
 20
-2.701517483895405
 30
0.0
 10
-8.663284464249214
 20
-2.512051268764267
 30
0.0
 10
-9.294826087837865
 20
-2.307114329058934
 30
0.0
 10
-9.926314623708503
 20
-2.087979701307929
 30
0.0
 10
-10.55775314102167
 20
-1.855994522917365
 30
0.0
 10
-11.18914744644343
 20
-1.612589331183349
 30
0.0
 10
-11.82050455642567
 20
-1.35926578136782
 30
0.0
 10
-12.4518300042141
 20
-1.09758167452242
 30
0.0
 10
-13.08312993419817
 20
-0.8291465056548574
 30
0.0
 10
-13.71441103995682
 20
-0.5556123359373779
 30
0.0
 10
-14.34567908828418
 20
-0.2786612082360858
 30
0.0
 10
-14.97694183006086
 20
0.0000007484610633
 30
0.0
 10
-15.60820457169886
 20
0.2786627054968433
 30
0.0
 10
-16.2394726204422
 20
0.5556138321827399
 30
0.0
 10
-16.87075372468039
 20
0.8291480056110382
 30
0.0
 10
-17.50205366030235
 20
1.097583160716517
 30
0.0
 10
-18.13337908718606
 20
1.359267318590341
 30
0.0
 10
-18.76473627458554
 20
1.612590679429651
 30
0.0
 10
-19.39613166626644
 20
1.855997099340965
 30
0.0
 10
-20.02757263704505
 20
2.087980170028588
 30
0.0
 10
-20.65906229939447
 20
2.307115921426918
 30
0.0
 10
-21.29060390827903
 20
2.512052922111896
 30
0.0
 10
-21.92220617107875
 20
2.701517396210432
 30
0.0
 10
-22.55386835472323
 20
2.874347245047752
 30
0.0
 10
-23.18559496585149
 20
3.029464076044552
 30
0.0
 10
-23.81738377608817
 20
3.165907931486399
 30
0.0
 10
-24.44923234313032
 20
3.282842302435408
 30
0.0
 10
-25.0811401617979
 20
3.379493349827875
 30
0.0
 10
-25.71309470863656
 20
3.455415108865442
 30
0.0
 10
-26.34508835419551
 20
3.509581286193495
 30
0.0
 10
-26.97710494065367
 20
3.543665984965849
 30
0.0
 10
-27.39855210281907
 20
3.547890098063273
 30
0.0
 10
-27.60913539540627
 20
3.550000748517639
 30
0.0
  0
SPLINE
  5
2226
330
1F
100
AcDbEntity
  8
AM_0
100
AcDbSpline
210
0.0
220
0.0
230
1.0
 70
     8
 71
     3
 72
    55
 73
    51
 74
     0
 42
0.0000000001
 43
0.0000000001
 40
0.0
 40
0.0
 40
0.0
 40
0.0
 40
1.010743684496582
 40
2.022833576467832
 40
3.037578957496688
 40
4.056212745003489
 40
5.079857003664532
 40
6.109500240690281
 40
7.145961322679372
 40
8.189895241603872
 40
9.241717795325891
 40
10.30168407291828
 40
11.36983447792315
 40
12.44600489715814
 40
13.52984294512926
 40
14.62081576220742
 40
15.7182257034828
 40
16.82123173843959
 40
17.92886860250316
 40
19.0400688939571
 40
20.15368796660465
 40
21.26852814259644
 40
22.38336992938901
 40
23.49698739941135
 40
24.6081876908653
 40
25.71582455492886
 40
26.81883757994213
 40
27.91624752121713
 40
29.00722033829659
 40
30.09105838626677
 40
31.16722880550176
 40
32.23537921050758
 40
33.29534548809967
 40
34.347168041821
 40
35.39108718934584
 40
36.42754827133493
 40
37.45720575381954
 40
38.48085062012849
 40
39.49948440763516
 40
40.51422944315121
 40
41.52631975251916
 40
42.53706336719636
 40
43.54780698187354
 40
44.55989729124051
 40
45.57464232675757
 40
46.59327611426424
 40
47.6169209805722
 40
48.64656348684535
 40
49.68302456883444
 40
50.58557219878025
 40
50.58557219878025
 40
50.58557219878025
 40
50.58557219878025
 10
-4.113971477865133
 20
-3.549999251482717
 30
0.0
 10
-4.324554732992663
 20
-3.547887087486722
 30
0.0
 10
-4.746001718660478
 20
-3.543659946307774
 30
0.0
 10
-5.37801882457098
 20
-3.509584442843867
 30
0.0
 10
-6.010008952054223
 20
-3.455413293850868
 30
0.0
 10
-6.641959965553267
 20
-3.379490368253254
 30
0.0
 10
-7.273865559191801
 20
-3.282844567256781
 30
0.0
 10
-7.905713266885302
 20
-3.165905659336925
 30
0.0
 10
-8.537505202136335
 20
-3.029461386657987
 30
0.0
 10
-9.169235762227263
 20
-2.874347268662285
 30
0.0
 10
-9.800900643921641
 20
-2.70151569662447
 30
0.0
 10
-10.4325029957197
 20
-2.512051516456398
 30
0.0
 10
-11.06404450917849
 20
-2.307114261929507
 30
0.0
 10
-11.69553307490335
 20
-2.087979719510838
 30
0.0
 10
-12.32697158408418
 20
-1.855994517914522
 30
0.0
 10
-12.95836589188476
 20
-1.612589332822579
 30
0.0
 10
-13.58972300055339
 20
-1.359265779847246
 30
0.0
 10
-14.22104845121716
 20
-1.097581678983143
 30
0.0
 10
-14.85234837096148
 20
-0.8291464892482117
 30
0.0
 10
-15.48362951496378
 20
-0.5556123973435764
 30
0.0
 10
-16.11489742016061
 20
-0.2786609784536056
 30
0.0
 10
-16.74616100103261
 20
0.0000000241885181
 30
0.0
 10
-17.37742174805932
 20
0.2786660429023528
 30
0.0
 10
-18.00869176912858
 20
0.5556131489261789
 30
0.0
 10
-18.63997213380583
 20
0.8291480688029377
 30
0.0
 10
-19.27127317915093
 20
1.097584281156294
 30
0.0
 10
-19.90260124885551
 20
1.35926614876233
 30
0.0
 10
-20.53395935397247
 20
1.612590986440545
 30
0.0
 10
-21.16535375292538
 20
1.855995974155978
 30
0.0
 10
-21.79679223913017
 20
2.087981224537911
 30
0.0
 10
-22.42828080647203
 20
2.307115767277129
 30
0.0
 10
-23.05982233601669
 20
2.512052972800433
 30
0.0
 10
-23.69142462262649
 20
2.701517346428861
 30
0.0
 10
-24.32308678965724
 20
2.874347392366111
 30
0.0
 10
-24.95481344322432
 20
3.029463541969759
 30
0.0
 10
-25.58660514411332
 20
3.165910558371368
 30
0.0
 10
-26.21845736341123
 20
3.282836110244656
 30
0.0
 10
-26.85036504468727
 20
3.379511825159596
 30
0.0
 10
-27.48231624552487
 20
3.455344753928485
 30
0.0
 10
-28.11430681213406
 20
3.509844864575679
 30
0.0
 10
-28.74632338216937
 20
3.54268520993628
 30
0.0
 10
-29.37835384038553
 20
3.553656082665393
 30
0.0
 10
-30.01038429767173
 20
3.542685209919095
 30
0.0
 10
-30.64240087050229
 20
3.509844864644714
 30
0.0
 10
-31.27439142682018
 20
3.455344753668463
 30
0.0
 10
-31.9063426662424
 20
3.379511826136894
 30
0.0
 10
-32.53824712179385
 20
3.28283657787971
 30
0.0
 10
-33.1700968518345
 20
3.165911753872024
 30
0.0
 10
-33.77316235518093
 20
3.035657372663153
 30
0.0
 10
-34.16443812165725
 20
2.940401112302708
 30
0.0
 10
-34.3459672721012
 20
2.893978089748843
 30
0.0
  0
SPLINE
  5
2227
330
1F
100
AcDbEntity
  8
AM_0
100
AcDbSpline
210
0.0
220
0.0
230
1.0
 70
     8
 71
     3
 72
    11
 73
     7
 74
     0
 42
0.0000000001
 43
0.0000000001
 40
11.27226913003534
 40
11.27226913003534
 40
11.27226913003534
 40
11.2722691300354
 40
12.28301561507924
 40
13.29510212255852
 40
14.30984805882082
 40
15.18258238371378
 40
15.18258238371378
 40
15.18258238371378
 40
15.18258238371378
 10
-16.01954627644885
 20
-3.549999251482538
 30
0.0
 10
-16.22932878760029
 20
-3.532624519859271
 30
0.0
 10
-16.6484981201956
 20
-3.490561050778541
 30
0.0
 10
-17.27508760679945
 20
-3.405708629268299
 30
0.0
 10
-17.86973207807961
 20
-3.304361715479485
 30
0.0
 10
-18.25431321717342
 20
-3.22645332657238
 30
0.0
 10
-18.43153915700577
 20
-3.187968734359513
 30
0.0
  0
SPLINE
  5
2228
330
1F
100
AcDbEntity
  8
AM_0
100
AcDbSpline
210
0.0
220
0.0
230
1.0
 70
     8
 71
     3
 72
    22
 73
    18
 74
     0
 42
0.0000000001
 43
0.0000000001
 40
17.17441611292
 40
17.17441611292
 40
17.17441611292
 40
17.17441611292
 40
17.38177636558528
 40
18.41823744757437
 40
19.46215659509824
 40
20.51397914882054
 40
21.57394542641293
 40
22.64209583141747
 40
23.71826625065247
 40
24.80210429862395
 40
25.8930771157021
 40
26.99048705697709
 40
28.09349309193389
 40
29.20112995599786
 40
30.31233024745139
 40
31.42594771747373
 40
32.5407895042663
 40
32.54078950426994
 40
32.54078950426994
 40
32.54078950426994
 10
-18.43181555987028
 20
-3.187924945136659
 30
0.0
 10
-18.4741363253844
 20
-3.179707043326941
 30
0.0
 10
-18.72782620192535
 20
-3.129650905165143
 30
0.0
 10
-19.19257176038075
 20
-3.029281833199304
 30
0.0
 10
-19.82429832361457
 20
-2.874165237945732
 30
0.0
 10
-20.45596051523765
 20
-2.701335313015025
 30
0.0
 10
-21.08756279474968
 20
-2.511870905652316
 30
0.0
 10
-21.71910432784796
 20
-2.306933712801381
 30
0.0
 10
-22.35059288807643
 20
-2.087799153313706
 30
0.0
 10
-22.98203139940463
 20
-1.855813957685197
 30
0.0
 10
-23.61342570414033
 20
-1.612408765905981
 30
0.0
 10
-24.24478282298789
 20
-1.359085233833914
 30
0.0
 10
-24.87610823574617
 20
-1.097401055528402
 30
0.0
 10
-25.50740829772614
 20
-0.8289661562736924
 30
0.0
 10
-26.13868860485338
 20
-0.555431106849369
 30
0.0
 10
-26.76995850899666
 20
-0.2784837663582617
 30
0.0
 10
-27.19072250461057
 20
-0.0927410597329581
 30
0.0
 10
-27.40122008931644
 20
0.0001813108553294
 30
0.0
  0
SPLINE
  5
2229
330
1F
100
AcDbEntity
  8
AM_0
100
AcDbSpline
210
0.0
220
0.0
230
1.0
 70
     8
 71
     3
 72
    17
 73
    13
 74
     0
 42
0.0000000001
 43
0.0000000001
 40
1.580019955310467
 40
1.580019955310467
 40
1.580019955310467
 40
1.580019955310467
 40
2.030549285115227
 40
3.082371838836284
 40
4.126290986361125
 40
5.162752068350215
 40
6.192395305374981
 40
7.216039564037012
 40
8.234688489606833
 40
9.249433870634691
 40
10.26152376260694
 40
11.27226744710342
 40
11.27226744710342
 40
11.27226744710342
 40
11.27226744710352
 10
-10.06629444425114
 20
-2.620003786878406
 30
0.0
 10
-10.15571431541302
 20
-2.646987657055926
 30
0.0
 10
-10.45440672678995
 20
-2.735430895773802
 30
0.0
 10
-10.96434874562855
 20
-2.874157280256783
 30
0.0
 10
-11.59598737397015
 20
-3.029512427563965
 30
0.0
 10
-12.22779989183475
 20
-3.165893620141165
 30
0.0
 10
-12.85964135912836
 20
-3.282842859291605
 30
0.0
 10
-13.49155166441743
 20
-3.379509450601888
 30
0.0
 10
-14.12350562657622
 20
-3.455341760459479
 30
0.0
 10
-14.75549893924744
 20
-3.509848370122699
 30
0.0
 10
-15.3875160317525
 20
-3.542678414215189
 30
0.0
 10
-15.80896302409951
 20
-3.549999271795828
 30
0.0
 10
-16.01954627644882
 20
-3.549999251482538
 30
0.0
  0
ELLIPSE
  5
222A
330
1F
100
AcDbEntity
  8
AM_0
 48
0.5
100
AcDbEllipse
 10
-60.75007905541789
 20
-2.366665918148613
 30
0.0
 11
1.249999999999992
 21
0.0000000000001702
 31
0.0
210
0.0
220
0.0
230
1.0
 40
0.9466666666666686
 41
3.152839430981491
 42
4.712388666468042
  0
ELLIPSE
  5
222B
330
1F
100
AcDbEntity
  8
AM_0
 48
0.5
100
AcDbEllipse
 10
-61.06280793725353
 20
-2.402719702836871
 30
0.0
 11
0.9357808178420683
 21
0.0628202332867977
 31
0.0
210
0.0
220
0.0
230
1.0
 40
0.9501968106700701
 41
1.217351092213571
 42
3.045540446995536
  0
ELLIPSE
  5
222E
330
1F
100
AcDbEntity
  8
AM_11
 48
0.5
100
AcDbEllipse
 10
-15.1857889811243
 20
16.72558433296426
 30
0.0
 11
-19.53452809651665
 21
0.000000000000166
 31
0.0
210
0.0
220
0.0
230
1.0
 40
0.9466666666666663
 41
1.130070686340305
 42
2.011520147323594
  0
ELLIPSE
  5
222F
330
1F
100
AcDbEntity
  8
AM_11
 48
0.5
100
AcDbEllipse
 10
-15.18578898112467
 20
-16.72557241888021
 30
0.0
 11
-19.53452809651663
 21
0.0000000000000489
 31
0.0
210
0.0
220
0.0
230
1.0
 40
0.9466666666666668
 41
4.271664206181679
 42
5.153113667164986
  0
ELLIPSE
  5
2230
330
1F
100
AcDbEntity
  8
AM_11
 48
0.5
100
AcDbEllipse
 10
-48.51912231445297
 20
16.7255843329646
 30
0.0
 11
-19.53452809651663
 21
0.000000000000114
 31
0.0
210
0.0
220
0.0
230
1.0
 40
0.946666666666667
 41
1.130070686340299
 42
2.011520147323592
  0
ELLIPSE
  5
2231
330
1F
100
AcDbEntity
  8
AM_11
 48
0.5
100
AcDbEllipse
 10
-48.51912231445334
 20
-16.72557241887987
 30
0.0
 11
-19.53452809651663
 21
0.0000000000000055
 31
0.0
210
0.0
220
0.0
230
1.0
 40
0.946666666666667
 41
4.271664206181676
 42
5.153113667164983
  0
ELLIPSE
  5
2232
330
1F
100
AcDbEntity
  8
AM_11
 48
0.5
100
AcDbEllipse
 10
-31.85245564779135
 20
-16.72557241888003
 30
0.0
 11
-19.53452809651665
 21
0.0000000000000576
 31
0.0
210
0.0
220
0.0
230
1.0
 40
0.9466666666666657
 41
4.271664206181679
 42
5.153113667164985
  0
ELLIPSE
  5
2233
330
1F
100
AcDbEntity
  8
AM_11
 48
0.5
100
AcDbEllipse
 10
-31.85245564779098
 20
16.72558433296443
 30
0.0
 11
19.53452809651663
 21
0.0000000000000446
 31
0.0
210
0.0
220
0.0
230
1.0
 40
0.9466666666666672
 41
4.271663339930084
 42
5.153112800913377
  0
ELLIPSE
  5
2234
330
1F
100
AcDbEntity
  8
AM_11
 48
0.5
100
AcDbEllipse
 10
1.480877685542377
 20
16.7255843329641
 30
0.0
 11
-19.53452809651675
 21
0.0000000000005521
 31
0.0
210
0.0
220
0.0
230
1.0
 40
0.946666666666662
 41
1.130070686340324
 42
1.291800737381015
  0
DIMENSION
  5
228A
330
1F
100
AcDbEntity
  8
AM_5
100
AcDbDimension
  2
*D7
 10
-129.0000009999998
 20
3.9999999999999
 30
0.0
 11
-129.0000009999998
 21
-0.0000000000001026
 31
0.0
 70
   160
  1
%%c<>
 51
359.9999999999998
  3
AM_JIS$0
100
AcDbAlignedDimension
 13
-119.7499999999999
 23
-4.000000000000101
 33
0.0
 14
-119.7499999999998
 24
3.999999999999897
 34
0.0
 50
270.0000000000002
100
AcDbRotatedDimension
1001
ACAD
1000
DSTYLE
1002
{
1070
   271
1070
     0
1002
}
1001
GENIUS_GENDTOL_13
1000

1000
h7
1000

1040
0.0
  0
DIMENSION
  5
23E9
330
1F
100
AcDbEntity
  8
AM_5
100
AcDbDimension
  2
*D8
 10
8.555921024858012
 20
-3.549999251483048
 30
0.0
 11
6.855921024858012
 21
0.0000007485171002
 31
0.0
 70
    32
  1
%%c<>
 51
359.9999999999998
  3
AM_JIS$0
100
AcDbAlignedDimension
 13
-1.999999999999991
 23
3.550000748517248
 33
0.0
 14
-2.000000462318716
 24
-3.549999251483045
 34
0.0
 50
89.999999999999
100
AcDbRotatedDimension
1001
ACAD
1000
DSTYLE
1002
{
1070
   271
1070
     1
1002
}
1001
GENIUS_GENDTOL_13
1000

1000
h7
1000

1040
0.0
  0
ELLIPSE
  5
2527
330
1F
100
AcDbEntity
  8
AM_0
 48
0.5
100
AcDbEllipse
 10
3.908992358985535
 20
-1.725169099942216
 30
0.0
 11
-4.372996755326819
 21
4.372996755326819
 31
0.0
210
0.0
220
0.0
230
1.0
 40
0.9999999999999989
 41
0.7899062002939168
 42
1.08492949940229
  0
ELLIPSE
  5
2528
330
1F
100
AcDbEntity
  8
AM_0
 48
0.5
100
AcDbEllipse
 10
-6.256098646553969
 20
6.752491171946291
 30
0.0
 11
-5.408586632741183
 21
7.602986317545343
 31
0.0
210
0.0
220
0.0
230
1.0
 40
0.6133216014743926
 41
3.065963459967743
 42
3.349925997907426
  0
SPLINE
  5
2529
330
1F
100
AcDbEntity
  8
AM_0
 48
0.5
100
AcDbSpline
210
0.0
220
0.0
230
1.0
 70
     8
 71
     3
 72
    10
 73
     6
 74
     0
 42
0.0000000001
 43
0.0000000001
 40
0.0
 40
0.0
 40
0.0
 40
0.0
 40
2.69986029516136
 40
4.147722969032201
 40
6.285750005020438
 40
6.285750005020438
 40
6.285750005020438
 40
6.285750005020438
 10
-3.796810658777214
 20
0.6425315340274417
 30
0.0
 10
-3.370981688899096
 20
0.3127120024218033
 30
0.0
 10
-2.716792061973535
 20
-0.1939808991804998
 30
0.0
 10
-1.16972147316884
 20
0.0513180109959482
 30
0.0
 10
-1.46107986436322
 20
0.8775171983472567
 30
0.0
 10
-1.653590873614003
 20
1.381111049287958
 30
0.0
  0
ELLIPSE
  5
252A
330
1F
100
AcDbEntity
  8
AM_0
 48
0.5
100
AcDbEllipse
 10
-1.475464632491055
 20
-1.261911330490864
 30
0.0
 11
-0.5123998293772951
 21
0.2958333342198109
 31
0.0
210
0.0
220
0.0
230
0.9999999999999998
 40
0.5000000000001405
 41
4.483836531792615
 42
7.627276873122125
  0
ELLIPSE
  5
252B
330
1F
100
AcDbEntity
  8
AM_0
 48
0.5
100
AcDbEllipse
 10
-1.475464632491055
 20
-1.261911330490864
 30
0.0
 11
-0.1027399499636657
 21
0.5826769285466959
 31
0.0
210
0.0
220
0.0
230
0.9999999999999998
 40
0.4999981224495358
 41
1.805862328724633
 42
4.941204218436607
  0
ELLIPSE
  5
252C
330
1F
100
AcDbEntity
  8
AM_0
 48
0.5
100
AcDbEllipse
 10
3.351196164573195
 20
3.501592109122248
 30
0.0
 11
5.443742331794326
 21
5.443742331794325
 31
0.0
210
0.0
220
0.0
230
1.0
 40
0.9999999999999984
 41
2.736655819397801
 42
3.107432186025791
  0
ELLIPSE
  5
252D
330
1F
100
AcDbEntity
  8
AM_0
 48
0.5
100
AcDbEllipse
 10
-6.036442693078583
 20
5.958187433075109
 30
0.0
 11
8.708743614843228
 21
5.66786114112327
 31
0.0
210
0.0
220
0.0
230
1.0
 40
0.8236927266536413
 41
4.610781741024886
 42
4.670712260222744
  0
ELLIPSE
  5
252F
330
1F
100
AcDbEntity
  8
AM_0
 48
0.5
100
AcDbEllipse
 10
6.998938941977094
 20
6.518511470746472
 30
0.0
 11
-6.499359672245508
 21
6.499359672245508
 31
0.0
210
0.0
220
0.0
230
1.0
 40
0.9999999999999978
 41
1.171329590070667
 42
1.424984195904709
  0
SPLINE
  5
2530
330
1F
100
AcDbEntity
  8
AM_0
 48
0.5
100
AcDbSpline
210
0.0
220
0.0
230
1.0
 70
     8
 71
     3
 72
    25
 73
    21
 74
     0
 42
0.0000000001
 43
0.0000000001
 40
6.846175049578289
 40
6.846175049578289
 40
6.846175049578289
 40
6.846175049578289
 40
7.604337694224321
 40
8.711974558287883
 40
9.814980593243754
 40
10.91239053451967
 40
12.0033633515982
 40
13.08720139956839
 40
14.16337181880432
 40
15.23152222380919
 40
16.29148850140128
 40
17.34331105512262
 40
18.38723020264746
 40
19.42369128463655
 40
20.45333379090873
 40
21.47697865721768
 40
22.49561244472435
 40
23.5103574802404
 40
24.52244778960836
 40
25.53320666051913
 40
25.53320666051913
 40
25.53320666051913
 40
25.53320666051913
 10
-3.796906315298308
 20
0.6425736982809278
 30
0.0
 10
-3.932821759016317
 20
0.7049053846291757
 30
0.0
 10
-4.267588757845899
 20
0.8576767407611967
 30
0.0
 10
-4.801704811147491
 20
1.097582764940707
 30
0.0
 10
-5.399359502562958
 20
1.359267017190856
 30
0.0
 10
-5.997044250421005
 20
1.612590529572669
 30
0.0
 10
-6.594764189947522
 20
1.855995726671884
 30
0.0
 10
-7.192525981217677
 20
2.087980920560403
 30
0.0
 10
-7.790335151650456
 20
2.30711548171975
 30
0.0
 10
-8.388194468787446
 20
2.512052669659822
 30
0.0
 10
-8.98611129672172
 20
2.70151709481061
 30
0.0
 10
-9.584084825802513
 20
2.874346954198649
 30
0.0
 10
-10.18211935114822
 20
3.029463791310912
 30
0.0
 10
-10.78021276226748
 20
3.16590761222707
 30
0.0
 10
-11.37836272270517
 20
3.282842113945897
 30
0.0
 10
-11.97656590403789
 20
3.379492200351402
 30
0.0
 10
-12.57481299846434
 20
3.455415529837021
 30
0.0
 10
-13.17309741269438
 20
3.509580875218802
 30
0.0
 10
-13.77140943476914
 20
3.543665900871977
 30
0.0
 10
-14.17038242962485
 20
3.547889865001491
 30
0.0
 10
-14.36973762512621
 20
3.550000456960556
 30
0.0
  0
LINE
  5
2532
330
1F
100
AcDbEntity
  8
AM_0
 48
0.5
100
AcDbLine
 10
-0.0000000000000195
 20
-0.0000000000000312
 30
0.0
 11
-1.635888004307071
 21
1.363092625132378
 31
0.0
  0
LINE
  5
2533
330
1F
100
AcDbEntity
  8
AM_0
100
AcDbLine
 10
-0.3757819382817846
 20
1.032452390067979
 30
0.0
 11
-0.0000000000000657
 21
0.0000000000000025
 31
0.0
  0
LINE
  5
2534
330
1F
100
AcDbEntity
  8
AM_0
100
AcDbLine
 10
-0.0000000000000657
 20
0.0000000000000025
 30
0.0
 11
-0.3757819382817722
 21
-1.032452390067978
 31
0.0
  0
LINE
  5
2535
330
1F
100
AcDbEntity
  8
AM_0
 48
0.5
100
AcDbLine
 10
-1.51649379259026
 20
3.058633200997604
 30
0.0
 11
-1.999999999999985
 21
3.550000748517244
 31
0.0
  0
ELLIPSE
  5
254F
330
1F
100
AcDbEntity
  8
AM_0
 48
0.5
100
AcDbEllipse
 10
6.998938941978924
 20
-6.518511470744941
 30
0.0
 11
-6.499359672243684
 21
-6.499359672247334
 31
0.0
210
0.0
220
0.0
230
-0.9999999999999998
 40
0.9999999999999978
 41
1.171329590070667
 42
1.424984195904709
  0
LINE
  5
2550
330
1F
100
AcDbEntity
  8
AM_0
 48
0.5
100
AcDbLine
 10
-1.516493792589402
 20
-3.058633200998463
 30
0.0
 11
-1.999999999998989
 21
-3.550000748518239
 31
0.0
  0
DIMENSION
  5
258B
330
1F
100
AcDbEntity
  8
AM_5
100
AcDbDimension
  2
*D10
 10
-0.3757819382817722
 20
-1.032452390067978
 30
0.0
 11
12.0431196328606
 21
0.0000000000000819
 31
0.0
 70
    34
  1
<>
 51
359.9999999999998
  3
AM_JIS$2
100
AcDb2LineAngularDimension
 13
-0.3757819382817846
 23
1.032452390067979
 33
0.0
 14
-0.0000000000000657
 24
0.0000000000000025
 34
0.0
 15
-0.0000000000000657
 25
0.0000000000000025
 35
0.0
 16
12.48142138964305
 26
-5.383959643925755
 36
0.0
1001
ACAD
1000
DSTYLE
1002
{
1070
   179
1070
     3
1002
}
1001
GENIUS_GENDTOL_13
1000

1000
h7
1000

1040
0.0
  0
VIEWPORT
  5
110
330
101
100
AcDbEntity
 67
     1
  8
0
100
AcDbViewport
 10
420.5
 20
297.0
 30
0.0
 40
948.9782706766916
 41
628.452
 68
     1
 69
     1
1001
ACAD
1000
MVIEW
1002
{
1070
    16
1010
0.0
1020
0.0
1030
0.0
1010
0.0
1020
0.0
1030
1.0
1040
0.0
1040
628.452
1040
420.5
1040
297.0
1040
50.0
1040
0.0
1040
0.0
1070
     0
1070
   100
1070
     1
1070
     1
1070
     0
1070
     0
1070
     0
1070
     0
1040
0.0
1040
0.0
1040
0.0
1040
10.0
1040
10.0
1040
10.0
1040
10.0
1070
     0
1002
{
1002
}
1002
}
  0
ENDSEC
  0
SECTION
  2
OBJECTS
  0
DICTIONARY
  5
C
330
0
100
AcDbDictionary
  3
ACAD_GROUP
350
D
  3
ACAD_LAYOUT
350
1A
  3
ACAD_MLINESTYLE
350
17
  3
ACAD_PLOTSETTINGS
350
19
  3
ACAD_PLOTSTYLENAME
350
E
  3
ACDBVARIABLEDICTIONARY
350
34
  3
ACMDICTIONARY
350
43
  3
AMG
350
2B
  3
AMGSNAPSETTINGS
350
6E
  3
DWGPROPS
350
26D7
  3
ACDBHEADERROUNDTRIPXREC
350
26E4
  0
DICTIONARY
  5
74
330
1F
100
AcDbDictionary
280
     1
  3
ACAD_INDEX
360
26D9
  3
ACAD_LAYOUTSELFREF
360
2707
  0
DICTIONARY
  5
270C
330
101
100
AcDbDictionary
280
     1
  3
ACAD_LAYOUTSELFREF
360
270D
  0
DICTIONARY
  5
D
102
{ACAD_REACTORS
330
C
102
}
330
C
100
AcDbDictionary
  0
DICTIONARY
  5
1A
102
{ACAD_REACTORS
330
C
102
}
330
C
100
AcDbDictionary
  0
DICTIONARY
  5
17
102
{ACAD_REACTORS
330
C
102
}
330
C
100
AcDbDictionary
  3
STANDARD
350
18
  0
DICTIONARY
  5
19
102
{ACAD_REACTORS
330
C
102
}
330
C
100
AcDbDictionary
  0
ACDBDICTIONARYWDFLT
  5
E
102
{ACAD_REACTORS
330
C
102
}
330
C
100
AcDbDictionary
281
     1
  3
Normal
350
F
100
AcDbDictionaryWithDefault
340
F
  0
DICTIONARY
  5
34
102
{ACAD_REACTORS
330
C
102
}
330
C
100
AcDbDictionary
  3
INDEXCTL
350
35
  3
SORTENTS
350
B5E
  0
DICTIONARY
  5
43
102
{ACAD_REACTORS
330
C
102
}
330
C
100
AcDbDictionary
  3
ACMSTDDICTIONARY
350
260
  0
DICTIONARY
  5
2B
102
{ACAD_REACTORS
330
C
102
}
330
C
100
AcDbDictionary
  3
ACMGSETTINGS
350
2C
  0
DICTIONARY
  5
6E
102
{ACAD_REACTORS
330
C
102
}
330
C
100
AcDbDictionary
  0
XRECORD
  5
26D7
102
{ACAD_REACTORS
330
C
102
}
330
C
100
AcDbXrecord
  1
DWGPROPS COOKIE
  2

  3

  4

  6

  7

  8

  9

300
AmdtFileType=82
301
=
302
=
303
=
304
=
305
=
306
=
307
=
308
=
309
=
 40
0.0361559375
 41
2452800.443498622
 42
2452948.554806851
  1

 90
        1
  0
DICTIONARY
  5
26E4
102
{ACAD_REACTORS
330
C
102
}
330
C
100
AcDbDictionary
  3
TSTACKALIGN
350
26E5
  3
TSTACKSIZE
350
26E6
  3
HYPERLINKBASE
350
26E7
  3
STYLESHEET
350
26E8
  3
LAYOUTDICT
350
26E9
  3
PLOTSETDICT
350
26EA
  3
PLOTSTYLNAMDICT
350
26EB
  3
LWETCUNION
350
26EC
  3
INSUNITS
350
26ED
  3
CEPSNTYPE
350
26EE
  3
FINGERPRINTGUID
350
26EF
  3
VERSIONGUID
350
26F0
  3
PSVPSCALE
350
26F1
  3
DIMSTYLEDATA
350
26F2
  3
PUCSORTHOREF
350
26F3
  3
PUCSORTHOVIEW
350
26F4
  3
PUCSBASE
350
26F5
  3
PUCSORGTOP
350
26F6
  3
PUCSORGBOTTOM
350
26F7
  3
PUCSORGLEFT
350
26F8
  3
PUCSORGRIGHT
350
26F9
  3
PUCSORGFRONT
350
26FA
  3
PUCSORGBACK
350
26FB
  3
UCSORTHOREF
350
26FC
  3
UCSORTHOVIEW
350
26FD
  3
UCSBASE
350
26FE
  3
UCSORGTOP
350
26FF
  3
UCSORGBOTTOM
350
2700
  3
UCSORGLEFT
350
2701
  3
UCSORGRIGHT
350
2702
  3
UCSORGFRONT
350
2703
  3
UCSORGBACK
350
2704
  0
DICTIONARY
  5
26D9
102
{ACAD_REACTORS
330
74
102
}
330
74
100
AcDbDictionary
  3
*A1
350
26DA
  0
XRECORD
  5
2707
102
{ACAD_REACTORS
330
74
102
}
330
74
100
AcDbXrecord
340
1F
  0
XRECORD
  5
270D
102
{ACAD_REACTORS
330
270C
102
}
330
270C
100
AcDbXrecord
340
101
  0
MLINESTYLE
  5
18
102
{ACAD_REACTORS
330
17
102
}
330
17
100
AcDbMlineStyle
  2
STANDARD
 70
     0
  3

 62
   256
 51
90.0
 52
90.0
 71
     2
 49
0.5
 62
   256
  6
BYLAYER
 49
-0.5
 62
   256
  6
BYLAYER
  0
ACDBPLACEHOLDER
  5
F
102
{ACAD_REACTORS
330
E
102
}
330
E
100
AcDbPlaceHolder
280
     0
  0
DICTIONARYVAR
  5
35
102
{ACAD_REACTORS
330
34
102
}
330
34
100
DictionaryVariables
280
     0
  1
1
  0
DICTIONARYVAR
  5
B5E
102
{ACAD_REACTORS
330
34
102
}
330
34
100
DictionaryVariables
280
     0
  1
96
  0
DICTIONARY
  5
260
102
{ACAD_REACTORS
330
43
102
}
330
43
100
AcDbDictionary
  0
DICTIONARY
  5
2C
102
{ACAD_REACTORS
330
2B
102
}
330
2B
100
AcDbDictionary
  3
DWGSETTINGS
350
2D
  0
XRECORD
  5
26E5
102
{ACAD_REACTORS
330
26E4
102
}
330
26E4
100
AcDbXrecord
 90
        1
  0
XRECORD
  5
26E6
102
{ACAD_REACTORS
330
26E4
102
}
330
26E4
100
AcDbXrecord
 90
       70
  0
XRECORD
  5
26E7
102
{ACAD_REACTORS
330
26E4
102
}
330
26E4
100
AcDbXrecord
  1

  0
XRECORD
  5
26E8
102
{ACAD_REACTORS
330
26E4
102
}
330
26E4
100
AcDbXrecord
  1
ASAMI.ctb
  0
XRECORD
  5
26E9
102
{ACAD_REACTORS
330
26E4
102
}
330
26E4
100
AcDbXrecord
340
1A
  0
XRECORD
  5
26EA
102
{ACAD_REACTORS
330
26E4
102
}
330
26E4
100
AcDbXrecord
340
19
  0
XRECORD
  5
26EB
102
{ACAD_REACTORS
330
26E4
102
}
330
26E4
100
AcDbXrecord
340
E
  0
XRECORD
  5
26EC
102
{ACAD_REACTORS
330
26E4
102
}
330
26E4
100
AcDbXrecord
 90
    10781
  0
XRECORD
  5
26ED
102
{ACAD_REACTORS
330
26E4
102
}
330
26E4
100
AcDbXrecord
 90
        4
  0
XRECORD
  5
26EE
102
{ACAD_REACTORS
330
26E4
102
}
330
26E4
100
AcDbXrecord
 90
        0
  0
XRECORD
  5
26EF
102
{ACAD_REACTORS
330
26E4
102
}
330
26E4
100
AcDbXrecord
  1
{AFB28963-8C59-40AE-9337-C84526B81ACE}
  0
XRECORD
  5
26F0
102
{ACAD_REACTORS
330
26E4
102
}
330
26E4
100
AcDbXrecord
  1
{6AC899BD-4A71-4D02-A711-F5FD9D2238C9}
  0
XRECORD
  5
26F1
102
{ACAD_REACTORS
330
26E4
102
}
330
26E4
100
AcDbXrecord
 40
0.0
  0
XRECORD
  5
26F2
102
{ACAD_REACTORS
330
26E4
102
}
330
26E4
100
AcDbXrecord
1000
DSTYLE
1002
{
1070
    79
 70
     2
1070
   341
340
59
1070
   342
340
59
1070
   371
 70
    -1
1070
   372
 70
    -1
1002
}
  0
XRECORD
  5
26F3
102
{ACAD_REACTORS
330
26E4
102
}
330
26E4
100
AcDbXrecord
340
0
  0
XRECORD
  5
26F4
102
{ACAD_REACTORS
330
26E4
102
}
330
26E4
100
AcDbXrecord
 70
     0
  0
XRECORD
  5
26F5
102
{ACAD_REACTORS
330
26E4
102
}
330
26E4
100
AcDbXrecord
340
0
  0
XRECORD
  5
26F6
102
{ACAD_REACTORS
330
26E4
102
}
330
26E4
100
AcDbXrecord
 10
0.0
 20
0.0
 30
0.0
  0
XRECORD
  5
26F7
102
{ACAD_REACTORS
330
26E4
102
}
330
26E4
100
AcDbXrecord
 10
0.0
 20
0.0
 30
0.0
  0
XRECORD
  5
26F8
102
{ACAD_REACTORS
330
26E4
102
}
330
26E4
100
AcDbXrecord
 10
0.0
 20
0.0
 30
0.0
  0
XRECORD
  5
26F9
102
{ACAD_REACTORS
330
26E4
102
}
330
26E4
100
AcDbXrecord
 10
0.0
 20
0.0
 30
0.0
  0
XRECORD
  5
26FA
102
{ACAD_REACTORS
330
26E4
102
}
330
26E4
100
AcDbXrecord
 10
0.0
 20
0.0
 30
0.0
  0
XRECORD
  5
26FB
102
{ACAD_REACTORS
330
26E4
102
}
330
26E4
100
AcDbXrecord
 10
0.0
 20
0.0
 30
0.0
  0
XRECORD
  5
26FC
102
{ACAD_REACTORS
330
26E4
102
}
330
26E4
100
AcDbXrecord
340
0
  0
XRECORD
  5
26FD
102
{ACAD_REACTORS
330
26E4
102
}
330
26E4
100
AcDbXrecord
 70
     0
  0
XRECORD
  5
26FE
102
{ACAD_REACTORS
330
26E4
102
}
330
26E4
100
AcDbXrecord
340
0
  0
XRECORD
  5
26FF
102
{ACAD_REACTORS
330
26E4
102
}
330
26E4
100
AcDbXrecord
 10
0.0
 20
0.0
 30
0.0
  0
XRECORD
  5
2700
102
{ACAD_REACTORS
330
26E4
102
}
330
26E4
100
AcDbXrecord
 10
0.0
 20
0.0
 30
0.0
  0
XRECORD
  5
2701
102
{ACAD_REACTORS
330
26E4
102
}
330
26E4
100
AcDbXrecord
 10
0.0
 20
0.0
 30
0.0
  0
XRECORD
  5
2702
102
{ACAD_REACTORS
330
26E4
102
}
330
26E4
100
AcDbXrecord
 10
0.0
 20
0.0
 30
0.0
  0
XRECORD
  5
2703
102
{ACAD_REACTORS
330
26E4
102
}
330
26E4
100
AcDbXrecord
 10
0.0
 20
0.0
 30
0.0
  0
XRECORD
  5
2704
102
{ACAD_REACTORS
330
26E4
102
}
330
26E4
100
AcDbXrecord
 10
0.0
 20
0.0
 30
0.0
  0
LAYER_INDEX
  5
26DA
102
{ACAD_REACTORS
330
26D9
102
}
330
26D9
100
AcDbIndex
 40
2453151.677195984
100
AcDbLayerIndex
  8
0
360
26DB
 90
        0
  8
AM_0
360
26DC
 90
       53
  8
AM_7
360
26DD
 90
        1
  8
AM_11
360
26DE
 90
       21
  8
AM_5
360
26DF
 90
        5
  8
Defpoints
360
26E0
 90
        0
  8
AM_6
360
26E1
 90
        1
  8
AM_CL
360
26E2
 90
        0
  0
XRECORD
  5
2D
102
{ACAD_REACTORS
330
2C
102
}
330
2C
100
AcDbXrecord
  1
VERSION
140
15.0
  1
PRODUCT
  2
AutoCAD Mechanical 2000
  0
IDBUFFER
  5
26DB
330
0
100
AcDbIdBuffer
  0
IDBUFFER
  5
26DC
330
0
100
AcDbIdBuffer
330
2533
330
2534
330
2535
330
254F
330
2550
330
C30
330
1CA9
330
1E12
330
1E16
330
1E1D
330
1E21
330
1E22
330
1E25
330
1E26
330
2202
330
2204
330
220A
330
220D
330
220E
330
220F
330
2210
330
2211
330
2212
330
2213
330
2215
330
2216
330
2217
330
2218
330
2219
330
221A
330
221B
330
221C
330
221D
330
221E
330
2221
330
2222
330
2225
330
2226
330
2227
330
2228
330
2229
330
222A
330
222B
330
2527
330
2528
330
2529
330
252A
330
252B
330
252C
330
252D
330
252F
330
2530
330
2532
  0
IDBUFFER
  5
26DD
330
0
100
AcDbIdBuffer
330
C9F
  0
IDBUFFER
  5
26DE
330
0
100
AcDbIdBuffer
330
2230
330
2231
330
2232
330
2233
330
2234
330
1BE8
330
1BE9
330
1F66
330
1F67
330
1F68
330
1F69
330
1F6A
330
1F6B
330
2206
330
2207
330
2208
330
2209
330
220B
330
220C
330
222E
330
222F
  0
IDBUFFER
  5
26DF
330
0
100
AcDbIdBuffer
330
CC6
330
DF5
330
228A
330
23E9
330
258B
  0
IDBUFFER
  5
26E0
330
0
100
AcDbIdBuffer
  0
IDBUFFER
  5
26E1
330
0
100
AcDbIdBuffer
330
19BD
  0
IDBUFFER
  5
26E2
330
0
100
AcDbIdBuffer
  0
ENDSEC
  0
EOF
