  0
SECTION
  2
HEADER
  9
$ACADVER
  1
AC1014
  9
$ACADMAINTVER
 70
     9
  9
$DWGCODEPAGE
  3
ANSI_932
  9
$INSBASE
 10
0.0
 20
0.0
 30
0.0
  9
$EXTMIN
 10
-135.7394118751193
 20
-33.59291215210461
 30
-0.00000001
  9
$EXTMAX
 10
21.62438957323696
 20
20.87187522406139
 30
0.00000001
  9
$LIMMIN
 10
-152.6594002400486
 20
-56.66855013975075
  9
$LIMMAX
 10
38.38266505565792
 20
42.62910224214635
  9
$ORTHOMODE
 70
     0
  9
$REGENMODE
 70
     1
  9
$FILLMODE
 70
     1
  9
$QTEXTMODE
 70
     0
  9
$MIRRTEXT
 70
     0
  9
$DRAGMODE
 70
     2
  9
$LTSCALE
 40
1.0
  9
$OSMODE
 70
    55
  9
$ATTMODE
 70
     1
  9
$TEXTSIZE
 40
2.5
  9
$TRACEWID
 40
1.0
  9
$TEXTSTYLE
  7
STANDARD
  9
$CLAYER
  8
AM_0
  9
$CELTYPE
  6
BYLAYER
  9
$CECOLOR
 62
   256
  9
$CELTSCALE
 40
1.0
  9
$DELOBJ
 70
     1
  9
$DISPSILH
 70
     0
  9
$DIMSCALE
 40
1.0
  9
$DIMASZ
 40
2.5
  9
$DIMEXO
 40
1.0
  9
$DIMDLI
 40
12.0
  9
$DIMRND
 40
0.0
  9
$DIMDLE
 40
0.0
  9
$DIMEXE
 40
1.0
  9
$DIMTP
 40
0.1
  9
$DIMTM
 40
0.1
  9
$DIMTXT
 40
3.2
  9
$DIMCEN
 40
0.0
  9
$DIMTSZ
 40
0.0
  9
$DIMTOL
 70
     0
  9
$DIMLIM
 70
     0
  9
$DIMTIH
 70
     0
  9
$DIMTOH
 70
     0
  9
$DIMSE1
 70
     0
  9
$DIMSE2
 70
     0
  9
$DIMTAD
 70
     3
  9
$DIMZIN
 70
     8
  9
$DIMBLK
  1
OPEN30
  9
$DIMASO
 70
     1
  9
$DIMSHO
 70
     1
  9
$DIMPOST
  1

  9
$DIMAPOST
  1
"
  9
$DIMALT
 70
     0
  9
$DIMALTD
 70
     2
  9
$DIMALTF
 40
0.0393701
  9
$DIMLFAC
 40
1.0
  9
$DIMTOFL
 70
     1
  9
$DIMTVP
 40
0.0
  9
$DIMTIX
 70
     0
  9
$DIMSOXD
 70
     0
  9
$DIMSAH
 70
     0
  9
$DIMBLK1
  1

  9
$DIMBLK2
  1

  9
$DIMSTYLE
  2
AM_JIS
  9
$DIMCLRD
 70
   256
  9
$DIMCLRE
 70
   256
  9
$DIMCLRT
 70
     2
  9
$DIMTFAC
 40
0.71
  9
$DIMGAP
 40
1.5
  9
$DIMJUST
 70
     0
  9
$DIMSD1
 70
     0
  9
$DIMSD2
 70
     0
  9
$DIMTOLJ
 70
     0
  9
$DIMTZIN
 70
     0
  9
$DIMALTZ
 70
     0
  9
$DIMALTTZ
 70
     0
  9
$DIMFIT
 70
     3
  9
$DIMUPT
 70
     0
  9
$DIMUNIT
 70
     2
  9
$DIMDEC
 70
     3
  9
$DIMTDEC
 70
     3
  9
$DIMALTU
 70
     2
  9
$DIMALTTD
 70
     2
  9
$DIMTXSTY
  7
ASAMI
  9
$DIMAUNIT
 70
     0
  9
$LUNITS
 70
     2
  9
$LUPREC
 70
     2
  9
$SKETCHINC
 40
1.0
  9
$FILLETRAD
 40
2.5
  9
$AUNITS
 70
     0
  9
$AUPREC
 70
     0
  9
$MENU
  1
.
  9
$ELEVATION
 40
0.0
  9
$PELEVATION
 40
0.0
  9
$THICKNESS
 40
0.0
  9
$LIMCHECK
 70
     0
  9
$BLIPMODE
 70
     0
  9
$CHAMFERA
 40
0.25
  9
$CHAMFERB
 40
0.25
  9
$CHAMFERC
 40
20.0
  9
$CHAMFERD
 40
0.0
  9
$SKPOLY
 70
     0
  9
$TDCREATE
 40
2452800.443498622
  9
$TDUPDATE
 40
2453151.584986065
  9
$TDINDWG
 40
0.0427060648
  9
$TDUSRTIMER
 40
0.0427060648
  9
$USRTIMER
 70
     1
  9
$ANGBASE
 50
0.0
  9
$ANGDIR
 70
     0
  9
$PDMODE
 70
     3
  9
$PDSIZE
 40
0.0
  9
$PLINEWID
 40
0.0
  9
$COORDS
 70
     1
  9
$SPLFRAME
 70
     0
  9
$SPLINETYPE
 70
     6
  9
$SPLINESEGS
 70
     8
  9
$ATTDIA
 70
     1
  9
$ATTREQ
 70
     1
  9
$HANDLING
 70
 12289
  9
$HANDSEED
  5
23D5
  9
$SURFTAB1
 70
     6
  9
$SURFTAB2
 70
     6
  9
$SURFTYPE
 70
     6
  9
$SURFU
 70
     6
  9
$SURFV
 70
     6
  9
$UCSNAME
  2

  9
$UCSORG
 10
0.0
 20
0.0
 30
0.0
  9
$UCSXDIR
 10
1.0
 20
0.0000000000000027
 30
0.0
  9
$UCSYDIR
 10
-0.0000000000000027
 20
1.0
 30
0.0
  9
$PUCSNAME
  2

  9
$PUCSORG
 10
0.0
 20
0.0
 30
0.0
  9
$PUCSXDIR
 10
1.0
 20
0.0
 30
0.0
  9
$PUCSYDIR
 10
0.0
 20
1.0
 30
0.0
  9
$USERI1
 70
     0
  9
$USERI2
 70
     0
  9
$USERI3
 70
     0
  9
$USERI4
 70
     0
  9
$USERI5
 70
     0
  9
$USERR1
 40
0.0
  9
$USERR2
 40
0.0
  9
$USERR3
 40
0.0
  9
$USERR4
 40
0.0
  9
$USERR5
 40
0.0
  9
$WORLDVIEW
 70
     1
  9
$SHADEDGE
 70
     3
  9
$SHADEDIF
 70
    70
  9
$TILEMODE
 70
     1
  9
$MAXACTVP
 70
    64
  9
$PINSBASE
 10
0.0
 20
0.0
 30
0.0
  9
$PLIMCHECK
 70
     0
  9
$PEXTMIN
 10
1.000000000000000E+20
 20
1.000000000000000E+20
 30
1.000000000000000E+20
  9
$PEXTMAX
 10
-1.000000000000000E+20
 20
-1.000000000000000E+20
 30
-1.000000000000000E+20
  9
$PLIMMIN
 10
0.0
 20
0.0
  9
$PLIMMAX
 10
841.0
 20
594.0
  9
$UNITMODE
 70
     0
  9
$VISRETAIN
 70
     1
  9
$PLINEGEN
 70
     0
  9
$PSLTSCALE
 70
     0
  9
$TREEDEPTH
 70
  3020
  9
$PICKSTYLE
 70
     0
  9
$CMLSTYLE
  2
STANDARD
  9
$CMLJUST
 70
     0
  9
$CMLSCALE
 40
20.0
  9
$PROXYGRAPHICS
 70
     1
  9
$MEASUREMENT
 70
     1
  0
ENDSEC
  0
SECTION
  2
CLASSES
  0
CLASS
  1
ACDBDICTIONARYWDFLT
  2
AcDbDictionaryWithDefault
  3
AutoCAD 2000
 90
        0
280
     0
281
     0
  0
CLASS
  1
ACDBPLACEHOLDER
  2
AcDbPlaceHolder
  3
AutoCAD 2000
 90
        0
280
     0
281
     0
  0
CLASS
  1
LAYOUT
  2
AcDbLayout
  3
AutoCAD 2000
 90
        0
280
     0
281
     0
  0
CLASS
  1
AMGSETTINGSOBJ
  2
AmgSettingsObj
  3
"AcadM|Product Description: AutoCAD Mechanical 2000|Company: Autodesk"
 90
        0
280
     0
281
     0
  0
CLASS
  1
ACME_DOCUMENT
  2
AcMeDbDoc
  3
AcMeServices
 90
        0
280
     0
281
     0
  0
CLASS
  1
ACMESCOPE
  2
AcMeScope
  3
AcMeServices
 90
        0
280
     0
281
     0
  0
CLASS
  1
ACMECOMMANDHISTORY
  2
AcMeCommandHistory
  3
AcMeServices
 90
        0
280
     0
281
     0
  0
CLASS
  1
DICTIONARYVAR
  2
AcDbDictionaryVar
  3
AutoCAD 2000
 90
        0
280
     0
281
     0
  0
CLASS
  1
ACIMSYSVARMAN
  2
AcImSysVarManager
  3
AcMeServices
 90
        0
280
     0
281
     0
  0
CLASS
  1
ACIMREALSYSVAR
  2
AcImRealSysVar
  3
AcMeServices
 90
        0
280
     0
281
     0
  0
CLASS
  1
ACIMINTSYSVAR
  2
AcImIntSysVar
  3
AcMeServices
 90
        0
280
     0
281
     0
  0
CLASS
  1
ACMEDRAWINGMAN
  2
AcMeDrawingMan
  3
AcMeServices
 90
        0
280
     0
281
     0
  0
CLASS
  1
ACMEVIEW
  2
AcMeView
  3
AcMeServices
 90
        0
280
     0
281
     0
  0
CLASS
  1
ACDBENTITYCACHE
  2
AcMeEntityCache
  3
AcMeServices
 90
        0
280
     0
281
     0
  0
CLASS
  1
GSMANAGER
  2
AcMeGSManager
  3
AcMeServices
 90
        0
280
     0
281
     0
  0
CLASS
  1
AmdtInternalReactor
  2
AmdtInternalReactor
  3
AcMeServices
 90
        0
280
     0
281
     0
  0
CLASS
  1
ACMESTATEMGR
  2
AcMeStateMgr
  3
AcMeServices
 90
        0
280
     0
281
     0
  0
CLASS
  1
ACME_DATABASE
  2
AcMeDbDatabase
  3
AcMeServices
 90
        0
280
     0
281
     0
  0
CLASS
  1
ACRFINSADJUSTERMGR
  2
AcRfInsAdjusterMgr
  3
AcMeServices
 90
        0
280
     0
281
     0
  0
CLASS
  1
ACMDATADICTIONARY
  2
AcmDataDictionary
  3
"AcmSymBB|Product Description: AutoCAD Mechanical 2000|Company: Autodesk"
 90
        0
280
     0
281
     0
  0
CLASS
  1
ACMDATAENTRYBLOCK
  2
AcmDataEntryBlock
  3
"AcmSymBB|Product Description: AutoCAD Mechanical 2000|Company: Autodesk"
 90
        0
280
     0
281
     0
  0
CLASS
  1
AMGOBJPROPCFG
  2
AmgObjPropCfg
  3
"AmgLay|Product Description: AutoCAD Mechanical 2000|Company: Autodesk"
 90
        1
280
     0
281
     0
  0
CLASS
  1
ACAMGFILTERDAT
  2
AcAmgFilterDat
  3
"AcadM|Product Description: AutoCAD Mechanical 2000|Company: Autodesk"
 90
        0
280
     0
281
     0
  0
CLASS
  1
LAYER_INDEX
  2
AcDbLayerIndex
  3
AutoCAD 2000
 90
        0
280
     0
281
     0
  0
CLASS
  1
IDBUFFER
  2
AcDbIdBuffer
  3
AutoCAD 2000
 90
        0
280
     0
281
     0
  0
CLASS
  1
ACIMSTRSYSVAR
  2
AcImStrSysVar
  3
AcMeServices
 90
        0
280
     0
281
     0
  0
CLASS
  1
ACMSTANDARDJIS
  2
AcmStandardJIS
  3
"AcmSymBB|Product Description: AutoCAD Mechanical 2000|Company: Autodesk"
 90
        0
280
     0
281
     0
  0
CLASS
  1
ACMSURFSTANDARDJIS
  2
AcmSurfTextStdJIS
  3
"AcmSymBB|Product Description: AutoCAD Mechanical 2000|Company: Autodesk"
 90
        0
280
     0
281
     0
  0
CLASS
  1
ACMFCFSTANDARDJIS
  2
AcmFCFStdJIS
  3
"AcmSymBB|Product Description: AutoCAD Mechanical 2000|Company: Autodesk"
 90
        0
280
     0
281
     0
  0
CLASS
  1
ACMWELDSTANDARDJIS
  2
AcmWeldingStdJIS
  3
"AcmSymBB|Product Description: AutoCAD Mechanical 2000|Company: Autodesk"
 90
        0
280
     0
281
     0
  0
CLASS
  1
ACMIDSTANDARDJIS
  2
AcmIdStdJIS
  3
"AcmSymBB|Product Description: AutoCAD Mechanical 2000|Company: Autodesk"
 90
        0
280
     0
281
     0
  0
CLASS
  1
ACMDATUMSTANDARDJIS
  2
AcmDatumStdJIS
  3
"AcmSymBB|Product Description: AutoCAD Mechanical 2000|Company: Autodesk"
 90
        0
280
     0
281
     0
  0
CLASS
  1
ACMBOMSTANDARDJIS
  2
AcmBOMStdJIS
  3
"AcmSymBB|Product Description: AutoCAD Mechanical 2000|Company: Autodesk"
 90
        0
280
     0
281
     0
  0
CLASS
  1
ACMSTANDARDANSI
  2
AcmStandardANSI
  3
"AcmSymBB|Product Description: AutoCAD Mechanical 2000|Company: Autodesk"
 90
        0
280
     0
281
     0
  0
CLASS
  1
ACMSURFSTANDARDANSI
  2
AcmSurfTextStdANSI
  3
"AcmSymBB|Product Description: AutoCAD Mechanical 2000|Company: Autodesk"
 90
        0
280
     0
281
     0
  0
CLASS
  1
ACMFCFSTANDARDANSI
  2
AcmFCFStdANSI
  3
"AcmSymBB|Product Description: AutoCAD Mechanical 2000|Company: Autodesk"
 90
        0
280
     0
281
     0
  0
CLASS
  1
ACMWELDSTANDARDANSI
  2
AcmWeldingStdANSI
  3
"AcmSymBB|Product Description: AutoCAD Mechanical 2000|Company: Autodesk"
 90
        0
280
     0
281
     0
  0
CLASS
  1
ACMIDSTANDARDANSI
  2
AcmIdStdANSI
  3
"AcmSymBB|Product Description: AutoCAD Mechanical 2000|Company: Autodesk"
 90
        0
280
     0
281
     0
  0
CLASS
  1
ACMDATUMSTANDARDANSI
  2
AcmDatumStdANSI
  3
"AcmSymBB|Product Description: AutoCAD Mechanical 2000|Company: Autodesk"
 90
        0
280
     0
281
     0
  0
CLASS
  1
ACMBOMSTANDARDANSI
  2
AcmBOMStdANSI
  3
"AcmSymBB|Product Description: AutoCAD Mechanical 2000|Company: Autodesk"
 90
        0
280
     0
281
     0
  0
CLASS
  1
ACMSTANDARDBSI
  2
AcmStandardBSI
  3
"AcmSymBB|Product Description: AutoCAD Mechanical 2000|Company: Autodesk"
 90
        0
280
     0
281
     0
  0
CLASS
  1
ACMSURFSTANDARDBSI
  2
AcmSurfTextStdBSI
  3
"AcmSymBB|Product Description: AutoCAD Mechanical 2000|Company: Autodesk"
 90
        0
280
     0
281
     0
  0
CLASS
  1
ACMFCFSTANDARDBSI
  2
AcmFCFStdBSI
  3
"AcmSymBB|Product Description: AutoCAD Mechanical 2000|Company: Autodesk"
 90
        0
280
     0
281
     0
  0
CLASS
  1
ACMWELDSTANDARDBSI
  2
AcmWeldingStdBSI
  3
"AcmSymBB|Product Description: AutoCAD Mechanical 2000|Company: Autodesk"
 90
        0
280
     0
281
     0
  0
CLASS
  1
ACMIDSTANDARDBSI
  2
AcmIdStdBSI
  3
"AcmSymBB|Product Description: AutoCAD Mechanical 2000|Company: Autodesk"
 90
        0
280
     0
281
     0
  0
CLASS
  1
ACMDATUMSTANDARDBSI
  2
AcmDatumStdBSI
  3
"AcmSymBB|Product Description: AutoCAD Mechanical 2000|Company: Autodesk"
 90
        0
280
     0
281
     0
  0
CLASS
  1
ACMBOMSTANDARDBSI
  2
AcmBOMStdBSI
  3
"AcmSymBB|Product Description: AutoCAD Mechanical 2000|Company: Autodesk"
 90
        0
280
     0
281
     0
  0
CLASS
  1
LONG_TRANSACTION
  2
AcDbLongTransaction
  3
AutoCAD 2000
 90
        0
280
     0
281
     0
  0
CLASS
  1
LWPOLYLINE
  2
AcDbPolyline
  3
AutoCAD 2000
 90
        0
280
     0
281
     1
  0
CLASS
  1
HATCH
  2
AcDbHatch
  3
AutoCAD 2000
 90
        0
280
     0
281
     1
  0
CLASS
  1
XRECORD
  2
AcDbXrecord
  3
AutoCAD 2000
 90
        0
280
     0
281
     0
  0
ENDSEC
  0
SECTION
  2
TABLES
  0
TABLE
  2
VPORT
  5
8
330
0
100
AcDbSymbolTable
 70
     3
  0
VPORT
  5
23AA
330
8
100
AcDbSymbolTableRecord
100
AcDbViewportTableRecord
  2
*ACTIVE
 70
     0
 10
0.0
 20
0.0
 11
1.0
 21
1.0
 12
-59.70844013813411
 22
2.144436952418146
 13
0.0
 23
0.0
 14
2.5
 24
2.5
 15
10.0
 25
10.0
 16
0.0
 26
0.0
 36
1.0
 17
0.0
 27
0.0
 37
0.0
 40
173.266899631431
 41
1.56570841889117
 42
50.0
 43
0.0
 44
0.0
 50
0.0
 51
0.0
 71
     0
 72
   100
 73
     1
 74
     1
 75
     0
 76
     0
 77
     0
 78
     0
  0
ENDTAB
  0
TABLE
  2
LTYPE
  5
5
330
0
100
AcDbSymbolTable
 70
    10
  0
LTYPE
  5
14
330
5
100
AcDbSymbolTableRecord
100
AcDbLinetypeTableRecord
  2
BYBLOCK
 70
     0
  3

 72
    65
 73
     0
 40
0.0
  0
LTYPE
  5
15
330
5
100
AcDbSymbolTableRecord
100
AcDbLinetypeTableRecord
  2
BYLAYER
 70
     0
  3

 72
    65
 73
     0
 40
0.0
  0
LTYPE
  5
16
330
5
100
AcDbSymbolTableRecord
100
AcDbLinetypeTableRecord
  2
CONTINUOUS
 70
     0
  3
Solid line
 72
    65
 73
     0
 40
0.0
  0
LTYPE
  5
4B
330
5
100
AcDbSymbolTableRecord
100
AcDbLinetypeTableRecord
  2
AM_ISO02W050
 70
     0
  3
__ __ __ __ __ __ __ __ __ __ __ __ __ __ __
 72
    65
 73
     2
 40
7.5
 49
6.0
 74
     0
 49
-1.5
 74
     0
  0
LTYPE
  5
4C
330
5
100
AcDbSymbolTableRecord
100
AcDbLinetypeTableRecord
  2
AM_ISO08W050
 70
     0
  3
____ . ____ . ____ . ____ . ____ . ____ . ____
 72
    65
 73
     4
 40
18.0
 49
12.0
 74
     0
 49
-1.5
 74
     0
 49
3.0
 74
     0
 49
-1.5
 74
     0
  0
LTYPE
  5
4D
330
5
100
AcDbSymbolTableRecord
100
AcDbLinetypeTableRecord
  2
AM_ISO09W050
 70
     0
  3
_____ . . _____ . . _____ . . ____ .. ____
 72
    65
 73
     6
 40
22.5
 49
12.0
 74
     0
 49
-1.5
 74
     0
 49
3.0
 74
     0
 49
-1.5
 74
     0
 49
3.0
 74
     0
 49
-1.5
 74
     0
  0
LTYPE
  5
4E
330
5
100
AcDbSymbolTableRecord
100
AcDbLinetypeTableRecord
  2
AMCONSTR
 70
     0
  3
_______________________
 72
    65
 73
     2
 40
9999.0
 49
9999.0
 74
     0
 49
0.0
 74
     0
  0
LTYPE
  5
4F
330
5
100
AcDbSymbolTableRecord
100
AcDbLinetypeTableRecord
  2
AM_ISO02W050X2
 70
     0
  3
 _ _ _ _ _ _ _ _ _ _ _ _
 72
    65
 73
     2
 40
3.75
 49
3.0
 74
     0
 49
-0.75
 74
     0
  0
LTYPE
  5
50
330
5
100
AcDbSymbolTableRecord
100
AcDbLinetypeTableRecord
  2
AM_ISO08W050X2
 70
     0
  3
__ . __ . __ . __ . __ . __
 72
    65
 73
     4
 40
9.0
 49
6.0
 74
     0
 49
-0.75
 74
     0
 49
1.5
 74
     0
 49
-0.75
 74
     0
  0
LTYPE
  5
53
330
5
100
AcDbSymbolTableRecord
100
AcDbLinetypeTableRecord
  2
AMZIGZAG
 70
     0
  3
/\/-/\/-/\/-/\/-/\/-/\/
 72
    65
 73
     2
 40
11.00009999999999
 49
0.0001
 74
     4
 75
   135
340
52
 46
0.04
 50
0.0
 44
0.0
 45
0.0
 49
-11.0
 74
     0
  0
LTYPE
  5
166
330
5
100
AcDbSymbolTableRecord
100
AcDbLinetypeTableRecord
  2
ACJISTGL
 70
     0
  3
_ _ _ _ _
 72
    65
 73
     2
 40
3.0
 49
2.0
 74
     0
 49
-1.0
 74
     0
  0
LTYPE
  5
26A
330
5
100
AcDbSymbolTableRecord
100
AcDbLinetypeTableRecord
  2
ACJISTGB
 70
     0
  3
__ . . __ . .
 72
    65
 73
     6
 40
9.0
 49
4.0
 74
     0
 49
-1.0
 74
     0
 49
1.0
 74
     0
 49
-1.0
 74
     0
 49
1.0
 74
     0
 49
-1.0
 74
     0
  0
ENDTAB
  0
TABLE
  2
LAYER
  5
2
330
0
100
AcDbSymbolTable
 70
     8
  0
LAYER
  5
10
330
2
100
AcDbSymbolTableRecord
100
AcDbLayerTableRecord
  2
0
 70
     0
 62
     7
  6
CONTINUOUS
  0
LAYER
  5
3F9
330
2
100
AcDbSymbolTableRecord
100
AcDbLayerTableRecord
  2
AM_0
 70
     0
 62
     7
  6
CONTINUOUS
  0
LAYER
  5
C7C
330
2
100
AcDbSymbolTableRecord
100
AcDbLayerTableRecord
  2
AM_7
 70
     0
 62
     4
  6
AM_ISO08W050
  0
LAYER
  5
C97
330
2
100
AcDbSymbolTableRecord
100
AcDbLayerTableRecord
  2
AM_11
 70
     0
 62
     3
  6
AM_ISO09W050
  0
LAYER
  5
CC5
330
2
100
AcDbSymbolTableRecord
100
AcDbLayerTableRecord
  2
AM_5
 70
     0
 62
     3
  6
CONTINUOUS
  0
LAYER
  5
CC7
330
2
100
AcDbSymbolTableRecord
100
AcDbLayerTableRecord
  2
DEFPOINTS
 70
     0
 62
     7
  6
CONTINUOUS
  0
LAYER
  5
19BC
330
2
100
AcDbSymbolTableRecord
100
AcDbLayerTableRecord
  2
AM_6
 70
     0
 62
     2
  6
CONTINUOUS
  0
LAYER
  5
1C84
330
2
100
AcDbSymbolTableRecord
100
AcDbLayerTableRecord
  2
AM_CL
 70
     0
 62
     1
  6
AMCONSTR
  0
ENDTAB
  0
TABLE
  2
STYLE
  5
3
330
0
100
AcDbSymbolTable
 70
     5
  0
STYLE
  5
11
330
3
100
AcDbSymbolTableRecord
100
AcDbTextStyleTableRecord
  2
STANDARD
 70
     0
 40
0.0
 41
1.0
 50
0.0
 71
     0
 42
2.5
  3
simplex.shx
  4
EXTFONT.SHX
  0
STYLE
  5
52
330
3
100
AcDbSymbolTableRecord
100
AcDbTextStyleTableRecord
  2

 70
     1
 40
0.0
 41
1.0
 50
0.0
 71
     0
 42
2.5
  3
ltypeshp.shx
  4

  0
STYLE
  5
6B
330
3
100
AcDbSymbolTableRecord
100
AcDbTextStyleTableRecord
  2
ASAMI
 70
     0
 40
0.0
 41
1.0
 50
0.0
 71
     0
 42
2.5
  3
simplex.shx
  4
EXTFONT.SHX
  0
STYLE
  5
262
330
3
100
AcDbSymbolTableRecord
100
AcDbTextStyleTableRecord
  2
ACJISTS
 70
     0
 40
1.0
 41
1.0
 50
0.0
 71
     0
 42
2.5
  3
simplex.shx
  4
bigfont.shx
  0
STYLE
  5
269
330
3
100
AcDbSymbolTableRecord
100
AcDbTextStyleTableRecord
  2
ACJISGDT
 70
     0
 40
0.0
 41
1.0
 50
0.0
 71
     0
 42
2.5
  3
amgdtans.shx
  4

  0
ENDTAB
  0
TABLE
  2
VIEW
  5
6
330
0
100
AcDbSymbolTable
 70
     0
  0
ENDTAB
  0
TABLE
  2
UCS
  5
7
330
0
100
AcDbSymbolTable
 70
     0
  0
ENDTAB
  0
TABLE
  2
APPID
  5
9
330
0
100
AcDbSymbolTable
 70
    16
  0
APPID
  5
12
330
9
100
AcDbSymbolTableRecord
100
AcDbRegAppTableRecord
  2
ACAD
 70
     0
  0
APPID
  5
30
330
9
100
AcDbSymbolTableRecord
100
AcDbRegAppTableRecord
  2
MCAD_NO_VIS
 70
     0
  0
APPID
  5
31
330
9
100
AcDbSymbolTableRecord
100
AcDbRegAppTableRecord
  2
ACAD_TEMP_GRAPHIC
 70
     0
  0
APPID
  5
2C2
330
9
100
AcDbSymbolTableRecord
100
AcDbRegAppTableRecord
  2
GENIUS_GENDTOL_13
 70
     0
  0
APPID
  5
339
330
9
100
AcDbSymbolTableRecord
100
AcDbRegAppTableRecord
  2
GENIUS_GENODEF_13
 70
     0
  0
APPID
  5
33A
330
9
100
AcDbSymbolTableRecord
100
AcDbRegAppTableRecord
  2
GENIUS_GENOBJ-N-RSBK_13
 70
     0
  0
APPID
  5
33B
330
9
100
AcDbSymbolTableRecord
100
AcDbRegAppTableRecord
  2
GENIUS_GENOBJ-N-LIB_13
 70
     0
  0
APPID
  5
33C
330
9
100
AcDbSymbolTableRecord
100
AcDbRegAppTableRecord
  2
GENIUS_GENSCALE_13
 70
     0
  0
APPID
  5
378
330
9
100
AcDbSymbolTableRecord
100
AcDbRegAppTableRecord
  2
GENIUS_GENDIMSH_14
 70
     0
  0
APPID
  5
C82
330
9
100
AcDbSymbolTableRecord
100
AcDbRegAppTableRecord
  2
GENIUS_GENOBJ-N-CRS_13
 70
     0
  0
APPID
  5
C83
330
9
100
AcDbSymbolTableRecord
100
AcDbRegAppTableRecord
  2
GENIUS_GENOENT_13
 70
     0
  0
APPID
  5
C84
330
9
100
AcDbSymbolTableRecord
100
AcDbRegAppTableRecord
  2
GENIUS_GENOREF_13
 70
     0
  0
APPID
  5
C85
330
9
100
AcDbSymbolTableRecord
100
AcDbRegAppTableRecord
  2
GENIUS_GENOLIS_13
 70
     0
  0
APPID
  5
CA0
330
9
100
AcDbSymbolTableRecord
100
AcDbRegAppTableRecord
  2
GENIUS_GENOBJ-N-CEN_13
 70
     0
  0
APPID
  5
1E1E
330
9
100
AcDbSymbolTableRecord
100
AcDbRegAppTableRecord
  2
GENIUS_GENFIL_13
 70
     0
  0
APPID
  5
1E1F
330
9
100
AcDbSymbolTableRecord
100
AcDbRegAppTableRecord
  2
GENIUS_GENOBJ-N-CHA_13
 70
     0
  0
ENDTAB
  0
TABLE
  2
DIMSTYLE
  5
A
330
0
100
AcDbSymbolTable
 70
     9
  0
DIMSTYLE
105
58
330
A
100
AcDbSymbolTableRecord
100
AcDbDimStyleTableRecord
  2
AM_JIS
 70
     0
  3

  4
"
  5
OPEN30
  6

  7

 40
0.5
 41
2.5
 42
1.0
 43
12.0
 44
1.0
 45
0.0
 46
0.0
 47
0.1
 48
0.1
140
3.2
141
0.0
142
0.0
143
0.0393701
144
1.0
145
0.0
146
0.71
147
1.5
 71
     0
 72
     0
 73
     0
 74
     0
 75
     0
 76
     0
 77
     3
 78
     8
170
     0
171
     2
172
     1
173
     0
174
     0
175
     0
176
   256
177
   256
178
     2
270
     2
271
     3
272
     3
273
     2
274
     2
340
6B
275
     0
280
     0
281
     0
282
     0
283
     0
284
     0
285
     0
286
     0
287
     3
288
     0
  0
DIMSTYLE
105
5F
330
A
100
AcDbSymbolTableRecord
100
AcDbDimStyleTableRecord
  2
AM_JIS$3
 70
     0
  3

  4
"
  5
OPEN30
  6

  7

 40
0.5
 41
2.5
 42
1.0
 43
10.0
 44
1.0
 45
0.0
 46
0.0
 47
0.1
 48
0.1
140
3.2
141
0.0
142
0.0
143
0.0393701
144
1.0
145
0.0
146
0.71
147
1.5
 71
     0
 72
     0
 73
     0
 74
     1
 75
     0
 76
     0
 77
     3
 78
     8
170
     0
171
     2
172
     0
173
     0
174
     0
175
     0
176
   256
177
   256
178
     2
270
     2
271
     2
272
     3
273
     2
274
     2
340
6B
275
     0
280
     0
281
     0
282
     0
283
     0
284
     0
285
     0
286
     0
287
     0
288
     1
  0
DIMSTYLE
105
60
330
A
100
AcDbSymbolTableRecord
100
AcDbDimStyleTableRecord
  2
AM_JIS$4
 70
     0
  3

  4
"
  5
OPEN30
  6

  7

 40
0.5
 41
2.5
 42
1.0
 43
10.0
 44
1.0
 45
0.0
 46
0.0
 47
0.1
 48
0.1
140
3.2
141
0.0
142
0.0
143
0.0393701
144
1.0
145
0.0
146
0.71
147
1.5
 71
     0
 72
     0
 73
     0
 74
     1
 75
     0
 76
     0
 77
     3
 78
     8
170
     0
171
     2
172
     0
173
     0
174
     0
175
     0
176
   256
177
   256
178
     2
270
     2
271
     2
272
     3
273
     2
274
     2
340
6B
275
     0
280
     0
281
     0
282
     0
283
     0
284
     0
285
     0
286
     0
287
     0
288
     1
  0
DIMSTYLE
105
61
330
A
100
AcDbSymbolTableRecord
100
AcDbDimStyleTableRecord
  2
AM_JIS$6
 70
     0
  3

  4
"
  5
OPEN30
  6

  7

 40
0.5
 41
2.5
 42
1.0
 43
10.0
 44
1.0
 45
0.0
 46
0.0
 47
0.1
 48
0.1
140
3.2
141
0.0
142
0.0
143
0.0393701
144
1.0
145
0.0
146
0.71
147
1.5
 71
     0
 72
     0
 73
     0
 74
     0
 75
     0
 76
     0
 77
     0
 78
     8
170
     0
171
     2
172
     1
173
     0
174
     0
175
     0
176
   256
177
   256
178
     2
270
     2
271
     2
272
     2
273
     2
274
     2
340
6B
275
     0
280
     0
281
     0
282
     0
283
     0
284
     0
285
     0
286
     0
287
     3
288
     0
  0
DIMSTYLE
105
62
330
A
100
AcDbSymbolTableRecord
100
AcDbDimStyleTableRecord
  2
AM_JIS$7
 70
     0
  3

  4
"
  5
OPEN30
  6

  7

 40
0.5
 41
2.5
 42
1.0
 43
10.0
 44
1.0
 45
0.0
 46
0.0
 47
0.1
 48
0.1
140
3.2
141
0.0
142
0.0
143
0.0393701
144
1.0
145
0.0
146
0.71
147
1.5
 71
     0
 72
     0
 73
     0
 74
     0
 75
     0
 76
     0
 77
     3
 78
     8
170
     0
171
     2
172
     1
173
     0
174
     0
175
     0
176
   256
177
   256
178
     2
270
     2
271
     2
272
     3
273
     2
274
     2
340
6B
275
     0
280
     0
281
     0
282
     0
283
     0
284
     0
285
     0
286
     0
287
     3
288
     0
  0
DIMSTYLE
105
63
330
A
100
AcDbSymbolTableRecord
100
AcDbDimStyleTableRecord
  2
AM_JIS$SF
 70
     0
  3

  4
"
  5
OPEN30
  6

  7

 40
0.5
 41
2.5
 42
1.0
 43
10.0
 44
1.0
 45
0.0
 46
0.0
 47
0.1
 48
0.1
140
3.2
141
0.0
142
0.0
143
0.0393701
144
1.0
145
0.0
146
0.71
147
1.5
 71
     0
 72
     0
 73
     0
 74
     0
 75
     1
 76
     1
 77
     3
 78
     8
170
     0
171
     2
172
     1
173
     0
174
     0
175
     0
176
   256
177
   256
178
     2
270
     2
271
     2
272
     2
273
     2
274
     2
340
6B
275
     0
280
     0
281
     0
282
     0
283
     0
284
     0
285
     0
286
     0
287
     3
288
     0
  0
DIMSTYLE
105
68
330
A
100
AcDbSymbolTableRecord
100
AcDbDimStyleTableRecord
  2
AM_JIS$SH
 70
     0
  3

  4
"
  5

  6
GENAXEH
  7
OPEN30
 40
0.5
 41
2.5
 42
1.0
 43
10.0
 44
1.0
 45
0.0
 46
0.0
 47
0.1
 48
0.1
140
3.2
141
0.0
142
0.0
143
0.0393701
144
2.0
145
0.0
146
0.71
147
1.5
 71
     0
 72
     0
 73
     0
 74
     0
 75
     1
 76
     1
 77
     3
 78
     8
170
     0
171
     2
172
     1
173
     1
174
     0
175
     0
176
   256
177
   256
178
     2
270
     2
271
     2
272
     2
273
     2
274
     2
340
6B
275
     0
280
     0
281
     0
282
     0
283
     0
284
     0
285
     0
286
     0
287
     3
288
     0
  0
DIMSTYLE
105
B34
102
{ACAD_REACTORS
330
11B2
102
}
330
A
100
AcDbSymbolTableRecord
100
AcDbDimStyleTableRecord
  2
AM_JIS$2
 70
     0
  3

  4
"
  5
OPEN30
  6

  7

 40
0.5
 41
2.5
 42
1.0
 43
12.0
 44
1.0
 45
0.0
 46
0.0
 47
0.1
 48
0.1
140
3.2
141
0.0
142
0.0
143
0.0393701
144
1.0
145
0.0
146
0.71
147
1.5
 71
     0
 72
     0
 73
     0
 74
     0
 75
     0
 76
     0
 77
     3
 78
     8
170
     0
171
     2
172
     1
173
     0
174
     0
175
     0
176
   256
177
   256
178
     2
270
     2
271
     3
272
     3
273
     2
274
     2
340
6B
275
     0
280
     0
281
     0
282
     0
283
     0
284
     0
285
     0
286
     0
287
     3
288
     0
  0
DIMSTYLE
105
BA5
102
{ACAD_REACTORS
330
CC6
330
DF5
330
20BF
330
2157
102
}
330
A
100
AcDbSymbolTableRecord
100
AcDbDimStyleTableRecord
  2
AM_JIS$0
 70
     0
  3

  4
"
  5
OPEN30
  6

  7

 40
0.5
 41
2.5
 42
0.8
 43
10.0
 44
1.0
 45
0.0
 46
0.0
 47
0.1
 48
0.1000000001
140
3.799999999999999
141
0.0
142
0.0
143
0.0393701
144
1.0
145
0.0
146
0.71
147
1.5
 71
     0
 72
     0
 73
     0
 74
     0
 75
     0
 76
     0
 77
     3
 78
     9
170
     0
171
     2
172
     1
173
     0
174
     0
175
     0
176
     3
177
     3
178
     2
270
     2
271
     2
272
     2
273
     2
274
     2
340
11
275
     1
280
     0
281
     0
282
     0
283
     0
284
     8
285
     0
286
     0
287
     0
288
     0
  0
ENDTAB
  0
TABLE
  2
BLOCK_RECORD
  5
1
330
0
100
AcDbSymbolTable
 70
    15
  0
BLOCK_RECORD
  5
1F
102
{ACAD_XDICTIONARY
360
74
102
}
330
1
100
AcDbSymbolTableRecord
100
AcDbBlockTableRecord
  2
*MODEL_SPACE
  0
BLOCK_RECORD
  5
101
102
{ACAD_XDICTIONARY
360
23D3
102
}
330
1
100
AcDbSymbolTableRecord
100
AcDbBlockTableRecord
  2
*PAPER_SPACE
  0
BLOCK_RECORD
  5
59
330
1
100
AcDbSymbolTableRecord
100
AcDbBlockTableRecord
  2
_OPEN30
  0
BLOCK_RECORD
  5
64
330
1
100
AcDbSymbolTableRecord
100
AcDbBlockTableRecord
  2
GENAXEH
  0
BLOCK_RECORD
  5
CC8
330
1
100
AcDbSymbolTableRecord
100
AcDbBlockTableRecord
  2
*D5
  0
BLOCK_RECORD
  5
DF6
330
1
100
AcDbSymbolTableRecord
100
AcDbBlockTableRecord
  2
*D7
  0
BLOCK_RECORD
  5
11B3
330
1
100
AcDbSymbolTableRecord
100
AcDbBlockTableRecord
  2
*D9
  0
BLOCK_RECORD
  5
20C0
330
1
100
AcDbSymbolTableRecord
100
AcDbBlockTableRecord
  2
*D12
  0
BLOCK_RECORD
  5
2158
330
1
100
AcDbSymbolTableRecord
100
AcDbBlockTableRecord
  2
*D13
  0
ENDTAB
  0
ENDSEC
  0
SECTION
  2
BLOCKS
  0
BLOCK
  5
20
330
1F
100
AcDbEntity
  8
0
100
AcDbBlockBegin
  2
*MODEL_SPACE
 70
     0
 10
0.0
 20
0.0
 30
0.0
  3
*MODEL_SPACE
  1

  0
ENDBLK
  5
21
330
1F
100
AcDbEntity
  8
0
100
AcDbBlockEnd
  0
BLOCK
  5
103
330
101
100
AcDbEntity
 67
     1
  8
0
100
AcDbBlockBegin
  2
*PAPER_SPACE
 70
     0
 10
0.0
 20
0.0
 30
0.0
  3
*PAPER_SPACE
  1

  0
ENDBLK
  5
104
330
101
100
AcDbEntity
 67
     1
  8
0
100
AcDbBlockEnd
  0
BLOCK
  5
5D
330
59
100
AcDbEntity
  8
0
100
AcDbBlockBegin
  2
_OPEN30
 70
     0
 10
0.0
 20
0.0
 30
0.0
  3
_OPEN30
  1

  0
LINE
  5
5A
330
59
100
AcDbEntity
  8
0
 62
     0
100
AcDbLine
 10
-1.0
 20
0.26794919
 30
0.0
 11
0.0
 21
0.0
 31
0.0
  0
LINE
  5
5B
330
59
100
AcDbEntity
  8
0
 62
     0
100
AcDbLine
 10
0.0
 20
0.0
 30
0.0
 11
-1.0
 21
-0.26794919
 31
0.0
  0
LINE
  5
5C
330
59
100
AcDbEntity
  8
0
 62
     0
100
AcDbLine
 10
0.0
 20
0.0
 30
0.0
 11
-1.0
 21
0.0
 31
0.0
  0
ENDBLK
  5
5E
330
59
100
AcDbEntity
  8
0
100
AcDbBlockEnd
  0
BLOCK
  5
66
330
64
100
AcDbEntity
  8
0
100
AcDbBlockBegin
  2
GENAXEH
 70
     0
 10
0.0
 20
0.0
 30
0.0
  3
GENAXEH
  1

  0
LINE
  5
65
330
64
100
AcDbEntity
  8
0
100
AcDbLine
 10
-1.0
 20
0.0
 30
0.0
 11
1.0
 21
0.0
 31
0.0
  0
ENDBLK
  5
67
330
64
100
AcDbEntity
  8
0
100
AcDbBlockEnd
  0
BLOCK
  5
CD2
330
CC8
100
AcDbEntity
  8
0
100
AcDbBlockBegin
  2
*D5
 70
     1
 10
0.0
 20
0.0
 30
0.0
  3
*D5
  1

  0
LINE
  5
2351
330
CC8
100
AcDbEntity
  8
AM_5
 62
     3
100
AcDbLine
 10
-119.3394118751193
 20
-4.080001979154318
 30
0.0
 11
-119.3394118751193
 21
-22.84291215210458
 31
0.0
  0
LINE
  5
2352
330
CC8
100
AcDbEntity
  8
AM_5
 62
     3
100
AcDbLine
 10
-1.339411875119457
 20
-4.080001979154005
 30
0.0
 11
-1.339411875119458
 21
-22.84291215210458
 31
0.0
  0
LINE
  5
2353
330
CC8
100
AcDbEntity
  8
AM_5
 62
     3
100
AcDbLine
 10
-118.0894118751193
 20
-22.34291215210458
 30
0.0
 11
-2.589411875119458
 21
-22.34291215210458
 31
0.0
  0
INSERT
  5
2354
330
CC8
100
AcDbEntity
  8
AM_5
 62
     3
100
AcDbBlockReference
  2
_OPEN30
 10
-119.3394118751193
 20
-22.34291215210458
 30
0.0
 41
1.25
 42
1.25
 43
1.25
 50
180.0
  0
INSERT
  5
2355
330
CC8
100
AcDbEntity
  8
AM_5
 62
     3
100
AcDbBlockReference
  2
_OPEN30
 10
-1.339411875119458
 20
-22.34291215210458
 30
0.0
 41
1.25
 42
1.25
 43
1.25
  0
MTEXT
  5
2356
330
CC8
100
AcDbEntity
  8
AM_5
 62
     2
100
AcDbMText
 10
-60.3394118751194
 20
-20.64291215210458
 30
0.0
 40
1.9
 41
0.0
 71
     5
 72
     1
  1
118
1001
ACAD
1000
MTEXTBEGIN
1070
    73
1070
     1
1070
    44
1040
1.0
1070
    74
1070
     0
1000
MTEXTEND
  0
POINT
  5
2357
330
CC8
100
AcDbEntity
  8
DEFPOINTS
 62
     0
100
AcDbPoint
 10
-119.3394118751193
 20
-3.680001979154318
 30
0.0
  0
POINT
  5
2358
330
CC8
100
AcDbEntity
  8
DEFPOINTS
 62
     0
100
AcDbPoint
 10
-1.339411875119457
 20
-3.680001979154004
 30
0.0
  0
POINT
  5
2359
330
CC8
100
AcDbEntity
  8
DEFPOINTS
 62
     0
100
AcDbPoint
 10
-1.339411875119458
 20
-22.34291215210458
 30
0.0
  0
ENDBLK
  5
CD3
330
CC8
100
AcDbEntity
  8
0
100
AcDbBlockEnd
  0
BLOCK
  5
E00
330
DF6
100
AcDbEntity
  8
0
100
AcDbBlockBegin
  2
*D7
 70
     1
 10
0.0
 20
0.0
 30
0.0
  3
*D7
  1

  0
LINE
  5
235A
330
DF6
100
AcDbEntity
  8
AM_5
 62
     3
100
AcDbLine
 10
-65.33941187511945
 20
-4.400003912785211
 30
0.0
 11
-65.33941187511945
 21
-15.36911557914019
 31
0.0
  0
LINE
  5
235B
330
DF6
100
AcDbEntity
  8
AM_5
 62
     3
100
AcDbLine
 10
-1.339411875119461
 20
-4.080001979154004
 30
0.0
 11
-1.339411875119462
 21
-15.36911557914019
 31
0.0
  0
LINE
  5
235C
330
DF6
100
AcDbEntity
  8
AM_5
 62
     3
100
AcDbLine
 10
-64.08941187511945
 20
-14.86911557914019
 30
0.0
 11
-2.589411875119462
 21
-14.86911557914019
 31
0.0
  0
INSERT
  5
235D
330
DF6
100
AcDbEntity
  8
AM_5
 62
     3
100
AcDbBlockReference
  2
_OPEN30
 10
-65.33941187511945
 20
-14.86911557914019
 30
0.0
 41
1.25
 42
1.25
 43
1.25
 50
180.0
  0
INSERT
  5
235E
330
DF6
100
AcDbEntity
  8
AM_5
 62
     3
100
AcDbBlockReference
  2
_OPEN30
 10
-1.339411875119462
 20
-14.86911557914019
 30
0.0
 41
1.25
 42
1.25
 43
1.25
  0
MTEXT
  5
235F
330
DF6
100
AcDbEntity
  8
AM_5
 62
     2
100
AcDbMText
 10
-34.19766588832237
 20
-13.16911557914019
 30
0.0
 40
1.9
 41
0.0
 71
     5
 72
     1
  1
64
1001
ACAD
1000
MTEXTBEGIN
1070
    73
1070
     1
1070
    44
1040
1.0
1070
    74
1070
     0
1000
MTEXTEND
  0
POINT
  5
2360
330
DF6
100
AcDbEntity
  8
DEFPOINTS
 62
     0
100
AcDbPoint
 10
-65.33941187511945
 20
-4.000003912785211
 30
0.0
  0
POINT
  5
2361
330
DF6
100
AcDbEntity
  8
DEFPOINTS
 62
     0
100
AcDbPoint
 10
-1.339411875119461
 20
-3.680001979154003
 30
0.0
  0
POINT
  5
2362
330
DF6
100
AcDbEntity
  8
DEFPOINTS
 62
     0
100
AcDbPoint
 10
-1.339411875119462
 20
-14.86911557914019
 30
0.0
  0
ENDBLK
  5
E01
330
DF6
100
AcDbEntity
  8
0
100
AcDbBlockEnd
  0
BLOCK
  5
11C1
330
11B3
100
AcDbEntity
  8
0
100
AcDbBlockBegin
  2
*D9
 70
     1
 10
0.0
 20
0.0
 30
0.0
  3
*D9
  1

  0
LINE
  5
2254
330
11B3
100
AcDbEntity
  8
AM_5
100
AcDbLine
 10
0.171004984144743
 20
-0.4698488539809921
 30
0.0
 11
7.596736808354453
 21
-20.87187953345148
 31
0.0
  0
LINE
  5
2255
330
11B3
100
AcDbEntity
  8
AM_5
100
AcDbLine
 10
0.1710042108634018
 20
0.4698466676775667
 30
0.0
 11
7.59675125967133
 21
20.87187522406139
 31
0.0
  0
ARC
  5
2256
330
11B3
100
AcDbEntity
  8
AM_5
100
AcDbCircle
 10
-0.0000061848578578
 20
0.0000004752323599
 30
0.0
 40
21.71139075343587
100
AcDbArc
 50
293.2991721794295
 51
66.70078814999122
  0
INSERT
  5
2257
330
11B3
100
AcDbEntity
  8
AM_5
100
AcDbBlockReference
  2
_OPEN30
 10
7.425726737946386
 20
-20.40203322260182
 30
0.0
 41
1.25
 42
1.25
 43
1.25
 50
201.6495860132079
  0
INSERT
  5
2258
330
11B3
100
AcDbEntity
  8
AM_5
100
AcDbBlockReference
  2
_OPEN30
 10
7.42574086395007
 20
20.40202903161618
 30
0.0
 41
1.25
 42
1.25
 43
1.25
 50
158.3503743162128
  0
MTEXT
  5
2259
330
11B3
100
AcDbEntity
  8
AM_5
 62
     2
100
AcDbMText
 10
20.16138456857671
 20
-0.0000070410581387
 30
0.0
 40
1.6
 41
0.0
 71
     5
 72
     1
  1
140°
  7
ASAMI
 11
0.0000000000000001
 21
1.0
 31
0.0
1001
ACAD
1000
MTEXTBEGIN
1070
    73
1070
     1
1070
    44
1040
1.0
1070
    74
1070
     0
1000
MTEXTEND
  0
POINT
  5
225A
330
11B3
100
AcDbEntity
  8
DEFPOINTS
 62
     0
100
AcDbPoint
 10
19.93574646946187
 20
8.599433860878439
 30
0.0
  0
POINT
  5
225B
330
11B3
100
AcDbEntity
  8
DEFPOINTS
 62
     0
100
AcDbPoint
 10
-0.0000063578286624
 20
0.0
 30
0.0
  0
POINT
  5
225C
330
11B3
100
AcDbEntity
  8
DEFPOINTS
 62
     0
100
AcDbPoint
 10
-0.000005086263324
 20
-0.0000025431313399
 30
0.0
  0
POINT
  5
225D
330
11B3
100
AcDbEntity
  8
DEFPOINTS
 62
     0
100
AcDbPoint
 10
-0.5338236490886553
 20
1.466651916504001
 30
0.0
  0
POINT
  5
225E
330
11B3
100
AcDbEntity
  8
DEFPOINTS
 62
     0
100
AcDbPoint
 10
-0.5338325500486575
 20
-1.466672261556008
 30
0.0
  0
ENDBLK
  5
11C2
330
11B3
100
AcDbEntity
  8
0
100
AcDbBlockEnd
  0
BLOCK
  5
20CC
330
20C0
100
AcDbEntity
  8
0
100
AcDbBlockBegin
  2
*D12
 70
     1
 10
0.0
 20
0.0
 30
0.0
  3
*D12
  1

  0
LINE
  5
2336
330
20C0
100
AcDbEntity
  8
AM_5
 62
     3
100
AcDbLine
 10
-1.516294838596597
 20
-3.680001979153996
 30
0.0
 11
11.48547462356231
 21
-3.680001979154
 31
0.0
  0
LINE
  5
2337
330
20C0
100
AcDbEntity
  8
AM_5
 62
     3
100
AcDbLine
 10
-1.370328497525807
 20
3.679995681165172
 30
0.0
 11
11.48547462356231
 21
3.679995681165168
 31
0.0
  0
LINE
  5
2338
330
20C0
100
AcDbEntity
  8
AM_5
 62
     3
100
AcDbLine
 10
10.98547462356231
 20
-2.430001979153999
 30
0.0
 11
10.98547462356231
 21
2.429995681165168
 31
0.0
  0
INSERT
  5
2339
330
20C0
100
AcDbEntity
  8
AM_5
 62
     3
100
AcDbBlockReference
  2
_OPEN30
 10
10.98547462356231
 20
-3.680001979153999
 30
0.0
 41
1.25
 42
1.25
 43
1.25
 50
270.0
  0
INSERT
  5
233A
330
20C0
100
AcDbEntity
  8
AM_5
 62
     3
100
AcDbBlockReference
  2
_OPEN30
 10
10.98547462356231
 20
3.679995681165168
 30
0.0
 41
1.25
 42
1.25
 43
1.25
 50
90.0
  0
MTEXT
  5
233B
330
20C0
100
AcDbEntity
  8
AM_5
 62
     2
100
AcDbMText
 10
9.285474623562311
 20
-0.0000031489944139
 30
0.0
 40
1.9
 41
0.0
 71
     5
 72
     1
  1
%%c7.36
 11
0.0000000000000001
 21
1.0
 31
0.0
1001
ACAD
1000
MTEXTBEGIN
1070
    73
1070
     1
1070
    44
1040
1.0
1070
    74
1070
     0
1000
MTEXTEND
  0
POINT
  5
233C
330
20C0
100
AcDbEntity
  8
DEFPOINTS
 62
     0
100
AcDbPoint
 10
-1.916294838596597
 20
-3.680001979153996
 30
0.0
  0
POINT
  5
233D
330
20C0
100
AcDbEntity
  8
DEFPOINTS
 62
     0
100
AcDbPoint
 10
-1.770328497525807
 20
3.679995681165172
 30
0.0
  0
POINT
  5
233E
330
20C0
100
AcDbEntity
  8
DEFPOINTS
 62
     0
100
AcDbPoint
 10
10.98547462356231
 20
3.679995681165168
 30
0.0
  0
ENDBLK
  5
20CD
330
20C0
100
AcDbEntity
  8
0
100
AcDbBlockEnd
  0
BLOCK
  5
2162
330
2158
100
AcDbEntity
  8
0
100
AcDbBlockBegin
  2
*D13
 70
     1
 10
0.0
 20
0.0
 30
0.0
  3
*D13
  1

  0
LINE
  5
2348
330
2158
100
AcDbEntity
  8
AM_5
 62
     3
100
AcDbLine
 10
-119.4894118751193
 20
3.999997456868203
 30
0.0
 11
-133.5894118751193
 21
3.999997456868164
 31
0.0
  0
LINE
  5
2349
330
2158
100
AcDbEntity
  8
AM_5
 62
     3
100
AcDbLine
 10
-119.4894118751193
 20
-4.000002543131837
 30
0.0
 11
-133.5894118751193
 21
-4.000002543131877
 31
0.0
  0
LINE
  5
234A
330
2158
100
AcDbEntity
  8
AM_5
 62
     3
100
AcDbLine
 10
-133.0894118751193
 20
2.749997456868165
 30
0.0
 11
-133.0894118751193
 21
-2.750002543131876
 31
0.0
  0
INSERT
  5
234B
330
2158
100
AcDbEntity
  8
AM_5
 62
     3
100
AcDbBlockReference
  2
_OPEN30
 10
-133.0894118751193
 20
3.999997456868165
 30
0.0
 41
1.25
 42
1.25
 43
1.25
 50
90.00000000000017
  0
INSERT
  5
234C
330
2158
100
AcDbEntity
  8
AM_5
 62
     3
100
AcDbBlockReference
  2
_OPEN30
 10
-133.0894118751193
 20
-4.000002543131876
 30
0.0
 41
1.25
 42
1.25
 43
1.25
 50
270.0000000000001
  0
MTEXT
  5
234D
330
2158
100
AcDbEntity
  8
AM_5
 62
     2
100
AcDbMText
 10
-134.7894118751193
 20
-0.0000025431318548
 30
0.0
 40
1.9
 41
0.0
 71
     5
 72
     1
  1
%%c8
 11
-0.0000000000000028
 21
1.0
 31
0.0
1001
ACAD
1000
MTEXTBEGIN
1070
    73
1070
     1
1070
    44
1040
1.0
1070
    74
1070
     0
1000
MTEXTEND
  0
POINT
  5
234E
330
2158
100
AcDbEntity
  8
DEFPOINTS
 62
     0
100
AcDbPoint
 10
-119.0894118751193
 20
3.999997456868575
 30
0.0
  0
POINT
  5
234F
330
2158
100
AcDbEntity
  8
DEFPOINTS
 62
     0
100
AcDbPoint
 10
-119.0894118751193
 20
-4.000002543131466
 30
0.0
  0
POINT
  5
2350
330
2158
100
AcDbEntity
  8
DEFPOINTS
 62
     0
100
AcDbPoint
 10
-133.0894118751193
 20
-4.000002543131462
 30
0.0
  0
ENDBLK
  5
2163
330
2158
100
AcDbEntity
  8
0
100
AcDbBlockEnd
  0
ENDSEC
  0
SECTION
  2
ENTITIES
  0
LINE
  5
C30
330
1F
100
AcDbEntity
  8
AM_0
 48
0.5
100
AcDbLine
 10
-119.3394118751193
 20
-3.750002543131423
 30
0.0
 11
-119.3394118751193
 21
3.749997456868575
 31
0.0
  0
LINE
  5
C9F
330
1F
100
AcDbEntity
  8
AM_7
100
AcDbLine
 10
-121.5559199015253
 20
-0.0000025431314255
 30
0.0
 11
2.00000012333273
 21
-0.0000025431313209
 31
0.0
1001
GENIUS_GENODEF_13
1002
{
1000
HIER
1070
     0
1002
}
1002
{
1000
MANEDIT
1070
     0
1002
}
1002
{
1000
NOSEL
1070
     0
1002
}
1002
{
1000
BEHIND
1070
     0
1002
}
1002
{
1000
REACTOR
1002
}
1001
GENIUS_GENOBJ-N-CEN_13
1002
{
1000
OWNER
1000
GEN
1002
}
  0
DIMENSION
  5
CC6
330
1F
100
AcDbEntity
  8
AM_5
100
AcDbDimension
  2
*D5
 10
-1.339411875119458
 20
-22.34291215210458
 30
0.0
 11
-60.3394118751194
 21
-20.64291215210458
 31
0.0
 70
    32
  1
<>
  3
AM_JIS$0
100
AcDbAlignedDimension
 13
-119.3394118751193
 23
-3.680001979154318
 33
0.0
 14
-1.339411875119457
 24
-3.680001979154004
 34
0.0
 50
0.0000000000001132
100
AcDbRotatedDimension
1001
GENIUS_GENDTOL_13
1000

1000
h7
1000

1040
0.0
1001
ACAD
1000
DSTYLE
1002
{
1070
   271
1070
     0
1002
}
  0
DIMENSION
  5
DF5
330
1F
100
AcDbEntity
  8
AM_5
100
AcDbDimension
  2
*D7
 10
-1.339411875119462
 20
-14.86911557914019
 30
0.0
 11
-34.19766588832237
 21
-14.86911557914019
 31
0.0
 70
   160
  1
<>
  3
AM_JIS$0
100
AcDbAlignedDimension
 13
-65.33941187511945
 23
-4.000003912785211
 33
0.0
 14
-1.339411875119461
 24
-3.680001979154003
 34
0.0
 50
0.0000000000001527
100
AcDbRotatedDimension
1001
GENIUS_GENDTOL_13
1000

1000
h7
1000

1040
0.0
1001
ACAD
1000
DSTYLE
1002
{
1070
   271
1070
     0
1002
}
  0
DIMENSION
  5
11B2
330
1F
100
AcDbEntity
  8
AM_5
100
AcDbDimension
  2
*D9
 10
-0.5338325500486575
 20
-1.466672261556008
 30
0.0
 11
20.16138456857671
 21
-0.000007041058142
 31
0.0
 70
    34
  1
<>
  3
AM_JIS$2
100
AcDb2LineAngularDimension
 13
-0.000005086263324
 23
-0.0000025431313399
 33
0.0
 14
-0.5338236490886553
 24
1.466651916504001
 34
0.0
 15
-0.0000063578286624
 25
0.0
 35
0.0
 16
19.93574646946187
 26
8.599433860878439
 36
0.0
1001
ACAD
1000
DSTYLE
1002
{
1070
   179
1070
     3
1002
}
1001
GENIUS_GENDTOL_13
1000

1000
h7
1000

1040
0.0
  0
TEXT
  5
19BD
330
1F
100
AcDbEntity
  8
AM_6
100
AcDbText
 10
-73.31560235130985
 20
-33.59291215210461
 30
0.0
 40
2.5
  1
MDW0736LDLH
 50
0.0000000000001527
 72
     4
 11
-60.33941187511937
 21
-32.34291215210458
 31
0.0
100
AcDbText
  0
LINE
  5
1CA9
330
1F
100
AcDbEntity
  8
AM_0
 48
0.5
100
AcDbLine
 10
-65.33941187511946
 20
-4.000003912785212
 30
0.0
 11
-65.33941187511946
 21
4.000027079474646
 31
0.0
  0
LINE
  5
1E12
330
1F
100
AcDbEntity
  8
AM_0
 48
0.5
100
AcDbLine
 10
-119.0894118751193
 20
3.999997456868575
 30
0.0
 11
-65.33941187511946
 21
3.999997456868621
 31
0.0
1001
GENIUS_GENODEF_13
1002
{
1000
HIER
1070
     0
1002
}
1002
{
1000
MANEDIT
1070
     0
1002
}
1002
{
1000
NOSEL
1070
     0
1002
}
1002
{
1000
BEHIND
1070
     0
1002
}
1002
{
1000
REACTOR
1002
}
1001
GENIUS_GENOBJ-N-CEN_13
1002
{
1000
OWNER
1000
GEN
1002
}
  0
LINE
  5
1E16
330
1F
100
AcDbEntity
  8
AM_0
 48
0.5
100
AcDbLine
 10
-119.0894118751193
 20
-4.000002543131423
 30
0.0
 11
-65.33941187511946
 21
-4.000002543131378
 31
0.0
1001
GENIUS_GENODEF_13
1002
{
1000
HIER
1070
     0
1002
}
1002
{
1000
MANEDIT
1070
     0
1002
}
1002
{
1000
NOSEL
1070
     0
1002
}
1002
{
1000
BEHIND
1070
     0
1002
}
1002
{
1000
REACTOR
1002
}
1001
GENIUS_GENOBJ-N-CEN_13
1002
{
1000
OWNER
1000
GEN
1002
}
  0
LINE
  5
1E1D
330
1F
100
AcDbEntity
  8
AM_0
 48
0.5
100
AcDbLine
 10
-119.3394118751193
 20
3.749997456868575
 30
0.0
 11
-119.0894118751193
 21
3.999997456868575
 31
0.0
1001
GENIUS_GENFIL_13
1070
     0
1040
0.25
1040
0.25
1040
20.0
1040
0.0
1002
{
1002
}
1001
GENIUS_GENODEF_13
1002
{
1000
HIER
1070
     0
1002
}
1002
{
1000
MANEDIT
1070
     0
1002
}
1002
{
1000
NOSEL
1070
     0
1002
}
1002
{
1000
BEHIND
1070
     0
1002
}
1002
{
1000
REACTOR
1002
}
1001
GENIUS_GENOBJ-N-CHA_13
1002
{
1000
OWNER
1000
GEN
1002
}
  0
LINE
  5
1E21
330
1F
100
AcDbEntity
  8
AM_0
 48
0.5
100
AcDbLine
 10
-119.3394118751193
 20
-3.750002543131423
 30
0.0
 11
-119.0894118751193
 21
-4.000002543131423
 31
0.0
1001
GENIUS_GENFIL_13
1070
     0
1040
0.25
1040
0.25
1040
20.0
1040
0.0
1002
{
1002
}
1001
GENIUS_GENODEF_13
1002
{
1000
HIER
1070
     0
1002
}
1002
{
1000
MANEDIT
1070
     0
1002
}
1002
{
1000
NOSEL
1070
     0
1002
}
1002
{
1000
BEHIND
1070
     0
1002
}
1002
{
1000
REACTOR
1002
}
1001
GENIUS_GENOBJ-N-CHA_13
1002
{
1000
OWNER
1000
GEN
1002
}
  0
LINE
  5
1E22
330
1F
100
AcDbEntity
  8
AM_0
100
AcDbLine
 10
-119.0894118751193
 20
-4.000002543131423
 30
0.0
 11
-119.0894118751193
 21
3.999997456868575
 31
0.0
  0
LINE
  5
1E25
330
1F
100
AcDbEntity
  8
AM_0
100
AcDbLine
 10
-65.33941187511946
 20
-4.000003912785212
 30
0.0
 11
-64.73319064033643
 21
-3.650001919694765
 31
0.0
  0
LINE
  5
1E26
330
1F
100
AcDbEntity
  8
AM_0
100
AcDbLine
 10
-65.33941187511946
 20
3.999997456868621
 30
0.0
 11
-64.73319517229422
 21
3.649998080305226
 31
0.0
  0
DIMENSION
  5
20BF
330
1F
100
AcDbEntity
  8
AM_5
100
AcDbDimension
  2
*D12
 10
10.98547462356231
 20
3.679995681165168
 30
0.0
 11
10.98547462356231
 21
-0.0000031489944141
 31
0.0
 70
   160
  1
%%c<>
  3
AM_JIS$0
100
AcDbAlignedDimension
 13
-1.916294838596597
 23
-3.680001979153996
 33
0.0
 14
-1.770328497525807
 24
3.679995681165172
 34
0.0
 50
89.99999999999955
100
AcDbRotatedDimension
1001
GENIUS_GENDTOL_13
1000

1000
h7
1000

1040
0.0
  0
LINE
  5
20CE
330
1F
100
AcDbEntity
  8
AM_0
 48
0.5
100
AcDbLine
 10
-0.0000004375941271
 20
0.0000003605268242
 30
0.0
 11
-2.141675827550197
 21
1.413006240246792
 31
0.0
  0
ELLIPSE
  5
20CF
330
1F
100
AcDbEntity
  8
AM_0
 48
0.5
100
AcDbEllipse
 10
-7.861278486052536
 20
10.0087828254217
 30
0.0
 11
12.94371083819077
 21
0.0000000000054098
 31
0.0
210
0.0
220
0.0
230
1.0
 40
0.9733333333333433
 41
-1.025265753354619
 42
-0.9180842423216274
  0
LINE
  5
20D0
330
1F
100
AcDbEntity
  8
AM_0
 48
0.5
100
AcDbLine
 10
-3.700054804868827
 20
3.679998020846027
 30
0.0
 11
-1.339410246021051
 21
3.679998020845999
 31
0.0
  0
LINE
  5
20D2
330
1F
100
AcDbEntity
  8
AM_0
 48
0.5
100
AcDbLine
 10
-1.339411875119458
 20
-3.680001979154003
 30
0.0
 11
-1.770321286180225
 21
-3.680001979153998
 31
0.0
  0
LINE
  5
20D4
330
1F
100
AcDbEntity
  8
AM_11
 48
0.5
100
AcDbLine
 10
-15.70348364289297
 20
3.679998020846151
 30
0.0
 11
-3.700054804868827
 21
3.679998020846027
 31
0.0
  0
LINE
  5
20D5
330
1F
100
AcDbEntity
  8
AM_11
 48
0.5
100
AcDbLine
 10
-15.70348364289306
 20
-3.680001979153849
 30
0.0
 11
-3.700054804868909
 21
-3.680001979153971
 31
0.0
  0
LINE
  5
20D6
330
1F
100
AcDbEntity
  8
AM_11
 48
0.5
100
AcDbLine
 10
-38.38809688990036
 20
-3.680001979153693
 30
0.0
 11
-26.38466805187773
 21
-3.680524789938879
 31
0.0
  0
LINE
  5
20D7
330
1F
100
AcDbEntity
  8
AM_11
 48
0.3
100
AcDbLine
 10
-36.83220257067918
 20
3.680520831631442
 30
0.0
 11
-29.17207447896069
 21
3.679998020846289
 31
0.0
  0
LINE
  5
20DB
330
1F
100
AcDbEntity
  8
AM_0
100
AcDbLine
 10
-51.85678556123649
 20
3.679998020846447
 30
0.0
 11
-36.83220257067918
 21
3.680520831631442
 31
0.0
  0
LINE
  5
20DC
330
1F
100
AcDbEntity
  8
AM_0
 48
0.5
100
AcDbLine
 10
-51.85679036882259
 20
-3.680001979153506
 30
0.0
 11
-39.46788626757216
 21
-3.680001979153606
 31
0.0
  0
LINE
  5
20DD
330
1F
100
AcDbEntity
  8
AM_0
100
AcDbLine
 10
-64.73319107812669
 20
-3.650001919694766
 30
0.0
 11
-64.73319107812649
 21
3.649998080305226
 31
0.0
  0
LINE
  5
20DE
330
1F
100
AcDbEntity
  8
AM_0
100
AcDbLine
 10
-60.2804725934255
 20
-3.650001919694772
 30
0.0
 11
-64.73319064033643
 21
-3.650001919694764
 31
0.0
  0
LINE
  5
20DF
330
1F
100
AcDbEntity
  8
AM_0
100
AcDbLine
 10
-59.02897968499668
 20
3.649998080305215
 30
0.0
 11
-64.73319107812649
 21
3.649998080305228
 31
0.0
  0
LINE
  5
20E0
330
1F
100
AcDbEntity
  8
AM_0
 48
0.5
100
AcDbLine
 10
-29.17208481744335
 20
3.679998020846289
 30
0.0
 11
-15.70348364289297
 21
3.679998020846151
 31
0.0
  0
LINE
  5
20E1
330
1F
100
AcDbEntity
  8
AM_0
 48
0.5
100
AcDbLine
 10
-26.38466805187772
 20
-3.680001979153815
 30
0.0
 11
-15.70348364289306
 21
-3.680001979153849
 31
0.0
  0
ELLIPSE
  5
20E4
330
1F
100
AcDbEntity
  8
AM_0
 48
0.5
100
AcDbEllipse
 10
3.626941462789684
 20
-0.8180152848178835
 30
0.0
 11
5.944257710828395
 21
1.238076462007766
 31
0.0
210
0.0
220
0.0
230
1.0
 40
0.66620960216332
 41
3.019567293288571
 42
3.59976577703743
  0
SPLINE
  5
20E5
330
1F
100
AcDbEntity
  8
AM_0
100
AcDbSpline
210
0.0
220
0.0
230
1.0
 70
     8
 71
     3
 72
    23
 73
    19
 74
     0
 42
0.0000000001
 43
0.0000000001
 40
16.03460024169435
 40
16.03460024169435
 40
16.03460024169435
 40
16.03460024169435
 40
16.35212704903564
 40
17.38177054169784
 40
18.41822485651776
 40
19.46214173629503
 40
20.51396345435107
 40
21.57393551351153
 40
22.64208202342361
 40
23.7182574881101
 40
24.80209208578934
 40
25.89306333925047
 40
26.99048218457928
 40
28.09348763352352
 40
29.20111863782268
 40
30.31232390128032
 40
31.42594612798585
 40
32.5407912310448
 40
32.5407912310486
 40
32.5407912310486
 40
32.5407912310486
 10
-36.83220257067918
 20
3.680520831631443
 30
0.0
 10
-36.76673689263889
 20
3.668097799678027
 30
0.0
 10
-36.48926458244948
 20
3.613998992059801
 30
0.0
 10
-36.0004941198788
 20
3.508000635050787
 30
0.0
 10
-35.36753509132326
 20
3.350382237365124
 30
0.0
 10
-34.73516398488579
 20
3.173403049091159
 30
0.0
 10
-34.10334343325342
 20
2.97808733550183
 30
0.0
 10
-33.4720510119951
 20
2.765523986072933
 30
0.0
 10
-32.84125023392186
 20
2.536928102550565
 30
0.0
 10
-32.21089717246508
 20
2.293630055636803
 30
0.0
 10
-31.58095600869983
 20
2.037007627986142
 30
0.0
 10
-30.9513762379588
 20
1.768554045710714
 30
0.0
 10
-30.3221068398419
 20
1.48982967701563
 30
0.0
 10
-29.69310588792393
 20
1.202437070172145
 30
0.0
 10
-29.06432075445918
 20
0.9080473738322371
 30
0.0
 10
-28.43569320062754
 20
0.6083796078414423
 30
0.0
 10
-27.8071720384008
 20
0.3051702657565078
 30
0.0
 10
-27.38827047729293
 20
0.1018849812040284
 30
0.0
 10
-27.17870545969921
 20
0.0001851953245835
 30
0.0
  0
SPLINE
  5
20E6
330
1F
100
AcDbEntity
  8
AM_0
100
AcDbSpline
210
0.0
220
0.0
230
1.0
 70
     8
 71
     3
 72
    11
 73
     7
 74
     0
 42
0.0000000001
 43
0.0000000001
 40
11.27226913003534
 40
11.27226913003534
 40
11.27226913003534
 40
11.2722691300354
 40
12.28301561507924
 40
13.29510212255852
 40
14.30984805882082
 40
15.18258238371378
 40
15.18258238371378
 40
15.18258238371378
 40
15.18258238371378
 10
-38.38809688990187
 20
-3.680001979153694
 30
0.0
 10
-38.59960364087098
 20
-3.661990989752675
 30
0.0
 10
-39.02221820085747
 20
-3.618387168283075
 30
0.0
 10
-39.65395773803614
 20
-3.530427474999223
 30
0.0
 10
-40.25348969812136
 20
-3.425369265775892
 30
0.0
 10
-40.64123177808444
 20
-3.344607893613035
 30
0.0
 10
-40.81991436947705
 20
-3.304714006474064
 30
0.0
  0
SPLINE
  5
20E7
330
1F
100
AcDbEntity
  8
AM_0
100
AcDbSpline
210
0.0
220
0.0
230
1.0
 70
     8
 71
     3
 72
    17
 73
    13
 74
     0
 42
0.0000000001
 43
0.0000000001
 40
1.580019955310467
 40
1.580019955310467
 40
1.580019955310467
 40
1.580019955310467
 40
2.030549285115227
 40
3.082371838836284
 40
4.126290986361125
 40
5.162752068350215
 40
6.192395305374981
 40
7.216039564037012
 40
8.234688489606833
 40
9.249433870634691
 40
10.26152376260694
 40
11.27226744710342
 40
11.27226744710342
 40
11.27226744710342
 40
11.27226744710352
 10
-32.38591422072719
 20
-2.71595034260628
 30
0.0
 10
-32.47606904973423
 20
-2.74392235450861
 30
0.0
 10
-32.77721646723206
 20
-2.835604359714749
 30
0.0
 10
-33.2913497903351
 20
-2.979410865319644
 30
0.0
 10
-33.92817996904661
 20
-3.140455074359207
 30
0.0
 10
-34.56518546651011
 20
-3.281830507791349
 30
0.0
 10
-35.20222015134311
 20
-3.403062395136034
 30
0.0
 10
-35.83932423996333
 20
-3.503268889790077
 30
0.0
 10
-36.47647234427684
 20
-3.581878157473442
 30
0.0
 10
-37.11366012253166
 20
-3.638380783828558
 30
0.0
 10
-37.75087187607101
 20
-3.672413054887819
 30
0.0
 10
-38.17578281630033
 20
-3.68000200021085
 30
0.0
 10
-38.38809688990183
 20
-3.680001979153694
 30
0.0
  0
SPLINE
  5
20E8
330
1F
100
AcDbEntity
  8
AM_0
100
AcDbSpline
210
0.0
220
0.0
230
1.0
 70
     8
 71
     3
 72
    22
 73
    18
 74
     0
 42
0.0000000001
 43
0.0000000001
 40
17.17441611292
 40
17.17441611292
 40
17.17441611292
 40
17.17441611292
 40
17.38177636558528
 40
18.41823744757437
 40
19.46215659509824
 40
20.51397914882054
 40
21.57394542641293
 40
22.64209583141747
 40
23.71826625065247
 40
24.80210429862395
 40
25.8930771157021
 40
26.99048705697709
 40
28.09349309193389
 40
29.20112995599786
 40
30.31233024745139
 40
31.42594771747373
 40
32.5407895042663
 40
32.54078950426994
 40
32.54078950426994
 40
32.54078950426994
 10
-40.82019304414592
 20
-3.304668613702204
 30
0.0
 10
-40.86286165156838
 20
-3.296149774643117
 30
0.0
 10
-41.11863665038228
 20
-3.244260594802156
 30
0.0
 10
-41.58720203534554
 20
-3.140216035693908
 30
0.0
 10
-42.22412087170183
 20
-2.979419114416969
 30
0.0
 10
-42.86097480736565
 20
-2.800260206319789
 30
0.0
 10
-43.49776833849009
 20
-2.603857665729718
 30
0.0
 10
-44.13450062391521
 20
-2.391415730605372
 30
0.0
 10
-44.77117950107706
 20
-2.164256525277304
 30
0.0
 10
-45.40780791797785
 20
-1.923776097132826
 30
0.0
 10
-46.04439176494426
 20
-1.671457475795501
 30
0.0
 10
-46.68093812038509
 20
-1.4088573073377
 30
0.0
 10
-47.31745250913861
 20
-1.137590328136496
 30
0.0
 10
-47.95394133875129
 20
-0.8593254184865475
 30
0.0
 10
-48.59041025114262
 20
-0.5757735926044355
 30
0.0
 10
-49.22686867504598
 20
-0.2886845185178823
 30
0.0
 10
-49.65109100487041
 20
-0.0961399662978515
 30
0.0
 10
-49.86331870671086
 20
0.0001851953260623
 30
0.0
  0
SPLINE
  5
20E9
330
1F
100
AcDbEntity
  8
AM_0
100
AcDbSpline
210
0.0
220
0.0
230
1.0
 70
     8
 71
     3
 72
    46
 73
    42
 74
     0
 42
0.0000000001
 43
0.0000000001
 40
0.0
 40
0.0
 40
0.0
 40
0.0
 40
1.348332046947654
 40
2.024828967632893
 40
2.703918159304094
 40
3.386347665078122
 40
4.072776489761951
 40
4.763750544421345
 40
5.459696642770595
 40
6.160921452191748
 40
6.867565637253344
 40
7.579665907256597
 40
8.297112853413899
 40
9.019671552060666
 40
9.746986763446125
 40
10.47859339096365
 40
11.21393074760088
 40
11.95235532364327
 40
12.69315551794651
 40
13.43556823304427
 40
14.1787950170388
 40
14.92202180103393
 40
15.66443451613169
 40
16.40523471043432
 40
17.14365928647669
 40
17.87899664311455
 40
18.61060327063121
 40
19.33791848201689
 40
20.06048192311554
 40
20.77792886927282
 40
21.49002913927608
 40
22.19667332433747
 40
22.89788836015233
 40
23.59383445850157
 40
24.28480851316097
 40
24.97123685067575
 40
25.65366676154837
 40
26.33276604526151
 40
27.00926273560554
 40
27.68398960851752
 40
28.35781868496899
 40
28.35781868496899
 40
28.35781868496899
 40
28.35781868496899
 10
-24.60090808558903
 20
-3.680001979153836
 30
0.0
 10
-25.0258397795553
 20
-3.671618654686466
 30
0.0
 10
-25.66397191114412
 20
-3.659029175511049
 30
0.0
 10
-26.51252403433495
 20
-3.5815180650384
 30
0.0
 10
-27.14967601121655
 20
-3.503366246812578
 30
0.0
 10
-27.78677352677179
 20
-3.403032587538257
 30
0.0
 10
-28.42381490266769
 20
-3.281851260224565
 30
0.0
 10
-29.06079686629775
 20
-3.14040161485293
 30
0.0
 10
-29.69771835081289
 20
-2.979605106071247
 30
0.0
 10
-30.33457652168759
 20
-2.800449048246424
 30
0.0
 10
-30.97137265184853
 20
-2.604044633687955
 30
0.0
 10
-31.60810502850776
 20
-2.391602960979329
 30
0.0
 10
-32.24478388111161
 20
-2.164443684888153
 30
0.0
 10
-32.88141230404652
 20
-1.92396327461286
 30
0.0
 10
-33.51799615170463
 20
-1.671644653322402
 30
0.0
 10
-34.15454249820729
 20
-1.409044466471368
 30
0.0
 10
-34.79105692227887
 20
-1.137777561347133
 30
0.0
 10
-35.42754561881076
 20
-0.8595123722111765
 30
0.0
 10
-36.06401533639756
 20
-0.5759614582505314
 30
0.0
 10
-36.70047188923174
 20
-0.2888684582672213
 30
0.0
 10
-37.33692309189974
 20
-0.000001979212151
 30
0.0
 10
-37.97337429442793
 20
0.2888645001939483
 30
0.0
 10
-38.60983084768148
 20
0.5759574991246779
 30
0.0
 10
-39.24630056373535
 20
0.8595084169320376
 30
0.0
 10
-39.88278926595146
 20
1.137773591801938
 30
0.0
 10
-40.51930366894652
 20
1.409040549823252
 30
0.0
 10
-41.15585009350271
 20
1.6716405407778
 30
0.0
 10
-41.79243503634811
 20
1.923960435221075
 30
0.0
 10
-42.42906593291396
 20
2.164438660609929
 30
0.0
 10
-43.06574592125528
 20
2.391599101496083
 30
0.0
 10
-43.70247828308958
 20
2.60404083741741
 30
0.0
 10
-44.33927179736437
 20
2.800443447187156
 30
0.0
 10
-44.97612572498402
 20
2.979602276404431
 30
0.0
 10
-45.61304460962841
 20
3.140399442057449
 30
0.0
 10
-46.25002620460676
 20
3.281839833050683
 30
0.0
 10
-46.88706804754242
 20
3.403056307724583
 30
0.0
 10
-47.52416962910315
 20
3.503246689246911
 30
0.0
 10
-48.16131832290214
 20
3.581948681714021
 30
0.0
 10
-48.79850643678074
 20
3.638098409197745
 30
0.0
 10
-49.4357176801139
 20
3.673431280037814
 30
0.0
 10
-49.86062879155737
 20
3.677810078966973
 30
0.0
 10
-50.07294290572747
 20
3.679998020846427
 30
0.0
  0
SPLINE
  5
20EA
330
1F
100
AcDbEntity
  8
AM_0
100
AcDbSpline
210
0.0
220
0.0
230
1.0
 70
     8
 71
     3
 72
    55
 73
    51
 74
     0
 42
0.0000000001
 43
0.0000000001
 40
0.0
 40
0.0
 40
0.0
 40
0.0
 40
1.010743684496582
 40
2.022833576467832
 40
3.037578957496688
 40
4.056212745003489
 40
5.079857003664532
 40
6.109500240690281
 40
7.145961322679372
 40
8.189895241603872
 40
9.241717795325891
 40
10.30168407291828
 40
11.36983447792315
 40
12.44600489715814
 40
13.52984294512926
 40
14.62081576220742
 40
15.7182257034828
 40
16.82123173843959
 40
17.92886860250316
 40
19.0400688939571
 40
20.15368796660465
 40
21.26852814259644
 40
22.38336992938901
 40
23.49698739941135
 40
24.6081876908653
 40
25.71582455492886
 40
26.81883757994213
 40
27.91624752121713
 40
29.00722033829659
 40
30.09105838626677
 40
31.16722880550176
 40
32.23537921050758
 40
33.29534548809967
 40
34.347168041821
 40
35.39108718934584
 40
36.42754827133493
 40
37.45720575381954
 40
38.48085062012849
 40
39.49948440763516
 40
40.51422944315121
 40
41.52631975251916
 40
42.53706336719636
 40
43.54780698187354
 40
44.55989729124051
 40
45.57464232675757
 40
46.59327611426424
 40
47.6169209805722
 40
48.64656348684535
 40
49.68302456883444
 40
50.58557219878025
 40
50.58557219878025
 40
50.58557219878025
 40
50.58557219878025
 10
-26.38466805187772
 20
-3.680001979153816
 30
0.0
 10
-26.59698212828027
 20
-3.677812468307264
 30
0.0
 10
-27.02189306177549
 20
-3.673430530409089
 30
0.0
 10
-27.65910482883047
 20
-3.638107191607071
 30
0.0
 10
-28.29628939571768
 20
-3.58195231039743
 30
0.0
 10
-28.9334345271359
 20
-3.503249108651175
 30
0.0
 10
-29.57053386537968
 20
-3.403064165646384
 30
0.0
 10
-30.20757484190354
 20
-3.281842987859042
 30
0.0
 10
-30.84455958758128
 20
-3.140402164349612
 30
0.0
 10
-31.48148245364556
 20
-2.979607811047028
 30
0.0
 10
-32.11833910149087
 20
-2.800447195526141
 30
0.0
 10
-32.75513270549548
 20
-2.604044890450509
 30
0.0
 10
-33.3918649711197
 20
-2.391602891391652
 30
0.0
 10
-34.02854385382312
 20
-2.164443703757656
 30
0.0
 10
-34.66517226855887
 20
-1.923963269426829
 30
0.0
 10
-35.30175611861534
 20
-1.671644655021663
 30
0.0
 10
-35.93830246379359
 20
-1.409044464895124
 30
0.0
 10
-36.57481689076415
 20
-1.137777565971213
 30
0.0
 10
-37.21130557697214
 20
-0.859512355203738
 30
0.0
 10
-37.84777533311693
 20
-0.5759615219054152
 30
0.0
 10
-38.48423174164415
 20
-0.288868220070181
 30
0.0
 10
-39.12068379030415
 20
-0.0000027300073633
 30
0.0
 10
-39.75713298182695
 20
0.2888679598142987
 30
0.0
 10
-40.39359152361734
 20
0.5759567908474445
 30
0.0
 10
-41.03006049403168
 20
0.8595084824379966
 30
0.0
 10
-41.66655031509195
 20
1.137774753271896
 30
0.0
 10
-42.30306738262969
 20
1.409039337156458
 30
0.0
 10
-42.93961473244624
 20
1.671640859031337
 30
0.0
 10
-43.57619867440424
 20
1.923959268832121
 30
0.0
 10
-44.21282706597512
 20
2.164439753735079
 30
0.0
 10
-44.84950595030883
 20
2.391598941701364
 30
0.0
 10
-45.48623823215112
 20
2.604040889962137
 30
0.0
 10
-46.12303177043167
 20
2.800443395582589
 30
0.0
 10
-46.75988568130104
 20
2.979602429117539
 30
0.0
 10
-47.39680460873305
 20
3.140398888424979
 30
0.0
 10
-48.03378911812252
 20
3.281842556131432
 30
0.0
 10
-48.67083464333248
 20
3.40304988877754
 30
0.0
 10
-49.30793608637245
 20
3.503265841140065
 30
0.0
 10
-49.94508140666898
 20
3.581875750399079
 30
0.0
 10
-50.5822664162914
 20
3.638371639746027
 30
0.0
 10
-51.21947764306671
 20
3.672414589302928
 30
0.0
 10
-51.85670287217231
 20
3.683787212300991
 30
0.0
 10
-52.49392810034033
 20
3.672414589285108
 30
0.0
 10
-53.13113932993388
 20
3.638371639817576
 30
0.0
 10
-53.7683243291804
 20
3.581875750129516
 30
0.0
 10
-54.40546968837869
 20
3.503265842153125
 30
0.0
 10
-55.04256787918124
 20
3.403050373537224
 30
0.0
 10
-55.67961089467427
 20
3.281843795410944
 30
0.0
 10
-56.28763310078793
 20
3.146819535453575
 30
0.0
 10
-56.68212483246818
 20
3.048075017671479
 30
0.0
 10
-56.86514600332674
 20
2.999951997108597
 30
0.0
  0
ELLIPSE
  5
20EF
330
1F
100
AcDbEntity
  8
AM_0
 48
0.5
100
AcDbEllipse
 10
-1.410029537986101
 20
-0.9590629532753334
 30
0.0
 11
-0.1114139389365747
 21
0.6036593242345953
 31
0.0
210
0.0
220
0.0
230
0.9999999999999998
 40
0.5128221394277397
 41
1.799429147243291
 42
4.934771036955265
  0
ELLIPSE
  5
20F0
330
1F
100
AcDbEntity
  8
AM_0
 48
0.5
100
AcDbEllipse
 10
-1.410029537986101
 20
-0.9590629532753334
 30
0.0
 11
-0.5480554769833834
 21
0.3025802641868227
 31
0.0
210
0.0
220
0.0
230
0.9999999999999998
 40
0.49306752591161
 41
4.468583653602875
 42
7.612023994932384
  0
SPLINE
  5
20F1
330
1F
100
AcDbEntity
  8
AM_0
 48
0.5
100
AcDbSpline
210
0.0
220
0.0
230
1.0
 70
     8
 71
     3
 72
    17
 73
    13
 74
     0
 42
0.0000000001
 43
0.0000000001
 40
0.0
 40
0.0
 40
0.0
 40
0.0
 40
1.010743614677189
 40
2.022833924044153
 40
3.037578959561199
 40
4.056212747067873
 40
5.079857613375832
 40
6.109500119648989
 40
7.14596120163808
 40
8.18989512056258
 40
9.241717674284874
 40
9.693948937866434
 40
9.693948937866434
 40
9.693948937866434
 40
9.693948937866434
 10
-3.700054804868827
 20
3.679998020846027
 30
0.0
 10
-3.912368919910003
 20
3.677810087867461
 30
0.0
 10
-4.337280033096601
 20
3.673431306751979
 30
0.0
 10
-4.974491263329936
 20
3.638098302056159
 30
0.0
 10
-5.611676259946793
 20
3.581949364405357
 30
0.0
 10
-6.248821629079493
 20
3.50324600819992
 30
0.0
 10
-6.885919782511284
 20
3.403055631602474
 30
0.0
 10
-7.522962938718004
 20
3.281842753055589
 30
0.0
 10
-8.159942547509846
 20
3.140387659944986
 30
0.0
 10
-8.796883326252537
 20
2.979642664387839
 30
0.0
 10
-9.311038531898097
 20
2.834835721852498
 30
0.0
 10
-9.612980614128025
 20
2.744310558618403
 30
0.0
 10
-9.703607427820472
 20
2.716601412154489
 30
0.0
  0
SPLINE
  5
20F2
330
1F
100
AcDbEntity
  8
AM_0
 48
0.5
100
AcDbSpline
210
0.0
220
0.0
230
1.0
 70
     8
 71
     3
 72
    16
 73
    12
 74
     0
 42
0.0000000001
 43
0.0000000001
 40
0.0
 40
0.0
 40
0.0
 40
0.0
 40
1.010743614677189
 40
2.022833924044153
 40
3.037578959561199
 40
4.056212747067873
 40
5.079857613375832
 40
6.109500119648989
 40
7.14596120163808
 40
8.18989512056258
 40
8.545190612624931
 40
8.545190612624931
 40
8.545190612624931
 40
8.545190612624931
 10
-3.700054804868827
 20
3.679998020846027
 30
0.0
 10
-3.912357116627487
 20
3.679975907176735
 30
0.0
 10
-4.337285519615403
 20
3.67242486918881
 30
0.0
 10
-4.974489783085304
 20
3.638368863707662
 30
0.0
 10
-5.611676678208617
 20
3.581876544361392
 30
0.0
 10
-6.248821442742698
 20
3.50326545321183
 30
0.0
 10
-6.885920109283376
 20
3.403051135579376
 30
0.0
 10
-7.522961809218857
 20
3.281841114977699
 30
0.0
 10
-8.159946778600581
 20
3.14039886520778
 30
0.0
 10
-8.655232115609381
 20
3.015356896780473
 30
0.0
 10
-8.938327087666687
 20
2.938452990171081
 30
0.0
 10
-9.010118391525159
 20
2.918607378901777
 30
0.0
  0
SPLINE
  5
20F3
330
1F
100
AcDbEntity
  8
AM_0
 48
0.5
100
AcDbSpline
210
0.0
220
0.0
230
1.0
 70
     8
 71
     3
 72
    25
 73
    21
 74
     0
 42
0.0000000001
 43
0.0000000001
 40
6.846175049578289
 40
6.846175049578289
 40
6.846175049578289
 40
6.846175049578289
 40
7.604337694224321
 40
8.711974558287883
 40
9.814980593243754
 40
10.91239053451967
 40
12.0033633515982
 40
13.08720139956839
 40
14.16337181880432
 40
15.23152222380919
 40
16.29148850140128
 40
17.34331105512262
 40
18.38723020264746
 40
19.42369128463655
 40
20.45333379090873
 40
21.47697865721768
 40
22.49561244472435
 40
23.5103574802404
 40
24.52244778960836
 40
25.53320666051913
 40
25.53320666051913
 40
25.53320666051913
 40
25.53320666051913
 10
-4.443204107826415
 20
0.6661021132571209
 30
0.0
 10
-4.587956808834221
 20
0.7307163684012172
 30
0.0
 10
-4.944490444477528
 20
0.8890821685606166
 30
0.0
 10
-5.513334861653829
 20
1.137773483766418
 30
0.0
 10
-6.149849215621291
 20
1.409040539620089
 30
0.0
 10
-6.786395580309012
 20
1.671640687666591
 30
0.0
 10
-7.422979424836569
 20
1.923959314518731
 30
0.0
 10
-8.059607842318971
 20
2.164439740859505
 30
0.0
 10
-8.696286719569387
 20
2.391598947920469
 30
0.0
 10
-9.333019004075705
 20
2.604040877954118
 30
0.0
 10
-9.969812538746197
 20
2.80044343698367
 30
0.0
 10
-10.60666646128642
 20
2.979602277138027
 30
0.0
 10
-11.24358534608447
 20
3.140399449130461
 30
0.0
 10
-11.8805669454243
 20
3.281839804333694
 30
0.0
 10
-12.51760877093385
 20
3.403056414566163
 30
0.0
 10
-13.1547072777748
 20
3.50324579991047
 30
0.0
 10
-13.79185255295018
 20
3.581949420334995
 30
0.0
 10
-14.42903757447243
 20
3.638098285406812
 30
0.0
 10
-15.06625199890859
 20
3.673431495097993
 30
0.0
 10
-15.49116632103932
 20
3.67781013960408
 30
0.0
 10
-15.70348364289297
 20
3.679998020846151
 30
0.0
  0
SPLINE
  5
20F4
330
1F
100
AcDbEntity
  8
AM_0
 48
0.5
100
AcDbSpline
210
0.0
220
0.0
230
1.0
 70
     8
 71
     3
 72
    10
 73
     6
 74
     0
 42
0.0000000001
 43
0.0000000001
 40
0.0
 40
0.0
 40
0.0
 40
0.0
 40
2.69986029516136
 40
4.147722969032201
 40
6.285750005020438
 40
6.285750005020438
 40
6.285750005020438
 40
6.285750005020438
 10
-4.443102231693597
 20
0.6660584049605493
 30
0.0
 10
-3.989585752101231
 20
0.3241609750144224
 30
0.0
 10
-3.2928605465004
 20
-0.2010868779141607
 30
0.0
 10
-1.645199028035817
 20
0.0531948092546604
 30
0.0
 10
-1.955501617152738
 20
0.9096491781146129
 30
0.0
 10
-2.160529741996318
 20
1.431684494019334
 30
0.0
  0
SPLINE
  5
20F5
330
1F
100
AcDbEntity
  8
AM_0
100
AcDbSpline
210
0.0
220
0.0
230
1.0
 70
     8
 71
     3
 72
    46
 73
    42
 74
     0
 42
0.0000000001
 43
0.0000000001
 40
0.0
 40
0.0
 40
0.0
 40
0.0
 40
1.348332046947657
 40
2.024828967632895
 40
2.703918159304097
 40
3.386347665078124
 40
4.072776489761952
 40
4.763750544421347
 40
5.459696642770596
 40
6.160921452191754
 40
6.867565637253344
 40
7.579665907256596
 40
8.297112853413899
 40
9.019671552060676
 40
9.746986763446127
 40
10.47859339096366
 40
11.21393074760089
 40
11.95235532364328
 40
12.69315551794651
 40
13.43556823304427
 40
14.1787950170388
 40
14.92202180103393
 40
15.66443451613169
 40
16.40523471043432
 40
17.14365928647669
 40
17.87899664311455
 40
18.61060327063121
 40
19.3379184820169
 40
20.06048192311554
 40
20.77792886927283
 40
21.49002913927608
 40
22.19667332433747
 40
22.89788836015233
 40
23.59383445850158
 40
24.28480851316097
 40
24.97123685067576
 40
25.65366676154838
 40
26.33276604526152
 40
27.00926273560555
 40
27.68398960851751
 40
28.357818684969
 40
28.357818684969
 40
28.357818684969
 40
28.357818684969
 10
-1.91629483858022
 20
-3.680001979153992
 30
0.0
 10
-2.341226532546488
 20
-3.671618654686623
 30
0.0
 10
-2.979358664135301
 20
-3.659029175511206
 30
0.0
 10
-3.827910787326148
 20
-3.581518065038558
 30
0.0
 10
-4.465062764207733
 20
-3.503366246812734
 30
0.0
 10
-5.102160279762975
 20
-3.403032587538416
 30
0.0
 10
-5.739201655658871
 20
-3.281851260224721
 30
0.0
 10
-6.376183619288938
 20
-3.140401614853087
 30
0.0
 10
-7.013105103804099
 20
-2.979605106071403
 30
0.0
 10
-7.649963274678776
 20
-2.800449048246583
 30
0.0
 10
-8.286759404839713
 20
-2.60404463368811
 30
0.0
 10
-8.923491781498956
 20
-2.391602960979487
 30
0.0
 10
-9.56017063410278
 20
-2.164443684888307
 30
0.0
 10
-10.1967990570377
 20
-1.923963274613022
 30
0.0
 10
-10.83338290469581
 20
-1.671644653322552
 30
0.0
 10
-11.46992925119845
 20
-1.409044466471529
 30
0.0
 10
-12.10644367527007
 20
-1.137777561347286
 30
0.0
 10
-12.74293237180196
 20
-0.8595123722113374
 30
0.0
 10
-13.37940208938876
 20
-0.5759614582506858
 30
0.0
 10
-14.01585864222292
 20
-0.2888684582673781
 30
0.0
 10
-14.65230984489092
 20
-0.0000019792123085
 30
0.0
 10
-15.2887610474191
 20
0.2888645001937924
 30
0.0
 10
-15.92521760067265
 20
0.5759574991245212
 30
0.0
 10
-16.56168731672652
 20
0.8595084169318807
 30
0.0
 10
-17.19817601894262
 20
1.137773591801782
 30
0.0
 10
-17.83469042193771
 20
1.409040549823095
 30
0.0
 10
-18.47123684649389
 20
1.671640540777644
 30
0.0
 10
-19.1078217893393
 20
1.923960435220919
 30
0.0
 10
-19.74445268590514
 20
2.164438660609774
 30
0.0
 10
-20.38113267424646
 20
2.391599101495927
 30
0.0
 10
-21.01786503608076
 20
2.604040837417253
 30
0.0
 10
-21.65465855035555
 20
2.800443447187
 30
0.0
 10
-22.29151247797519
 20
2.979602276404274
 30
0.0
 10
-22.92843136261957
 20
3.140399442057292
 30
0.0
 10
-23.56541295759793
 20
3.281839833050528
 30
0.0
 10
-24.20245480053357
 20
3.403056307724426
 30
0.0
 10
-24.83955638209431
 20
3.503246689246755
 30
0.0
 10
-25.4767050758933
 20
3.581948681713863
 30
0.0
 10
-26.11389318977191
 20
3.638098409197588
 30
0.0
 10
-26.75110443310506
 20
3.673431280037659
 30
0.0
 10
-27.17601554454853
 20
3.677810078966816
 30
0.0
 10
-27.38832965871865
 20
3.679998020846271
 30
0.0
  0
SPLINE
  5
20F6
330
1F
100
AcDbEntity
  8
AM_0
100
AcDbSpline
210
0.0
220
0.0
230
1.0
 70
     8
 71
     3
 72
    55
 73
    51
 74
     0
 42
0.0000000001
 43
0.0000000001
 40
0.0
 40
0.0
 40
0.0
 40
0.0
 40
1.010743684496582
 40
2.022833576467832
 40
3.037578957496688
 40
4.056212745003489
 40
5.079857003664532
 40
6.109500240690281
 40
7.145961322679372
 40
8.189895241603872
 40
9.241717795325891
 40
10.30168407291828
 40
11.36983447792315
 40
12.44600489715814
 40
13.52984294512926
 40
14.62081576220742
 40
15.7182257034828
 40
16.82123173843959
 40
17.92886860250316
 40
19.0400688939571
 40
20.15368796660465
 40
21.26852814259644
 40
22.38336992938901
 40
23.49698739941135
 40
24.6081876908653
 40
25.71582455492886
 40
26.81883757994213
 40
27.91624752121713
 40
29.00722033829659
 40
30.09105838626677
 40
31.16722880550176
 40
32.23537921050758
 40
33.29534548809967
 40
34.347168041821
 40
35.39108718934584
 40
36.42754827133493
 40
37.45720575381954
 40
38.48085062012849
 40
39.49948440763516
 40
40.51422944315121
 40
41.52631975251916
 40
42.53706336719636
 40
43.54780698187354
 40
44.55989729124051
 40
45.57464232675757
 40
46.59327611426424
 40
47.6169209805722
 40
48.64656348684535
 40
49.68302456883444
 40
50.58557219878025
 40
50.58557219878025
 40
50.58557219878025
 40
50.58557219878025
 10
-3.700054804868909
 20
-3.680001979153973
 30
0.0
 10
-3.912368881271459
 20
-3.677812468307421
 30
0.0
 10
-4.33727981476668
 20
-3.673430530409246
 30
0.0
 10
-4.974491581821652
 20
-3.638107191607228
 30
0.0
 10
-5.611676148708867
 20
-3.581952310397586
 30
0.0
 10
-6.248821280127083
 20
-3.503249108651331
 30
0.0
 10
-6.885920618370866
 20
-3.40306416564654
 30
0.0
 10
-7.522961594894725
 20
-3.281842987859199
 30
0.0
 10
-8.159946340572478
 20
-3.140402164349769
 30
0.0
 10
-8.79686920663676
 20
-2.979607811047186
 30
0.0
 10
-9.433725854482052
 20
-2.800447195526298
 30
0.0
 10
-10.07051945848666
 20
-2.604044890450667
 30
0.0
 10
-10.70725172411087
 20
-2.391602891391809
 30
0.0
 10
-11.3439306068143
 20
-2.164443703757812
 30
0.0
 10
-11.98055902155004
 20
-1.923963269426986
 30
0.0
 10
-12.61714287160652
 20
-1.67164465502182
 30
0.0
 10
-13.25368921678475
 20
-1.409044464895281
 30
0.0
 10
-13.89020364375534
 20
-1.13777756597137
 30
0.0
 10
-14.52669232996332
 20
-0.8595123552038947
 30
0.0
 10
-15.16316208610811
 20
-0.5759615219055717
 30
0.0
 10
-15.79961849463533
 20
-0.2888682200703376
 30
0.0
 10
-16.43607054329532
 20
-0.0000027300075199
 30
0.0
 10
-17.07251973481814
 20
0.288867959814142
 30
0.0
 10
-17.70897827660851
 20
0.5759567908472878
 30
0.0
 10
-18.34544724702284
 20
0.85950848243784
 30
0.0
 10
-18.98193706808311
 20
1.137774753271739
 30
0.0
 10
-19.61845413562088
 20
1.409039337156302
 30
0.0
 10
-20.25500148543743
 20
1.671640859031181
 30
0.0
 10
-20.89158542739543
 20
1.923959268831964
 30
0.0
 10
-21.5282138189663
 20
2.164439753734922
 30
0.0
 10
-22.16489270330001
 20
2.391598941701207
 30
0.0
 10
-22.80162498514229
 20
2.60404088996198
 30
0.0
 10
-23.43841852342285
 20
2.800443395582433
 30
0.0
 10
-24.07527243429222
 20
2.979602429117381
 30
0.0
 10
-24.71219136172423
 20
3.140398888424821
 30
0.0
 10
-25.34917587111369
 20
3.281842556131274
 30
0.0
 10
-25.98622139632364
 20
3.403049888777383
 30
0.0
 10
-26.6233228393636
 20
3.503265841139909
 30
0.0
 10
-27.26046815966014
 20
3.581875750398923
 30
0.0
 10
-27.89765316928256
 20
3.638371639745871
 30
0.0
 10
-28.53486439605788
 20
3.672414589302772
 30
0.0
 10
-29.17208962516349
 20
3.683787212300835
 30
0.0
 10
-29.80931485333149
 20
3.672414589284951
 30
0.0
 10
-30.44652608292505
 20
3.63837163981742
 30
0.0
 10
-31.08371108217157
 20
3.581875750129359
 30
0.0
 10
-31.72085644136986
 20
3.503265842152968
 30
0.0
 10
-32.35795463217243
 20
3.403050373537067
 30
0.0
 10
-32.99499764766547
 20
3.281843795410787
 30
0.0
 10
-33.60301985377912
 20
3.146819535453419
 30
0.0
 10
-33.99751158545936
 20
3.048075017671322
 30
0.0
 10
-34.18053275631791
 20
2.999951997108441
 30
0.0
  0
SPLINE
  5
20F7
330
1F
100
AcDbEntity
  8
AM_0
100
AcDbSpline
210
0.0
220
0.0
230
1.0
 70
     8
 71
     3
 72
    11
 73
     7
 74
     0
 42
0.0000000001
 43
0.0000000001
 40
11.27226913003534
 40
11.27226913003534
 40
11.27226913003534
 40
11.2722691300354
 40
12.28301561507924
 40
13.29510212255852
 40
14.30984805882082
 40
15.18258238371378
 40
15.18258238371378
 40
15.18258238371378
 40
15.18258238371378
 10
-15.70348364289304
 20
-3.68000197915385
 30
0.0
 10
-15.91499039386216
 20
-3.661990989752831
 30
0.0
 10
-16.33760495384867
 20
-3.618387168283232
 30
0.0
 10
-16.96934449102734
 20
-3.53042747499938
 30
0.0
 10
-17.56887645111254
 20
-3.425369265776048
 30
0.0
 10
-17.95661853107563
 20
-3.344607893613192
 30
0.0
 10
-18.13530112246824
 20
-3.304714006474221
 30
0.0
  0
SPLINE
  5
20F8
330
1F
100
AcDbEntity
  8
AM_0
100
AcDbSpline
210
0.0
220
0.0
230
1.0
 70
     8
 71
     3
 72
    22
 73
    18
 74
     0
 42
0.0000000001
 43
0.0000000001
 40
17.17441611292
 40
17.17441611292
 40
17.17441611292
 40
17.17441611292
 40
17.38177636558528
 40
18.41823744757437
 40
19.46215659509824
 40
20.51397914882054
 40
21.57394542641293
 40
22.64209583141747
 40
23.71826625065247
 40
24.80210429862395
 40
25.8930771157021
 40
26.99048705697709
 40
28.09349309193389
 40
29.20112995599786
 40
30.31233024745139
 40
31.42594771747373
 40
32.5407895042663
 40
32.54078950426994
 40
32.54078950426994
 40
32.54078950426994
 10
-18.13557979713712
 20
-3.304668613702361
 30
0.0
 10
-18.17824840455958
 20
-3.296149774643273
 30
0.0
 10
-18.43402340337346
 20
-3.244260594802312
 30
0.0
 10
-18.90258878833672
 20
-3.140216035694065
 30
0.0
 10
-19.539507624693
 20
-2.979419114417126
 30
0.0
 10
-20.17636156035683
 20
-2.800260206319946
 30
0.0
 10
-20.81315509148128
 20
-2.603857665729874
 30
0.0
 10
-21.44988737690639
 20
-2.391415730605528
 30
0.0
 10
-22.08656625406825
 20
-2.164256525277461
 30
0.0
 10
-22.72319467096902
 20
-1.923776097132983
 30
0.0
 10
-23.35977851793542
 20
-1.671457475795658
 30
0.0
 10
-23.99632487337625
 20
-1.408857307337856
 30
0.0
 10
-24.6328392621298
 20
-1.137590328136653
 30
0.0
 10
-25.26932809174249
 20
-0.859325418486704
 30
0.0
 10
-25.9057970041338
 20
-0.5757735926045921
 30
0.0
 10
-26.54225542803716
 20
-0.2886845185180389
 30
0.0
 10
-26.96647775786159
 20
-0.0961399662980081
 30
0.0
 10
-27.17870545970203
 20
0.0001851953259057
 30
0.0
  0
SPLINE
  5
20F9
330
1F
100
AcDbEntity
  8
AM_0
100
AcDbSpline
210
0.0
220
0.0
230
1.0
 70
     8
 71
     3
 72
    17
 73
    13
 74
     0
 42
0.0000000001
 43
0.0000000001
 40
1.580019955310467
 40
1.580019955310467
 40
1.580019955310467
 40
1.580019955310467
 40
2.030549285115227
 40
3.082371838836284
 40
4.126290986361125
 40
5.162752068350215
 40
6.192395305374981
 40
7.216039564037012
 40
8.234688489606833
 40
9.249433870634691
 40
10.26152376260694
 40
11.27226744710342
 40
11.27226744710342
 40
11.27226744710342
 40
11.27226744710352
 10
-9.701300973718373
 20
-2.715950342606436
 30
0.0
 10
-9.791455802725419
 20
-2.743922354508767
 30
0.0
 10
-10.09260322022325
 20
-2.835604359714906
 30
0.0
 10
-10.60673654332628
 20
-2.979410865319801
 30
0.0
 10
-11.2435667220378
 20
-3.140455074359363
 30
0.0
 10
-11.88057221950129
 20
-3.281830507791505
 30
0.0
 10
-12.5176069043343
 20
-3.40306239513619
 30
0.0
 10
-13.15471099295452
 20
-3.503268889790234
 30
0.0
 10
-13.79185909726803
 20
-3.581878157473599
 30
0.0
 10
-14.42904687552285
 20
-3.638380783828715
 30
0.0
 10
-15.0662586290622
 20
-3.672413054887976
 30
0.0
 10
-15.49116956929151
 20
-3.680002000211006
 30
0.0
 10
-15.70348364289301
 20
-3.68000197915385
 30
0.0
  0
ELLIPSE
  5
20FC
330
1F
100
AcDbEntity
  8
AM_0
 48
0.5
100
AcDbEllipse
 10
2.129991130357451
 20
4.41806442709595
 30
0.0
 11
-7.620037705930829
 21
0.00000000000019
 31
0.0
210
0.0
220
0.0
230
1.0
 40
0.973333333333333
 41
0.5303675532341106
 42
0.9384884834290044
  0
ELLIPSE
  5
20FD
330
1F
100
AcDbEntity
  8
AM_0
 48
0.5
100
AcDbEllipse
 10
-6.828355719894154
 20
6.176372125663491
 30
0.0
 11
9.115962224463972
 21
0.0000000000103804
 31
0.0
210
0.0
220
0.0
230
1.0
 40
0.9733333333333142
 41
-1.060213001567634
 42
-0.9717182238881441
  0
DIMENSION
  5
2157
330
1F
100
AcDbEntity
  8
AM_5
100
AcDbDimension
  2
*D13
 10
-133.0894118751193
 20
-4.000002543131462
 30
0.0
 11
-133.0894118751193
 21
-0.0000025431314629
 31
0.0
 70
   160
  1
%%c<>
 51
359.9999999999998
  3
AM_JIS$0
100
AcDbAlignedDimension
 13
-119.0894118751193
 23
3.999997456868575
 33
0.0
 14
-119.0894118751193
 24
-4.000002543131466
 34
0.0
 50
270.0000000000002
100
AcDbRotatedDimension
1001
ACAD
1000
DSTYLE
1002
{
1070
   271
1070
     0
1002
}
1001
GENIUS_GENDTOL_13
1000

1000
h7
1000

1040
0.0
  0
LINE
  5
229A
330
1F
100
AcDbEntity
  8
AM_0
100
AcDbLine
 10
-1.339410997979975
 20
3.679997747155334
 30
0.0
 11
-0.0000010242577203
 21
-0.0000009110388391
 31
0.0
  0
LINE
  5
229B
330
1F
100
AcDbEntity
  8
AM_0
100
AcDbLine
 10
-1.339411875119461
 20
-3.680001979154003
 30
0.0
 11
-0.0000010242577203
 21
-0.0000009110388373
 31
0.0
  0
LINE
  5
229C
330
1F
100
AcDbEntity
  8
AM_0
100
AcDbLine
 10
-1.339411875119461
 20
-3.680001979154003
 30
0.0
 11
-3.700054804868909
 21
-3.680001979153973
 31
0.0
  0
SPLINE
  5
2386
330
1F
100
AcDbEntity
  8
AM_0
100
AcDbSpline
210
0.0
220
0.0
230
1.0
 70
     8
 71
     3
 72
    23
 73
    19
 74
     0
 42
0.0000000001
 43
0.0000000001
 40
16.03460024169435
 40
16.03460024169435
 40
16.03460024169435
 40
16.03460024169435
 40
16.35212704903564
 40
17.38177054169784
 40
18.41822485651776
 40
19.46214173629503
 40
20.51396345435107
 40
21.57393551351153
 40
22.64208202342361
 40
23.7182574881101
 40
24.80209208578934
 40
25.89306333925047
 40
26.99048218457928
 40
28.09348763352352
 40
29.20111863782268
 40
30.31232390128032
 40
31.42594612798585
 40
32.5407912310448
 40
32.5407912310486
 40
32.5407912310486
 40
32.5407912310486
 10
-58.87548541693909
 20
3.680520831631622
 30
0.0
 10
-58.81436932096008
 20
3.668097799678205
 30
0.0
 10
-58.55533245082152
 20
3.613998992059979
 30
0.0
 10
-58.09903621443648
 20
3.508000635050963
 30
0.0
 10
-57.50813139380393
 20
3.350382237365299
 30
0.0
 10
-56.91777543336304
 20
3.173403049091334
 30
0.0
 10
-56.32793344850931
 20
2.978087335502002
 30
0.0
 10
-55.73858450470542
 20
2.765523986073104
 30
0.0
 10
-55.1496945389949
 20
2.536928102550735
 30
0.0
 10
-54.56122254331877
 20
2.29363005563697
 30
0.0
 10
-53.97313507858471
 20
2.037007627986308
 30
0.0
 10
-53.38538499568818
 20
1.768554045710878
 30
0.0
 10
-52.79792466405758
 20
1.489829677015793
 30
0.0
 10
-52.21071494288657
 20
1.202437070172306
 30
0.0
 10
-51.62370670105089
 20
0.9080473738323963
 30
0.0
 10
-51.03684556915539
 20
0.6083796078416
 30
0.0
 10
-50.45008376013766
 20
0.3051702657566638
 30
0.0
 10
-50.05901429013733
 20
0.1018849812041832
 30
0.0
 10
-49.86337290808031
 20
0.0001851953247378
 30
0.0
  0
LINE
  5
2387
330
1F
100
AcDbEntity
  8
AM_11
 48
0.3
100
AcDbLine
 10
-58.87291439565426
 20
3.67999802084655
 30
0.0
 11
-51.72431084987488
 21
3.679998020846452
 31
0.0
  0
ELLIPSE
  5
2388
330
1F
100
AcDbEntity
  8
AM_0
 48
0.5
100
AcDbEllipse
 10
-60.4538625974375
 20
-2.490709376614331
 30
0.0
 11
-0.000000000000114
 21
0.9199999999999956
 31
0.0
210
0.0
220
0.0
230
1.0
 40
0.9591363206967892
 41
-0.3953601559017228
 42
1.570796326794763
  0
ELLIPSE
  5
2389
330
1F
100
AcDbEntity
  8
AM_0
 48
0.5
100
AcDbEllipse
 10
-60.15951202808124
 20
-2.453335312486784
 30
0.0
 11
0.0000000000001853
 21
1.226666666666662
 31
0.0
210
0.0
220
0.0
230
1.0
 40
0.9591363206967782
 41
1.570796326795028
 42
3.141592339673435
  0
SPLINE
  5
238A
330
1F
100
AcDbEntity
  8
AM_0
100
AcDbSpline
210
0.0
220
0.0
230
1.0
 70
     8
 71
     3
 72
    13
 73
     9
 74
     0
 42
0.0000000001
 43
0.0000000001
 40
16.03460056234195
 40
16.03460056234195
 40
16.03460056234195
 40
16.03460056234195
 40
16.35212717791071
 40
17.38177067057215
 40
18.41822498539278
 40
19.46214186516937
 40
20.5139635832251
 40
21.34083983469381
 40
21.34083983469381
 40
21.34083983469381
 40
21.34083983469381
 10
-60.0525062508503
 20
-3.680336658934808
 30
0.0
 10
-59.99139013010442
 20
-3.66791399285101
 30
0.0
 10
-59.73235304561814
 20
-3.61381666952964
 30
0.0
 10
-59.27605705796725
 20
-3.507817074964929
 30
0.0
 10
-58.68515216297198
 20
-3.350199114317335
 30
0.0
 10
-58.09479622267
 20
-3.17321980768607
 30
0.0
 10
-57.54852276892234
 20
-2.992331071946701
 30
0.0
 10
-57.20000992525474
 20
-2.867776304206962
 30
0.0
 10
-57.04711942952176
 20
-2.811476414245348
 30
0.0
  0
SPLINE
  5
238B
330
1F
100
AcDbEntity
  8
AM_0
 48
0.5
100
AcDbSpline
210
0.0
220
0.0
230
1.0
 70
     8
 71
     3
 72
    22
 73
    18
 74
     0
 42
0.0000000001
 43
0.0000000001
 40
0.0
 40
0.0
 40
0.0
 40
0.0
 40
1.010743684496582
 40
2.022833993863546
 40
3.037578683882831
 40
4.056212471389632
 40
5.079857945358201
 40
6.109499720892564
 40
7.145961650132166
 40
8.189873411961459
 40
9.241710626092514
 40
10.30166235592959
 40
11.36982472628033
 40
12.44598212828784
 40
13.52983440361964
 40
14.62080578343036
 40
14.90544694398022
 40
14.90544694398022
 40
14.90544694398022
 40
14.90544694398022
 10
-51.72431533802127
 20
-3.68000197915355
 30
0.0
 10
-51.92252316751297
 20
-3.677813122427803
 30
0.0
 10
-52.31920290095645
 20
-3.673432492738569
 30
0.0
 10
-52.91407728207008
 20
-3.638099314213939
 30
0.0
 10
-53.50892753722021
 20
-3.581953886878478
 30
0.0
 10
-54.10374064961204
 20
-3.503250612579249
 30
0.0
 10
-54.69850907511911
 20
-3.403056322755148
 30
0.0
 10
-55.29322660893918
 20
-3.281845334643098
 30
0.0
 10
-55.88788453634963
 20
-3.140401141471568
 30
0.0
 10
-56.48248694642582
 20
-2.979601205345179
 30
0.0
 10
-57.07702848389797
 20
-2.800449534182999
 30
0.0
 10
-57.67151225578174
 20
-2.604036465235982
 30
0.0
 10
-58.26594209431316
 20
-2.391611864662988
 30
0.0
 10
-58.86031755300567
 20
-2.164438587721806
 30
0.0
 10
-59.45464976678331
 20
-1.923963831040018
 30
0.0
 10
-59.90133196000354
 20
-1.73432346699007
 30
0.0
 10
-60.15023886565336
 20
-1.625931130724637
 30
0.0
 10
-60.20170453695704
 20
-1.603408168053579
 30
0.0
  0
SPLINE
  5
238C
330
1F
100
AcDbEntity
  8
AM_0
 48
0.5
100
AcDbSpline
210
0.0
220
0.0
230
1.0
 70
     8
 71
     3
 72
    26
 73
    22
 74
     0
 42
0.0000000001
 43
0.0000000001
 40
0.0
 40
0.0
 40
0.0
 40
0.0
 40
0.6738291229976858
 40
1.34855571764586
 40
2.025052638331105
 40
2.7041418300023
 40
3.386571335776987
 40
4.073000160460178
 40
4.763974215119558
 40
5.459920313469455
 40
6.161135349283505
 40
6.867779534345081
 40
7.579884616450838
 40
8.297322010138517
 40
9.01989019369366
 40
9.747205405079087
 40
10.47881203259601
 40
11.21414938923388
 40
11.95257396527625
 40
12.69337415957888
 40
13.41285713964268
 40
13.41285713964268
 40
13.41285713964268
 40
13.41285713964268
 10
-50.05906953951087
 20
-3.680001979153574
 30
0.0
 10
-50.25727733115228
 20
-3.677812468402433
 30
0.0
 10
-50.65395690699326
 20
-3.673430530695194
 30
0.0
 10
-51.24883191106562
 20
-3.638107190458411
 30
0.0
 10
-51.84368152389378
 20
-3.581952314723425
 30
0.0
 10
-52.43849431485974
 20
-3.503249092398261
 30
0.0
 10
-53.03326437966267
 20
-3.403064226778489
 30
0.0
 10
-53.62797986817568
 20
-3.281842757617802
 30
0.0
 10
-54.22264038476098
 20
-3.140403704196079
 30
0.0
 10
-54.81724187384696
 20
-2.979606096089401
 30
0.0
 10
-55.41178292973817
 20
-2.80044765558979
 30
0.0
 10
-56.00626844552967
 20
-2.604043479732734
 30
0.0
 10
-56.60069595786762
 20
-2.391606300996414
 30
0.0
 10
-57.19507220178318
 20
-2.16443926171401
 30
0.0
 10
-57.78940512449636
 20
-1.923965764379157
 30
0.0
 10
-58.38369601013731
 20
-1.671644583197529
 30
0.0
 10
-58.97794928883222
 20
-1.409043331910477
 30
0.0
 10
-59.57217587334347
 20
-1.137782203542487
 30
0.0
 10
-60.16636594341704
 20
-0.8594948442326145
 30
0.0
 10
-60.75445239052147
 20
-0.5789528826498545
 30
0.0
 10
-61.14408178784155
 20
-0.3904828249723955
 30
0.0
 10
-61.33605258146925
 20
-0.2976234391143012
 30
0.0
  0
LINE
  5
238D
330
1F
100
AcDbEntity
  8
AM_11
 48
0.3
100
AcDbLine
 10
-60.05277493915056
 20
-3.680001979153434
 30
0.0
 11
-51.72431084987497
 21
-3.680001979153549
 31
0.0
  0
LINE
  5
238E
330
1F
100
AcDbEntity
  8
AM_0
 48
0.5
100
AcDbLine
 10
-53.59633002422109
 20
1.864585728365729
 30
0.0
 11
-61.33604809332293
 21
-0.2976210994334685
 31
0.0
  0
VIEWPORT
  5
110
330
101
100
AcDbEntity
 67
     1
  8
0
100
AcDbViewport
 10
420.5
 20
297.0
 30
0.0
 40
948.9782706766916
 41
628.452
 68
     1
 69
     1
1001
ACAD
1000
MVIEW
1002
{
1070
    16
1010
0.0
1020
0.0
1030
0.0
1010
0.0
1020
0.0
1030
1.0
1040
0.0
1040
628.452
1040
420.5
1040
297.0
1040
50.0
1040
0.0
1040
0.0
1070
     0
1070
   100
1070
     1
1070
     1
1070
     0
1070
     0
1070
     0
1070
     0
1040
0.0
1040
0.0
1040
0.0
1040
10.0
1040
10.0
1040
10.0
1040
10.0
1070
     0
1002
{
1002
}
1002
}
  0
ENDSEC
  0
SECTION
  2
OBJECTS
  0
DICTIONARY
  5
C
330
0
100
AcDbDictionary
  3
ACAD_GROUP
350
D
  3
ACAD_LAYOUT
350
1A
  3
ACAD_MLINESTYLE
350
17
  3
ACAD_PLOTSETTINGS
350
19
  3
ACAD_PLOTSTYLENAME
350
E
  3
ACDBVARIABLEDICTIONARY
350
34
  3
ACMDICTIONARY
350
43
  3
AMG
350
2B
  3
AMGSNAPSETTINGS
350
6E
  3
DWGPROPS
350
239E
  3
ACDBHEADERROUNDTRIPXREC
350
23AB
  0
DICTIONARY
  5
74
330
1F
100
AcDbDictionary
280
     1
  3
ACAD_INDEX
360
23A0
  3
ACAD_LAYOUTSELFREF
360
23CE
  0
DICTIONARY
  5
23D3
330
101
100
AcDbDictionary
280
     1
  3
ACAD_LAYOUTSELFREF
360
23D4
  0
DICTIONARY
  5
D
102
{ACAD_REACTORS
330
C
102
}
330
C
100
AcDbDictionary
  0
DICTIONARY
  5
1A
102
{ACAD_REACTORS
330
C
102
}
330
C
100
AcDbDictionary
  0
DICTIONARY
  5
17
102
{ACAD_REACTORS
330
C
102
}
330
C
100
AcDbDictionary
  3
STANDARD
350
18
  0
DICTIONARY
  5
19
102
{ACAD_REACTORS
330
C
102
}
330
C
100
AcDbDictionary
  0
ACDBDICTIONARYWDFLT
  5
E
102
{ACAD_REACTORS
330
C
102
}
330
C
100
AcDbDictionary
281
     1
  3
Normal
350
F
100
AcDbDictionaryWithDefault
340
F
  0
DICTIONARY
  5
34
102
{ACAD_REACTORS
330
C
102
}
330
C
100
AcDbDictionary
  3
INDEXCTL
350
35
  3
SORTENTS
350
B5E
  0
DICTIONARY
  5
43
102
{ACAD_REACTORS
330
C
102
}
330
C
100
AcDbDictionary
  3
ACMSTDDICTIONARY
350
260
  0
DICTIONARY
  5
2B
102
{ACAD_REACTORS
330
C
102
}
330
C
100
AcDbDictionary
  3
ACMGSETTINGS
350
2C
  0
DICTIONARY
  5
6E
102
{ACAD_REACTORS
330
C
102
}
330
C
100
AcDbDictionary
  0
XRECORD
  5
239E
102
{ACAD_REACTORS
330
C
102
}
330
C
100
AcDbXrecord
  1
DWGPROPS COOKIE
  2

  3

  4

  6

  7

  8

  9

300
AmdtFileType=82
301
=
302
=
303
=
304
=
305
=
306
=
307
=
308
=
309
=
 40
0.0426114930555556
 41
2452800.443498622
 42
2452982.716340266
  1

 90
        1
  0
DICTIONARY
  5
23AB
102
{ACAD_REACTORS
330
C
102
}
330
C
100
AcDbDictionary
  3
TSTACKALIGN
350
23AC
  3
TSTACKSIZE
350
23AD
  3
HYPERLINKBASE
350
23AE
  3
STYLESHEET
350
23AF
  3
LAYOUTDICT
350
23B0
  3
PLOTSETDICT
350
23B1
  3
PLOTSTYLNAMDICT
350
23B2
  3
LWETCUNION
350
23B3
  3
INSUNITS
350
23B4
  3
CEPSNTYPE
350
23B5
  3
FINGERPRINTGUID
350
23B6
  3
VERSIONGUID
350
23B7
  3
PSVPSCALE
350
23B8
  3
DIMSTYLEDATA
350
23B9
  3
PUCSORTHOREF
350
23BA
  3
PUCSORTHOVIEW
350
23BB
  3
PUCSBASE
350
23BC
  3
PUCSORGTOP
350
23BD
  3
PUCSORGBOTTOM
350
23BE
  3
PUCSORGLEFT
350
23BF
  3
PUCSORGRIGHT
350
23C0
  3
PUCSORGFRONT
350
23C1
  3
PUCSORGBACK
350
23C2
  3
UCSORTHOREF
350
23C3
  3
UCSORTHOVIEW
350
23C4
  3
UCSBASE
350
23C5
  3
UCSORGTOP
350
23C6
  3
UCSORGBOTTOM
350
23C7
  3
UCSORGLEFT
350
23C8
  3
UCSORGRIGHT
350
23C9
  3
UCSORGFRONT
350
23CA
  3
UCSORGBACK
350
23CB
  0
DICTIONARY
  5
23A0
102
{ACAD_REACTORS
330
74
102
}
330
74
100
AcDbDictionary
  3
*A1
350
23A1
  0
XRECORD
  5
23CE
102
{ACAD_REACTORS
330
74
102
}
330
74
100
AcDbXrecord
340
1F
  0
XRECORD
  5
23D4
102
{ACAD_REACTORS
330
23D3
102
}
330
23D3
100
AcDbXrecord
340
101
  0
MLINESTYLE
  5
18
102
{ACAD_REACTORS
330
17
102
}
330
17
100
AcDbMlineStyle
  2
STANDARD
 70
     0
  3

 62
   256
 51
90.0
 52
90.0
 71
     2
 49
0.5
 62
   256
  6
BYLAYER
 49
-0.5
 62
   256
  6
BYLAYER
  0
ACDBPLACEHOLDER
  5
F
102
{ACAD_REACTORS
330
E
102
}
330
E
100
AcDbPlaceHolder
280
     0
  0
DICTIONARYVAR
  5
35
102
{ACAD_REACTORS
330
34
102
}
330
34
100
DictionaryVariables
280
     0
  1
1
  0
DICTIONARYVAR
  5
B5E
102
{ACAD_REACTORS
330
34
102
}
330
34
100
DictionaryVariables
280
     0
  1
96
  0
DICTIONARY
  5
260
102
{ACAD_REACTORS
330
43
102
}
330
43
100
AcDbDictionary
  0
DICTIONARY
  5
2C
102
{ACAD_REACTORS
330
2B
102
}
330
2B
100
AcDbDictionary
  3
DWGSETTINGS
350
2D
  0
XRECORD
  5
23AC
102
{ACAD_REACTORS
330
23AB
102
}
330
23AB
100
AcDbXrecord
 90
        1
  0
XRECORD
  5
23AD
102
{ACAD_REACTORS
330
23AB
102
}
330
23AB
100
AcDbXrecord
 90
       70
  0
XRECORD
  5
23AE
102
{ACAD_REACTORS
330
23AB
102
}
330
23AB
100
AcDbXrecord
  1

  0
XRECORD
  5
23AF
102
{ACAD_REACTORS
330
23AB
102
}
330
23AB
100
AcDbXrecord
  1
ASAMI.ctb
  0
XRECORD
  5
23B0
102
{ACAD_REACTORS
330
23AB
102
}
330
23AB
100
AcDbXrecord
340
1A
  0
XRECORD
  5
23B1
102
{ACAD_REACTORS
330
23AB
102
}
330
23AB
100
AcDbXrecord
340
19
  0
XRECORD
  5
23B2
102
{ACAD_REACTORS
330
23AB
102
}
330
23AB
100
AcDbXrecord
340
E
  0
XRECORD
  5
23B3
102
{ACAD_REACTORS
330
23AB
102
}
330
23AB
100
AcDbXrecord
 90
    10781
  0
XRECORD
  5
23B4
102
{ACAD_REACTORS
330
23AB
102
}
330
23AB
100
AcDbXrecord
 90
        4
  0
XRECORD
  5
23B5
102
{ACAD_REACTORS
330
23AB
102
}
330
23AB
100
AcDbXrecord
 90
        0
  0
XRECORD
  5
23B6
102
{ACAD_REACTORS
330
23AB
102
}
330
23AB
100
AcDbXrecord
  1
{AFB28963-8C59-40AE-9337-C84526B81ACE}
  0
XRECORD
  5
23B7
102
{ACAD_REACTORS
330
23AB
102
}
330
23AB
100
AcDbXrecord
  1
{BA09A976-9C2D-4F60-9FA0-DA5F6A2B52BB}
  0
XRECORD
  5
23B8
102
{ACAD_REACTORS
330
23AB
102
}
330
23AB
100
AcDbXrecord
 40
0.0
  0
XRECORD
  5
23B9
102
{ACAD_REACTORS
330
23AB
102
}
330
23AB
100
AcDbXrecord
1000
DSTYLE
1002
{
1070
    79
 70
     2
1070
   341
340
59
1070
   342
340
59
1070
   371
 70
    -1
1070
   372
 70
    -1
1002
}
  0
XRECORD
  5
23BA
102
{ACAD_REACTORS
330
23AB
102
}
330
23AB
100
AcDbXrecord
340
0
  0
XRECORD
  5
23BB
102
{ACAD_REACTORS
330
23AB
102
}
330
23AB
100
AcDbXrecord
 70
     0
  0
XRECORD
  5
23BC
102
{ACAD_REACTORS
330
23AB
102
}
330
23AB
100
AcDbXrecord
340
0
  0
XRECORD
  5
23BD
102
{ACAD_REACTORS
330
23AB
102
}
330
23AB
100
AcDbXrecord
 10
0.0
 20
0.0
 30
0.0
  0
XRECORD
  5
23BE
102
{ACAD_REACTORS
330
23AB
102
}
330
23AB
100
AcDbXrecord
 10
0.0
 20
0.0
 30
0.0
  0
XRECORD
  5
23BF
102
{ACAD_REACTORS
330
23AB
102
}
330
23AB
100
AcDbXrecord
 10
0.0
 20
0.0
 30
0.0
  0
XRECORD
  5
23C0
102
{ACAD_REACTORS
330
23AB
102
}
330
23AB
100
AcDbXrecord
 10
0.0
 20
0.0
 30
0.0
  0
XRECORD
  5
23C1
102
{ACAD_REACTORS
330
23AB
102
}
330
23AB
100
AcDbXrecord
 10
0.0
 20
0.0
 30
0.0
  0
XRECORD
  5
23C2
102
{ACAD_REACTORS
330
23AB
102
}
330
23AB
100
AcDbXrecord
 10
0.0
 20
0.0
 30
0.0
  0
XRECORD
  5
23C3
102
{ACAD_REACTORS
330
23AB
102
}
330
23AB
100
AcDbXrecord
340
0
  0
XRECORD
  5
23C4
102
{ACAD_REACTORS
330
23AB
102
}
330
23AB
100
AcDbXrecord
 70
     0
  0
XRECORD
  5
23C5
102
{ACAD_REACTORS
330
23AB
102
}
330
23AB
100
AcDbXrecord
340
0
  0
XRECORD
  5
23C6
102
{ACAD_REACTORS
330
23AB
102
}
330
23AB
100
AcDbXrecord
 10
0.0
 20
0.0
 30
0.0
  0
XRECORD
  5
23C7
102
{ACAD_REACTORS
330
23AB
102
}
330
23AB
100
AcDbXrecord
 10
0.0
 20
0.0
 30
0.0
  0
XRECORD
  5
23C8
102
{ACAD_REACTORS
330
23AB
102
}
330
23AB
100
AcDbXrecord
 10
0.0
 20
0.0
 30
0.0
  0
XRECORD
  5
23C9
102
{ACAD_REACTORS
330
23AB
102
}
330
23AB
100
AcDbXrecord
 10
0.0
 20
0.0
 30
0.0
  0
XRECORD
  5
23CA
102
{ACAD_REACTORS
330
23AB
102
}
330
23AB
100
AcDbXrecord
 10
0.0
 20
0.0
 30
0.0
  0
XRECORD
  5
23CB
102
{ACAD_REACTORS
330
23AB
102
}
330
23AB
100
AcDbXrecord
 10
0.0
 20
0.0
 30
0.0
  0
LAYER_INDEX
  5
23A1
102
{ACAD_REACTORS
330
23A0
102
}
330
23A0
100
AcDbIndex
 40
2453151.584986065
100
AcDbLayerIndex
  8
0
360
23A2
 90
        0
  8
AM_0
360
23A3
 90
       50
  8
AM_7
360
23A4
 90
        1
  8
AM_11
360
23A5
 90
        6
  8
AM_5
360
23A6
 90
        5
  8
Defpoints
360
23A7
 90
        0
  8
AM_6
360
23A8
 90
        1
  8
AM_CL
360
23A9
 90
        0
  0
XRECORD
  5
2D
102
{ACAD_REACTORS
330
2C
102
}
330
2C
100
AcDbXrecord
  1
VERSION
140
15.0
  1
PRODUCT
  2
AutoCAD Mechanical 2000
  0
IDBUFFER
  5
23A2
330
0
100
AcDbIdBuffer
  0
IDBUFFER
  5
23A3
330
0
100
AcDbIdBuffer
330
238C
330
238E
330
C30
330
1CA9
330
1E12
330
1E16
330
1E1D
330
1E21
330
1E22
330
1E25
330
1E26
330
20CE
330
20CF
330
20D0
330
20D2
330
20DB
330
20DC
330
20DD
330
20DE
330
20DF
330
20E0
330
20E1
330
20E4
330
20E5
330
20E6
330
20E7
330
20E8
330
20E9
330
20EA
330
20EF
330
20F0
330
20F1
330
20F2
330
20F3
330
20F4
330
20F5
330
20F6
330
20F7
330
20F8
330
20F9
330
20FC
330
20FD
330
229A
330
229B
330
229C
330
2386
330
2388
330
2389
330
238A
330
238B
  0
IDBUFFER
  5
23A4
330
0
100
AcDbIdBuffer
330
C9F
  0
IDBUFFER
  5
23A5
330
0
100
AcDbIdBuffer
330
20D4
330
20D5
330
20D6
330
20D7
330
2387
330
238D
  0
IDBUFFER
  5
23A6
330
0
100
AcDbIdBuffer
330
CC6
330
DF5
330
11B2
330
20BF
330
2157
  0
IDBUFFER
  5
23A7
330
0
100
AcDbIdBuffer
  0
IDBUFFER
  5
23A8
330
0
100
AcDbIdBuffer
330
19BD
  0
IDBUFFER
  5
23A9
330
0
100
AcDbIdBuffer
  0
ENDSEC
  0
EOF
