  0
SECTION
  2
HEADER
  9
$ACADVER
  1
AC1014
  9
$ACADMAINTVER
 70
     9
  9
$DWGCODEPAGE
  3
ANSI_932
  9
$INSBASE
 10
0.0
 20
0.0
 30
0.0
  9
$EXTMIN
 10
-131.6500009999998
 20
-26.97293740283332
 30
-0.00000001
  9
$EXTMAX
 10
13.54182334646827
 20
13.24320052285234
 30
0.00000001
  9
$LIMMIN
 10
-138.8290064717842
 20
-45.22474571374511
  9
$LIMMAX
 10
23.05023987897198
 20
30.30997914579825
  9
$ORTHOMODE
 70
     0
  9
$REGENMODE
 70
     1
  9
$FILLMODE
 70
     1
  9
$QTEXTMODE
 70
     0
  9
$MIRRTEXT
 70
     0
  9
$DRAGMODE
 70
     2
  9
$LTSCALE
 40
1.0
  9
$OSMODE
 70
    55
  9
$ATTMODE
 70
     1
  9
$TEXTSIZE
 40
2.5
  9
$TRACEWID
 40
1.0
  9
$TEXTSTYLE
  7
STANDARD
  9
$CLAYER
  8
AM_0
  9
$CELTYPE
  6
BYLAYER
  9
$CECOLOR
 62
   256
  9
$CELTSCALE
 40
1.0
  9
$DELOBJ
 70
     1
  9
$DISPSILH
 70
     0
  9
$DIMSCALE
 40
0.5
  9
$DIMASZ
 40
2.5
  9
$DIMEXO
 40
1.0
  9
$DIMDLI
 40
12.0
  9
$DIMRND
 40
0.0
  9
$DIMDLE
 40
0.0
  9
$DIMEXE
 40
1.0
  9
$DIMTP
 40
0.1
  9
$DIMTM
 40
0.1
  9
$DIMTXT
 40
3.2
  9
$DIMCEN
 40
0.0
  9
$DIMTSZ
 40
0.0
  9
$DIMTOL
 70
     0
  9
$DIMLIM
 70
     0
  9
$DIMTIH
 70
     0
  9
$DIMTOH
 70
     0
  9
$DIMSE1
 70
     0
  9
$DIMSE2
 70
     0
  9
$DIMTAD
 70
     3
  9
$DIMZIN
 70
     8
  9
$DIMBLK
  1
OPEN30
  9
$DIMASO
 70
     1
  9
$DIMSHO
 70
     1
  9
$DIMPOST
  1

  9
$DIMAPOST
  1
"
  9
$DIMALT
 70
     0
  9
$DIMALTD
 70
     2
  9
$DIMALTF
 40
0.0393701
  9
$DIMLFAC
 40
1.0
  9
$DIMTOFL
 70
     1
  9
$DIMTVP
 40
0.0
  9
$DIMTIX
 70
     0
  9
$DIMSOXD
 70
     0
  9
$DIMSAH
 70
     0
  9
$DIMBLK1
  1

  9
$DIMBLK2
  1

  9
$DIMSTYLE
  2
AM_JIS
  9
$DIMCLRD
 70
   256
  9
$DIMCLRE
 70
   256
  9
$DIMCLRT
 70
     2
  9
$DIMTFAC
 40
0.71
  9
$DIMGAP
 40
1.5
  9
$DIMJUST
 70
     0
  9
$DIMSD1
 70
     0
  9
$DIMSD2
 70
     0
  9
$DIMTOLJ
 70
     0
  9
$DIMTZIN
 70
     0
  9
$DIMALTZ
 70
     0
  9
$DIMALTTZ
 70
     0
  9
$DIMFIT
 70
     3
  9
$DIMUPT
 70
     0
  9
$DIMUNIT
 70
     2
  9
$DIMDEC
 70
     3
  9
$DIMTDEC
 70
     3
  9
$DIMALTU
 70
     2
  9
$DIMALTTD
 70
     2
  9
$DIMTXSTY
  7
ASAMI
  9
$DIMAUNIT
 70
     0
  9
$LUNITS
 70
     2
  9
$LUPREC
 70
     2
  9
$SKETCHINC
 40
1.0
  9
$FILLETRAD
 40
2.5
  9
$AUNITS
 70
     0
  9
$AUPREC
 70
     0
  9
$MENU
  1
.
  9
$ELEVATION
 40
0.0
  9
$PELEVATION
 40
0.0
  9
$THICKNESS
 40
0.0
  9
$LIMCHECK
 70
     0
  9
$BLIPMODE
 70
     0
  9
$CHAMFERA
 40
0.25
  9
$CHAMFERB
 40
0.25
  9
$CHAMFERC
 40
20.0
  9
$CHAMFERD
 40
0.0
  9
$SKPOLY
 70
     0
  9
$TDCREATE
 40
2452800.443498622
  9
$TDUPDATE
 40
2453151.677760405
  9
$TDINDWG
 40
0.0396102662
  9
$TDUSRTIMER
 40
0.0396102662
  9
$USRTIMER
 70
     1
  9
$ANGBASE
 50
0.0
  9
$ANGDIR
 70
     0
  9
$PDMODE
 70
     3
  9
$PDSIZE
 40
0.0
  9
$PLINEWID
 40
0.0
  9
$COORDS
 70
     1
  9
$SPLFRAME
 70
     0
  9
$SPLINETYPE
 70
     6
  9
$SPLINESEGS
 70
     8
  9
$ATTDIA
 70
     1
  9
$ATTREQ
 70
     1
  9
$HANDLING
 70
 12289
  9
$HANDSEED
  5
28BB
  9
$SURFTAB1
 70
     6
  9
$SURFTAB2
 70
     6
  9
$SURFTYPE
 70
     6
  9
$SURFU
 70
     6
  9
$SURFV
 70
     6
  9
$UCSNAME
  2

  9
$UCSORG
 10
-0.0000000000001477
 20
-0.0000000000002227
 30
0.0
  9
$UCSXDIR
 10
1.0
 20
0.0000000000000027
 30
0.0
  9
$UCSYDIR
 10
-0.0000000000000027
 20
1.0
 30
0.0
  9
$PUCSNAME
  2

  9
$PUCSORG
 10
0.0
 20
0.0
 30
0.0
  9
$PUCSXDIR
 10
1.0
 20
0.0
 30
0.0
  9
$PUCSYDIR
 10
0.0
 20
1.0
 30
0.0
  9
$USERI1
 70
     0
  9
$USERI2
 70
     0
  9
$USERI3
 70
     0
  9
$USERI4
 70
     0
  9
$USERI5
 70
     0
  9
$USERR1
 40
0.0
  9
$USERR2
 40
0.0
  9
$USERR3
 40
0.0
  9
$USERR4
 40
0.0
  9
$USERR5
 40
0.0
  9
$WORLDVIEW
 70
     1
  9
$SHADEDGE
 70
     3
  9
$SHADEDIF
 70
    70
  9
$TILEMODE
 70
     1
  9
$MAXACTVP
 70
    64
  9
$PINSBASE
 10
0.0
 20
0.0
 30
0.0
  9
$PLIMCHECK
 70
     0
  9
$PEXTMIN
 10
1.000000000000000E+20
 20
1.000000000000000E+20
 30
1.000000000000000E+20
  9
$PEXTMAX
 10
-1.000000000000000E+20
 20
-1.000000000000000E+20
 30
-1.000000000000000E+20
  9
$PLIMMIN
 10
0.0
 20
0.0
  9
$PLIMMAX
 10
841.0
 20
594.0
  9
$UNITMODE
 70
     0
  9
$VISRETAIN
 70
     1
  9
$PLINEGEN
 70
     0
  9
$PSLTSCALE
 70
     0
  9
$TREEDEPTH
 70
  3020
  9
$PICKSTYLE
 70
     0
  9
$CMLSTYLE
  2
STANDARD
  9
$CMLJUST
 70
     0
  9
$CMLSCALE
 40
20.0
  9
$PROXYGRAPHICS
 70
     1
  9
$MEASUREMENT
 70
     1
  0
ENDSEC
  0
SECTION
  2
CLASSES
  0
CLASS
  1
ACDBDICTIONARYWDFLT
  2
AcDbDictionaryWithDefault
  3
AutoCAD 2000
 90
        0
280
     0
281
     0
  0
CLASS
  1
ACDBPLACEHOLDER
  2
AcDbPlaceHolder
  3
AutoCAD 2000
 90
        0
280
     0
281
     0
  0
CLASS
  1
LAYOUT
  2
AcDbLayout
  3
AutoCAD 2000
 90
        0
280
     0
281
     0
  0
CLASS
  1
AMGSETTINGSOBJ
  2
AmgSettingsObj
  3
"AcadM|Product Description: AutoCAD Mechanical 2000|Company: Autodesk"
 90
        0
280
     0
281
     0
  0
CLASS
  1
ACME_DOCUMENT
  2
AcMeDbDoc
  3
AcMeServices
 90
        0
280
     0
281
     0
  0
CLASS
  1
ACMESCOPE
  2
AcMeScope
  3
AcMeServices
 90
        0
280
     0
281
     0
  0
CLASS
  1
ACMECOMMANDHISTORY
  2
AcMeCommandHistory
  3
AcMeServices
 90
        0
280
     0
281
     0
  0
CLASS
  1
DICTIONARYVAR
  2
AcDbDictionaryVar
  3
AutoCAD 2000
 90
        0
280
     0
281
     0
  0
CLASS
  1
ACIMSYSVARMAN
  2
AcImSysVarManager
  3
AcMeServices
 90
        0
280
     0
281
     0
  0
CLASS
  1
ACIMREALSYSVAR
  2
AcImRealSysVar
  3
AcMeServices
 90
        0
280
     0
281
     0
  0
CLASS
  1
ACIMINTSYSVAR
  2
AcImIntSysVar
  3
AcMeServices
 90
        0
280
     0
281
     0
  0
CLASS
  1
ACMEDRAWINGMAN
  2
AcMeDrawingMan
  3
AcMeServices
 90
        0
280
     0
281
     0
  0
CLASS
  1
ACMEVIEW
  2
AcMeView
  3
AcMeServices
 90
        0
280
     0
281
     0
  0
CLASS
  1
ACDBENTITYCACHE
  2
AcMeEntityCache
  3
AcMeServices
 90
        0
280
     0
281
     0
  0
CLASS
  1
GSMANAGER
  2
AcMeGSManager
  3
AcMeServices
 90
        0
280
     0
281
     0
  0
CLASS
  1
AmdtInternalReactor
  2
AmdtInternalReactor
  3
AcMeServices
 90
        0
280
     0
281
     0
  0
CLASS
  1
ACMESTATEMGR
  2
AcMeStateMgr
  3
AcMeServices
 90
        0
280
     0
281
     0
  0
CLASS
  1
ACME_DATABASE
  2
AcMeDbDatabase
  3
AcMeServices
 90
        0
280
     0
281
     0
  0
CLASS
  1
ACRFINSADJUSTERMGR
  2
AcRfInsAdjusterMgr
  3
AcMeServices
 90
        0
280
     0
281
     0
  0
CLASS
  1
ACMDATADICTIONARY
  2
AcmDataDictionary
  3
"AcmSymBB|Product Description: AutoCAD Mechanical 2000|Company: Autodesk"
 90
        0
280
     0
281
     0
  0
CLASS
  1
ACMDATAENTRYBLOCK
  2
AcmDataEntryBlock
  3
"AcmSymBB|Product Description: AutoCAD Mechanical 2000|Company: Autodesk"
 90
        0
280
     0
281
     0
  0
CLASS
  1
AMGOBJPROPCFG
  2
AmgObjPropCfg
  3
"AmgLay|Product Description: AutoCAD Mechanical 2000|Company: Autodesk"
 90
        1
280
     0
281
     0
  0
CLASS
  1
ACAMGFILTERDAT
  2
AcAmgFilterDat
  3
"AcadM|Product Description: AutoCAD Mechanical 2000|Company: Autodesk"
 90
        0
280
     0
281
     0
  0
CLASS
  1
LAYER_INDEX
  2
AcDbLayerIndex
  3
AutoCAD 2000
 90
        0
280
     0
281
     0
  0
CLASS
  1
IDBUFFER
  2
AcDbIdBuffer
  3
AutoCAD 2000
 90
        0
280
     0
281
     0
  0
CLASS
  1
ACIMSTRSYSVAR
  2
AcImStrSysVar
  3
AcMeServices
 90
        0
280
     0
281
     0
  0
CLASS
  1
ACMSTANDARDJIS
  2
AcmStandardJIS
  3
"AcmSymBB|Product Description: AutoCAD Mechanical 2000|Company: Autodesk"
 90
        0
280
     0
281
     0
  0
CLASS
  1
ACMSURFSTANDARDJIS
  2
AcmSurfTextStdJIS
  3
"AcmSymBB|Product Description: AutoCAD Mechanical 2000|Company: Autodesk"
 90
        0
280
     0
281
     0
  0
CLASS
  1
ACMFCFSTANDARDJIS
  2
AcmFCFStdJIS
  3
"AcmSymBB|Product Description: AutoCAD Mechanical 2000|Company: Autodesk"
 90
        0
280
     0
281
     0
  0
CLASS
  1
ACMWELDSTANDARDJIS
  2
AcmWeldingStdJIS
  3
"AcmSymBB|Product Description: AutoCAD Mechanical 2000|Company: Autodesk"
 90
        0
280
     0
281
     0
  0
CLASS
  1
ACMIDSTANDARDJIS
  2
AcmIdStdJIS
  3
"AcmSymBB|Product Description: AutoCAD Mechanical 2000|Company: Autodesk"
 90
        0
280
     0
281
     0
  0
CLASS
  1
ACMDATUMSTANDARDJIS
  2
AcmDatumStdJIS
  3
"AcmSymBB|Product Description: AutoCAD Mechanical 2000|Company: Autodesk"
 90
        0
280
     0
281
     0
  0
CLASS
  1
ACMBOMSTANDARDJIS
  2
AcmBOMStdJIS
  3
"AcmSymBB|Product Description: AutoCAD Mechanical 2000|Company: Autodesk"
 90
        0
280
     0
281
     0
  0
CLASS
  1
ACMSTANDARDANSI
  2
AcmStandardANSI
  3
"AcmSymBB|Product Description: AutoCAD Mechanical 2000|Company: Autodesk"
 90
        0
280
     0
281
     0
  0
CLASS
  1
ACMSURFSTANDARDANSI
  2
AcmSurfTextStdANSI
  3
"AcmSymBB|Product Description: AutoCAD Mechanical 2000|Company: Autodesk"
 90
        0
280
     0
281
     0
  0
CLASS
  1
ACMFCFSTANDARDANSI
  2
AcmFCFStdANSI
  3
"AcmSymBB|Product Description: AutoCAD Mechanical 2000|Company: Autodesk"
 90
        0
280
     0
281
     0
  0
CLASS
  1
ACMWELDSTANDARDANSI
  2
AcmWeldingStdANSI
  3
"AcmSymBB|Product Description: AutoCAD Mechanical 2000|Company: Autodesk"
 90
        0
280
     0
281
     0
  0
CLASS
  1
ACMIDSTANDARDANSI
  2
AcmIdStdANSI
  3
"AcmSymBB|Product Description: AutoCAD Mechanical 2000|Company: Autodesk"
 90
        0
280
     0
281
     0
  0
CLASS
  1
ACMDATUMSTANDARDANSI
  2
AcmDatumStdANSI
  3
"AcmSymBB|Product Description: AutoCAD Mechanical 2000|Company: Autodesk"
 90
        0
280
     0
281
     0
  0
CLASS
  1
ACMBOMSTANDARDANSI
  2
AcmBOMStdANSI
  3
"AcmSymBB|Product Description: AutoCAD Mechanical 2000|Company: Autodesk"
 90
        0
280
     0
281
     0
  0
CLASS
  1
ACMSTANDARDBSI
  2
AcmStandardBSI
  3
"AcmSymBB|Product Description: AutoCAD Mechanical 2000|Company: Autodesk"
 90
        0
280
     0
281
     0
  0
CLASS
  1
ACMSURFSTANDARDBSI
  2
AcmSurfTextStdBSI
  3
"AcmSymBB|Product Description: AutoCAD Mechanical 2000|Company: Autodesk"
 90
        0
280
     0
281
     0
  0
CLASS
  1
ACMFCFSTANDARDBSI
  2
AcmFCFStdBSI
  3
"AcmSymBB|Product Description: AutoCAD Mechanical 2000|Company: Autodesk"
 90
        0
280
     0
281
     0
  0
CLASS
  1
ACMWELDSTANDARDBSI
  2
AcmWeldingStdBSI
  3
"AcmSymBB|Product Description: AutoCAD Mechanical 2000|Company: Autodesk"
 90
        0
280
     0
281
     0
  0
CLASS
  1
ACMIDSTANDARDBSI
  2
AcmIdStdBSI
  3
"AcmSymBB|Product Description: AutoCAD Mechanical 2000|Company: Autodesk"
 90
        0
280
     0
281
     0
  0
CLASS
  1
ACMDATUMSTANDARDBSI
  2
AcmDatumStdBSI
  3
"AcmSymBB|Product Description: AutoCAD Mechanical 2000|Company: Autodesk"
 90
        0
280
     0
281
     0
  0
CLASS
  1
ACMBOMSTANDARDBSI
  2
AcmBOMStdBSI
  3
"AcmSymBB|Product Description: AutoCAD Mechanical 2000|Company: Autodesk"
 90
        0
280
     0
281
     0
  0
CLASS
  1
LONG_TRANSACTION
  2
AcDbLongTransaction
  3
AutoCAD 2000
 90
        0
280
     0
281
     0
  0
CLASS
  1
LWPOLYLINE
  2
AcDbPolyline
  3
AutoCAD 2000
 90
        0
280
     0
281
     1
  0
CLASS
  1
HATCH
  2
AcDbHatch
  3
AutoCAD 2000
 90
        0
280
     0
281
     1
  0
CLASS
  1
XRECORD
  2
AcDbXrecord
  3
AutoCAD 2000
 90
        0
280
     0
281
     0
  0
ENDSEC
  0
SECTION
  2
TABLES
  0
TABLE
  2
VPORT
  5
8
330
0
100
AcDbSymbolTable
 70
     3
  0
VPORT
  5
2890
330
8
100
AcDbSymbolTableRecord
100
AcDbViewportTableRecord
  2
*ACTIVE
 70
     0
 10
0.0
 20
0.0
 11
1.0
 21
1.0
 12
-56.34031553300201
 22
-6.863810364148676
 13
0.0
 23
0.0
 14
2.5
 24
2.5
 15
10.0
 25
10.0
 16
0.0
 26
0.0
 36
1.0
 17
0.0
 27
0.0
 37
0.0
 40
96.67089625713479
 41
1.56570841889117
 42
50.0
 43
0.0
 44
0.0
 50
0.0
 51
0.0
 71
     0
 72
   100
 73
     1
 74
     1
 75
     0
 76
     0
 77
     0
 78
     0
  0
ENDTAB
  0
TABLE
  2
LTYPE
  5
5
330
0
100
AcDbSymbolTable
 70
    10
  0
LTYPE
  5
14
330
5
100
AcDbSymbolTableRecord
100
AcDbLinetypeTableRecord
  2
BYBLOCK
 70
     0
  3

 72
    65
 73
     0
 40
0.0
  0
LTYPE
  5
15
330
5
100
AcDbSymbolTableRecord
100
AcDbLinetypeTableRecord
  2
BYLAYER
 70
     0
  3

 72
    65
 73
     0
 40
0.0
  0
LTYPE
  5
16
330
5
100
AcDbSymbolTableRecord
100
AcDbLinetypeTableRecord
  2
CONTINUOUS
 70
     0
  3
Solid line
 72
    65
 73
     0
 40
0.0
  0
LTYPE
  5
4B
330
5
100
AcDbSymbolTableRecord
100
AcDbLinetypeTableRecord
  2
AM_ISO02W050
 70
     0
  3
__ __ __ __ __ __ __ __ __ __ __ __ __ __ __
 72
    65
 73
     2
 40
7.5
 49
6.0
 74
     0
 49
-1.5
 74
     0
  0
LTYPE
  5
4C
330
5
100
AcDbSymbolTableRecord
100
AcDbLinetypeTableRecord
  2
AM_ISO08W050
 70
     0
  3
____ . ____ . ____ . ____ . ____ . ____ . ____
 72
    65
 73
     4
 40
18.0
 49
12.0
 74
     0
 49
-1.5
 74
     0
 49
3.0
 74
     0
 49
-1.5
 74
     0
  0
LTYPE
  5
4D
330
5
100
AcDbSymbolTableRecord
100
AcDbLinetypeTableRecord
  2
AM_ISO09W050
 70
     0
  3
_____ . . _____ . . _____ . . ____ .. ____
 72
    65
 73
     6
 40
22.5
 49
12.0
 74
     0
 49
-1.5
 74
     0
 49
3.0
 74
     0
 49
-1.5
 74
     0
 49
3.0
 74
     0
 49
-1.5
 74
     0
  0
LTYPE
  5
4E
330
5
100
AcDbSymbolTableRecord
100
AcDbLinetypeTableRecord
  2
AMCONSTR
 70
     0
  3
_______________________
 72
    65
 73
     2
 40
9999.0
 49
9999.0
 74
     0
 49
0.0
 74
     0
  0
LTYPE
  5
4F
330
5
100
AcDbSymbolTableRecord
100
AcDbLinetypeTableRecord
  2
AM_ISO02W050X2
 70
     0
  3
 _ _ _ _ _ _ _ _ _ _ _ _
 72
    65
 73
     2
 40
3.75
 49
3.0
 74
     0
 49
-0.75
 74
     0
  0
LTYPE
  5
50
330
5
100
AcDbSymbolTableRecord
100
AcDbLinetypeTableRecord
  2
AM_ISO08W050X2
 70
     0
  3
__ . __ . __ . __ . __ . __
 72
    65
 73
     4
 40
9.0
 49
6.0
 74
     0
 49
-0.75
 74
     0
 49
1.5
 74
     0
 49
-0.75
 74
     0
  0
LTYPE
  5
53
330
5
100
AcDbSymbolTableRecord
100
AcDbLinetypeTableRecord
  2
AMZIGZAG
 70
     0
  3
/\/-/\/-/\/-/\/-/\/-/\/
 72
    65
 73
     2
 40
11.00009999999999
 49
0.0001
 74
     4
 75
   135
340
52
 46
0.04
 50
0.0
 44
0.0
 45
0.0
 49
-11.0
 74
     0
  0
LTYPE
  5
166
330
5
100
AcDbSymbolTableRecord
100
AcDbLinetypeTableRecord
  2
ACJISTGL
 70
     0
  3
_ _ _ _ _
 72
    65
 73
     2
 40
3.0
 49
2.0
 74
     0
 49
-1.0
 74
     0
  0
LTYPE
  5
26A
330
5
100
AcDbSymbolTableRecord
100
AcDbLinetypeTableRecord
  2
ACJISTGB
 70
     0
  3
__ . . __ . .
 72
    65
 73
     6
 40
9.0
 49
4.0
 74
     0
 49
-1.0
 74
     0
 49
1.0
 74
     0
 49
-1.0
 74
     0
 49
1.0
 74
     0
 49
-1.0
 74
     0
  0
ENDTAB
  0
TABLE
  2
LAYER
  5
2
330
0
100
AcDbSymbolTable
 70
     7
  0
LAYER
  5
10
330
2
100
AcDbSymbolTableRecord
100
AcDbLayerTableRecord
  2
0
 70
     0
 62
     7
  6
CONTINUOUS
  0
LAYER
  5
3F9
330
2
100
AcDbSymbolTableRecord
100
AcDbLayerTableRecord
  2
AM_0
 70
     0
 62
     7
  6
CONTINUOUS
  0
LAYER
  5
C7C
330
2
100
AcDbSymbolTableRecord
100
AcDbLayerTableRecord
  2
AM_7
 70
     0
 62
     4
  6
AM_ISO08W050
  0
LAYER
  5
C97
330
2
100
AcDbSymbolTableRecord
100
AcDbLayerTableRecord
  2
AM_11
 70
     0
 62
     3
  6
AM_ISO09W050
  0
LAYER
  5
CC5
330
2
100
AcDbSymbolTableRecord
100
AcDbLayerTableRecord
  2
AM_5
 70
     0
 62
     3
  6
CONTINUOUS
  0
LAYER
  5
CC7
330
2
100
AcDbSymbolTableRecord
100
AcDbLayerTableRecord
  2
DEFPOINTS
 70
     0
 62
     7
  6
CONTINUOUS
  0
LAYER
  5
19BC
330
2
100
AcDbSymbolTableRecord
100
AcDbLayerTableRecord
  2
AM_6
 70
     0
 62
     2
  6
CONTINUOUS
  0
ENDTAB
  0
TABLE
  2
STYLE
  5
3
330
0
100
AcDbSymbolTable
 70
     5
  0
STYLE
  5
11
330
3
100
AcDbSymbolTableRecord
100
AcDbTextStyleTableRecord
  2
STANDARD
 70
     0
 40
0.0
 41
1.0
 50
0.0
 71
     0
 42
2.5
  3
simplex.shx
  4
EXTFONT.SHX
  0
STYLE
  5
52
330
3
100
AcDbSymbolTableRecord
100
AcDbTextStyleTableRecord
  2

 70
     1
 40
0.0
 41
1.0
 50
0.0
 71
     0
 42
2.5
  3
ltypeshp.shx
  4

  0
STYLE
  5
6B
330
3
100
AcDbSymbolTableRecord
100
AcDbTextStyleTableRecord
  2
ASAMI
 70
     0
 40
0.0
 41
1.0
 50
0.0
 71
     0
 42
2.5
  3
simplex.shx
  4
EXTFONT.SHX
  0
STYLE
  5
262
330
3
100
AcDbSymbolTableRecord
100
AcDbTextStyleTableRecord
  2
ACJISTS
 70
     0
 40
1.0
 41
1.0
 50
0.0
 71
     0
 42
2.5
  3
simplex.shx
  4
bigfont.shx
  0
STYLE
  5
269
330
3
100
AcDbSymbolTableRecord
100
AcDbTextStyleTableRecord
  2
ACJISGDT
 70
     0
 40
0.0
 41
1.0
 50
0.0
 71
     0
 42
2.5
  3
amgdtans.shx
  4

  0
ENDTAB
  0
TABLE
  2
VIEW
  5
6
330
0
100
AcDbSymbolTable
 70
     0
  0
ENDTAB
  0
TABLE
  2
UCS
  5
7
330
0
100
AcDbSymbolTable
 70
     0
  0
ENDTAB
  0
TABLE
  2
APPID
  5
9
330
0
100
AcDbSymbolTable
 70
    16
  0
APPID
  5
12
330
9
100
AcDbSymbolTableRecord
100
AcDbRegAppTableRecord
  2
ACAD
 70
     0
  0
APPID
  5
30
330
9
100
AcDbSymbolTableRecord
100
AcDbRegAppTableRecord
  2
MCAD_NO_VIS
 70
     0
  0
APPID
  5
31
330
9
100
AcDbSymbolTableRecord
100
AcDbRegAppTableRecord
  2
ACAD_TEMP_GRAPHIC
 70
     0
  0
APPID
  5
2C2
330
9
100
AcDbSymbolTableRecord
100
AcDbRegAppTableRecord
  2
GENIUS_GENDTOL_13
 70
     0
  0
APPID
  5
339
330
9
100
AcDbSymbolTableRecord
100
AcDbRegAppTableRecord
  2
GENIUS_GENODEF_13
 70
     0
  0
APPID
  5
33A
330
9
100
AcDbSymbolTableRecord
100
AcDbRegAppTableRecord
  2
GENIUS_GENOBJ-N-RSBK_13
 70
     0
  0
APPID
  5
33B
330
9
100
AcDbSymbolTableRecord
100
AcDbRegAppTableRecord
  2
GENIUS_GENOBJ-N-LIB_13
 70
     0
  0
APPID
  5
33C
330
9
100
AcDbSymbolTableRecord
100
AcDbRegAppTableRecord
  2
GENIUS_GENSCALE_13
 70
     0
  0
APPID
  5
378
330
9
100
AcDbSymbolTableRecord
100
AcDbRegAppTableRecord
  2
GENIUS_GENDIMSH_14
 70
     0
  0
APPID
  5
C82
330
9
100
AcDbSymbolTableRecord
100
AcDbRegAppTableRecord
  2
GENIUS_GENOBJ-N-CRS_13
 70
     0
  0
APPID
  5
C83
330
9
100
AcDbSymbolTableRecord
100
AcDbRegAppTableRecord
  2
GENIUS_GENOENT_13
 70
     0
  0
APPID
  5
C84
330
9
100
AcDbSymbolTableRecord
100
AcDbRegAppTableRecord
  2
GENIUS_GENOREF_13
 70
     0
  0
APPID
  5
C85
330
9
100
AcDbSymbolTableRecord
100
AcDbRegAppTableRecord
  2
GENIUS_GENOLIS_13
 70
     0
  0
APPID
  5
CA0
330
9
100
AcDbSymbolTableRecord
100
AcDbRegAppTableRecord
  2
GENIUS_GENOBJ-N-CEN_13
 70
     0
  0
APPID
  5
1E1E
330
9
100
AcDbSymbolTableRecord
100
AcDbRegAppTableRecord
  2
GENIUS_GENFIL_13
 70
     0
  0
APPID
  5
1E1F
330
9
100
AcDbSymbolTableRecord
100
AcDbRegAppTableRecord
  2
GENIUS_GENOBJ-N-CHA_13
 70
     0
  0
ENDTAB
  0
TABLE
  2
DIMSTYLE
  5
A
330
0
100
AcDbSymbolTable
 70
     9
  0
DIMSTYLE
105
58
330
A
100
AcDbSymbolTableRecord
100
AcDbDimStyleTableRecord
  2
AM_JIS
 70
     0
  3

  4
"
  5
OPEN30
  6

  7

 40
0.5
 41
2.5
 42
1.0
 43
12.0
 44
1.0
 45
0.0
 46
0.0
 47
0.1
 48
0.1
140
3.2
141
0.0
142
0.0
143
0.0393701
144
1.0
145
0.0
146
0.71
147
1.5
 71
     0
 72
     0
 73
     0
 74
     0
 75
     0
 76
     0
 77
     3
 78
     8
170
     0
171
     2
172
     1
173
     0
174
     0
175
     0
176
   256
177
   256
178
     2
270
     2
271
     3
272
     3
273
     2
274
     2
340
6B
275
     0
280
     0
281
     0
282
     0
283
     0
284
     0
285
     0
286
     0
287
     3
288
     0
  0
DIMSTYLE
105
5F
330
A
100
AcDbSymbolTableRecord
100
AcDbDimStyleTableRecord
  2
AM_JIS$3
 70
     0
  3

  4
"
  5
OPEN30
  6

  7

 40
0.5
 41
2.5
 42
1.0
 43
10.0
 44
1.0
 45
0.0
 46
0.0
 47
0.1
 48
0.1
140
3.2
141
0.0
142
0.0
143
0.0393701
144
1.0
145
0.0
146
0.71
147
1.5
 71
     0
 72
     0
 73
     0
 74
     1
 75
     0
 76
     0
 77
     3
 78
     8
170
     0
171
     2
172
     0
173
     0
174
     0
175
     0
176
   256
177
   256
178
     2
270
     2
271
     2
272
     3
273
     2
274
     2
340
6B
275
     0
280
     0
281
     0
282
     0
283
     0
284
     0
285
     0
286
     0
287
     0
288
     1
  0
DIMSTYLE
105
60
330
A
100
AcDbSymbolTableRecord
100
AcDbDimStyleTableRecord
  2
AM_JIS$4
 70
     0
  3

  4
"
  5
OPEN30
  6

  7

 40
0.5
 41
2.5
 42
1.0
 43
10.0
 44
1.0
 45
0.0
 46
0.0
 47
0.1
 48
0.1
140
3.2
141
0.0
142
0.0
143
0.0393701
144
1.0
145
0.0
146
0.71
147
1.5
 71
     0
 72
     0
 73
     0
 74
     1
 75
     0
 76
     0
 77
     3
 78
     8
170
     0
171
     2
172
     0
173
     0
174
     0
175
     0
176
   256
177
   256
178
     2
270
     2
271
     2
272
     3
273
     2
274
     2
340
6B
275
     0
280
     0
281
     0
282
     0
283
     0
284
     0
285
     0
286
     0
287
     0
288
     1
  0
DIMSTYLE
105
61
330
A
100
AcDbSymbolTableRecord
100
AcDbDimStyleTableRecord
  2
AM_JIS$6
 70
     0
  3

  4
"
  5
OPEN30
  6

  7

 40
0.5
 41
2.5
 42
1.0
 43
10.0
 44
1.0
 45
0.0
 46
0.0
 47
0.1
 48
0.1
140
3.2
141
0.0
142
0.0
143
0.0393701
144
1.0
145
0.0
146
0.71
147
1.5
 71
     0
 72
     0
 73
     0
 74
     0
 75
     0
 76
     0
 77
     0
 78
     8
170
     0
171
     2
172
     1
173
     0
174
     0
175
     0
176
   256
177
   256
178
     2
270
     2
271
     2
272
     2
273
     2
274
     2
340
6B
275
     0
280
     0
281
     0
282
     0
283
     0
284
     0
285
     0
286
     0
287
     3
288
     0
  0
DIMSTYLE
105
62
330
A
100
AcDbSymbolTableRecord
100
AcDbDimStyleTableRecord
  2
AM_JIS$7
 70
     0
  3

  4
"
  5
OPEN30
  6

  7

 40
0.5
 41
2.5
 42
1.0
 43
10.0
 44
1.0
 45
0.0
 46
0.0
 47
0.1
 48
0.1
140
3.2
141
0.0
142
0.0
143
0.0393701
144
1.0
145
0.0
146
0.71
147
1.5
 71
     0
 72
     0
 73
     0
 74
     0
 75
     0
 76
     0
 77
     3
 78
     8
170
     0
171
     2
172
     1
173
     0
174
     0
175
     0
176
   256
177
   256
178
     2
270
     2
271
     2
272
     3
273
     2
274
     2
340
6B
275
     0
280
     0
281
     0
282
     0
283
     0
284
     0
285
     0
286
     0
287
     3
288
     0
  0
DIMSTYLE
105
63
330
A
100
AcDbSymbolTableRecord
100
AcDbDimStyleTableRecord
  2
AM_JIS$SF
 70
     0
  3

  4
"
  5
OPEN30
  6

  7

 40
0.5
 41
2.5
 42
1.0
 43
10.0
 44
1.0
 45
0.0
 46
0.0
 47
0.1
 48
0.1
140
3.2
141
0.0
142
0.0
143
0.0393701
144
1.0
145
0.0
146
0.71
147
1.5
 71
     0
 72
     0
 73
     0
 74
     0
 75
     1
 76
     1
 77
     3
 78
     8
170
     0
171
     2
172
     1
173
     0
174
     0
175
     0
176
   256
177
   256
178
     2
270
     2
271
     2
272
     2
273
     2
274
     2
340
6B
275
     0
280
     0
281
     0
282
     0
283
     0
284
     0
285
     0
286
     0
287
     3
288
     0
  0
DIMSTYLE
105
68
330
A
100
AcDbSymbolTableRecord
100
AcDbDimStyleTableRecord
  2
AM_JIS$SH
 70
     0
  3

  4
"
  5

  6
GENAXEH
  7
OPEN30
 40
0.5
 41
2.5
 42
1.0
 43
10.0
 44
1.0
 45
0.0
 46
0.0
 47
0.1
 48
0.1
140
3.2
141
0.0
142
0.0
143
0.0393701
144
2.0
145
0.0
146
0.71
147
1.5
 71
     0
 72
     0
 73
     0
 74
     0
 75
     1
 76
     1
 77
     3
 78
     8
170
     0
171
     2
172
     1
173
     1
174
     0
175
     0
176
   256
177
   256
178
     2
270
     2
271
     2
272
     2
273
     2
274
     2
340
6B
275
     0
280
     0
281
     0
282
     0
283
     0
284
     0
285
     0
286
     0
287
     3
288
     0
  0
DIMSTYLE
105
B34
102
{ACAD_REACTORS
330
258B
102
}
330
A
100
AcDbSymbolTableRecord
100
AcDbDimStyleTableRecord
  2
AM_JIS$2
 70
     0
  3

  4
"
  5
OPEN30
  6

  7

 40
0.5
 41
2.5
 42
1.0
 43
12.0
 44
1.0
 45
0.0
 46
0.0
 47
0.1
 48
0.1
140
3.2
141
0.0
142
0.0
143
0.0393701
144
1.0
145
0.0
146
0.71
147
1.5
 71
     0
 72
     0
 73
     0
 74
     0
 75
     0
 76
     0
 77
     3
 78
     8
170
     0
171
     2
172
     1
173
     0
174
     0
175
     0
176
   256
177
   256
178
     2
270
     2
271
     3
272
     3
273
     2
274
     2
340
6B
275
     0
280
     0
281
     0
282
     0
283
     0
284
     0
285
     0
286
     0
287
     3
288
     0
  0
DIMSTYLE
105
BA5
102
{ACAD_REACTORS
330
CC6
330
DF5
330
228A
330
26D6
102
}
330
A
100
AcDbSymbolTableRecord
100
AcDbDimStyleTableRecord
  2
AM_JIS$0
 70
     0
  3

  4
"
  5
OPEN30
  6

  7

 40
0.5
 41
2.5
 42
0.0
 43
10.0
 44
1.0
 45
0.0
 46
0.0
 47
0.1
 48
0.1000000001
140
3.799999999999999
141
0.0
142
0.0
143
0.0393701
144
1.0
145
0.0
146
0.71
147
1.5
 71
     0
 72
     0
 73
     0
 74
     0
 75
     0
 76
     0
 77
     3
 78
     1
170
     0
171
     2
172
     1
173
     0
174
     0
175
     0
176
     3
177
     3
178
     2
270
     2
271
     2
272
     2
273
     2
274
     2
340
11
275
     1
280
     0
281
     0
282
     0
283
     0
284
     8
285
     0
286
     0
287
     0
288
     0
  0
ENDTAB
  0
TABLE
  2
BLOCK_RECORD
  5
1
330
0
100
AcDbSymbolTable
 70
    10
  0
BLOCK_RECORD
  5
1F
102
{ACAD_XDICTIONARY
360
74
102
}
330
1
100
AcDbSymbolTableRecord
100
AcDbBlockTableRecord
  2
*MODEL_SPACE
  0
BLOCK_RECORD
  5
101
102
{ACAD_XDICTIONARY
360
28B9
102
}
330
1
100
AcDbSymbolTableRecord
100
AcDbBlockTableRecord
  2
*PAPER_SPACE
  0
BLOCK_RECORD
  5
59
330
1
100
AcDbSymbolTableRecord
100
AcDbBlockTableRecord
  2
_OPEN30
  0
BLOCK_RECORD
  5
64
330
1
100
AcDbSymbolTableRecord
100
AcDbBlockTableRecord
  2
GENAXEH
  0
BLOCK_RECORD
  5
CC8
330
1
100
AcDbSymbolTableRecord
100
AcDbBlockTableRecord
  2
*D5
  0
BLOCK_RECORD
  5
DF6
330
1
100
AcDbSymbolTableRecord
100
AcDbBlockTableRecord
  2
*D6
  0
BLOCK_RECORD
  5
228B
330
1
100
AcDbSymbolTableRecord
100
AcDbBlockTableRecord
  2
*D7
  0
BLOCK_RECORD
  5
258C
330
1
100
AcDbSymbolTableRecord
100
AcDbBlockTableRecord
  2
*D8
  0
BLOCK_RECORD
  5
26D7
330
1
100
AcDbSymbolTableRecord
100
AcDbBlockTableRecord
  2
*D9
  0
ENDTAB
  0
ENDSEC
  0
SECTION
  2
BLOCKS
  0
BLOCK
  5
20
330
1F
100
AcDbEntity
  8
0
100
AcDbBlockBegin
  2
*MODEL_SPACE
 70
     0
 10
0.0
 20
0.0
 30
0.0
  3
*MODEL_SPACE
  1

  0
ENDBLK
  5
21
330
1F
100
AcDbEntity
  8
0
100
AcDbBlockEnd
  0
BLOCK
  5
103
330
101
100
AcDbEntity
 67
     1
  8
0
100
AcDbBlockBegin
  2
*PAPER_SPACE
 70
     0
 10
0.0
 20
0.0
 30
0.0
  3
*PAPER_SPACE
  1

  0
ENDBLK
  5
104
330
101
100
AcDbEntity
 67
     1
  8
0
100
AcDbBlockEnd
  0
BLOCK
  5
5D
330
59
100
AcDbEntity
  8
0
100
AcDbBlockBegin
  2
_OPEN30
 70
     0
 10
0.0
 20
0.0
 30
0.0
  3
_OPEN30
  1

  0
LINE
  5
5A
330
59
100
AcDbEntity
  8
0
 62
     0
100
AcDbLine
 10
-1.0
 20
0.26794919
 30
0.0
 11
0.0
 21
0.0
 31
0.0
  0
LINE
  5
5B
330
59
100
AcDbEntity
  8
0
 62
     0
100
AcDbLine
 10
0.0
 20
0.0
 30
0.0
 11
-1.0
 21
-0.26794919
 31
0.0
  0
LINE
  5
5C
330
59
100
AcDbEntity
  8
0
 62
     0
100
AcDbLine
 10
0.0
 20
0.0
 30
0.0
 11
-1.0
 21
0.0
 31
0.0
  0
ENDBLK
  5
5E
330
59
100
AcDbEntity
  8
0
100
AcDbBlockEnd
  0
BLOCK
  5
66
330
64
100
AcDbEntity
  8
0
100
AcDbBlockBegin
  2
GENAXEH
 70
     0
 10
0.0
 20
0.0
 30
0.0
  3
GENAXEH
  1

  0
LINE
  5
65
330
64
100
AcDbEntity
  8
0
100
AcDbLine
 10
-1.0
 20
0.0
 30
0.0
 11
1.0
 21
0.0
 31
0.0
  0
ENDBLK
  5
67
330
64
100
AcDbEntity
  8
0
100
AcDbBlockEnd
  0
BLOCK
  5
CD2
330
CC8
100
AcDbEntity
  8
0
100
AcDbBlockBegin
  2
*D5
 70
     1
 10
0.0
 20
0.0
 30
0.0
  3
*D5
  1

  0
LINE
  5
284A
330
CC8
100
AcDbEntity
  8
AM_5
 62
     3
100
AcDbLine
 10
-119.9999999999998
 20
-3.764324189635425
 30
0.0
 11
-119.9999999999998
 21
-16.5000023696538
 31
0.0
  0
LINE
  5
284B
330
CC8
100
AcDbEntity
  8
AM_5
 62
     3
100
AcDbLine
 10
-2.000000462318765
 20
-3.699999219855568
 30
0.0
 11
-2.000000462318766
 21
-16.5000023696538
 31
0.0
  0
LINE
  5
284C
330
CC8
100
AcDbEntity
  8
AM_5
 62
     3
100
AcDbLine
 10
-118.7499999999998
 20
-16.0000023696538
 30
0.0
 11
-3.250000462318766
 21
-16.0000023696538
 31
0.0
  0
INSERT
  5
284D
330
CC8
100
AcDbEntity
  8
AM_5
 62
     3
100
AcDbBlockReference
  2
_OPEN30
 10
-119.9999999999998
 20
-16.0000023696538
 30
0.0
 41
1.25
 42
1.25
 43
1.25
 50
180.0
  0
INSERT
  5
284E
330
CC8
100
AcDbEntity
  8
AM_5
 62
     3
100
AcDbBlockReference
  2
_OPEN30
 10
-2.000000462318766
 20
-16.0000023696538
 30
0.0
 41
1.25
 42
1.25
 43
1.25
  0
MTEXT
  5
284F
330
CC8
100
AcDbEntity
  8
AM_5
 62
     2
100
AcDbMText
 10
-61.00000023115932
 20
-14.3000023696538
 30
0.0
 40
1.9
 41
0.0
 71
     5
 72
     1
  1
118
1001
ACAD
1000
MTEXTBEGIN
1070
    73
1070
     1
1070
    44
1040
1.0
1070
    74
1070
     0
1000
MTEXTEND
  0
POINT
  5
2850
330
CC8
100
AcDbEntity
  8
DEFPOINTS
 62
     0
100
AcDbPoint
 10
-119.9999999999998
 20
-3.764324189635425
 30
0.0
  0
POINT
  5
2851
330
CC8
100
AcDbEntity
  8
DEFPOINTS
 62
     0
100
AcDbPoint
 10
-2.000000462318765
 20
-3.699999219855568
 30
0.0
  0
POINT
  5
2852
330
CC8
100
AcDbEntity
  8
DEFPOINTS
 62
     0
100
AcDbPoint
 10
-2.000000462318766
 20
-16.0000023696538
 30
0.0
  0
ENDBLK
  5
CD3
330
CC8
100
AcDbEntity
  8
0
100
AcDbBlockEnd
  0
BLOCK
  5
E00
330
DF6
100
AcDbEntity
  8
0
100
AcDbBlockBegin
  2
*D6
 70
     1
 10
0.0
 20
0.0
 30
0.0
  3
*D6
  1

  0
LINE
  5
2841
330
DF6
100
AcDbEntity
  8
AM_5
 62
     3
100
AcDbLine
 10
-65.9999999999999
 20
-4.000001369653888
 30
0.0
 11
-65.9999999999999
 21
-11.50000236965372
 31
0.0
  0
LINE
  5
2842
330
DF6
100
AcDbEntity
  8
AM_5
 62
     3
100
AcDbLine
 10
-2.000000462318765
 20
-3.699999219855568
 30
0.0
 11
-2.000000462318766
 21
-11.50000236965372
 31
0.0
  0
LINE
  5
2843
330
DF6
100
AcDbEntity
  8
AM_5
 62
     3
100
AcDbLine
 10
-64.7499999999999
 20
-11.00000236965372
 30
0.0
 11
-3.250000462318766
 21
-11.00000236965372
 31
0.0
  0
INSERT
  5
2844
330
DF6
100
AcDbEntity
  8
AM_5
 62
     3
100
AcDbBlockReference
  2
_OPEN30
 10
-65.9999999999999
 20
-11.00000236965372
 30
0.0
 41
1.25
 42
1.25
 43
1.25
 50
180.0
  0
INSERT
  5
2845
330
DF6
100
AcDbEntity
  8
AM_5
 62
     3
100
AcDbBlockReference
  2
_OPEN30
 10
-2.000000462318766
 20
-11.00000236965372
 30
0.0
 41
1.25
 42
1.25
 43
1.25
  0
MTEXT
  5
2846
330
DF6
100
AcDbEntity
  8
AM_5
 62
     2
100
AcDbMText
 10
-34.00000023115933
 20
-9.300002369653721
 30
0.0
 40
1.9
 41
0.0
 71
     5
 72
     1
  1
64
1001
ACAD
1000
MTEXTBEGIN
1070
    73
1070
     1
1070
    44
1040
1.0
1070
    74
1070
     0
1000
MTEXTEND
  0
POINT
  5
2847
330
DF6
100
AcDbEntity
  8
DEFPOINTS
 62
     0
100
AcDbPoint
 10
-65.9999999999999
 20
-4.000001369653888
 30
0.0
  0
POINT
  5
2848
330
DF6
100
AcDbEntity
  8
DEFPOINTS
 62
     0
100
AcDbPoint
 10
-2.000000462318765
 20
-3.699999219855568
 30
0.0
  0
POINT
  5
2849
330
DF6
100
AcDbEntity
  8
DEFPOINTS
 62
     0
100
AcDbPoint
 10
-2.000000462318766
 20
-11.00000236965372
 30
0.0
  0
ENDBLK
  5
E01
330
DF6
100
AcDbEntity
  8
0
100
AcDbBlockEnd
  0
BLOCK
  5
2297
330
228B
100
AcDbEntity
  8
0
100
AcDbBlockBegin
  2
*D7
 70
     1
 10
0.0
 20
0.0
 30
0.0
  3
*D7
  1

  0
LINE
  5
2674
330
228B
100
AcDbEntity
  8
AM_5
 62
     3
100
AcDbLine
 10
-119.7499999999998
 20
-4.000000000000473
 30
0.0
 11
-129.5000009999998
 21
-4.0000000000005
 31
0.0
  0
LINE
  5
2675
330
228B
100
AcDbEntity
  8
AM_5
 62
     3
100
AcDbLine
 10
-119.7499999999999
 20
3.999999999999525
 30
0.0
 11
-129.5000009999998
 21
3.999999999999497
 31
0.0
  0
LINE
  5
2676
330
228B
100
AcDbEntity
  8
AM_5
 62
     3
100
AcDbLine
 10
-129.0000009999998
 20
-2.750000000000499
 30
0.0
 11
-129.0000009999998
 21
2.749999999999499
 31
0.0
  0
INSERT
  5
2677
330
228B
100
AcDbEntity
  8
AM_5
 62
     3
100
AcDbBlockReference
  2
_OPEN30
 10
-129.0000009999998
 20
-4.000000000000499
 30
0.0
 41
1.25
 42
1.25
 43
1.25
 50
270.0000000000001
  0
INSERT
  5
2678
330
228B
100
AcDbEntity
  8
AM_5
 62
     3
100
AcDbBlockReference
  2
_OPEN30
 10
-129.0000009999998
 20
3.999999999999499
 30
0.0
 41
1.25
 42
1.25
 43
1.25
 50
90.00000000000015
  0
MTEXT
  5
2679
330
228B
100
AcDbEntity
  8
AM_5
 62
     2
100
AcDbMText
 10
-130.7000009999998
 20
-0.0000000000004826
 30
0.0
 40
1.9
 41
0.0
 71
     5
 72
     1
  1
%%c8
 11
-0.0000000000000028
 21
1.0
 31
0.0
1001
ACAD
1000
MTEXTBEGIN
1070
    73
1070
     1
1070
    44
1040
1.0
1070
    74
1070
     0
1000
MTEXTEND
  0
POINT
  5
267A
330
228B
100
AcDbEntity
  8
DEFPOINTS
 62
     0
100
AcDbPoint
 10
-119.7499999999999
 20
-4.000000000000101
 30
0.0
  0
POINT
  5
267B
330
228B
100
AcDbEntity
  8
DEFPOINTS
 62
     0
100
AcDbPoint
 10
-119.7499999999998
 20
3.999999999999897
 30
0.0
  0
POINT
  5
267C
330
228B
100
AcDbEntity
  8
DEFPOINTS
 62
     0
100
AcDbPoint
 10
-129.0000009999998
 20
3.9999999999999
 30
0.0
  0
ENDBLK
  5
2298
330
228B
100
AcDbEntity
  8
0
100
AcDbBlockEnd
  0
BLOCK
  5
259C
330
258C
100
AcDbEntity
  8
0
100
AcDbBlockBegin
  2
*D8
 70
     1
 10
0.0
 20
0.0
 30
0.0
  3
*D8
  1

  0
LINE
  5
267D
330
258C
100
AcDbEntity
  8
AM_5
100
AcDbLine
 10
0.1710100716627608
 20
-0.4698463103929546
 30
0.0
 11
4.820130796736513
 21
-13.24320052285225
 31
0.0
  0
LINE
  5
267E
330
258C
100
AcDbEntity
  8
AM_5
100
AcDbLine
 10
0.1710100716627526
 20
0.4698463103929626
 30
0.0
 11
4.820130796736282
 21
13.24320052285234
 31
0.0
  0
ARC
  5
267F
330
258C
100
AcDbEntity
  8
AM_5
100
AcDbCircle
 10
-0.0000000000000657
 20
0.0000000000000025
 30
0.0
 40
13.59311963286066
100
AcDbArc
 50
295.2706799729924
 51
64.72932002700855
  0
INSERT
  5
2680
330
258C
100
AcDbEntity
  8
AM_5
100
AcDbBlockReference
  2
_OPEN30
 10
4.649120725073687
 20
-12.7733542124593
 30
0.0
 41
1.25
 42
1.25
 43
1.25
 50
202.6353399864956
  0
INSERT
  5
2681
330
258C
100
AcDbEntity
  8
AM_5
100
AcDbBlockReference
  2
_OPEN30
 10
4.649120725073464
 20
12.77335421245938
 30
0.0
 41
1.25
 42
1.25
 43
1.25
 50
157.3646600135052
  0
MTEXT
  5
2682
330
258C
100
AcDbEntity
  8
AM_5
 62
     2
100
AcDbMText
 10
12.0431196328606
 20
0.0000000000001189
 30
0.0
 40
1.6
 41
0.0
 71
     5
 72
     1
  1
140°
  7
ASAMI
 11
-0.0000000000000028
 21
1.0
 31
0.0
1001
ACAD
1000
MTEXTBEGIN
1070
    73
1070
     1
1070
    44
1040
1.0
1070
    74
1070
     0
1000
MTEXTEND
  0
POINT
  5
2683
330
258C
100
AcDbEntity
  8
DEFPOINTS
 62
     0
100
AcDbPoint
 10
12.48142138964305
 20
-5.383959643925755
 30
0.0
  0
POINT
  5
2684
330
258C
100
AcDbEntity
  8
DEFPOINTS
 62
     0
100
AcDbPoint
 10
-0.0000000000000657
 20
0.0000000000000025
 30
0.0
  0
POINT
  5
2685
330
258C
100
AcDbEntity
  8
DEFPOINTS
 62
     0
100
AcDbPoint
 10
-0.3757819382817846
 20
1.032452390067979
 30
0.0
  0
POINT
  5
2686
330
258C
100
AcDbEntity
  8
DEFPOINTS
 62
     0
100
AcDbPoint
 10
-0.0000000000000657
 20
0.0000000000000025
 30
0.0
  0
POINT
  5
2687
330
258C
100
AcDbEntity
  8
DEFPOINTS
 62
     0
100
AcDbPoint
 10
-0.3757819382817722
 20
-1.032452390067978
 30
0.0
  0
ENDBLK
  5
259D
330
258C
100
AcDbEntity
  8
0
100
AcDbBlockEnd
  0
BLOCK
  5
26E1
330
26D7
100
AcDbEntity
  8
0
100
AcDbBlockBegin
  2
*D9
 70
     1
 10
0.0
 20
0.0
 30
0.0
  3
*D9
  1

  0
LINE
  5
2853
330
26D7
100
AcDbEntity
  8
AM_5
 62
     3
100
AcDbLine
 10
-1.999999999999974
 20
3.700000780144757
 30
0.0
 11
9.05592102485799
 21
3.700000780144788
 31
0.0
  0
LINE
  5
2854
330
26D7
100
AcDbEntity
  8
AM_5
 62
     3
100
AcDbLine
 10
-2.000000462318733
 20
-3.699999219855548
 30
0.0
 11
9.055921024858012
 21
-3.699999219855517
 31
0.0
  0
LINE
  5
2855
330
26D7
100
AcDbEntity
  8
AM_5
 62
     3
100
AcDbLine
 10
8.555921024857996
 20
2.450000780144787
 30
0.0
 11
8.55592102485801
 21
-2.449999219855518
 31
0.0
  0
INSERT
  5
2856
330
26D7
100
AcDbEntity
  8
AM_5
 62
     3
100
AcDbBlockReference
  2
_OPEN30
 10
8.555921024857992
 20
3.700000780144787
 30
0.0
 41
1.25
 42
1.25
 43
1.25
 50
90.00000000000017
  0
INSERT
  5
2857
330
26D7
100
AcDbEntity
  8
AM_5
 62
     3
100
AcDbBlockReference
  2
_OPEN30
 10
8.555921024858013
 20
-3.699999219855518
 30
0.0
 41
1.25
 42
1.25
 43
1.25
 50
270.0000000000001
  0
MTEXT
  5
2858
330
26D7
100
AcDbEntity
  8
AM_5
 62
     2
100
AcDbMText
 10
6.855921024858003
 20
0.0000007801446292
 30
0.0
 40
1.9
 41
0.0
 71
     5
 72
     1
  1
%%c7.4
 11
-0.0000000000000028
 21
1.0
 31
0.0
1001
ACAD
1000
MTEXTBEGIN
1070
    73
1070
     1
1070
    44
1040
1.0
1070
    74
1070
     0
1000
MTEXTEND
  0
POINT
  5
2859
330
26D7
100
AcDbEntity
  8
DEFPOINTS
 62
     0
100
AcDbPoint
 10
-1.999999999999962
 20
3.700000780144763
 30
0.0
  0
POINT
  5
285A
330
26D7
100
AcDbEntity
  8
DEFPOINTS
 62
     0
100
AcDbPoint
 10
-2.000000462318745
 20
-3.699999219855542
 30
0.0
  0
POINT
  5
285B
330
26D7
100
AcDbEntity
  8
DEFPOINTS
 62
     0
100
AcDbPoint
 10
8.555921024858003
 20
-3.699999219855545
 30
0.0
  0
ENDBLK
  5
26E2
330
26D7
100
AcDbEntity
  8
0
100
AcDbBlockEnd
  0
ENDSEC
  0
SECTION
  2
ENTITIES
  0
LINE
  5
C30
330
1F
100
AcDbEntity
  8
AM_0
 48
0.5
100
AcDbLine
 10
-119.9999999999999
 20
-3.750000000000101
 30
0.0
 11
-119.9999999999998
 21
3.749999999999897
 31
0.0
  0
LINE
  5
C9F
330
1F
100
AcDbEntity
  8
AM_7
100
AcDbLine
 10
-121.9999999999998
 20
-0.0000000000001033
 30
0.0
 11
1.555920024858144
 21
0.0000000000000013
 31
0.0
1001
GENIUS_GENODEF_13
1002
{
1000
HIER
1070
     0
1002
}
1002
{
1000
MANEDIT
1070
     0
1002
}
1002
{
1000
NOSEL
1070
     0
1002
}
1002
{
1000
BEHIND
1070
     0
1002
}
1002
{
1000
REACTOR
1002
}
1001
GENIUS_GENOBJ-N-CEN_13
1002
{
1000
OWNER
1000
GEN
1002
}
  0
DIMENSION
  5
CC6
330
1F
100
AcDbEntity
  8
AM_5
100
AcDbDimension
  2
*D5
 10
-2.000000462318766
 20
-16.0000023696538
 30
0.0
 11
-61.00000023115932
 21
-14.3000023696538
 31
0.0
 70
    32
  1
<>
  3
AM_JIS$0
100
AcDbAlignedDimension
 13
-119.9999999999998
 23
-3.764324189635425
 33
0.0
 14
-2.000000462318765
 24
-3.699999219855568
 34
0.0
 50
0.0000000000001132
100
AcDbRotatedDimension
1001
GENIUS_GENDTOL_13
1000

1000
h7
1000

1040
0.0
1001
ACAD
1000
DSTYLE
1002
{
1070
   271
1070
     0
1002
}
  0
DIMENSION
  5
DF5
330
1F
100
AcDbEntity
  8
AM_5
100
AcDbDimension
  2
*D6
 10
-2.000000462318766
 20
-11.00000236965372
 30
0.0
 11
-34.00000023115933
 21
-9.300002369653721
 31
0.0
 70
    32
  1
<>
  3
AM_JIS$0
100
AcDbAlignedDimension
 13
-65.9999999999999
 23
-4.000001369653888
 33
0.0
 14
-2.000000462318765
 24
-3.699999219855568
 34
0.0
 50
0.0000000000001527
100
AcDbRotatedDimension
1001
GENIUS_GENDTOL_13
1000

1000
h7
1000

1040
0.0
1001
ACAD
1000
DSTYLE
1002
{
1070
   271
1070
     0
1002
}
  0
TEXT
  5
19BD
330
1F
100
AcDbEntity
  8
AM_6
100
AcDbText
 10
-69.59568372748309
 20
-26.97293740283332
 30
0.0
 40
2.5
  1
MDW074LHK
 50
0.0000000000001527
 72
     4
 11
-58.76235039414975
 21
-25.72293740283329
 31
0.0
100
AcDbText
  0
ARC
  5
1BE8
330
1F
100
AcDbEntity
  8
AM_11
 48
0.5
100
AcDbCircle
 10
-65.1857889811198
 20
17.66787048062784
 30
0.0
 40
19.53452809651666
100
AcDbArc
 50
244.7482808787518
 51
295.2516148471758
  0
ARC
  5
1BE9
330
1F
100
AcDbEntity
  8
AM_11
 48
0.5
100
AcDbCircle
 10
-65.18578898111982
 20
-17.66785848258815
 30
0.0
 40
19.53452809651666
100
AcDbArc
 50
64.74833051131179
 51
115.2516644797366
  0
LINE
  5
1CA9
330
1F
100
AcDbEntity
  8
AM_0
 48
0.5
100
AcDbLine
 10
-65.9999999999999
 20
-4.000001369653889
 30
0.0
 11
-65.9999999999999
 21
4.000029622605968
 31
0.0
  0
LINE
  5
1E12
330
1F
100
AcDbEntity
  8
AM_0
 48
0.5
100
AcDbLine
 10
-119.7499999999998
 20
3.999999999999897
 30
0.0
 11
-65.9999999999999
 21
3.999999999999942
 31
0.0
1001
GENIUS_GENODEF_13
1002
{
1000
HIER
1070
     0
1002
}
1002
{
1000
MANEDIT
1070
     0
1002
}
1002
{
1000
NOSEL
1070
     0
1002
}
1002
{
1000
BEHIND
1070
     0
1002
}
1002
{
1000
REACTOR
1002
}
1001
GENIUS_GENOBJ-N-CEN_13
1002
{
1000
OWNER
1000
GEN
1002
}
  0
LINE
  5
1E16
330
1F
100
AcDbEntity
  8
AM_0
 48
0.5
100
AcDbLine
 10
-119.7499999999999
 20
-4.000000000000101
 30
0.0
 11
-65.9999999999999
 21
-4.000000000000056
 31
0.0
1001
GENIUS_GENODEF_13
1002
{
1000
HIER
1070
     0
1002
}
1002
{
1000
MANEDIT
1070
     0
1002
}
1002
{
1000
NOSEL
1070
     0
1002
}
1002
{
1000
BEHIND
1070
     0
1002
}
1002
{
1000
REACTOR
1002
}
1001
GENIUS_GENOBJ-N-CEN_13
1002
{
1000
OWNER
1000
GEN
1002
}
  0
LINE
  5
1E1D
330
1F
100
AcDbEntity
  8
AM_0
 48
0.5
100
AcDbLine
 10
-119.9999999999998
 20
3.749999999999897
 30
0.0
 11
-119.7499999999998
 21
3.999999999999897
 31
0.0
1001
GENIUS_GENFIL_13
1070
     0
1040
0.25
1040
0.25
1040
20.0
1040
0.0
1002
{
1002
}
1001
GENIUS_GENODEF_13
1002
{
1000
HIER
1070
     0
1002
}
1002
{
1000
MANEDIT
1070
     0
1002
}
1002
{
1000
NOSEL
1070
     0
1002
}
1002
{
1000
BEHIND
1070
     0
1002
}
1002
{
1000
REACTOR
1002
}
1001
GENIUS_GENOBJ-N-CHA_13
1002
{
1000
OWNER
1000
GEN
1002
}
  0
LINE
  5
1E21
330
1F
100
AcDbEntity
  8
AM_0
 48
0.5
100
AcDbLine
 10
-119.9999999999999
 20
-3.750000000000101
 30
0.0
 11
-119.7499999999999
 21
-4.000000000000101
 31
0.0
1001
GENIUS_GENFIL_13
1070
     0
1040
0.25
1040
0.25
1040
20.0
1040
0.0
1002
{
1002
}
1001
GENIUS_GENODEF_13
1002
{
1000
HIER
1070
     0
1002
}
1002
{
1000
MANEDIT
1070
     0
1002
}
1002
{
1000
NOSEL
1070
     0
1002
}
1002
{
1000
BEHIND
1070
     0
1002
}
1002
{
1000
REACTOR
1002
}
1001
GENIUS_GENOBJ-N-CHA_13
1002
{
1000
OWNER
1000
GEN
1002
}
  0
LINE
  5
1E22
330
1F
100
AcDbEntity
  8
AM_0
100
AcDbLine
 10
-119.7499999999999
 20
-4.000000000000101
 30
0.0
 11
-119.7499999999998
 21
3.999999999999897
 31
0.0
  0
LINE
  5
1E25
330
1F
100
AcDbEntity
  8
AM_0
100
AcDbLine
 10
-65.9999999999999
 20
-4.000001369653889
 30
0.0
 11
-65.48096386699966
 21
-3.700335718547077
 31
0.0
  0
LINE
  5
1E26
330
1F
100
AcDbEntity
  8
AM_0
100
AcDbLine
 10
-65.9999999999999
 20
3.999999999999942
 30
0.0
 11
-65.48129656520959
 21
3.700526432294175
 31
0.0
  0
ARC
  5
1F66
330
1F
100
AcDbEntity
  8
AM_11
 48
0.5
100
AcDbCircle
 10
-81.8524191904159
 20
17.66787048062779
 30
0.0
 40
19.53452809651666
100
AcDbArc
 50
244.7482808787518
 51
295.2516148471758
  0
ARC
  5
1F67
330
1F
100
AcDbEntity
  8
AM_11
 48
0.5
100
AcDbCircle
 10
-81.85241919041592
 20
-17.66785848258821
 30
0.0
 40
19.53452809651666
100
AcDbArc
 50
64.74833051131179
 51
115.2516644797366
  0
ARC
  5
1F68
330
1F
100
AcDbEntity
  8
AM_11
 48
0.5
100
AcDbCircle
 10
-98.519049399712
 20
17.66787048062773
 30
0.0
 40
19.53452809651666
100
AcDbArc
 50
244.7482808787518
 51
295.2516148471758
  0
ARC
  5
1F69
330
1F
100
AcDbEntity
  8
AM_11
 48
0.5
100
AcDbCircle
 10
-98.51904939971204
 20
-17.66785848258826
 30
0.0
 40
19.53452809651666
100
AcDbArc
 50
64.74833051131179
 51
115.2516644797366
  0
ARC
  5
1F6A
330
1F
100
AcDbEntity
  8
AM_11
 48
0.5
100
AcDbCircle
 10
-115.1856796090081
 20
17.66787048062767
 30
0.0
 40
19.53452809651666
100
AcDbArc
 50
255.732350805167
 51
295.2516148471758
  0
ARC
  5
1F6B
330
1F
100
AcDbEntity
  8
AM_11
 48
0.5
100
AcDbCircle
 10
-115.1856796090081
 20
-17.66785848258832
 30
0.0
 40
19.53452809651666
100
AcDbArc
 50
64.74833051131179
 51
104.2676491948328
  0
LINE
  5
220F
330
1F
100
AcDbEntity
  8
AM_0
100
AcDbLine
 10
-65.48129656520981
 20
-3.700527801948265
 30
0.0
 11
-65.48129656520957
 21
3.700526432294175
 31
0.0
  0
DIMENSION
  5
228A
330
1F
100
AcDbEntity
  8
AM_5
100
AcDbDimension
  2
*D7
 10
-129.0000009999998
 20
3.9999999999999
 30
0.0
 11
-129.0000009999998
 21
-0.0000000000001026
 31
0.0
 70
   160
  1
%%c<>
 51
359.9999999999998
  3
AM_JIS$0
100
AcDbAlignedDimension
 13
-119.7499999999999
 23
-4.000000000000101
 33
0.0
 14
-119.7499999999998
 24
3.999999999999897
 34
0.0
 50
270.0000000000002
100
AcDbRotatedDimension
1001
ACAD
1000
DSTYLE
1002
{
1070
   271
1070
     0
1002
}
1001
GENIUS_GENDTOL_13
1000

1000
h7
1000

1040
0.0
  0
ELLIPSE
  5
252F
330
1F
100
AcDbEntity
  8
AM_0
 48
0.5
100
AcDbEllipse
 10
6.998938941977094
 20
6.518511470746472
 30
0.0
 11
-6.499359672245508
 21
6.499359672245508
 31
0.0
210
0.0
220
0.0
230
1.0
 40
0.9999999999999978
 41
1.171329590070667
 42
1.424984195904709
  0
LINE
  5
2533
330
1F
100
AcDbEntity
  8
AM_0
100
AcDbLine
 10
-0.3757819382817846
 20
1.032452390067979
 30
0.0
 11
-0.0000000000000657
 21
0.0000000000000025
 31
0.0
  0
LINE
  5
2534
330
1F
100
AcDbEntity
  8
AM_0
100
AcDbLine
 10
-0.0000000000000657
 20
0.0000000000000025
 30
0.0
 11
-0.3757819382817722
 21
-1.032452390067978
 31
0.0
  0
LINE
  5
2535
330
1F
100
AcDbEntity
  8
AM_0
 48
0.5
100
AcDbLine
 10
-1.51649379259026
 20
3.058633200997604
 30
0.0
 11
-1.999999999999962
 21
3.700000780144763
 31
0.0
  0
ELLIPSE
  5
254F
330
1F
100
AcDbEntity
  8
AM_0
 48
0.5
100
AcDbEllipse
 10
6.998938941978924
 20
-6.518511470744941
 30
0.0
 11
-6.499359672243684
 21
-6.499359672247334
 31
0.0
210
0.0
220
0.0
230
-1.0
 40
0.9999999999999978
 41
1.171329590070667
 42
1.424984195904709
  0
LINE
  5
2550
330
1F
100
AcDbEntity
  8
AM_0
 48
0.5
100
AcDbLine
 10
-1.516493792589402
 20
-3.058633200998463
 30
0.0
 11
-2.000000462318745
 21
-3.699999219855542
 31
0.0
  0
DIMENSION
  5
258B
330
1F
100
AcDbEntity
  8
AM_5
100
AcDbDimension
  2
*D8
 10
-0.3757819382817722
 20
-1.032452390067978
 30
0.0
 11
12.0431196328606
 21
0.0000000000000819
 31
0.0
 70
    34
  1
<>
 51
359.9999999999998
  3
AM_JIS$2
100
AcDb2LineAngularDimension
 13
-0.3757819382817846
 23
1.032452390067979
 33
0.0
 14
-0.0000000000000657
 24
0.0000000000000025
 34
0.0
 15
-0.0000000000000657
 25
0.0000000000000025
 35
0.0
 16
12.48142138964305
 26
-5.383959643925755
 36
0.0
1001
ACAD
1000
DSTYLE
1002
{
1070
   179
1070
     3
1002
}
1001
GENIUS_GENDTOL_13
1000

1000
h7
1000

1040
0.0
  0
DIMENSION
  5
26D6
330
1F
100
AcDbEntity
  8
AM_5
100
AcDbDimension
  2
*D9
 10
8.555921024858003
 20
-3.699999219855545
 30
0.0
 11
6.855921024858003
 21
0.0000007801446093
 31
0.0
 70
    32
  1
%%c<>
 51
359.9999999999998
  3
AM_JIS$0
100
AcDbAlignedDimension
 13
-1.999999999999962
 23
3.700000780144763
 33
0.0
 14
-2.000000462318745
 24
-3.699999219855542
 34
0.0
 50
89.99999999999886
100
AcDbRotatedDimension
1001
ACAD
1000
DSTYLE
1002
{
1070
   271
1070
     1
1002
}
1001
GENIUS_GENDTOL_13
1000

1000
h7
1000

1040
0.0
  0
LINE
  5
2805
330
1F
100
AcDbEntity
  8
AM_0
100
AcDbLine
 10
-60.63639217811181
 20
-3.700335718547127
 30
0.0
 11
-65.48096386699967
 21
-3.700335718547077
 31
0.0
  0
LINE
  5
2806
330
1F
100
AcDbEntity
  8
AM_0
100
AcDbLine
 10
-59.47579133114018
 20
3.700526432294105
 30
0.0
 11
-65.48129656520957
 21
3.700526432294175
 31
0.0
  0
LINE
  5
2807
330
1F
100
AcDbEntity
  8
AM_0
 48
0.5
100
AcDbLine
 10
-4.113971477864985
 20
3.700000780144816
 30
0.0
 11
-1.999999999999962
 21
3.700000780144763
 31
0.0
  0
LINE
  5
2808
330
1F
100
AcDbEntity
  8
AM_0
 48
0.5
100
AcDbLine
 10
-0.0000000000000195
 20
-0.000000000000026
 30
0.0
 11
-1.635888004307064
 21
1.400956309163848
 31
0.0
  0
LINE
  5
2809
330
1F
100
AcDbEntity
  8
AM_0
 48
0.5
100
AcDbLine
 10
-4.113971477865162
 20
-3.699999219855182
 30
0.0
 11
-2.000000462318745
 21
-3.699999219855542
 31
0.0
  0
LINE
  5
280A
330
1F
100
AcDbEntity
  8
AM_0
 48
0.5
100
AcDbLine
 10
-26.61365581253424
 20
-3.699999219854718
 30
0.0
 11
-16.0195462764489
 21
-3.699999219854897
 31
0.0
  0
LINE
  5
280B
330
1F
100
AcDbEntity
  8
AM_0
 48
0.5
100
AcDbLine
 10
-29.37834907185873
 20
3.700000780145423
 30
0.0
 11
-16.01954627644871
 21
3.700000780145101
 31
0.0
  0
LINE
  5
280C
330
1F
100
AcDbEntity
  8
AM_0
100
AcDbLine
 10
-51.87812019002314
 20
3.700000780145889
 30
0.0
 11
-36.97602021297581
 21
3.700526432293643
 31
0.0
  0
LINE
  5
280D
330
1F
100
AcDbEntity
  8
AM_0
 48
0.5
100
AcDbLine
 10
-51.87812495841703
 20
-3.699999219854062
 30
0.0
 11
-38.5192288570353
 21
-3.699999219854353
 31
0.0
  0
LINE
  5
280E
330
1F
100
AcDbEntity
  8
AM_11
 48
0.5
100
AcDbLine
 10
-36.97602021297581
 20
3.700526432293643
 30
0.0
 11
-29.37833881765718
 21
3.700000780145423
 31
0.0
  0
LINE
  5
280F
330
1F
100
AcDbEntity
  8
AM_11
 48
0.5
100
AcDbLine
 10
-38.51923061111644
 20
-3.699999219854434
 30
0.0
 11
-26.61365581253424
 21
-3.700524872002744
 31
0.0
  0
LINE
  5
2810
330
1F
100
AcDbEntity
  8
AM_11
 48
0.5
100
AcDbLine
 10
-16.0195462764489
 20
-3.699999219854897
 30
0.0
 11
-4.113971477865162
 21
-3.699999219855182
 31
0.0
  0
LINE
  5
2811
330
1F
100
AcDbEntity
  8
AM_11
 48
0.5
100
AcDbLine
 10
-16.01954627644871
 20
3.700000780145101
 30
0.0
 11
-4.113971477864985
 21
3.700000780144816
 31
0.0
  0
ELLIPSE
  5
2812
330
1F
100
AcDbEntity
  8
AM_11
 48
0.5
100
AcDbEllipse
 10
-31.85245564779088
 20
17.19018389776918
 30
0.0
 11
19.53452809651663
 21
0.0000000000000793
 31
0.0
210
0.0
220
0.0
230
1.0
 40
0.9729629629629634
 41
4.271663339930077
 42
5.153112800913369
  0
ELLIPSE
  5
2813
330
1F
100
AcDbEntity
  8
AM_11
 48
0.5
100
AcDbEllipse
 10
-31.85245564779144
 20
-17.19017165273763
 30
0.0
 11
-19.53452809651669
 21
0.0000000000004653
 31
0.0
210
0.0
220
0.0
230
1.0
 40
0.9729629629629595
 41
4.271664206181695
 42
5.153113667164999
  0
ELLIPSE
  5
2814
330
1F
100
AcDbEntity
  8
AM_11
 48
0.5
100
AcDbEllipse
 10
-48.51912231445343
 20
-17.19017165273737
 30
0.0
 11
-19.53452809651667
 21
0.0000000000003655
 31
0.0
210
0.0
220
0.0
230
1.0
 40
0.9729629629629615
 41
4.271664206181689
 42
5.153113667164995
  0
ELLIPSE
  5
2815
330
1F
100
AcDbEntity
  8
AM_11
 48
0.5
100
AcDbEllipse
 10
-48.51912231445289
 20
17.19018389776944
 30
0.0
 11
-19.53452809651663
 21
0.0000000000003135
 31
0.0
210
0.0
220
0.0
230
1.0
 40
0.9729629629629632
 41
1.130070686340304
 42
2.011520147323595
  0
ELLIPSE
  5
2816
330
1F
100
AcDbEntity
  8
AM_11
 48
0.5
100
AcDbEllipse
 10
-15.18578898112476
 20
-17.19017165273791
 30
0.0
 11
-19.53452809651665
 21
0.0000000000002961
 31
0.0
210
0.0
220
0.0
230
1.0
 40
0.972962962962962
 41
4.271664206181686
 42
5.153113667164993
  0
ELLIPSE
  5
2817
330
1F
100
AcDbEntity
  8
AM_11
 48
0.5
100
AcDbEllipse
 10
-15.18578898112421
 20
17.1901838977689
 30
0.0
 11
-19.53452809651665
 21
0.0000000000003569
 31
0.0
210
0.0
220
0.0
230
1.0
 40
0.9729629629629625
 41
1.130070686340309
 42
2.011520147323598
  0
ELLIPSE
  5
2818
330
1F
100
AcDbEntity
  8
AM_0
 48
0.5
100
AcDbEllipse
 10
-6.256098646553914
 20
7.03780770033845
 30
0.0
 11
-5.231272177119913
 21
8.047436347213825
 31
0.0
210
0.0
220
0.0
230
1.0
 40
0.6040631763430661
 41
3.103193528533118
 42
3.387156066472805
  0
ELLIPSE
  5
2819
330
1F
100
AcDbEntity
  8
AM_0
 48
0.5
100
AcDbEllipse
 10
-6.036442693078535
 20
6.209941831655806
 30
0.0
 11
8.173630166604787
 21
6.655758419007611
 31
0.0
210
0.0
220
0.0
230
1.0
 40
0.8342309610650641
 41
4.506168783744559
 42
4.566099302942452
  0
ELLIPSE
  5
281A
330
1F
100
AcDbEntity
  8
AM_0
 48
0.5
100
AcDbEllipse
 10
-1.475464632491065
 20
-1.315231527553837
 30
0.0
 11
-0.5085883645183548
 21
0.3148373639001743
 31
0.0
210
0.0
220
0.0
230
1.0
 40
0.5098914052074925
 41
4.508548975648996
 42
7.651989316978507
  0
ELLIPSE
  5
281B
330
1F
100
AcDbEntity
  8
AM_0
 48
0.5
100
AcDbEllipse
 10
-1.475464632491065
 20
-1.315231527553837
 30
0.0
 11
-0.1001558355070312
 21
0.6077474187242716
 31
0.0
210
0.0
220
0.0
230
0.9999999999999998
 40
0.4808507646833148
 41
1.814718450458618
 42
4.950060340170593
  0
ELLIPSE
  5
281C
330
1F
100
AcDbEntity
  8
AM_0
 48
0.5
100
AcDbEllipse
 10
3.908992358985522
 20
-1.798063568953882
 30
0.0
 11
-0.0000000000002858
 21
6.445661938734676
 31
0.0
210
0.0
220
0.0
230
1.0
 40
0.95945945945945
 41
1.575304363691312
 42
1.870327662799683
  0
ELLIPSE
  5
281D
330
1F
100
AcDbEntity
  8
AM_0
 48
0.5
100
AcDbEllipse
 10
3.351196164573224
 20
3.649546705282325
 30
0.0
 11
-0.0000000000005032
 21
8.023907794942532
 31
0.0
210
0.0
220
0.0
230
1.0
 40
0.9594594594594557
 41
1.951257656000282
 42
2.322034022628268
  0
SPLINE
  5
281E
330
1F
100
AcDbEntity
  8
AM_0
 48
0.5
100
AcDbSpline
210
0.0
220
0.0
230
1.0
 70
     8
 71
     3
 72
    25
 73
    21
 74
     0
 42
0.0000000001
 43
0.0000000001
 40
6.846175049578289
 40
6.846175049578289
 40
6.846175049578289
 40
6.846175049578289
 40
7.604337694224321
 40
8.711974558287883
 40
9.814980593243754
 40
10.91239053451967
 40
12.0033633515982
 40
13.08720139956839
 40
14.16337181880432
 40
15.23152222380919
 40
16.29148850140128
 40
17.34331105512262
 40
18.38723020264746
 40
19.42369128463655
 40
20.45333379090873
 40
21.47697865721768
 40
22.49561244472435
 40
23.5103574802404
 40
24.52244778960836
 40
25.53320666051913
 40
25.53320666051913
 40
25.53320666051913
 40
25.53320666051913
 10
-3.796906315298302
 20
0.669724699616782
 30
0.0
 10
-3.932821759016311
 20
0.7346901191910133
 30
0.0
 10
-4.267588757845891
 20
0.8939166030469255
 30
0.0
 10
-4.801704811147483
 20
1.143959501487547
 30
0.0
 10
-5.399359502562948
 20
1.416700834818693
 30
0.0
 10
-5.997044250420992
 20
1.680728157582841
 30
0.0
 10
-6.594764189947506
 20
1.934418081320055
 30
0.0
 10
-7.192525981217661
 20
2.176205466499643
 30
0.0
 10
-7.790335151650437
 20
2.404599234468546
 30
0.0
 10
-8.388194468787425
 20
2.618195740208906
 30
0.0
 10
-8.986111296721698
 20
2.815665704450578
 30
0.0
 10
-9.584084825802491
 20
2.99579823395361
 30
0.0
 10
-10.18211935114819
 20
3.157469303619917
 30
0.0
 10
-10.78021276226745
 20
3.299678356405777
 30
0.0
 10
-11.37836272270514
 20
3.421553752563432
 30
0.0
 10
-11.97656590403786
 20
3.522287645436781
 30
0.0
 10
-12.57481299846431
 20
3.601419002928838
 30
0.0
 10
-13.17309741269435
 20
3.657873024876053
 30
0.0
 10
-13.77140943476911
 20
3.693398262880776
 30
0.0
 10
-14.17038242962483
 20
3.697800704367877
 30
0.0
 10
-14.36973762512618
 20
3.700000476268876
 30
0.0
  0
SPLINE
  5
281F
330
1F
100
AcDbEntity
  8
AM_0
 48
0.5
100
AcDbSpline
210
0.0
220
0.0
230
1.0
 70
     8
 71
     3
 72
    10
 73
     6
 74
     0
 42
0.0000000001
 43
0.0000000001
 40
0.0
 40
0.0
 40
0.0
 40
0.0
 40
2.69986029516136
 40
4.147722969032201
 40
6.285750005020438
 40
6.285750005020438
 40
6.285750005020438
 40
6.285750005020438
 10
-3.796810658777209
 20
0.6696807537751207
 30
0.0
 10
-3.370981688899093
 20
0.3259251856227617
 30
0.0
 10
-2.716792061973536
 20
-0.2021772752021794
 30
0.0
 10
-1.169721473168839
 20
0.0534863776577678
 30
0.0
 10
-1.461079864363213
 20
0.9145953898267396
 30
0.0
 10
-1.653590873613992
 20
1.439467854187472
 30
0.0
  0
ELLIPSE
  5
2820
330
1F
100
AcDbEntity
  8
AM_11
 48
0.5
100
AcDbEllipse
 10
1.480877685542513
 20
17.43229916393441
 30
0.0
 11
19.53452809651636
 21
0.0000000000083726
 31
0.0
210
0.0
220
0.0
230
1.0
 40
0.9866666666666786
 41
4.271663339929649
 42
4.433393390970343
  0
SPLINE
  5
2821
330
1F
100
AcDbEntity
  8
AM_0
100
AcDbSpline
210
0.0
220
0.0
230
1.0
 70
     8
 71
     3
 72
    17
 73
    13
 74
     0
 42
0.0000000001
 43
0.0000000001
 40
1.580019955310467
 40
1.580019955310467
 40
1.580019955310467
 40
1.580019955310467
 40
2.030549285115227
 40
3.082371838836284
 40
4.126290986361125
 40
5.162752068350215
 40
6.192395305374981
 40
7.216039564037012
 40
8.234688489606833
 40
9.249433870634691
 40
10.26152376260694
 40
11.27226744710342
 40
11.27226744710342
 40
11.27226744710342
 40
11.27226744710352
 10
-10.06629444425116
 20
-2.730708172239373
 30
0.0
 10
-10.15571431541304
 20
-2.75883220594552
 30
0.0
 10
-10.45440672678997
 20
-2.851012482919078
 30
0.0
 10
-10.96434874562857
 20
-2.995600545619646
 30
0.0
 10
-11.59598737397018
 20
-3.157519994925717
 30
0.0
 10
-12.22779989183478
 20
-3.299663773104767
 30
0.0
 10
-12.85964135912839
 20
-3.421554529402403
 30
0.0
 10
-13.49155166441746
 20
-3.522305624570861
 30
0.0
 10
-14.12350562657625
 20
-3.601342116535106
 30
0.0
 10
-14.75549893924746
 20
-3.658151822381273
 30
0.0
 10
-15.38751603175253
 20
-3.692369051435413
 30
0.0
 10
-15.80896302409953
 20
-3.699999241026497
 30
0.0
 10
-16.01954627644885
 20
-3.699999219854898
 30
0.0
  0
SPLINE
  5
2822
330
1F
100
AcDbEntity
  8
AM_0
100
AcDbSpline
210
0.0
220
0.0
230
1.0
 70
     8
 71
     3
 72
    22
 73
    18
 74
     0
 42
0.0000000001
 43
0.0000000001
 40
17.17441611292
 40
17.17441611292
 40
17.17441611292
 40
17.17441611292
 40
17.38177636558528
 40
18.41823744757437
 40
19.46215659509824
 40
20.51397914882054
 40
21.57394542641293
 40
22.64209583141747
 40
23.71826625065247
 40
24.80210429862395
 40
25.8930771157021
 40
26.99048705697709
 40
28.09349309193389
 40
29.20112995599786
 40
30.31233024745139
 40
31.42594771747373
 40
32.5407895042663
 40
32.54078950426994
 40
32.54078950426994
 40
32.54078950426994
 10
-18.4318155598703
 20
-3.322625999156356
 30
0.0
 10
-18.47413632538442
 20
-3.314060862058903
 30
0.0
 10
-18.72782620192537
 20
-3.261889675805761
 30
0.0
 10
-19.19257176038078
 20
-3.157279657137136
 30
0.0
 10
-19.82429832361459
 20
-2.9956088395489
 30
0.0
 10
-20.45596051523767
 20
-2.815476241733792
 30
0.0
 10
-21.0875627947497
 20
-2.618006296031809
 30
0.0
 10
-21.71910432784798
 20
-2.404409785173084
 30
0.0
 10
-22.35059288807645
 20
-2.176016018946486
 30
0.0
 10
-22.98203139940464
 20
-1.934228631953387
 30
0.0
 10
-23.61342570414034
 20
-1.68053871376096
 30
0.0
 10
-24.24478282298791
 20
-1.416511370474575
 30
0.0
 10
-24.87610823574618
 20
-1.143770114212487
 30
0.0
 10
-25.50740829772616
 20
-0.8639928952709535
 30
0.0
 10
-26.13868860485338
 20
-0.578900026856865
 30
0.0
 10
-26.76995850899666
 20
-0.290250686063311
 30
0.0
 10
-27.19072250461057
 20
-0.09665969605947
 30
0.0
 10
-27.40122008931644
 20
0.0001889718776201
 30
0.0
  0
SPLINE
  5
2823
330
1F
100
AcDbEntity
  8
AM_0
100
AcDbSpline
210
0.0
220
0.0
230
1.0
 70
     8
 71
     3
 72
    11
 73
     7
 74
     0
 42
0.0000000001
 43
0.0000000001
 40
11.27226913003534
 40
11.27226913003534
 40
11.27226913003534
 40
11.2722691300354
 40
12.28301561507924
 40
13.29510212255852
 40
14.30984805882082
 40
15.18258238371378
 40
15.18258238371378
 40
15.18258238371378
 40
15.18258238371378
 10
-16.01954627644888
 20
-3.699999219854898
 30
0.0
 10
-16.22932878760032
 20
-3.681890344641915
 30
0.0
 10
-16.64849812019563
 20
-3.638049545881713
 30
0.0
 10
-17.27508760679948
 20
-3.549611810786526
 30
0.0
 10
-17.86973207807964
 20
-3.4439826330348
 30
0.0
 10
-18.25431321717344
 20
-3.362782340371052
 30
0.0
 10
-18.43153915700579
 20
-3.322671638628064
 30
0.0
  0
SPLINE
  5
2824
330
1F
100
AcDbEntity
  8
AM_0
100
AcDbSpline
210
0.0
220
0.0
230
1.0
 70
     8
 71
     3
 72
    55
 73
    51
 74
     0
 42
0.0000000001
 43
0.0000000001
 40
0.0
 40
0.0
 40
0.0
 40
0.0
 40
1.010743684496582
 40
2.022833576467832
 40
3.037578957496688
 40
4.056212745003489
 40
5.079857003664532
 40
6.109500240690281
 40
7.145961322679372
 40
8.189895241603872
 40
9.241717795325891
 40
10.30168407291828
 40
11.36983447792315
 40
12.44600489715814
 40
13.52984294512926
 40
14.62081576220742
 40
15.7182257034828
 40
16.82123173843959
 40
17.92886860250316
 40
19.0400688939571
 40
20.15368796660465
 40
21.26852814259644
 40
22.38336992938901
 40
23.49698739941135
 40
24.6081876908653
 40
25.71582455492886
 40
26.81883757994213
 40
27.91624752121713
 40
29.00722033829659
 40
30.09105838626677
 40
31.16722880550176
 40
32.23537921050758
 40
33.29534548809967
 40
34.347168041821
 40
35.39108718934584
 40
36.42754827133493
 40
37.45720575381954
 40
38.48085062012849
 40
39.49948440763516
 40
40.51422944315121
 40
41.52631975251916
 40
42.53706336719636
 40
43.54780698187354
 40
44.55989729124051
 40
45.57464232675757
 40
46.59327611426424
 40
47.6169209805722
 40
48.64656348684535
 40
49.68302456883444
 40
50.58557219878025
 40
50.58557219878025
 40
50.58557219878025
 40
50.58557219878025
 10
-4.113971477865162
 20
-3.699999219855183
 30
0.0
 10
-4.324554732992692
 20
-3.697797809493158
 30
0.0
 10
-4.746001718660507
 20
-3.693392056715097
 30
0.0
 10
-5.378018824571009
 20
-3.657876743245668
 30
0.0
 10
-6.010008952054251
 20
-3.601416672464226
 30
0.0
 10
-6.641959965553294
 20
-3.522285735925862
 30
0.0
 10
-7.273865559191827
 20
-3.421556309535167
 30
0.0
 10
-7.905713266885328
 20
-3.299676320998974
 30
0.0
 10
-8.537505202136362
 20
-3.157466797361766
 30
0.0
 10
-9.169235762227284
 20
-2.995798561704269
 30
0.0
 10
-9.800900643921663
 20
-2.815664247185977
 30
0.0
 10
-10.43250299571972
 20
-2.618194538278403
 30
0.0
 10
-11.06404450917851
 20
-2.404597963137696
 30
0.0
 10
-11.69553307490337
 20
-2.176204214701332
 30
0.0
 10
-12.3269715840842
 20
-1.934416821488264
 30
0.0
 10
-12.95836589188477
 20
-1.68072691026567
 30
0.0
 10
-13.5897230005534
 20
-1.416699545192783
 30
0.0
 10
-14.22104845121717
 20
-1.143958369644276
 30
0.0
 10
-14.85234837096149
 20
-0.8641808479487091
 30
0.0
 10
-15.48362951496379
 20
-0.5790889775128866
 30
0.0
 10
-16.11489742016061
 20
-0.2904353859937569
 30
0.0
 10
-16.74616100103261
 20
0.0000000252107151
 30
0.0
 10
-17.37742174805932
 20
0.2904406644335903
 30
0.0
 10
-18.00869176912858
 20
0.5790897608527944
 30
0.0
 10
-18.63997213380582
 20
0.8641824942454777
 30
0.0
 10
-19.27127317915092
 20
1.1439610817687
 30
0.0
 10
-19.9026012488555
 20
1.416699929696123
 30
0.0
 10
-20.53395935397246
 20
1.680728633755112
 30
0.0
 10
-21.16535375292536
 20
1.934418339261344
 30
0.0
 10
-21.79679223913015
 20
2.176205783321392
 30
0.0
 10
-22.42828080647201
 20
2.40459953209185
 30
0.0
 10
-23.05982233601667
 20
2.618196056158396
 30
0.0
 10
-23.69142462262646
 20
2.815665966700707
 30
0.0
 10
-24.32308678965722
 20
2.99579869063531
 30
0.0
 10
-24.95481344322429
 20
3.157469043743343
 30
0.0
 10
-25.58660514411331
 20
3.299681427035167
 30
0.0
 10
-26.2184573634112
 20
3.421547495184795
 30
0.0
 10
-26.85036504468724
 20
3.522308099462343
 30
0.0
 10
-27.48231624552484
 20
3.601345236489078
 30
0.0
 10
-28.11430681213403
 20
3.658148168712921
 30
0.0
 10
-28.74632338216934
 20
3.69237613430003
 30
0.0
 10
-29.3783538403855
 20
3.703810565031787
 30
0.0
 10
-30.0103842976717
 20
3.69237613428213
 30
0.0
 10
-30.64240087050226
 20
3.658148168784892
 30
0.0
 10
-31.27439142682014
 20
3.601345236218101
 30
0.0
 10
-31.90634266624236
 20
3.522308100480977
 30
0.0
 10
-32.53824712179383
 20
3.421547982579129
 30
0.0
 10
-33.17009685183448
 20
3.299682673049997
 30
0.0
 10
-33.7731623551809
 20
3.16392458559287
 30
0.0
 10
-34.16443812165723
 20
3.064643412822831
 30
0.0
 10
-34.34596727210118
 20
3.016258854104719
 30
0.0
  0
SPLINE
  5
2825
330
1F
100
AcDbEntity
  8
AM_0
100
AcDbSpline
210
0.0
220
0.0
230
1.0
 70
     8
 71
     3
 72
    46
 73
    42
 74
     0
 42
0.0000000001
 43
0.0000000001
 40
0.0
 40
0.0
 40
0.0
 40
0.0
 40
1.348332046947657
 40
2.024828967632895
 40
2.703918159304097
 40
3.386347665078124
 40
4.072776489761952
 40
4.763750544421347
 40
5.459696642770596
 40
6.160921452191754
 40
6.867565637253344
 40
7.579665907256596
 40
8.297112853413899
 40
9.019671552060676
 40
9.746986763446127
 40
10.47859339096366
 40
11.21393074760089
 40
11.95235532364328
 40
12.69315551794651
 40
13.43556823304427
 40
14.1787950170388
 40
14.92202180103393
 40
15.66443451613169
 40
16.40523471043432
 40
17.14365928647669
 40
17.87899664311455
 40
18.61060327063121
 40
19.3379184820169
 40
20.06048192311554
 40
20.77792886927283
 40
21.49002913927608
 40
22.19667332433747
 40
22.89788836015233
 40
23.59383445850158
 40
24.28480851316097
 40
24.97123685067576
 40
25.65366676154838
 40
26.33276604526152
 40
27.00926273560555
 40
27.68398960851751
 40
28.357818684969
 40
28.357818684969
 40
28.357818684969
 40
28.357818684969
 10
-2.344753033040783
 20
-3.699999219855227
 30
0.0
 10
-2.766220609936675
 20
-3.691570333841833
 30
0.0
 10
-3.399150577409273
 20
-3.678912433583934
 30
0.0
 10
-4.240785156117587
 20
-3.600980067076096
 30
0.0
 10
-4.87274295927459
 20
-3.522403510707732
 30
0.0
 10
-5.504646745083459
 20
-3.421524559806915
 30
0.0
 10
-6.136494848893246
 20
-3.299684638323028
 30
0.0
 10
-6.768284024776324
 20
-3.157466244878712
 30
0.0
 10
-7.400013214580764
 20
-2.995795842027556
 30
0.0
 10
-8.031679606888523
 20
-2.815666109975417
 30
0.0
 10
-8.663284464249235
 20
-2.618194280120423
 30
0.0
 10
-9.294826087837884
 20
-2.404598033103591
 30
0.0
 10
-9.926314623708519
 20
-2.176204195729299
 30
0.0
 10
-10.55775314102168
 20
-1.934416826702509
 30
0.0
 10
-11.18914744644344
 20
-1.680726908557192
 30
0.0
 10
-11.82050455642569
 20
-1.416699546777622
 30
0.0
 10
-12.45183000421411
 20
-1.143958364995086
 30
0.0
 10
-13.08312993419817
 20
-0.8641808650486078
 30
0.0
 10
-13.71441103995682
 20
-0.5790889135120747
 30
0.0
 10
-14.34567908828418
 20
-0.2904356254853706
 30
0.0
 10
-14.97694183006086
 20
0.0000007800863111
 30
0.0
 10
-15.60820457169886
 20
0.2904371860109319
 30
0.0
 10
-16.2394726204422
 20
0.5790904729793365
 30
0.0
 10
-16.87075372468038
 20
0.8641824283834836
 30
0.0
 10
-17.50205366030234
 20
1.143959913986382
 30
0.0
 10
-18.13337908718605
 20
1.416701148953472
 30
0.0
 10
-18.76473627458553
 20
1.680728313771912
 30
0.0
 10
-19.39613166626643
 20
1.934419511989344
 30
0.0
 10
-20.02757263704503
 20
2.176204684255321
 30
0.0
 10
-20.65906229939445
 20
2.404599692754995
 30
0.0
 10
-21.29060390827901
 20
2.618196003328076
 30
0.0
 10
-21.92220617107873
 20
2.815666018585711
 30
0.0
 10
-22.55386835472321
 20
2.995798537092217
 30
0.0
 10
-23.18559496585147
 20
3.157469600384662
 30
0.0
 10
-23.81738377608815
 20
3.299678689155044
 30
0.0
 10
-24.4492323431303
 20
3.421553949017397
 30
0.0
 10
-25.08114016179787
 20
3.522288843482789
 30
0.0
 10
-25.71309470863653
 20
3.601418564169836
 30
0.0
 10
-26.34508835419548
 20
3.657873453215982
 30
0.0
 10
-26.97710494065364
 20
3.693398350528017
 30
0.0
 10
-27.39855210281904
 20
3.697800947277448
 30
0.0
 10
-27.60913539540624
 20
3.700000780145382
 30
0.0
  0
SPLINE
  5
2826
330
1F
100
AcDbEntity
  8
AM_0
 48
0.5
100
AcDbSpline
210
0.0
220
0.0
230
1.0
 70
     8
 71
     3
 72
    16
 73
    12
 74
     0
 42
0.0000000001
 43
0.0000000001
 40
0.0
 40
0.0
 40
0.0
 40
0.0
 40
1.010743614677189
 40
2.022833924044153
 40
3.037578959561199
 40
4.056212747067873
 40
5.079857613375832
 40
6.109500119648989
 40
7.14596120163808
 40
8.18989512056258
 40
8.545190612624931
 40
8.545190612624931
 40
8.545190612624931
 40
8.545190612624931
 10
-4.113971477864985
 20
3.700000780144816
 30
0.0
 10
-4.324543064256046
 20
3.699978546292541
 30
0.0
 10
-4.746007377002213
 20
3.692386470054686
 30
0.0
 10
-5.378017040498175
 20
3.658145377587237
 30
0.0
 10
-6.010009477237331
 20
3.601346034766266
 30
0.0
 10
-6.641960126843149
 20
3.522307709425684
 30
0.0
 10
-7.273865054254419
 20
3.421548748762628
 30
0.0
 10
-7.905713479462166
 20
3.299679978048993
 30
0.0
 10
-8.537505636593493
 20
3.157469020399899
 30
0.0
 10
-9.028753321398427
 20
3.031747476057233
 30
0.0
 10
-9.309540454009614
 20
2.954425613433663
 30
0.0
 10
-9.380746502673588
 20
2.934472145581375
 30
0.0
  0
SPLINE
  5
2827
330
1F
100
AcDbEntity
  8
AM_0
100
AcDbSpline
210
0.0
220
0.0
230
1.0
 70
     8
 71
     3
 72
    55
 73
    51
 74
     0
 42
0.0000000001
 43
0.0000000001
 40
0.0
 40
0.0
 40
0.0
 40
0.0
 40
1.010743684496582
 40
2.022833576467832
 40
3.037578957496688
 40
4.056212745003489
 40
5.079857003664532
 40
6.109500240690281
 40
7.145961322679372
 40
8.189895241603872
 40
9.241717795325891
 40
10.30168407291828
 40
11.36983447792315
 40
12.44600489715814
 40
13.52984294512926
 40
14.62081576220742
 40
15.7182257034828
 40
16.82123173843959
 40
17.92886860250316
 40
19.0400688939571
 40
20.15368796660465
 40
21.26852814259644
 40
22.38336992938901
 40
23.49698739941135
 40
24.6081876908653
 40
25.71582455492886
 40
26.81883757994213
 40
27.91624752121713
 40
29.00722033829659
 40
30.09105838626677
 40
31.16722880550176
 40
32.23537921050758
 40
33.29534548809967
 40
34.347168041821
 40
35.39108718934584
 40
36.42754827133493
 40
37.45720575381954
 40
38.48085062012849
 40
39.49948440763516
 40
40.51422944315121
 40
41.52631975251916
 40
42.53706336719636
 40
43.54780698187354
 40
44.55989729124051
 40
45.57464232675757
 40
46.59327611426424
 40
47.6169209805722
 40
48.64656348684535
 40
49.68302456883444
 40
50.58557219878025
 40
50.58557219878025
 40
50.58557219878025
 40
50.58557219878025
 10
-26.61365581253424
 20
-3.699999219854718
 30
0.0
 10
-26.82423906766176
 20
-3.697797809492694
 30
0.0
 10
-27.24568605332958
 20
-3.693392056714631
 30
0.0
 10
-27.87770315924008
 20
-3.657876743245202
 30
0.0
 10
-28.50969328672332
 20
-3.601416672463762
 30
0.0
 10
-29.14164430022237
 20
-3.522285735925398
 30
0.0
 10
-29.77354989386089
 20
-3.421556309534703
 30
0.0
 10
-30.40539760155438
 20
-3.299676320998509
 30
0.0
 10
-31.03718953680541
 20
-3.157466797361302
 30
0.0
 10
-31.66892009689634
 20
-2.995798561703804
 30
0.0
 10
-32.30058497859072
 20
-2.815664247185511
 30
0.0
 10
-32.93218733038878
 20
-2.618194538277938
 30
0.0
 10
-33.56372884384758
 20
-2.404597963137231
 30
0.0
 10
-34.19521740957245
 20
-2.176204214700867
 30
0.0
 10
-34.82665591875329
 20
-1.9344168214878
 30
0.0
 10
-35.45805022655386
 20
-1.680726910265207
 30
0.0
 10
-36.0894073352225
 20
-1.416699545192319
 30
0.0
 10
-36.7207327858862
 20
-1.143958369643812
 30
0.0
 10
-37.35203270563054
 20
-0.8641808479482444
 30
0.0
 10
-37.98331384963285
 20
-0.5790889775124218
 30
0.0
 10
-38.61458175482968
 20
-0.2904353859932923
 30
0.0
 10
-39.24584533570168
 20
0.0000000252111798
 30
0.0
 10
-39.87710608272839
 20
0.2904406644340551
 30
0.0
 10
-40.50837610379764
 20
0.5790897608532592
 30
0.0
 10
-41.13965646847492
 20
0.8641824942459425
 30
0.0
 10
-41.77095751382003
 20
1.143961081769164
 30
0.0
 10
-42.40228558352455
 20
1.416699929696586
 30
0.0
 10
-43.0336436886415
 20
1.680728633755576
 30
0.0
 10
-43.66503808759441
 20
1.934418339261808
 30
0.0
 10
-44.29647657379923
 20
2.176205783321857
 30
0.0
 10
-44.92796514114108
 20
2.404599532092315
 30
0.0
 10
-45.55950667068574
 20
2.618196056158861
 30
0.0
 10
-46.19110895729553
 20
2.815665966701171
 30
0.0
 10
-46.82277112432629
 20
2.995798690635777
 30
0.0
 10
-47.45449777789337
 20
3.15746904374381
 30
0.0
 10
-48.08628947878238
 20
3.299681427035633
 30
0.0
 10
-48.71814169808029
 20
3.42154749518526
 30
0.0
 10
-49.35004937935635
 20
3.522308099462808
 30
0.0
 10
-49.98200058019395
 20
3.601345236489543
 30
0.0
 10
-50.61399114680313
 20
3.658148168713385
 30
0.0
 10
-51.24600771683844
 20
3.692376134300494
 30
0.0
 10
-51.87803817505458
 20
3.703810565032251
 30
0.0
 10
-52.5100686323408
 20
3.692376134282594
 30
0.0
 10
-53.14208520517136
 20
3.658148168785358
 30
0.0
 10
-53.77407576148924
 20
3.601345236218567
 30
0.0
 10
-54.40602700091146
 20
3.522308100481442
 30
0.0
 10
-55.0379314564629
 20
3.421547982579594
 30
0.0
 10
-55.66978118650355
 20
3.299682673050462
 30
0.0
 10
-56.27284668984997
 20
3.163924585593334
 30
0.0
 10
-56.6641224563263
 20
3.064643412823296
 30
0.0
 10
-56.84565160677025
 20
3.016258854105184
 30
0.0
  0
SPLINE
  5
2828
330
1F
100
AcDbEntity
  8
AM_0
100
AcDbSpline
210
0.0
220
0.0
230
1.0
 70
     8
 71
     3
 72
    46
 73
    42
 74
     0
 42
0.0000000001
 43
0.0000000001
 40
0.0
 40
0.0
 40
0.0
 40
0.0
 40
1.348332046947654
 40
2.024828967632893
 40
2.703918159304094
 40
3.386347665078122
 40
4.072776489761951
 40
4.763750544421345
 40
5.459696642770595
 40
6.160921452191748
 40
6.867565637253344
 40
7.579665907256597
 40
8.297112853413899
 40
9.019671552060666
 40
9.746986763446125
 40
10.47859339096365
 40
11.21393074760088
 40
11.95235532364327
 40
12.69315551794651
 40
13.43556823304427
 40
14.1787950170388
 40
14.92202180103393
 40
15.66443451613169
 40
16.40523471043432
 40
17.14365928647669
 40
17.87899664311455
 40
18.61060327063121
 40
19.33791848201689
 40
20.06048192311554
 40
20.77792886927282
 40
21.49002913927608
 40
22.19667332433747
 40
22.89788836015233
 40
23.59383445850157
 40
24.28480851316097
 40
24.97123685067575
 40
25.65366676154837
 40
26.33276604526151
 40
27.00926273560554
 40
27.68398960851752
 40
28.35781868496899
 40
28.35781868496899
 40
28.35781868496899
 40
28.35781868496899
 10
-24.84443736770986
 20
-3.699999219854763
 30
0.0
 10
-25.26590494460575
 20
-3.691570333841368
 30
0.0
 10
-25.89883491207835
 20
-3.678912433583468
 30
0.0
 10
-26.74046949078665
 20
-3.600980067075631
 30
0.0
 10
-27.37242729394367
 20
-3.522403510707268
 30
0.0
 10
-28.00433107975252
 20
-3.421524559806448
 30
0.0
 10
-28.63617918356231
 20
-3.299684638322563
 30
0.0
 10
-29.26796835944539
 20
-3.157466244878248
 30
0.0
 10
-29.89969754924981
 20
-2.995795842027091
 30
0.0
 10
-30.53136394155758
 20
-2.81566610997495
 30
0.0
 10
-31.1629687989183
 20
-2.618194280119959
 30
0.0
 10
-31.79451042250695
 20
-2.404598033103126
 30
0.0
 10
-32.42599895837761
 20
-2.176204195728836
 30
0.0
 10
-33.05743747569076
 20
-1.93441682670204
 30
0.0
 10
-33.68883178111254
 20
-1.680726908556733
 30
0.0
 10
-34.32018889109479
 20
-1.416699546777152
 30
0.0
 10
-34.95151433888314
 20
-1.143958364994626
 30
0.0
 10
-35.58281426886721
 20
-0.8641808650481387
 30
0.0
 10
-36.21409537462587
 20
-0.5790889135116121
 30
0.0
 10
-36.84536342295325
 20
-0.2904356254849058
 30
0.0
 10
-37.47662616472993
 20
0.0000007800867767
 30
0.0
 10
-38.10788890636794
 20
0.2904371860113959
 30
0.0
 10
-38.73915695511128
 20
0.5790904729798012
 30
0.0
 10
-39.37043805934949
 20
0.8641824283839486
 30
0.0
 10
-40.00173799497144
 20
1.143959913986846
 30
0.0
 10
-40.6330634218551
 20
1.416701148953937
 30
0.0
 10
-41.26442060925457
 20
1.680728313772377
 30
0.0
 10
-41.89581600093548
 20
1.934419511989808
 30
0.0
 10
-42.52725697171411
 20
2.176204684255784
 30
0.0
 10
-43.15874663406352
 20
2.404599692755459
 30
0.0
 10
-43.79028824294808
 20
2.618196003328542
 30
0.0
 10
-44.42189050574779
 20
2.815666018586176
 30
0.0
 10
-45.05355268939228
 20
2.995798537092682
 30
0.0
 10
-45.68527930052055
 20
3.157469600385127
 30
0.0
 10
-46.31706811075723
 20
3.299678689155507
 30
0.0
 10
-46.94891667779939
 20
3.421553949017861
 30
0.0
 10
-47.58082449646696
 20
3.522288843483253
 30
0.0
 10
-48.21277904330564
 20
3.601418564170302
 30
0.0
 10
-48.84477268886458
 20
3.657873453216446
 30
0.0
 10
-49.47678927532274
 20
3.69339835052848
 30
0.0
 10
-49.89823643748813
 20
3.697800947277912
 30
0.0
 10
-50.10881973007534
 20
3.700000780145846
 30
0.0
  0
SPLINE
  5
2829
330
1F
100
AcDbEntity
  8
AM_0
100
AcDbSpline
210
0.0
220
0.0
230
1.0
 70
     8
 71
     3
 72
    22
 73
    18
 74
     0
 42
0.0000000001
 43
0.0000000001
 40
17.17441611292
 40
17.17441611292
 40
17.17441611292
 40
17.17441611292
 40
17.38177636558528
 40
18.41823744757437
 40
19.46215659509824
 40
20.51397914882054
 40
21.57394542641293
 40
22.64209583141747
 40
23.71826625065247
 40
24.80210429862395
 40
25.8930771157021
 40
26.99048705697709
 40
28.09349309193389
 40
29.20112995599786
 40
30.31233024745139
 40
31.42594771747373
 40
32.5407895042663
 40
32.54078950426994
 40
32.54078950426994
 40
32.54078950426994
 10
-40.93149989453936
 20
-3.32262599915589
 30
0.0
 10
-40.97382066005348
 20
-3.31406086205844
 30
0.0
 10
-41.22751053659444
 20
-3.261889675805296
 30
0.0
 10
-41.69225609504985
 20
-3.157279657136671
 30
0.0
 10
-42.32398265828366
 20
-2.995608839548436
 30
0.0
 10
-42.95564484990674
 20
-2.815476241733328
 30
0.0
 10
-43.58724712941877
 20
-2.618006296031344
 30
0.0
 10
-44.21878866251705
 20
-2.404409785172619
 30
0.0
 10
-44.85027722274552
 20
-2.176016018946021
 30
0.0
 10
-45.48171573407373
 20
-1.934228631952923
 30
0.0
 10
-46.11311003880945
 20
-1.680538713760495
 30
0.0
 10
-46.744467157657
 20
-1.41651137047411
 30
0.0
 10
-47.37579257041522
 20
-1.143770114212022
 30
0.0
 10
-48.00709263239519
 20
-0.8639928952704886
 30
0.0
 10
-48.63837293952245
 20
-0.5789000268564002
 30
0.0
 10
-49.26964284366574
 20
-0.2902506860628463
 30
0.0
 10
-49.69040683927964
 20
-0.0966596960590053
 30
0.0
 10
-49.90090442398551
 20
0.0001889718780848
 30
0.0
  0
SPLINE
  5
282A
330
1F
100
AcDbEntity
  8
AM_0
100
AcDbSpline
210
0.0
220
0.0
230
1.0
 70
     8
 71
     3
 72
    17
 73
    13
 74
     0
 42
0.0000000001
 43
0.0000000001
 40
1.580019955310467
 40
1.580019955310467
 40
1.580019955310467
 40
1.580019955310467
 40
2.030549285115227
 40
3.082371838836284
 40
4.126290986361125
 40
5.162752068350215
 40
6.192395305374981
 40
7.216039564037012
 40
8.234688489606833
 40
9.249433870634691
 40
10.26152376260694
 40
11.27226744710342
 40
11.27226744710342
 40
11.27226744710342
 40
11.27226744710352
 10
-32.56597877892024
 20
-2.730708172238909
 30
0.0
 10
-32.65539865008211
 20
-2.758832205945055
 30
0.0
 10
-32.95409106145903
 20
-2.851012482918613
 30
0.0
 10
-33.46403308029763
 20
-2.995600545619181
 30
0.0
 10
-34.09567170863923
 20
-3.157519994925253
 30
0.0
 10
-34.72748422650383
 20
-3.299663773104301
 30
0.0
 10
-35.35932569379744
 20
-3.421554529401939
 30
0.0
 10
-35.99123599908651
 20
-3.522305624570397
 30
0.0
 10
-36.62318996124529
 20
-3.601342116534641
 30
0.0
 10
-37.25518327391651
 20
-3.658151822380808
 30
0.0
 10
-37.88720036642158
 20
-3.692369051434948
 30
0.0
 10
-38.30864735876859
 20
-3.699999241026033
 30
0.0
 10
-38.5192306111179
 20
-3.699999219854434
 30
0.0
  0
SPLINE
  5
282B
330
1F
100
AcDbEntity
  8
AM_0
100
AcDbSpline
210
0.0
220
0.0
230
1.0
 70
     8
 71
     3
 72
    11
 73
     7
 74
     0
 42
0.0000000001
 43
0.0000000001
 40
11.27226913003534
 40
11.27226913003534
 40
11.27226913003534
 40
11.2722691300354
 40
12.28301561507924
 40
13.29510212255852
 40
14.30984805882082
 40
15.18258238371378
 40
15.18258238371378
 40
15.18258238371378
 40
15.18258238371378
 10
-38.51923061111794
 20
-3.699999219854434
 30
0.0
 10
-38.72901312226937
 20
-3.68189034464145
 30
0.0
 10
-39.14818245486467
 20
-3.638049545881248
 30
0.0
 10
-39.77477194146852
 20
-3.549611810786061
 30
0.0
 10
-40.36941641274869
 20
-3.443982633034335
 30
0.0
 10
-40.75399755184251
 20
-3.362782340370588
 30
0.0
 10
-40.93122349167486
 20
-3.322671638627598
 30
0.0
  0
SPLINE
  5
282C
330
1F
100
AcDbEntity
  8
AM_0
100
AcDbSpline
210
0.0
220
0.0
230
1.0
 70
     8
 71
     3
 72
    23
 73
    19
 74
     0
 42
0.0000000001
 43
0.0000000001
 40
16.03460024169435
 40
16.03460024169435
 40
16.03460024169435
 40
16.03460024169435
 40
16.35212704903564
 40
17.38177054169784
 40
18.41822485651776
 40
19.46214173629503
 40
20.51396345435107
 40
21.57393551351153
 40
22.64208202342361
 40
23.7182574881101
 40
24.80209208578934
 40
25.89306333925047
 40
26.99048218457928
 40
28.09348763352352
 40
29.20111863782268
 40
30.31232390128032
 40
31.42594612798585
 40
32.5407912310448
 40
32.5407912310486
 40
32.5407912310486
 40
32.5407912310486
 10
-36.97602021297581
 20
3.700526432293644
 30
0.0
 10
-36.91108822252824
 20
3.688035883862219
 30
0.0
 10
-36.63587791486754
 20
3.633643060985194
 30
0.0
 10
-36.1510919941113
 20
3.52706862594895
 30
0.0
 10
-35.52329295763637
 20
3.368593606536726
 30
0.0
 10
-34.89607705043617
 20
3.190652574848221
 30
0.0
 10
-34.26940720982253
 20
2.994275362815464
 30
0.0
 10
-33.6432611941723
 20
2.780556777791836
 30
0.0
 10
-33.0176028137464
 20
2.550718525337272
 30
0.0
 10
-32.39238850007323
 20
2.306098206429405
 30
0.0
 10
-31.76758272623
 20
2.048081091671938
 30
0.0
 10
-31.14313539927219
 20
1.77816852253631
 30
0.0
 10
-30.5189959147269
 20
1.497929347489613
 30
0.0
 10
-29.89512268796043
 20
1.208974824304579
 30
0.0
 10
-29.27146352025761
 20
0.9129851839628159
 30
0.0
 10
-28.64796064757136
 20
0.6116887888090191
 30
0.0
 10
-28.02456329916712
 20
0.3068315698649187
 30
0.0
 10
-27.60907669643785
 20
0.1024414739833441
 30
0.0
 10
-27.40122008931365
 20
0.0001889718762907
 30
0.0
  0
SPLINE
  5
282D
330
1F
100
AcDbEntity
  8
AM_0
 48
0.5
100
AcDbSpline
210
0.0
220
0.0
230
1.0
 70
     8
 71
     3
 72
    16
 73
    12
 74
     0
 42
0.0000000001
 43
0.0000000001
 40
0.0
 40
0.0
 40
0.0
 40
0.0
 40
1.010743614677189
 40
2.022833924044153
 40
3.037578959561199
 40
4.056212747067873
 40
5.079857613375832
 40
6.109500119648989
 40
7.14596120163808
 40
8.18989512056258
 40
8.547776576703423
 40
8.547776576703423
 40
8.547776576703423
 40
8.547776576703423
 10
-4.113971477864985
 20
3.700000780144816
 30
0.0
 10
-4.32455477131615
 20
3.697800956226151
 30
0.0
 10
-4.746001935210466
 20
3.693398377387219
 30
0.0
 10
-5.378018508675594
 20
3.657873345491976
 30
0.0
 10
-6.01000906238525
 20
3.60141925057134
 30
0.0
 10
-6.641960311660894
 20
3.522288158734361
 30
0.0
 10
-7.27386473014623
 20
3.421553269220634
 30
0.0
 10
-7.905714599753439
 20
3.29968162502948
 30
0.0
 10
-8.537501439995347
 20
3.157457754238937
 30
0.0
 10
-9.029286268159308
 20
3.031645659743472
 30
0.0
 10
-9.31057021840645
 20
2.954117264496359
 30
0.0
 10
-9.382289327129827
 20
2.934003172191493
 30
0.0
  0
ELLIPSE
  5
282E
330
1F
100
AcDbEntity
  8
AM_0
 48
0.5
100
AcDbEllipse
 10
-61.06280793725355
 20
-2.504243070561862
 30
0.0
 11
0.8915871792321478
 21
0.2937374289141462
 31
0.0
210
0.0
220
0.0
230
1.0
 40
0.9885733762621688
 41
0.9661969584622243
 42
2.794386313244187
  0
ELLIPSE
  5
282F
330
1F
100
AcDbEntity
  8
AM_0
 48
0.5
100
AcDbEllipse
 10
-60.75007905541792
 20
-2.466665886520581
 30
0.0
 11
1.249999999999983
 21
0.0000000000007689
 31
0.0
210
0.0
220
0.0
230
1.0
 40
0.9866666666666759
 41
3.152839430981003
 42
4.712388666467546
  0
LINE
  5
2830
330
1F
100
AcDbEntity
  8
AM_11
 48
0.5
100
AcDbLine
 10
-60.63464327116166
 20
-3.699999219853897
 30
0.0
 11
-51.87812019002328
 21
-3.69999921985411
 31
0.0
  0
SPLINE
  5
2831
330
1F
100
AcDbEntity
  8
AM_0
 48
0.5
100
AcDbSpline
210
0.0
220
0.0
230
1.0
 70
     8
 71
     3
 72
    22
 73
    18
 74
     0
 42
0.0000000001
 43
0.0000000001
 40
0.0
 40
0.0
 40
0.0
 40
0.0
 40
1.010743684496582
 40
2.022833993863546
 40
3.037578683882831
 40
4.056212471389632
 40
5.079857945358201
 40
6.109499720892564
 40
7.145961650132166
 40
8.189873411961459
 40
9.241710626092514
 40
10.30166235592959
 40
11.36982472628033
 40
12.44598212828784
 40
13.52983440361964
 40
14.62080578343036
 40
14.90544694398022
 40
14.90544694398022
 40
14.90544694398022
 40
14.90544694398022
 10
-51.78821553765668
 20
-3.699999219854112
 30
0.0
 10
-51.99879883302307
 20
-3.697798467167896
 30
0.0
 10
-52.42024598618448
 20
-3.693394029708609
 30
0.0
 10
-53.05226242985974
 20
-3.657868823039816
 30
0.0
 10
-53.68425324122315
 20
-3.601418257512307
 30
0.0
 10
-54.31620459075266
 20
-3.522287248026663
 30
0.0
 10
-54.9481084632906
 20
-3.421548424018728
 30
0.0
 10
-55.57995826662662
 20
-3.299678680536497
 30
0.0
 10
-56.21174474191856
 20
-3.157465768923811
 30
0.0
 10
-56.84347223355062
 20
-2.995791920101076
 30
0.0
 10
-57.47513505188705
 20
-2.815666598552136
 30
0.0
 10
-58.10673649793565
 20
-2.618186067273879
 30
0.0
 10
-58.73828064320508
 20
-2.404606985176027
 30
0.0
 10
-59.36976701333158
 20
-2.176199070860157
 30
0.0
 10
-60.00120743846838
 20
-1.934417386152918
 30
0.0
 10
-60.47577904581113
 20
-1.743746367950519
 30
0.0
 10
-60.74022690624935
 20
-1.634764942901032
 30
0.0
 10
-60.79490593022717
 20
-1.612119572824153
 30
0.0
  0
SPLINE
  5
2832
330
1F
100
AcDbEntity
  8
AM_0
100
AcDbSpline
210
0.0
220
0.0
230
1.0
 70
     8
 71
     3
 72
    13
 73
     9
 74
     0
 42
0.0000000001
 43
0.0000000001
 40
16.03460056234195
 40
16.03460056234195
 40
16.03460056234195
 40
16.03460056234195
 40
16.35212717791071
 40
17.38177067057215
 40
18.41822498539278
 40
19.46214186516937
 40
20.5139635832251
 40
21.34083983469381
 40
21.34083983469381
 40
21.34083983469381
 40
21.34083983469381
 10
-60.63639217811181
 20
-3.700335718547127
 30
0.0
 10
-60.57146016135102
 20
-3.687845537973746
 30
0.0
 10
-60.29624962595943
 20
-3.633454207460415
 30
0.0
 10
-59.81146396946748
 20
-3.526878528142638
 30
0.0
 10
-59.18366485398688
 20
-3.368403948143706
 30
0.0
 10
-58.556448968183
 20
-3.19046279745467
 30
0.0
 10
-57.97606793905636
 20
-3.008590970760202
 30
0.0
 10
-57.60579506292812
 20
-2.883359274934924
 30
0.0
 10
-57.44335857137168
 20
-2.826753407310476
 30
0.0
  0
SPLINE
  5
2833
330
1F
100
AcDbEntity
  8
AM_0
 48
0.5
100
AcDbSpline
210
0.0
220
0.0
230
1.0
 70
     8
 71
     3
 72
    26
 73
    22
 74
     0
 42
0.0000000001
 43
0.0000000001
 40
0.0
 40
0.0
 40
0.0
 40
0.0
 40
0.6738291229976858
 40
1.34855571764586
 40
2.025052638331105
 40
2.7041418300023
 40
3.386571335776987
 40
4.073000160460178
 40
4.763974215119558
 40
5.459920313469455
 40
6.161135349283505
 40
6.867779534345081
 40
7.579884616450838
 40
8.297322010138517
 40
9.01989019369366
 40
9.747205405079087
 40
10.47881203259601
 40
11.21414938923388
 40
11.95257396527625
 40
12.69337415957888
 40
13.41285713964268
 40
13.41285713964268
 40
13.41285713964268
 40
13.41285713964268
 10
-50.10890651357079
 20
-3.699999219854154
 30
0.0
 10
-50.31948976872363
 20
-3.697797809588059
 30
0.0
 10
-50.74093675444234
 20
-3.693392057001972
 30
0.0
 10
-51.37295385997188
 20
-3.657876742089983
 30
0.0
 10
-52.00494398890878
 20
-3.601416676812952
 30
0.0
 10
-52.63689499694361
 20
-3.52228571958384
 30
0.0
 10
-53.26880061112983
 20
-3.421556370998736
 30
0.0
 10
-53.90064824145633
 20
-3.299676089505647
 30
0.0
 10
-54.53243746758296
 20
-3.15746834557619
 30
0.0
 10
-55.16416398072112
 20
-2.995796837425448
 30
0.0
 10
-55.7958262874082
 20
-2.815664709749201
 30
0.0
 10
-56.42742958624858
 20
-2.618193119892915
 30
0.0
 10
-57.05897126008443
 20
-2.404601391272152
 30
0.0
 10
-57.6904584644608
 20
-2.17619974851538
 30
0.0
 10
-58.32189964279684
 20
-1.934419329999352
 30
0.0
 10
-58.95329615939967
 20
-1.680726838050426
 30
0.0
 10
-59.58465272099848
 20
-1.416698406049851
 30
0.0
 10
-60.21598092171375
 20
-1.143963032418985
 30
0.0
 10
-60.84727032814612
 20
-0.8641632418085084
 30
0.0
 10
-61.47207502082217
 20
-0.582096595651922
 30
0.0
 10
-61.74264870940075
 20
-0.3926022441827339
 30
0.0
 10
-61.99999999999999
 20
-0.2754462555473369
 30
0.0
  0
LINE
  5
2834
330
1F
100
AcDbEntity
  8
AM_0
 48
0.5
100
AcDbLine
 10
-53.8670222820031
 20
1.874722116510401
 30
0.0
 11
-61.99999999999999
 21
-0.2754462555473369
 31
0.0
  0
SPLINE
  5
2835
330
1F
100
AcDbEntity
  8
AM_0
100
AcDbSpline
210
0.0
220
0.0
230
1.0
 70
     8
 71
     3
 72
    23
 73
    19
 74
     0
 42
0.0000000001
 43
0.0000000001
 40
16.03460024169435
 40
16.03460024169435
 40
16.03460024169435
 40
16.03460024169435
 40
16.35212704903564
 40
17.38177054169784
 40
18.41822485651776
 40
19.46214173629503
 40
20.51396345435107
 40
21.57393551351153
 40
22.64208202342361
 40
23.7182574881101
 40
24.80209208578934
 40
25.89306333925047
 40
26.99048218457928
 40
28.09348763352352
 40
29.20111863782268
 40
30.31232390128032
 40
31.42594612798585
 40
32.5407912310448
 40
32.5407912310486
 40
32.5407912310486
 40
32.5407912310486
 10
-59.47579133114018
 20
3.700526432294105
 30
0.0
 10
-59.41085934069261
 20
3.68803588386268
 30
0.0
 10
-59.13564903303192
 20
3.633643060985657
 30
0.0
 10
-58.65086311227567
 20
3.527068625949412
 30
0.0
 10
-58.02306407580075
 20
3.368593606537189
 30
0.0
 10
-57.39584816860054
 20
3.190652574848683
 30
0.0
 10
-56.7691783279869
 20
2.994275362815926
 30
0.0
 10
-56.14303231233667
 20
2.780556777792298
 30
0.0
 10
-55.51737393191078
 20
2.550718525337735
 30
0.0
 10
-54.89215961823762
 20
2.306098206429868
 30
0.0
 10
-54.26735384439436
 20
2.048081091672401
 30
0.0
 10
-53.64290651743654
 20
1.778168522536772
 30
0.0
 10
-53.01876703289124
 20
1.497929347490076
 30
0.0
 10
-52.39489380612484
 20
1.208974824305041
 30
0.0
 10
-51.77123463842203
 20
0.9129851839632783
 30
0.0
 10
-51.14773176573573
 20
0.6116887888094817
 30
0.0
 10
-50.5243344173315
 20
0.306831569865381
 30
0.0
 10
-50.10884781460223
 20
0.1024414739838065
 30
0.0
 10
-49.90099120747802
 20
0.0001889718767531
 30
0.0
  0
LINE
  5
2836
330
1F
100
AcDbEntity
  8
AM_11
 48
0.5
100
AcDbLine
 10
-59.47305978347123
 20
3.700000780146071
 30
0.0
 11
-51.87812019002314
 21
3.700000780145889
 31
0.0
  0
VIEWPORT
  5
110
330
101
100
AcDbEntity
 67
     1
  8
0
100
AcDbViewport
 10
420.5
 20
297.0
 30
0.0
 40
948.9782706766916
 41
628.452
 68
     1
 69
     1
1001
ACAD
1000
MVIEW
1002
{
1070
    16
1010
0.0
1020
0.0
1030
0.0
1010
0.0
1020
0.0
1030
1.0
1040
0.0
1040
628.452
1040
420.5
1040
297.0
1040
50.0
1040
0.0
1040
0.0
1070
     0
1070
   100
1070
     1
1070
     1
1070
     0
1070
     0
1070
     0
1070
     0
1040
0.0
1040
0.0
1040
0.0
1040
10.0
1040
10.0
1040
10.0
1040
10.0
1070
     0
1002
{
1002
}
1002
}
  0
ENDSEC
  0
SECTION
  2
OBJECTS
  0
DICTIONARY
  5
C
330
0
100
AcDbDictionary
  3
ACAD_GROUP
350
D
  3
ACAD_LAYOUT
350
1A
  3
ACAD_MLINESTYLE
350
17
  3
ACAD_PLOTSETTINGS
350
19
  3
ACAD_PLOTSTYLENAME
350
E
  3
ACDBVARIABLEDICTIONARY
350
34
  3
ACMDICTIONARY
350
43
  3
AMG
350
2B
  3
AMGSNAPSETTINGS
350
6E
  3
DWGPROPS
350
2885
  3
ACDBHEADERROUNDTRIPXREC
350
2891
  0
DICTIONARY
  5
74
330
1F
100
AcDbDictionary
280
     1
  3
ACAD_INDEX
360
2887
  3
ACAD_LAYOUTSELFREF
360
28B4
  0
DICTIONARY
  5
28B9
330
101
100
AcDbDictionary
280
     1
  3
ACAD_LAYOUTSELFREF
360
28BA
  0
DICTIONARY
  5
D
102
{ACAD_REACTORS
330
C
102
}
330
C
100
AcDbDictionary
  0
DICTIONARY
  5
1A
102
{ACAD_REACTORS
330
C
102
}
330
C
100
AcDbDictionary
  0
DICTIONARY
  5
17
102
{ACAD_REACTORS
330
C
102
}
330
C
100
AcDbDictionary
  3
STANDARD
350
18
  0
DICTIONARY
  5
19
102
{ACAD_REACTORS
330
C
102
}
330
C
100
AcDbDictionary
  0
ACDBDICTIONARYWDFLT
  5
E
102
{ACAD_REACTORS
330
C
102
}
330
C
100
AcDbDictionary
281
     1
  3
Normal
350
F
100
AcDbDictionaryWithDefault
340
F
  0
DICTIONARY
  5
34
102
{ACAD_REACTORS
330
C
102
}
330
C
100
AcDbDictionary
  3
INDEXCTL
350
35
  3
SORTENTS
350
B5E
  0
DICTIONARY
  5
43
102
{ACAD_REACTORS
330
C
102
}
330
C
100
AcDbDictionary
  3
ACMSTDDICTIONARY
350
260
  0
DICTIONARY
  5
2B
102
{ACAD_REACTORS
330
C
102
}
330
C
100
AcDbDictionary
  3
ACMGSETTINGS
350
2C
  0
DICTIONARY
  5
6E
102
{ACAD_REACTORS
330
C
102
}
330
C
100
AcDbDictionary
  0
XRECORD
  5
2885
102
{ACAD_REACTORS
330
C
102
}
330
C
100
AcDbXrecord
  1
DWGPROPS COOKIE
  2

  3

  4

  6

  7

  8

  9

300
AmdtFileType=82
301
=
302
=
303
=
304
=
305
=
306
=
307
=
308
=
309
=
 40
0.0394540162037037
 41
2452800.443498622
 42
2452948.68936324
  1

 90
        1
  0
DICTIONARY
  5
2891
102
{ACAD_REACTORS
330
C
102
}
330
C
100
AcDbDictionary
  3
TSTACKALIGN
350
2892
  3
TSTACKSIZE
350
2893
  3
HYPERLINKBASE
350
2894
  3
STYLESHEET
350
2895
  3
LAYOUTDICT
350
2896
  3
PLOTSETDICT
350
2897
  3
PLOTSTYLNAMDICT
350
2898
  3
LWETCUNION
350
2899
  3
INSUNITS
350
289A
  3
CEPSNTYPE
350
289B
  3
FINGERPRINTGUID
350
289C
  3
VERSIONGUID
350
289D
  3
PSVPSCALE
350
289E
  3
DIMSTYLEDATA
350
289F
  3
PUCSORTHOREF
350
28A0
  3
PUCSORTHOVIEW
350
28A1
  3
PUCSBASE
350
28A2
  3
PUCSORGTOP
350
28A3
  3
PUCSORGBOTTOM
350
28A4
  3
PUCSORGLEFT
350
28A5
  3
PUCSORGRIGHT
350
28A6
  3
PUCSORGFRONT
350
28A7
  3
PUCSORGBACK
350
28A8
  3
UCSORTHOREF
350
28A9
  3
UCSORTHOVIEW
350
28AA
  3
UCSBASE
350
28AB
  3
UCSORGTOP
350
28AC
  3
UCSORGBOTTOM
350
28AD
  3
UCSORGLEFT
350
28AE
  3
UCSORGRIGHT
350
28AF
  3
UCSORGFRONT
350
28B0
  3
UCSORGBACK
350
28B1
  0
DICTIONARY
  5
2887
102
{ACAD_REACTORS
330
74
102
}
330
74
100
AcDbDictionary
  3
*A1
350
2888
  0
XRECORD
  5
28B4
102
{ACAD_REACTORS
330
74
102
}
330
74
100
AcDbXrecord
340
1F
  0
XRECORD
  5
28BA
102
{ACAD_REACTORS
330
28B9
102
}
330
28B9
100
AcDbXrecord
340
101
  0
MLINESTYLE
  5
18
102
{ACAD_REACTORS
330
17
102
}
330
17
100
AcDbMlineStyle
  2
STANDARD
 70
     0
  3

 62
   256
 51
90.0
 52
90.0
 71
     2
 49
0.5
 62
   256
  6
BYLAYER
 49
-0.5
 62
   256
  6
BYLAYER
  0
ACDBPLACEHOLDER
  5
F
102
{ACAD_REACTORS
330
E
102
}
330
E
100
AcDbPlaceHolder
280
     0
  0
DICTIONARYVAR
  5
35
102
{ACAD_REACTORS
330
34
102
}
330
34
100
DictionaryVariables
280
     0
  1
1
  0
DICTIONARYVAR
  5
B5E
102
{ACAD_REACTORS
330
34
102
}
330
34
100
DictionaryVariables
280
     0
  1
96
  0
DICTIONARY
  5
260
102
{ACAD_REACTORS
330
43
102
}
330
43
100
AcDbDictionary
  0
DICTIONARY
  5
2C
102
{ACAD_REACTORS
330
2B
102
}
330
2B
100
AcDbDictionary
  3
DWGSETTINGS
350
2D
  0
XRECORD
  5
2892
102
{ACAD_REACTORS
330
2891
102
}
330
2891
100
AcDbXrecord
 90
        1
  0
XRECORD
  5
2893
102
{ACAD_REACTORS
330
2891
102
}
330
2891
100
AcDbXrecord
 90
       70
  0
XRECORD
  5
2894
102
{ACAD_REACTORS
330
2891
102
}
330
2891
100
AcDbXrecord
  1

  0
XRECORD
  5
2895
102
{ACAD_REACTORS
330
2891
102
}
330
2891
100
AcDbXrecord
  1
ASAMI.ctb
  0
XRECORD
  5
2896
102
{ACAD_REACTORS
330
2891
102
}
330
2891
100
AcDbXrecord
340
1A
  0
XRECORD
  5
2897
102
{ACAD_REACTORS
330
2891
102
}
330
2891
100
AcDbXrecord
340
19
  0
XRECORD
  5
2898
102
{ACAD_REACTORS
330
2891
102
}
330
2891
100
AcDbXrecord
340
E
  0
XRECORD
  5
2899
102
{ACAD_REACTORS
330
2891
102
}
330
2891
100
AcDbXrecord
 90
    10781
  0
XRECORD
  5
289A
102
{ACAD_REACTORS
330
2891
102
}
330
2891
100
AcDbXrecord
 90
        4
  0
XRECORD
  5
289B
102
{ACAD_REACTORS
330
2891
102
}
330
2891
100
AcDbXrecord
 90
        0
  0
XRECORD
  5
289C
102
{ACAD_REACTORS
330
2891
102
}
330
2891
100
AcDbXrecord
  1
{AFB28963-8C59-40AE-9337-C84526B81ACE}
  0
XRECORD
  5
289D
102
{ACAD_REACTORS
330
2891
102
}
330
2891
100
AcDbXrecord
  1
{80583138-0075-4712-A64F-E06266315603}
  0
XRECORD
  5
289E
102
{ACAD_REACTORS
330
2891
102
}
330
2891
100
AcDbXrecord
 40
0.0
  0
XRECORD
  5
289F
102
{ACAD_REACTORS
330
2891
102
}
330
2891
100
AcDbXrecord
1000
DSTYLE
1002
{
1070
    79
 70
     2
1070
   341
340
59
1070
   342
340
59
1070
   371
 70
    -1
1070
   372
 70
    -1
1002
}
  0
XRECORD
  5
28A0
102
{ACAD_REACTORS
330
2891
102
}
330
2891
100
AcDbXrecord
340
0
  0
XRECORD
  5
28A1
102
{ACAD_REACTORS
330
2891
102
}
330
2891
100
AcDbXrecord
 70
     0
  0
XRECORD
  5
28A2
102
{ACAD_REACTORS
330
2891
102
}
330
2891
100
AcDbXrecord
340
0
  0
XRECORD
  5
28A3
102
{ACAD_REACTORS
330
2891
102
}
330
2891
100
AcDbXrecord
 10
0.0
 20
0.0
 30
0.0
  0
XRECORD
  5
28A4
102
{ACAD_REACTORS
330
2891
102
}
330
2891
100
AcDbXrecord
 10
0.0
 20
0.0
 30
0.0
  0
XRECORD
  5
28A5
102
{ACAD_REACTORS
330
2891
102
}
330
2891
100
AcDbXrecord
 10
0.0
 20
0.0
 30
0.0
  0
XRECORD
  5
28A6
102
{ACAD_REACTORS
330
2891
102
}
330
2891
100
AcDbXrecord
 10
0.0
 20
0.0
 30
0.0
  0
XRECORD
  5
28A7
102
{ACAD_REACTORS
330
2891
102
}
330
2891
100
AcDbXrecord
 10
0.0
 20
0.0
 30
0.0
  0
XRECORD
  5
28A8
102
{ACAD_REACTORS
330
2891
102
}
330
2891
100
AcDbXrecord
 10
0.0
 20
0.0
 30
0.0
  0
XRECORD
  5
28A9
102
{ACAD_REACTORS
330
2891
102
}
330
2891
100
AcDbXrecord
340
0
  0
XRECORD
  5
28AA
102
{ACAD_REACTORS
330
2891
102
}
330
2891
100
AcDbXrecord
 70
     0
  0
XRECORD
  5
28AB
102
{ACAD_REACTORS
330
2891
102
}
330
2891
100
AcDbXrecord
340
0
  0
XRECORD
  5
28AC
102
{ACAD_REACTORS
330
2891
102
}
330
2891
100
AcDbXrecord
 10
0.0
 20
0.0
 30
0.0
  0
XRECORD
  5
28AD
102
{ACAD_REACTORS
330
2891
102
}
330
2891
100
AcDbXrecord
 10
0.0
 20
0.0
 30
0.0
  0
XRECORD
  5
28AE
102
{ACAD_REACTORS
330
2891
102
}
330
2891
100
AcDbXrecord
 10
0.0
 20
0.0
 30
0.0
  0
XRECORD
  5
28AF
102
{ACAD_REACTORS
330
2891
102
}
330
2891
100
AcDbXrecord
 10
0.0
 20
0.0
 30
0.0
  0
XRECORD
  5
28B0
102
{ACAD_REACTORS
330
2891
102
}
330
2891
100
AcDbXrecord
 10
0.0
 20
0.0
 30
0.0
  0
XRECORD
  5
28B1
102
{ACAD_REACTORS
330
2891
102
}
330
2891
100
AcDbXrecord
 10
0.0
 20
0.0
 30
0.0
  0
LAYER_INDEX
  5
2888
102
{ACAD_REACTORS
330
2887
102
}
330
2887
100
AcDbIndex
 40
2453151.677760405
100
AcDbLayerIndex
  8
0
360
2889
 90
        0
  8
AM_0
360
288A
 90
       53
  8
AM_7
360
288B
 90
        1
  8
AM_11
360
288C
 90
       21
  8
AM_5
360
288D
 90
        5
  8
Defpoints
360
288E
 90
        0
  8
AM_6
360
288F
 90
        1
  0
XRECORD
  5
2D
102
{ACAD_REACTORS
330
2C
102
}
330
2C
100
AcDbXrecord
  1
VERSION
140
15.0
  1
PRODUCT
  2
AutoCAD Mechanical 2000
  0
IDBUFFER
  5
2889
330
0
100
AcDbIdBuffer
  0
IDBUFFER
  5
288A
330
0
100
AcDbIdBuffer
330
2831
330
2832
330
2833
330
2834
330
2835
330
C30
330
1CA9
330
1E12
330
1E16
330
1E1D
330
1E21
330
1E22
330
1E25
330
1E26
330
220F
330
252F
330
2533
330
2534
330
2535
330
254F
330
2550
330
2805
330
2806
330
2807
330
2808
330
2809
330
280A
330
280B
330
280C
330
280D
330
2818
330
2819
330
281A
330
281B
330
281C
330
281D
330
281E
330
281F
330
2821
330
2822
330
2823
330
2824
330
2825
330
2826
330
2827
330
2828
330
2829
330
282A
330
282B
330
282C
330
282D
330
282E
330
282F
  0
IDBUFFER
  5
288B
330
0
100
AcDbIdBuffer
330
C9F
  0
IDBUFFER
  5
288C
330
0
100
AcDbIdBuffer
330
2816
330
2817
330
2820
330
2830
330
2836
330
1BE8
330
1BE9
330
1F66
330
1F67
330
1F68
330
1F69
330
1F6A
330
1F6B
330
280E
330
280F
330
2810
330
2811
330
2812
330
2813
330
2814
330
2815
  0
IDBUFFER
  5
288D
330
0
100
AcDbIdBuffer
330
CC6
330
DF5
330
228A
330
258B
330
26D6
  0
IDBUFFER
  5
288E
330
0
100
AcDbIdBuffer
  0
IDBUFFER
  5
288F
330
0
100
AcDbIdBuffer
330
19BD
  0
ENDSEC
  0
EOF
