  0
SECTION
  2
HEADER
  9
$ACADVER
  1
AC1014
  9
$ACADMAINTVER
 70
     9
  9
$DWGCODEPAGE
  3
ANSI_932
  9
$INSBASE
 10
0.0
 20
0.0
 30
0.0
  9
$EXTMIN
 10
-131.6500009999998
 20
-26.97293740283332
 30
-0.00000001
  9
$EXTMAX
 10
13.54182334646827
 20
13.24320052285234
 30
0.00000001
  9
$LIMMIN
 10
-138.8290064717842
 20
-45.22474571374511
  9
$LIMMAX
 10
23.05023987897198
 20
30.30997914579825
  9
$ORTHOMODE
 70
     0
  9
$REGENMODE
 70
     1
  9
$FILLMODE
 70
     1
  9
$QTEXTMODE
 70
     0
  9
$MIRRTEXT
 70
     0
  9
$DRAGMODE
 70
     2
  9
$LTSCALE
 40
1.0
  9
$OSMODE
 70
    55
  9
$ATTMODE
 70
     1
  9
$TEXTSIZE
 40
2.5
  9
$TRACEWID
 40
1.0
  9
$TEXTSTYLE
  7
STANDARD
  9
$CLAYER
  8
AM_0
  9
$CELTYPE
  6
BYLAYER
  9
$CECOLOR
 62
   256
  9
$CELTSCALE
 40
1.0
  9
$DELOBJ
 70
     1
  9
$DISPSILH
 70
     0
  9
$DIMSCALE
 40
0.5
  9
$DIMASZ
 40
2.5
  9
$DIMEXO
 40
1.0
  9
$DIMDLI
 40
12.0
  9
$DIMRND
 40
0.0
  9
$DIMDLE
 40
0.0
  9
$DIMEXE
 40
1.0
  9
$DIMTP
 40
0.1
  9
$DIMTM
 40
0.1
  9
$DIMTXT
 40
3.2
  9
$DIMCEN
 40
0.0
  9
$DIMTSZ
 40
0.0
  9
$DIMTOL
 70
     0
  9
$DIMLIM
 70
     0
  9
$DIMTIH
 70
     0
  9
$DIMTOH
 70
     0
  9
$DIMSE1
 70
     0
  9
$DIMSE2
 70
     0
  9
$DIMTAD
 70
     3
  9
$DIMZIN
 70
     8
  9
$DIMBLK
  1
OPEN30
  9
$DIMASO
 70
     1
  9
$DIMSHO
 70
     1
  9
$DIMPOST
  1

  9
$DIMAPOST
  1
"
  9
$DIMALT
 70
     0
  9
$DIMALTD
 70
     2
  9
$DIMALTF
 40
0.0393701
  9
$DIMLFAC
 40
1.0
  9
$DIMTOFL
 70
     1
  9
$DIMTVP
 40
0.0
  9
$DIMTIX
 70
     0
  9
$DIMSOXD
 70
     0
  9
$DIMSAH
 70
     0
  9
$DIMBLK1
  1

  9
$DIMBLK2
  1

  9
$DIMSTYLE
  2
AM_JIS
  9
$DIMCLRD
 70
   256
  9
$DIMCLRE
 70
   256
  9
$DIMCLRT
 70
     2
  9
$DIMTFAC
 40
0.71
  9
$DIMGAP
 40
1.5
  9
$DIMJUST
 70
     0
  9
$DIMSD1
 70
     0
  9
$DIMSD2
 70
     0
  9
$DIMTOLJ
 70
     0
  9
$DIMTZIN
 70
     0
  9
$DIMALTZ
 70
     0
  9
$DIMALTTZ
 70
     0
  9
$DIMFIT
 70
     3
  9
$DIMUPT
 70
     0
  9
$DIMUNIT
 70
     2
  9
$DIMDEC
 70
     3
  9
$DIMTDEC
 70
     3
  9
$DIMALTU
 70
     2
  9
$DIMALTTD
 70
     2
  9
$DIMTXSTY
  7
ASAMI
  9
$DIMAUNIT
 70
     0
  9
$LUNITS
 70
     2
  9
$LUPREC
 70
     2
  9
$SKETCHINC
 40
1.0
  9
$FILLETRAD
 40
2.5
  9
$AUNITS
 70
     0
  9
$AUPREC
 70
     0
  9
$MENU
  1
.
  9
$ELEVATION
 40
0.0
  9
$PELEVATION
 40
0.0
  9
$THICKNESS
 40
0.0
  9
$LIMCHECK
 70
     0
  9
$BLIPMODE
 70
     0
  9
$CHAMFERA
 40
0.25
  9
$CHAMFERB
 40
0.25
  9
$CHAMFERC
 40
20.0
  9
$CHAMFERD
 40
0.0
  9
$SKPOLY
 70
     0
  9
$TDCREATE
 40
2452800.443498622
  9
$TDUPDATE
 40
2453151.677947037
  9
$TDINDWG
 40
0.0402641898
  9
$TDUSRTIMER
 40
0.0402641898
  9
$USRTIMER
 70
     1
  9
$ANGBASE
 50
0.0
  9
$ANGDIR
 70
     0
  9
$PDMODE
 70
     3
  9
$PDSIZE
 40
0.0
  9
$PLINEWID
 40
0.0
  9
$COORDS
 70
     1
  9
$SPLFRAME
 70
     0
  9
$SPLINETYPE
 70
     6
  9
$SPLINESEGS
 70
     8
  9
$ATTDIA
 70
     1
  9
$ATTREQ
 70
     1
  9
$HANDLING
 70
 12289
  9
$HANDSEED
  5
2955
  9
$SURFTAB1
 70
     6
  9
$SURFTAB2
 70
     6
  9
$SURFTYPE
 70
     6
  9
$SURFU
 70
     6
  9
$SURFV
 70
     6
  9
$UCSNAME
  2

  9
$UCSORG
 10
-0.0000000000001478
 20
-0.0000000000002229
 30
0.0
  9
$UCSXDIR
 10
1.0
 20
0.0000000000000027
 30
0.0
  9
$UCSYDIR
 10
-0.0000000000000027
 20
1.0
 30
0.0
  9
$PUCSNAME
  2

  9
$PUCSORG
 10
0.0
 20
0.0
 30
0.0
  9
$PUCSXDIR
 10
1.0
 20
0.0
 30
0.0
  9
$PUCSYDIR
 10
0.0
 20
1.0
 30
0.0
  9
$USERI1
 70
     0
  9
$USERI2
 70
     0
  9
$USERI3
 70
     0
  9
$USERI4
 70
     0
  9
$USERI5
 70
     0
  9
$USERR1
 40
0.0
  9
$USERR2
 40
0.0
  9
$USERR3
 40
0.0
  9
$USERR4
 40
0.0
  9
$USERR5
 40
0.0
  9
$WORLDVIEW
 70
     1
  9
$SHADEDGE
 70
     3
  9
$SHADEDIF
 70
    70
  9
$TILEMODE
 70
     1
  9
$MAXACTVP
 70
    64
  9
$PINSBASE
 10
0.0
 20
0.0
 30
0.0
  9
$PLIMCHECK
 70
     0
  9
$PEXTMIN
 10
1.000000000000000E+20
 20
1.000000000000000E+20
 30
1.000000000000000E+20
  9
$PEXTMAX
 10
-1.000000000000000E+20
 20
-1.000000000000000E+20
 30
-1.000000000000000E+20
  9
$PLIMMIN
 10
0.0
 20
0.0
  9
$PLIMMAX
 10
841.0
 20
594.0
  9
$UNITMODE
 70
     0
  9
$VISRETAIN
 70
     1
  9
$PLINEGEN
 70
     0
  9
$PSLTSCALE
 70
     0
  9
$TREEDEPTH
 70
  3020
  9
$PICKSTYLE
 70
     0
  9
$CMLSTYLE
  2
STANDARD
  9
$CMLJUST
 70
     0
  9
$CMLSCALE
 40
20.0
  9
$PROXYGRAPHICS
 70
     1
  9
$MEASUREMENT
 70
     1
  0
ENDSEC
  0
SECTION
  2
CLASSES
  0
CLASS
  1
ACDBDICTIONARYWDFLT
  2
AcDbDictionaryWithDefault
  3
AutoCAD 2000
 90
        0
280
     0
281
     0
  0
CLASS
  1
ACDBPLACEHOLDER
  2
AcDbPlaceHolder
  3
AutoCAD 2000
 90
        0
280
     0
281
     0
  0
CLASS
  1
LAYOUT
  2
AcDbLayout
  3
AutoCAD 2000
 90
        0
280
     0
281
     0
  0
CLASS
  1
AMGSETTINGSOBJ
  2
AmgSettingsObj
  3
"AcadM|Product Description: AutoCAD Mechanical 2000|Company: Autodesk"
 90
        0
280
     0
281
     0
  0
CLASS
  1
ACME_DOCUMENT
  2
AcMeDbDoc
  3
AcMeServices
 90
        0
280
     0
281
     0
  0
CLASS
  1
ACMESCOPE
  2
AcMeScope
  3
AcMeServices
 90
        0
280
     0
281
     0
  0
CLASS
  1
ACMECOMMANDHISTORY
  2
AcMeCommandHistory
  3
AcMeServices
 90
        0
280
     0
281
     0
  0
CLASS
  1
DICTIONARYVAR
  2
AcDbDictionaryVar
  3
AutoCAD 2000
 90
        0
280
     0
281
     0
  0
CLASS
  1
ACIMSYSVARMAN
  2
AcImSysVarManager
  3
AcMeServices
 90
        0
280
     0
281
     0
  0
CLASS
  1
ACIMREALSYSVAR
  2
AcImRealSysVar
  3
AcMeServices
 90
        0
280
     0
281
     0
  0
CLASS
  1
ACIMINTSYSVAR
  2
AcImIntSysVar
  3
AcMeServices
 90
        0
280
     0
281
     0
  0
CLASS
  1
ACMEDRAWINGMAN
  2
AcMeDrawingMan
  3
AcMeServices
 90
        0
280
     0
281
     0
  0
CLASS
  1
ACMEVIEW
  2
AcMeView
  3
AcMeServices
 90
        0
280
     0
281
     0
  0
CLASS
  1
ACDBENTITYCACHE
  2
AcMeEntityCache
  3
AcMeServices
 90
        0
280
     0
281
     0
  0
CLASS
  1
GSMANAGER
  2
AcMeGSManager
  3
AcMeServices
 90
        0
280
     0
281
     0
  0
CLASS
  1
AmdtInternalReactor
  2
AmdtInternalReactor
  3
AcMeServices
 90
        0
280
     0
281
     0
  0
CLASS
  1
ACMESTATEMGR
  2
AcMeStateMgr
  3
AcMeServices
 90
        0
280
     0
281
     0
  0
CLASS
  1
ACME_DATABASE
  2
AcMeDbDatabase
  3
AcMeServices
 90
        0
280
     0
281
     0
  0
CLASS
  1
ACRFINSADJUSTERMGR
  2
AcRfInsAdjusterMgr
  3
AcMeServices
 90
        0
280
     0
281
     0
  0
CLASS
  1
ACMDATADICTIONARY
  2
AcmDataDictionary
  3
"AcmSymBB|Product Description: AutoCAD Mechanical 2000|Company: Autodesk"
 90
        0
280
     0
281
     0
  0
CLASS
  1
ACMDATAENTRYBLOCK
  2
AcmDataEntryBlock
  3
"AcmSymBB|Product Description: AutoCAD Mechanical 2000|Company: Autodesk"
 90
        0
280
     0
281
     0
  0
CLASS
  1
AMGOBJPROPCFG
  2
AmgObjPropCfg
  3
"AmgLay|Product Description: AutoCAD Mechanical 2000|Company: Autodesk"
 90
        1
280
     0
281
     0
  0
CLASS
  1
ACAMGFILTERDAT
  2
AcAmgFilterDat
  3
"AcadM|Product Description: AutoCAD Mechanical 2000|Company: Autodesk"
 90
        0
280
     0
281
     0
  0
CLASS
  1
LAYER_INDEX
  2
AcDbLayerIndex
  3
AutoCAD 2000
 90
        0
280
     0
281
     0
  0
CLASS
  1
IDBUFFER
  2
AcDbIdBuffer
  3
AutoCAD 2000
 90
        0
280
     0
281
     0
  0
CLASS
  1
ACIMSTRSYSVAR
  2
AcImStrSysVar
  3
AcMeServices
 90
        0
280
     0
281
     0
  0
CLASS
  1
ACMSTANDARDJIS
  2
AcmStandardJIS
  3
"AcmSymBB|Product Description: AutoCAD Mechanical 2000|Company: Autodesk"
 90
        0
280
     0
281
     0
  0
CLASS
  1
ACMSURFSTANDARDJIS
  2
AcmSurfTextStdJIS
  3
"AcmSymBB|Product Description: AutoCAD Mechanical 2000|Company: Autodesk"
 90
        0
280
     0
281
     0
  0
CLASS
  1
ACMFCFSTANDARDJIS
  2
AcmFCFStdJIS
  3
"AcmSymBB|Product Description: AutoCAD Mechanical 2000|Company: Autodesk"
 90
        0
280
     0
281
     0
  0
CLASS
  1
ACMWELDSTANDARDJIS
  2
AcmWeldingStdJIS
  3
"AcmSymBB|Product Description: AutoCAD Mechanical 2000|Company: Autodesk"
 90
        0
280
     0
281
     0
  0
CLASS
  1
ACMIDSTANDARDJIS
  2
AcmIdStdJIS
  3
"AcmSymBB|Product Description: AutoCAD Mechanical 2000|Company: Autodesk"
 90
        0
280
     0
281
     0
  0
CLASS
  1
ACMDATUMSTANDARDJIS
  2
AcmDatumStdJIS
  3
"AcmSymBB|Product Description: AutoCAD Mechanical 2000|Company: Autodesk"
 90
        0
280
     0
281
     0
  0
CLASS
  1
ACMBOMSTANDARDJIS
  2
AcmBOMStdJIS
  3
"AcmSymBB|Product Description: AutoCAD Mechanical 2000|Company: Autodesk"
 90
        0
280
     0
281
     0
  0
CLASS
  1
ACMSTANDARDANSI
  2
AcmStandardANSI
  3
"AcmSymBB|Product Description: AutoCAD Mechanical 2000|Company: Autodesk"
 90
        0
280
     0
281
     0
  0
CLASS
  1
ACMSURFSTANDARDANSI
  2
AcmSurfTextStdANSI
  3
"AcmSymBB|Product Description: AutoCAD Mechanical 2000|Company: Autodesk"
 90
        0
280
     0
281
     0
  0
CLASS
  1
ACMFCFSTANDARDANSI
  2
AcmFCFStdANSI
  3
"AcmSymBB|Product Description: AutoCAD Mechanical 2000|Company: Autodesk"
 90
        0
280
     0
281
     0
  0
CLASS
  1
ACMWELDSTANDARDANSI
  2
AcmWeldingStdANSI
  3
"AcmSymBB|Product Description: AutoCAD Mechanical 2000|Company: Autodesk"
 90
        0
280
     0
281
     0
  0
CLASS
  1
ACMIDSTANDARDANSI
  2
AcmIdStdANSI
  3
"AcmSymBB|Product Description: AutoCAD Mechanical 2000|Company: Autodesk"
 90
        0
280
     0
281
     0
  0
CLASS
  1
ACMDATUMSTANDARDANSI
  2
AcmDatumStdANSI
  3
"AcmSymBB|Product Description: AutoCAD Mechanical 2000|Company: Autodesk"
 90
        0
280
     0
281
     0
  0
CLASS
  1
ACMBOMSTANDARDANSI
  2
AcmBOMStdANSI
  3
"AcmSymBB|Product Description: AutoCAD Mechanical 2000|Company: Autodesk"
 90
        0
280
     0
281
     0
  0
CLASS
  1
ACMSTANDARDBSI
  2
AcmStandardBSI
  3
"AcmSymBB|Product Description: AutoCAD Mechanical 2000|Company: Autodesk"
 90
        0
280
     0
281
     0
  0
CLASS
  1
ACMSURFSTANDARDBSI
  2
AcmSurfTextStdBSI
  3
"AcmSymBB|Product Description: AutoCAD Mechanical 2000|Company: Autodesk"
 90
        0
280
     0
281
     0
  0
CLASS
  1
ACMFCFSTANDARDBSI
  2
AcmFCFStdBSI
  3
"AcmSymBB|Product Description: AutoCAD Mechanical 2000|Company: Autodesk"
 90
        0
280
     0
281
     0
  0
CLASS
  1
ACMWELDSTANDARDBSI
  2
AcmWeldingStdBSI
  3
"AcmSymBB|Product Description: AutoCAD Mechanical 2000|Company: Autodesk"
 90
        0
280
     0
281
     0
  0
CLASS
  1
ACMIDSTANDARDBSI
  2
AcmIdStdBSI
  3
"AcmSymBB|Product Description: AutoCAD Mechanical 2000|Company: Autodesk"
 90
        0
280
     0
281
     0
  0
CLASS
  1
ACMDATUMSTANDARDBSI
  2
AcmDatumStdBSI
  3
"AcmSymBB|Product Description: AutoCAD Mechanical 2000|Company: Autodesk"
 90
        0
280
     0
281
     0
  0
CLASS
  1
ACMBOMSTANDARDBSI
  2
AcmBOMStdBSI
  3
"AcmSymBB|Product Description: AutoCAD Mechanical 2000|Company: Autodesk"
 90
        0
280
     0
281
     0
  0
CLASS
  1
LONG_TRANSACTION
  2
AcDbLongTransaction
  3
AutoCAD 2000
 90
        0
280
     0
281
     0
  0
CLASS
  1
LWPOLYLINE
  2
AcDbPolyline
  3
AutoCAD 2000
 90
        0
280
     0
281
     1
  0
CLASS
  1
HATCH
  2
AcDbHatch
  3
AutoCAD 2000
 90
        0
280
     0
281
     1
  0
CLASS
  1
XRECORD
  2
AcDbXrecord
  3
AutoCAD 2000
 90
        0
280
     0
281
     0
  0
ENDSEC
  0
SECTION
  2
TABLES
  0
TABLE
  2
VPORT
  5
8
330
0
100
AcDbSymbolTable
 70
     3
  0
VPORT
  5
292A
330
8
100
AcDbSymbolTableRecord
100
AcDbViewportTableRecord
  2
*ACTIVE
 70
     0
 10
0.0
 20
0.0
 11
1.0
 21
1.0
 12
-56.34031553300201
 22
-6.863810364148676
 13
0.0
 23
0.0
 14
2.5
 24
2.5
 15
10.0
 25
10.0
 16
0.0
 26
0.0
 36
1.0
 17
0.0
 27
0.0
 37
0.0
 40
96.67089625713479
 41
1.56570841889117
 42
50.0
 43
0.0
 44
0.0
 50
0.0
 51
0.0
 71
     0
 72
   100
 73
     1
 74
     1
 75
     0
 76
     0
 77
     0
 78
     0
  0
ENDTAB
  0
TABLE
  2
LTYPE
  5
5
330
0
100
AcDbSymbolTable
 70
    10
  0
LTYPE
  5
14
330
5
100
AcDbSymbolTableRecord
100
AcDbLinetypeTableRecord
  2
BYBLOCK
 70
     0
  3

 72
    65
 73
     0
 40
0.0
  0
LTYPE
  5
15
330
5
100
AcDbSymbolTableRecord
100
AcDbLinetypeTableRecord
  2
BYLAYER
 70
     0
  3

 72
    65
 73
     0
 40
0.0
  0
LTYPE
  5
16
330
5
100
AcDbSymbolTableRecord
100
AcDbLinetypeTableRecord
  2
CONTINUOUS
 70
     0
  3
Solid line
 72
    65
 73
     0
 40
0.0
  0
LTYPE
  5
4B
330
5
100
AcDbSymbolTableRecord
100
AcDbLinetypeTableRecord
  2
AM_ISO02W050
 70
     0
  3
__ __ __ __ __ __ __ __ __ __ __ __ __ __ __
 72
    65
 73
     2
 40
7.5
 49
6.0
 74
     0
 49
-1.5
 74
     0
  0
LTYPE
  5
4C
330
5
100
AcDbSymbolTableRecord
100
AcDbLinetypeTableRecord
  2
AM_ISO08W050
 70
     0
  3
____ . ____ . ____ . ____ . ____ . ____ . ____
 72
    65
 73
     4
 40
18.0
 49
12.0
 74
     0
 49
-1.5
 74
     0
 49
3.0
 74
     0
 49
-1.5
 74
     0
  0
LTYPE
  5
4D
330
5
100
AcDbSymbolTableRecord
100
AcDbLinetypeTableRecord
  2
AM_ISO09W050
 70
     0
  3
_____ . . _____ . . _____ . . ____ .. ____
 72
    65
 73
     6
 40
22.5
 49
12.0
 74
     0
 49
-1.5
 74
     0
 49
3.0
 74
     0
 49
-1.5
 74
     0
 49
3.0
 74
     0
 49
-1.5
 74
     0
  0
LTYPE
  5
4E
330
5
100
AcDbSymbolTableRecord
100
AcDbLinetypeTableRecord
  2
AMCONSTR
 70
     0
  3
_______________________
 72
    65
 73
     2
 40
9999.0
 49
9999.0
 74
     0
 49
0.0
 74
     0
  0
LTYPE
  5
4F
330
5
100
AcDbSymbolTableRecord
100
AcDbLinetypeTableRecord
  2
AM_ISO02W050X2
 70
     0
  3
 _ _ _ _ _ _ _ _ _ _ _ _
 72
    65
 73
     2
 40
3.75
 49
3.0
 74
     0
 49
-0.75
 74
     0
  0
LTYPE
  5
50
330
5
100
AcDbSymbolTableRecord
100
AcDbLinetypeTableRecord
  2
AM_ISO08W050X2
 70
     0
  3
__ . __ . __ . __ . __ . __
 72
    65
 73
     4
 40
9.0
 49
6.0
 74
     0
 49
-0.75
 74
     0
 49
1.5
 74
     0
 49
-0.75
 74
     0
  0
LTYPE
  5
53
330
5
100
AcDbSymbolTableRecord
100
AcDbLinetypeTableRecord
  2
AMZIGZAG
 70
     0
  3
/\/-/\/-/\/-/\/-/\/-/\/
 72
    65
 73
     2
 40
11.00009999999999
 49
0.0001
 74
     4
 75
   135
340
52
 46
0.04
 50
0.0
 44
0.0
 45
0.0
 49
-11.0
 74
     0
  0
LTYPE
  5
166
330
5
100
AcDbSymbolTableRecord
100
AcDbLinetypeTableRecord
  2
ACJISTGL
 70
     0
  3
_ _ _ _ _
 72
    65
 73
     2
 40
3.0
 49
2.0
 74
     0
 49
-1.0
 74
     0
  0
LTYPE
  5
26A
330
5
100
AcDbSymbolTableRecord
100
AcDbLinetypeTableRecord
  2
ACJISTGB
 70
     0
  3
__ . . __ . .
 72
    65
 73
     6
 40
9.0
 49
4.0
 74
     0
 49
-1.0
 74
     0
 49
1.0
 74
     0
 49
-1.0
 74
     0
 49
1.0
 74
     0
 49
-1.0
 74
     0
  0
ENDTAB
  0
TABLE
  2
LAYER
  5
2
330
0
100
AcDbSymbolTable
 70
     7
  0
LAYER
  5
10
330
2
100
AcDbSymbolTableRecord
100
AcDbLayerTableRecord
  2
0
 70
     0
 62
     7
  6
CONTINUOUS
  0
LAYER
  5
3F9
330
2
100
AcDbSymbolTableRecord
100
AcDbLayerTableRecord
  2
AM_0
 70
     0
 62
     7
  6
CONTINUOUS
  0
LAYER
  5
C7C
330
2
100
AcDbSymbolTableRecord
100
AcDbLayerTableRecord
  2
AM_7
 70
     0
 62
     4
  6
AM_ISO08W050
  0
LAYER
  5
C97
330
2
100
AcDbSymbolTableRecord
100
AcDbLayerTableRecord
  2
AM_11
 70
     0
 62
     3
  6
AM_ISO09W050
  0
LAYER
  5
CC5
330
2
100
AcDbSymbolTableRecord
100
AcDbLayerTableRecord
  2
AM_5
 70
     0
 62
     3
  6
CONTINUOUS
  0
LAYER
  5
CC7
330
2
100
AcDbSymbolTableRecord
100
AcDbLayerTableRecord
  2
DEFPOINTS
 70
     0
 62
     7
  6
CONTINUOUS
  0
LAYER
  5
19BC
330
2
100
AcDbSymbolTableRecord
100
AcDbLayerTableRecord
  2
AM_6
 70
     0
 62
     2
  6
CONTINUOUS
  0
ENDTAB
  0
TABLE
  2
STYLE
  5
3
330
0
100
AcDbSymbolTable
 70
     5
  0
STYLE
  5
11
330
3
100
AcDbSymbolTableRecord
100
AcDbTextStyleTableRecord
  2
STANDARD
 70
     0
 40
0.0
 41
1.0
 50
0.0
 71
     0
 42
2.5
  3
simplex.shx
  4
EXTFONT.SHX
  0
STYLE
  5
52
330
3
100
AcDbSymbolTableRecord
100
AcDbTextStyleTableRecord
  2

 70
     1
 40
0.0
 41
1.0
 50
0.0
 71
     0
 42
2.5
  3
ltypeshp.shx
  4

  0
STYLE
  5
6B
330
3
100
AcDbSymbolTableRecord
100
AcDbTextStyleTableRecord
  2
ASAMI
 70
     0
 40
0.0
 41
1.0
 50
0.0
 71
     0
 42
2.5
  3
simplex.shx
  4
EXTFONT.SHX
  0
STYLE
  5
262
330
3
100
AcDbSymbolTableRecord
100
AcDbTextStyleTableRecord
  2
ACJISTS
 70
     0
 40
1.0
 41
1.0
 50
0.0
 71
     0
 42
2.5
  3
simplex.shx
  4
bigfont.shx
  0
STYLE
  5
269
330
3
100
AcDbSymbolTableRecord
100
AcDbTextStyleTableRecord
  2
ACJISGDT
 70
     0
 40
0.0
 41
1.0
 50
0.0
 71
     0
 42
2.5
  3
amgdtans.shx
  4

  0
ENDTAB
  0
TABLE
  2
VIEW
  5
6
330
0
100
AcDbSymbolTable
 70
     0
  0
ENDTAB
  0
TABLE
  2
UCS
  5
7
330
0
100
AcDbSymbolTable
 70
     0
  0
ENDTAB
  0
TABLE
  2
APPID
  5
9
330
0
100
AcDbSymbolTable
 70
    16
  0
APPID
  5
12
330
9
100
AcDbSymbolTableRecord
100
AcDbRegAppTableRecord
  2
ACAD
 70
     0
  0
APPID
  5
30
330
9
100
AcDbSymbolTableRecord
100
AcDbRegAppTableRecord
  2
MCAD_NO_VIS
 70
     0
  0
APPID
  5
31
330
9
100
AcDbSymbolTableRecord
100
AcDbRegAppTableRecord
  2
ACAD_TEMP_GRAPHIC
 70
     0
  0
APPID
  5
2C2
330
9
100
AcDbSymbolTableRecord
100
AcDbRegAppTableRecord
  2
GENIUS_GENDTOL_13
 70
     0
  0
APPID
  5
339
330
9
100
AcDbSymbolTableRecord
100
AcDbRegAppTableRecord
  2
GENIUS_GENODEF_13
 70
     0
  0
APPID
  5
33A
330
9
100
AcDbSymbolTableRecord
100
AcDbRegAppTableRecord
  2
GENIUS_GENOBJ-N-RSBK_13
 70
     0
  0
APPID
  5
33B
330
9
100
AcDbSymbolTableRecord
100
AcDbRegAppTableRecord
  2
GENIUS_GENOBJ-N-LIB_13
 70
     0
  0
APPID
  5
33C
330
9
100
AcDbSymbolTableRecord
100
AcDbRegAppTableRecord
  2
GENIUS_GENSCALE_13
 70
     0
  0
APPID
  5
378
330
9
100
AcDbSymbolTableRecord
100
AcDbRegAppTableRecord
  2
GENIUS_GENDIMSH_14
 70
     0
  0
APPID
  5
C82
330
9
100
AcDbSymbolTableRecord
100
AcDbRegAppTableRecord
  2
GENIUS_GENOBJ-N-CRS_13
 70
     0
  0
APPID
  5
C83
330
9
100
AcDbSymbolTableRecord
100
AcDbRegAppTableRecord
  2
GENIUS_GENOENT_13
 70
     0
  0
APPID
  5
C84
330
9
100
AcDbSymbolTableRecord
100
AcDbRegAppTableRecord
  2
GENIUS_GENOREF_13
 70
     0
  0
APPID
  5
C85
330
9
100
AcDbSymbolTableRecord
100
AcDbRegAppTableRecord
  2
GENIUS_GENOLIS_13
 70
     0
  0
APPID
  5
CA0
330
9
100
AcDbSymbolTableRecord
100
AcDbRegAppTableRecord
  2
GENIUS_GENOBJ-N-CEN_13
 70
     0
  0
APPID
  5
1E1E
330
9
100
AcDbSymbolTableRecord
100
AcDbRegAppTableRecord
  2
GENIUS_GENFIL_13
 70
     0
  0
APPID
  5
1E1F
330
9
100
AcDbSymbolTableRecord
100
AcDbRegAppTableRecord
  2
GENIUS_GENOBJ-N-CHA_13
 70
     0
  0
ENDTAB
  0
TABLE
  2
DIMSTYLE
  5
A
330
0
100
AcDbSymbolTable
 70
     9
  0
DIMSTYLE
105
58
330
A
100
AcDbSymbolTableRecord
100
AcDbDimStyleTableRecord
  2
AM_JIS
 70
     0
  3

  4
"
  5
OPEN30
  6

  7

 40
0.5
 41
2.5
 42
1.0
 43
12.0
 44
1.0
 45
0.0
 46
0.0
 47
0.1
 48
0.1
140
3.2
141
0.0
142
0.0
143
0.0393701
144
1.0
145
0.0
146
0.71
147
1.5
 71
     0
 72
     0
 73
     0
 74
     0
 75
     0
 76
     0
 77
     3
 78
     8
170
     0
171
     2
172
     1
173
     0
174
     0
175
     0
176
   256
177
   256
178
     2
270
     2
271
     3
272
     3
273
     2
274
     2
340
6B
275
     0
280
     0
281
     0
282
     0
283
     0
284
     0
285
     0
286
     0
287
     3
288
     0
  0
DIMSTYLE
105
5F
330
A
100
AcDbSymbolTableRecord
100
AcDbDimStyleTableRecord
  2
AM_JIS$3
 70
     0
  3

  4
"
  5
OPEN30
  6

  7

 40
0.5
 41
2.5
 42
1.0
 43
10.0
 44
1.0
 45
0.0
 46
0.0
 47
0.1
 48
0.1
140
3.2
141
0.0
142
0.0
143
0.0393701
144
1.0
145
0.0
146
0.71
147
1.5
 71
     0
 72
     0
 73
     0
 74
     1
 75
     0
 76
     0
 77
     3
 78
     8
170
     0
171
     2
172
     0
173
     0
174
     0
175
     0
176
   256
177
   256
178
     2
270
     2
271
     2
272
     3
273
     2
274
     2
340
6B
275
     0
280
     0
281
     0
282
     0
283
     0
284
     0
285
     0
286
     0
287
     0
288
     1
  0
DIMSTYLE
105
60
330
A
100
AcDbSymbolTableRecord
100
AcDbDimStyleTableRecord
  2
AM_JIS$4
 70
     0
  3

  4
"
  5
OPEN30
  6

  7

 40
0.5
 41
2.5
 42
1.0
 43
10.0
 44
1.0
 45
0.0
 46
0.0
 47
0.1
 48
0.1
140
3.2
141
0.0
142
0.0
143
0.0393701
144
1.0
145
0.0
146
0.71
147
1.5
 71
     0
 72
     0
 73
     0
 74
     1
 75
     0
 76
     0
 77
     3
 78
     8
170
     0
171
     2
172
     0
173
     0
174
     0
175
     0
176
   256
177
   256
178
     2
270
     2
271
     2
272
     3
273
     2
274
     2
340
6B
275
     0
280
     0
281
     0
282
     0
283
     0
284
     0
285
     0
286
     0
287
     0
288
     1
  0
DIMSTYLE
105
61
330
A
100
AcDbSymbolTableRecord
100
AcDbDimStyleTableRecord
  2
AM_JIS$6
 70
     0
  3

  4
"
  5
OPEN30
  6

  7

 40
0.5
 41
2.5
 42
1.0
 43
10.0
 44
1.0
 45
0.0
 46
0.0
 47
0.1
 48
0.1
140
3.2
141
0.0
142
0.0
143
0.0393701
144
1.0
145
0.0
146
0.71
147
1.5
 71
     0
 72
     0
 73
     0
 74
     0
 75
     0
 76
     0
 77
     0
 78
     8
170
     0
171
     2
172
     1
173
     0
174
     0
175
     0
176
   256
177
   256
178
     2
270
     2
271
     2
272
     2
273
     2
274
     2
340
6B
275
     0
280
     0
281
     0
282
     0
283
     0
284
     0
285
     0
286
     0
287
     3
288
     0
  0
DIMSTYLE
105
62
330
A
100
AcDbSymbolTableRecord
100
AcDbDimStyleTableRecord
  2
AM_JIS$7
 70
     0
  3

  4
"
  5
OPEN30
  6

  7

 40
0.5
 41
2.5
 42
1.0
 43
10.0
 44
1.0
 45
0.0
 46
0.0
 47
0.1
 48
0.1
140
3.2
141
0.0
142
0.0
143
0.0393701
144
1.0
145
0.0
146
0.71
147
1.5
 71
     0
 72
     0
 73
     0
 74
     0
 75
     0
 76
     0
 77
     3
 78
     8
170
     0
171
     2
172
     1
173
     0
174
     0
175
     0
176
   256
177
   256
178
     2
270
     2
271
     2
272
     3
273
     2
274
     2
340
6B
275
     0
280
     0
281
     0
282
     0
283
     0
284
     0
285
     0
286
     0
287
     3
288
     0
  0
DIMSTYLE
105
63
330
A
100
AcDbSymbolTableRecord
100
AcDbDimStyleTableRecord
  2
AM_JIS$SF
 70
     0
  3

  4
"
  5
OPEN30
  6

  7

 40
0.5
 41
2.5
 42
1.0
 43
10.0
 44
1.0
 45
0.0
 46
0.0
 47
0.1
 48
0.1
140
3.2
141
0.0
142
0.0
143
0.0393701
144
1.0
145
0.0
146
0.71
147
1.5
 71
     0
 72
     0
 73
     0
 74
     0
 75
     1
 76
     1
 77
     3
 78
     8
170
     0
171
     2
172
     1
173
     0
174
     0
175
     0
176
   256
177
   256
178
     2
270
     2
271
     2
272
     2
273
     2
274
     2
340
6B
275
     0
280
     0
281
     0
282
     0
283
     0
284
     0
285
     0
286
     0
287
     3
288
     0
  0
DIMSTYLE
105
68
330
A
100
AcDbSymbolTableRecord
100
AcDbDimStyleTableRecord
  2
AM_JIS$SH
 70
     0
  3

  4
"
  5

  6
GENAXEH
  7
OPEN30
 40
0.5
 41
2.5
 42
1.0
 43
10.0
 44
1.0
 45
0.0
 46
0.0
 47
0.1
 48
0.1
140
3.2
141
0.0
142
0.0
143
0.0393701
144
2.0
145
0.0
146
0.71
147
1.5
 71
     0
 72
     0
 73
     0
 74
     0
 75
     1
 76
     1
 77
     3
 78
     8
170
     0
171
     2
172
     1
173
     1
174
     0
175
     0
176
   256
177
   256
178
     2
270
     2
271
     2
272
     2
273
     2
274
     2
340
6B
275
     0
280
     0
281
     0
282
     0
283
     0
284
     0
285
     0
286
     0
287
     3
288
     0
  0
DIMSTYLE
105
B34
102
{ACAD_REACTORS
330
258B
102
}
330
A
100
AcDbSymbolTableRecord
100
AcDbDimStyleTableRecord
  2
AM_JIS$2
 70
     0
  3

  4
"
  5
OPEN30
  6

  7

 40
0.5
 41
2.5
 42
1.0
 43
12.0
 44
1.0
 45
0.0
 46
0.0
 47
0.1
 48
0.1
140
3.2
141
0.0
142
0.0
143
0.0393701
144
1.0
145
0.0
146
0.71
147
1.5
 71
     0
 72
     0
 73
     0
 74
     0
 75
     0
 76
     0
 77
     3
 78
     8
170
     0
171
     2
172
     1
173
     0
174
     0
175
     0
176
   256
177
   256
178
     2
270
     2
271
     3
272
     3
273
     2
274
     2
340
6B
275
     0
280
     0
281
     0
282
     0
283
     0
284
     0
285
     0
286
     0
287
     3
288
     0
  0
DIMSTYLE
105
BA5
102
{ACAD_REACTORS
330
CC6
330
DF5
330
228A
330
26D6
102
}
330
A
100
AcDbSymbolTableRecord
100
AcDbDimStyleTableRecord
  2
AM_JIS$0
 70
     0
  3

  4
"
  5
OPEN30
  6

  7

 40
0.5
 41
2.5
 42
0.0
 43
10.0
 44
1.0
 45
0.0
 46
0.0
 47
0.1
 48
0.1000000001
140
3.799999999999999
141
0.0
142
0.0
143
0.0393701
144
1.0
145
0.0
146
0.71
147
1.5
 71
     0
 72
     0
 73
     0
 74
     0
 75
     0
 76
     0
 77
     3
 78
     1
170
     0
171
     2
172
     1
173
     0
174
     0
175
     0
176
     3
177
     3
178
     2
270
     2
271
     2
272
     2
273
     2
274
     2
340
11
275
     1
280
     0
281
     0
282
     0
283
     0
284
     8
285
     0
286
     0
287
     0
288
     0
  0
ENDTAB
  0
TABLE
  2
BLOCK_RECORD
  5
1
330
0
100
AcDbSymbolTable
 70
    10
  0
BLOCK_RECORD
  5
1F
102
{ACAD_XDICTIONARY
360
74
102
}
330
1
100
AcDbSymbolTableRecord
100
AcDbBlockTableRecord
  2
*MODEL_SPACE
  0
BLOCK_RECORD
  5
101
102
{ACAD_XDICTIONARY
360
2953
102
}
330
1
100
AcDbSymbolTableRecord
100
AcDbBlockTableRecord
  2
*PAPER_SPACE
  0
BLOCK_RECORD
  5
59
330
1
100
AcDbSymbolTableRecord
100
AcDbBlockTableRecord
  2
_OPEN30
  0
BLOCK_RECORD
  5
64
330
1
100
AcDbSymbolTableRecord
100
AcDbBlockTableRecord
  2
GENAXEH
  0
BLOCK_RECORD
  5
CC8
330
1
100
AcDbSymbolTableRecord
100
AcDbBlockTableRecord
  2
*D5
  0
BLOCK_RECORD
  5
DF6
330
1
100
AcDbSymbolTableRecord
100
AcDbBlockTableRecord
  2
*D6
  0
BLOCK_RECORD
  5
228B
330
1
100
AcDbSymbolTableRecord
100
AcDbBlockTableRecord
  2
*D7
  0
BLOCK_RECORD
  5
258C
330
1
100
AcDbSymbolTableRecord
100
AcDbBlockTableRecord
  2
*D8
  0
BLOCK_RECORD
  5
26D7
330
1
100
AcDbSymbolTableRecord
100
AcDbBlockTableRecord
  2
*D9
  0
ENDTAB
  0
ENDSEC
  0
SECTION
  2
BLOCKS
  0
BLOCK
  5
20
330
1F
100
AcDbEntity
  8
0
100
AcDbBlockBegin
  2
*MODEL_SPACE
 70
     0
 10
0.0
 20
0.0
 30
0.0
  3
*MODEL_SPACE
  1

  0
ENDBLK
  5
21
330
1F
100
AcDbEntity
  8
0
100
AcDbBlockEnd
  0
BLOCK
  5
103
330
101
100
AcDbEntity
 67
     1
  8
0
100
AcDbBlockBegin
  2
*PAPER_SPACE
 70
     0
 10
0.0
 20
0.0
 30
0.0
  3
*PAPER_SPACE
  1

  0
ENDBLK
  5
104
330
101
100
AcDbEntity
 67
     1
  8
0
100
AcDbBlockEnd
  0
BLOCK
  5
5D
330
59
100
AcDbEntity
  8
0
100
AcDbBlockBegin
  2
_OPEN30
 70
     0
 10
0.0
 20
0.0
 30
0.0
  3
_OPEN30
  1

  0
LINE
  5
5A
330
59
100
AcDbEntity
  8
0
 62
     0
100
AcDbLine
 10
-1.0
 20
0.26794919
 30
0.0
 11
0.0
 21
0.0
 31
0.0
  0
LINE
  5
5B
330
59
100
AcDbEntity
  8
0
 62
     0
100
AcDbLine
 10
0.0
 20
0.0
 30
0.0
 11
-1.0
 21
-0.26794919
 31
0.0
  0
LINE
  5
5C
330
59
100
AcDbEntity
  8
0
 62
     0
100
AcDbLine
 10
0.0
 20
0.0
 30
0.0
 11
-1.0
 21
0.0
 31
0.0
  0
ENDBLK
  5
5E
330
59
100
AcDbEntity
  8
0
100
AcDbBlockEnd
  0
BLOCK
  5
66
330
64
100
AcDbEntity
  8
0
100
AcDbBlockBegin
  2
GENAXEH
 70
     0
 10
0.0
 20
0.0
 30
0.0
  3
GENAXEH
  1

  0
LINE
  5
65
330
64
100
AcDbEntity
  8
0
100
AcDbLine
 10
-1.0
 20
0.0
 30
0.0
 11
1.0
 21
0.0
 31
0.0
  0
ENDBLK
  5
67
330
64
100
AcDbEntity
  8
0
100
AcDbBlockEnd
  0
BLOCK
  5
CD2
330
CC8
100
AcDbEntity
  8
0
100
AcDbBlockBegin
  2
*D5
 70
     1
 10
0.0
 20
0.0
 30
0.0
  3
*D5
  1

  0
LINE
  5
28E2
330
CC8
100
AcDbEntity
  8
AM_5
 62
     3
100
AcDbLine
 10
-119.9999999999998
 20
-3.764324189635425
 30
0.0
 11
-119.9999999999998
 21
-16.5000023696538
 31
0.0
  0
LINE
  5
28E3
330
CC8
100
AcDbEntity
  8
AM_5
 62
     3
100
AcDbLine
 10
-2.000000462318786
 20
-3.749999209313036
 30
0.0
 11
-2.000000462318787
 21
-16.5000023696538
 31
0.0
  0
LINE
  5
28E4
330
CC8
100
AcDbEntity
  8
AM_5
 62
     3
100
AcDbLine
 10
-118.7499999999998
 20
-16.0000023696538
 30
0.0
 11
-3.250000462318787
 21
-16.0000023696538
 31
0.0
  0
INSERT
  5
28E5
330
CC8
100
AcDbEntity
  8
AM_5
 62
     3
100
AcDbBlockReference
  2
_OPEN30
 10
-119.9999999999998
 20
-16.0000023696538
 30
0.0
 41
1.25
 42
1.25
 43
1.25
 50
180.0
  0
INSERT
  5
28E6
330
CC8
100
AcDbEntity
  8
AM_5
 62
     3
100
AcDbBlockReference
  2
_OPEN30
 10
-2.000000462318787
 20
-16.0000023696538
 30
0.0
 41
1.25
 42
1.25
 43
1.25
  0
MTEXT
  5
28E7
330
CC8
100
AcDbEntity
  8
AM_5
 62
     2
100
AcDbMText
 10
-61.00000023115933
 20
-14.3000023696538
 30
0.0
 40
1.9
 41
0.0
 71
     5
 72
     1
  1
118
1001
ACAD
1000
MTEXTBEGIN
1070
    73
1070
     1
1070
    44
1040
1.0
1070
    74
1070
     0
1000
MTEXTEND
  0
POINT
  5
28E8
330
CC8
100
AcDbEntity
  8
DEFPOINTS
 62
     0
100
AcDbPoint
 10
-119.9999999999998
 20
-3.764324189635425
 30
0.0
  0
POINT
  5
28E9
330
CC8
100
AcDbEntity
  8
DEFPOINTS
 62
     0
100
AcDbPoint
 10
-2.000000462318786
 20
-3.749999209313036
 30
0.0
  0
POINT
  5
28EA
330
CC8
100
AcDbEntity
  8
DEFPOINTS
 62
     0
100
AcDbPoint
 10
-2.000000462318787
 20
-16.0000023696538
 30
0.0
  0
ENDBLK
  5
CD3
330
CC8
100
AcDbEntity
  8
0
100
AcDbBlockEnd
  0
BLOCK
  5
E00
330
DF6
100
AcDbEntity
  8
0
100
AcDbBlockBegin
  2
*D6
 70
     1
 10
0.0
 20
0.0
 30
0.0
  3
*D6
  1

  0
LINE
  5
28D9
330
DF6
100
AcDbEntity
  8
AM_5
 62
     3
100
AcDbLine
 10
-65.9999999999999
 20
-4.000001369653888
 30
0.0
 11
-65.9999999999999
 21
-11.50000236965372
 31
0.0
  0
LINE
  5
28DA
330
DF6
100
AcDbEntity
  8
AM_5
 62
     3
100
AcDbLine
 10
-2.000000462318786
 20
-3.749999209313036
 30
0.0
 11
-2.000000462318787
 21
-11.50000236965372
 31
0.0
  0
LINE
  5
28DB
330
DF6
100
AcDbEntity
  8
AM_5
 62
     3
100
AcDbLine
 10
-64.7499999999999
 20
-11.00000236965372
 30
0.0
 11
-3.250000462318787
 21
-11.00000236965372
 31
0.0
  0
INSERT
  5
28DC
330
DF6
100
AcDbEntity
  8
AM_5
 62
     3
100
AcDbBlockReference
  2
_OPEN30
 10
-65.9999999999999
 20
-11.00000236965372
 30
0.0
 41
1.25
 42
1.25
 43
1.25
 50
180.0
  0
INSERT
  5
28DD
330
DF6
100
AcDbEntity
  8
AM_5
 62
     3
100
AcDbBlockReference
  2
_OPEN30
 10
-2.000000462318787
 20
-11.00000236965372
 30
0.0
 41
1.25
 42
1.25
 43
1.25
  0
MTEXT
  5
28DE
330
DF6
100
AcDbEntity
  8
AM_5
 62
     2
100
AcDbMText
 10
-34.00000023115934
 20
-9.300002369653721
 30
0.0
 40
1.9
 41
0.0
 71
     5
 72
     1
  1
64
1001
ACAD
1000
MTEXTBEGIN
1070
    73
1070
     1
1070
    44
1040
1.0
1070
    74
1070
     0
1000
MTEXTEND
  0
POINT
  5
28DF
330
DF6
100
AcDbEntity
  8
DEFPOINTS
 62
     0
100
AcDbPoint
 10
-65.9999999999999
 20
-4.000001369653888
 30
0.0
  0
POINT
  5
28E0
330
DF6
100
AcDbEntity
  8
DEFPOINTS
 62
     0
100
AcDbPoint
 10
-2.000000462318786
 20
-3.749999209313036
 30
0.0
  0
POINT
  5
28E1
330
DF6
100
AcDbEntity
  8
DEFPOINTS
 62
     0
100
AcDbPoint
 10
-2.000000462318787
 20
-11.00000236965372
 30
0.0
  0
ENDBLK
  5
E01
330
DF6
100
AcDbEntity
  8
0
100
AcDbBlockEnd
  0
BLOCK
  5
2297
330
228B
100
AcDbEntity
  8
0
100
AcDbBlockBegin
  2
*D7
 70
     1
 10
0.0
 20
0.0
 30
0.0
  3
*D7
  1

  0
LINE
  5
2674
330
228B
100
AcDbEntity
  8
AM_5
 62
     3
100
AcDbLine
 10
-119.7499999999998
 20
-4.000000000000473
 30
0.0
 11
-129.5000009999998
 21
-4.0000000000005
 31
0.0
  0
LINE
  5
2675
330
228B
100
AcDbEntity
  8
AM_5
 62
     3
100
AcDbLine
 10
-119.7499999999999
 20
3.999999999999525
 30
0.0
 11
-129.5000009999998
 21
3.999999999999497
 31
0.0
  0
LINE
  5
2676
330
228B
100
AcDbEntity
  8
AM_5
 62
     3
100
AcDbLine
 10
-129.0000009999998
 20
-2.750000000000499
 30
0.0
 11
-129.0000009999998
 21
2.749999999999499
 31
0.0
  0
INSERT
  5
2677
330
228B
100
AcDbEntity
  8
AM_5
 62
     3
100
AcDbBlockReference
  2
_OPEN30
 10
-129.0000009999998
 20
-4.000000000000499
 30
0.0
 41
1.25
 42
1.25
 43
1.25
 50
270.0000000000001
  0
INSERT
  5
2678
330
228B
100
AcDbEntity
  8
AM_5
 62
     3
100
AcDbBlockReference
  2
_OPEN30
 10
-129.0000009999998
 20
3.999999999999499
 30
0.0
 41
1.25
 42
1.25
 43
1.25
 50
90.00000000000015
  0
MTEXT
  5
2679
330
228B
100
AcDbEntity
  8
AM_5
 62
     2
100
AcDbMText
 10
-130.7000009999998
 20
-0.0000000000004826
 30
0.0
 40
1.9
 41
0.0
 71
     5
 72
     1
  1
%%c8
 11
-0.0000000000000028
 21
1.0
 31
0.0
1001
ACAD
1000
MTEXTBEGIN
1070
    73
1070
     1
1070
    44
1040
1.0
1070
    74
1070
     0
1000
MTEXTEND
  0
POINT
  5
267A
330
228B
100
AcDbEntity
  8
DEFPOINTS
 62
     0
100
AcDbPoint
 10
-119.7499999999999
 20
-4.000000000000101
 30
0.0
  0
POINT
  5
267B
330
228B
100
AcDbEntity
  8
DEFPOINTS
 62
     0
100
AcDbPoint
 10
-119.7499999999998
 20
3.999999999999897
 30
0.0
  0
POINT
  5
267C
330
228B
100
AcDbEntity
  8
DEFPOINTS
 62
     0
100
AcDbPoint
 10
-129.0000009999998
 20
3.9999999999999
 30
0.0
  0
ENDBLK
  5
2298
330
228B
100
AcDbEntity
  8
0
100
AcDbBlockEnd
  0
BLOCK
  5
259C
330
258C
100
AcDbEntity
  8
0
100
AcDbBlockBegin
  2
*D8
 70
     1
 10
0.0
 20
0.0
 30
0.0
  3
*D8
  1

  0
LINE
  5
267D
330
258C
100
AcDbEntity
  8
AM_5
100
AcDbLine
 10
0.1710100716627608
 20
-0.4698463103929546
 30
0.0
 11
4.820130796736513
 21
-13.24320052285225
 31
0.0
  0
LINE
  5
267E
330
258C
100
AcDbEntity
  8
AM_5
100
AcDbLine
 10
0.1710100716627526
 20
0.4698463103929626
 30
0.0
 11
4.820130796736282
 21
13.24320052285234
 31
0.0
  0
ARC
  5
267F
330
258C
100
AcDbEntity
  8
AM_5
100
AcDbCircle
 10
-0.0000000000000657
 20
0.0000000000000025
 30
0.0
 40
13.59311963286066
100
AcDbArc
 50
295.2706799729924
 51
64.72932002700855
  0
INSERT
  5
2680
330
258C
100
AcDbEntity
  8
AM_5
100
AcDbBlockReference
  2
_OPEN30
 10
4.649120725073687
 20
-12.7733542124593
 30
0.0
 41
1.25
 42
1.25
 43
1.25
 50
202.6353399864956
  0
INSERT
  5
2681
330
258C
100
AcDbEntity
  8
AM_5
100
AcDbBlockReference
  2
_OPEN30
 10
4.649120725073464
 20
12.77335421245938
 30
0.0
 41
1.25
 42
1.25
 43
1.25
 50
157.3646600135052
  0
MTEXT
  5
2682
330
258C
100
AcDbEntity
  8
AM_5
 62
     2
100
AcDbMText
 10
12.0431196328606
 20
0.0000000000001189
 30
0.0
 40
1.6
 41
0.0
 71
     5
 72
     1
  1
140°
  7
ASAMI
 11
-0.0000000000000028
 21
1.0
 31
0.0
1001
ACAD
1000
MTEXTBEGIN
1070
    73
1070
     1
1070
    44
1040
1.0
1070
    74
1070
     0
1000
MTEXTEND
  0
POINT
  5
2683
330
258C
100
AcDbEntity
  8
DEFPOINTS
 62
     0
100
AcDbPoint
 10
12.48142138964305
 20
-5.383959643925755
 30
0.0
  0
POINT
  5
2684
330
258C
100
AcDbEntity
  8
DEFPOINTS
 62
     0
100
AcDbPoint
 10
-0.0000000000000657
 20
0.0000000000000025
 30
0.0
  0
POINT
  5
2685
330
258C
100
AcDbEntity
  8
DEFPOINTS
 62
     0
100
AcDbPoint
 10
-0.3757819382817846
 20
1.032452390067979
 30
0.0
  0
POINT
  5
2686
330
258C
100
AcDbEntity
  8
DEFPOINTS
 62
     0
100
AcDbPoint
 10
-0.0000000000000657
 20
0.0000000000000025
 30
0.0
  0
POINT
  5
2687
330
258C
100
AcDbEntity
  8
DEFPOINTS
 62
     0
100
AcDbPoint
 10
-0.3757819382817722
 20
-1.032452390067978
 30
0.0
  0
ENDBLK
  5
259D
330
258C
100
AcDbEntity
  8
0
100
AcDbBlockEnd
  0
BLOCK
  5
26E1
330
26D7
100
AcDbEntity
  8
0
100
AcDbBlockBegin
  2
*D9
 70
     1
 10
0.0
 20
0.0
 30
0.0
  3
*D9
  1

  0
LINE
  5
28EB
330
26D7
100
AcDbEntity
  8
AM_5
 62
     3
100
AcDbLine
 10
-1.999999999999974
 20
3.750000790687262
 30
0.0
 11
9.05592102485799
 21
3.750000790687293
 31
0.0
  0
LINE
  5
28EC
330
26D7
100
AcDbEntity
  8
AM_5
 62
     3
100
AcDbLine
 10
-2.000000462318754
 20
-3.749999209313017
 30
0.0
 11
9.055921024858013
 21
-3.749999209312986
 31
0.0
  0
LINE
  5
28ED
330
26D7
100
AcDbEntity
  8
AM_5
 62
     3
100
AcDbLine
 10
8.555921024857996
 20
2.500000790687292
 30
0.0
 11
8.55592102485801
 21
-2.499999209312987
 31
0.0
  0
INSERT
  5
28EE
330
26D7
100
AcDbEntity
  8
AM_5
 62
     3
100
AcDbBlockReference
  2
_OPEN30
 10
8.555921024857992
 20
3.750000790687292
 30
0.0
 41
1.25
 42
1.25
 43
1.25
 50
90.00000000000017
  0
INSERT
  5
28EF
330
26D7
100
AcDbEntity
  8
AM_5
 62
     3
100
AcDbBlockReference
  2
_OPEN30
 10
8.555921024858013
 20
-3.749999209312987
 30
0.0
 41
1.25
 42
1.25
 43
1.25
 50
270.0000000000001
  0
MTEXT
  5
28F0
330
26D7
100
AcDbEntity
  8
AM_5
 62
     2
100
AcDbMText
 10
6.855921024858003
 20
0.0000007906871476
 30
0.0
 40
1.9
 41
0.0
 71
     5
 72
     1
  1
%%c7.5
 11
-0.0000000000000028
 21
1.0
 31
0.0
1001
ACAD
1000
MTEXTBEGIN
1070
    73
1070
     1
1070
    44
1040
1.0
1070
    74
1070
     0
1000
MTEXTEND
  0
POINT
  5
28F1
330
26D7
100
AcDbEntity
  8
DEFPOINTS
 62
     0
100
AcDbPoint
 10
-1.999999999999962
 20
3.750000790687268
 30
0.0
  0
POINT
  5
28F2
330
26D7
100
AcDbEntity
  8
DEFPOINTS
 62
     0
100
AcDbPoint
 10
-2.000000462318765
 20
-3.749999209313011
 30
0.0
  0
POINT
  5
28F3
330
26D7
100
AcDbEntity
  8
DEFPOINTS
 62
     0
100
AcDbPoint
 10
8.555921024858003
 20
-3.749999209313013
 30
0.0
  0
ENDBLK
  5
26E2
330
26D7
100
AcDbEntity
  8
0
100
AcDbBlockEnd
  0
ENDSEC
  0
SECTION
  2
ENTITIES
  0
LINE
  5
C30
330
1F
100
AcDbEntity
  8
AM_0
 48
0.5
100
AcDbLine
 10
-119.9999999999999
 20
-3.750000000000101
 30
0.0
 11
-119.9999999999998
 21
3.749999999999897
 31
0.0
  0
LINE
  5
C9F
330
1F
100
AcDbEntity
  8
AM_7
100
AcDbLine
 10
-121.9999999999998
 20
-0.0000000000001033
 30
0.0
 11
1.555920024858144
 21
0.0000000000000013
 31
0.0
1001
GENIUS_GENODEF_13
1002
{
1000
HIER
1070
     0
1002
}
1002
{
1000
MANEDIT
1070
     0
1002
}
1002
{
1000
NOSEL
1070
     0
1002
}
1002
{
1000
BEHIND
1070
     0
1002
}
1002
{
1000
REACTOR
1002
}
1001
GENIUS_GENOBJ-N-CEN_13
1002
{
1000
OWNER
1000
GEN
1002
}
  0
DIMENSION
  5
CC6
330
1F
100
AcDbEntity
  8
AM_5
100
AcDbDimension
  2
*D5
 10
-2.000000462318787
 20
-16.0000023696538
 30
0.0
 11
-61.00000023115933
 21
-14.3000023696538
 31
0.0
 70
    32
  1
<>
  3
AM_JIS$0
100
AcDbAlignedDimension
 13
-119.9999999999998
 23
-3.764324189635425
 33
0.0
 14
-2.000000462318786
 24
-3.749999209313036
 34
0.0
 50
0.0000000000001132
100
AcDbRotatedDimension
1001
GENIUS_GENDTOL_13
1000

1000
h7
1000

1040
0.0
1001
ACAD
1000
DSTYLE
1002
{
1070
   271
1070
     0
1002
}
  0
DIMENSION
  5
DF5
330
1F
100
AcDbEntity
  8
AM_5
100
AcDbDimension
  2
*D6
 10
-2.000000462318787
 20
-11.00000236965372
 30
0.0
 11
-34.00000023115934
 21
-9.300002369653721
 31
0.0
 70
    32
  1
<>
  3
AM_JIS$0
100
AcDbAlignedDimension
 13
-65.9999999999999
 23
-4.000001369653888
 33
0.0
 14
-2.000000462318786
 24
-3.749999209313036
 34
0.0
 50
0.0000000000001527
100
AcDbRotatedDimension
1001
GENIUS_GENDTOL_13
1000

1000
h7
1000

1040
0.0
1001
ACAD
1000
DSTYLE
1002
{
1070
   271
1070
     0
1002
}
  0
TEXT
  5
19BD
330
1F
100
AcDbEntity
  8
AM_6
100
AcDbText
 10
-69.59568372748309
 20
-26.97293740283332
 30
0.0
 40
2.5
  1
MDW075LHK
 50
0.0000000000001527
 72
     4
 11
-58.76235039414975
 21
-25.72293740283329
 31
0.0
100
AcDbText
  0
ARC
  5
1BE8
330
1F
100
AcDbEntity
  8
AM_11
 48
0.5
100
AcDbCircle
 10
-65.1857889811198
 20
17.66787048062784
 30
0.0
 40
19.53452809651666
100
AcDbArc
 50
244.7482808787518
 51
295.2516148471758
  0
ARC
  5
1BE9
330
1F
100
AcDbEntity
  8
AM_11
 48
0.5
100
AcDbCircle
 10
-65.18578898111982
 20
-17.66785848258815
 30
0.0
 40
19.53452809651666
100
AcDbArc
 50
64.74833051131179
 51
115.2516644797366
  0
LINE
  5
1CA9
330
1F
100
AcDbEntity
  8
AM_0
 48
0.5
100
AcDbLine
 10
-65.9999999999999
 20
-4.000001369653889
 30
0.0
 11
-65.9999999999999
 21
4.000029622605968
 31
0.0
  0
LINE
  5
1E12
330
1F
100
AcDbEntity
  8
AM_0
 48
0.5
100
AcDbLine
 10
-119.7499999999998
 20
3.999999999999897
 30
0.0
 11
-65.9999999999999
 21
3.999999999999942
 31
0.0
1001
GENIUS_GENODEF_13
1002
{
1000
HIER
1070
     0
1002
}
1002
{
1000
MANEDIT
1070
     0
1002
}
1002
{
1000
NOSEL
1070
     0
1002
}
1002
{
1000
BEHIND
1070
     0
1002
}
1002
{
1000
REACTOR
1002
}
1001
GENIUS_GENOBJ-N-CEN_13
1002
{
1000
OWNER
1000
GEN
1002
}
  0
LINE
  5
1E16
330
1F
100
AcDbEntity
  8
AM_0
 48
0.5
100
AcDbLine
 10
-119.7499999999999
 20
-4.000000000000101
 30
0.0
 11
-65.9999999999999
 21
-4.000000000000056
 31
0.0
1001
GENIUS_GENODEF_13
1002
{
1000
HIER
1070
     0
1002
}
1002
{
1000
MANEDIT
1070
     0
1002
}
1002
{
1000
NOSEL
1070
     0
1002
}
1002
{
1000
BEHIND
1070
     0
1002
}
1002
{
1000
REACTOR
1002
}
1001
GENIUS_GENOBJ-N-CEN_13
1002
{
1000
OWNER
1000
GEN
1002
}
  0
LINE
  5
1E1D
330
1F
100
AcDbEntity
  8
AM_0
 48
0.5
100
AcDbLine
 10
-119.9999999999998
 20
3.749999999999897
 30
0.0
 11
-119.7499999999998
 21
3.999999999999897
 31
0.0
1001
GENIUS_GENFIL_13
1070
     0
1040
0.25
1040
0.25
1040
20.0
1040
0.0
1002
{
1002
}
1001
GENIUS_GENODEF_13
1002
{
1000
HIER
1070
     0
1002
}
1002
{
1000
MANEDIT
1070
     0
1002
}
1002
{
1000
NOSEL
1070
     0
1002
}
1002
{
1000
BEHIND
1070
     0
1002
}
1002
{
1000
REACTOR
1002
}
1001
GENIUS_GENOBJ-N-CHA_13
1002
{
1000
OWNER
1000
GEN
1002
}
  0
LINE
  5
1E21
330
1F
100
AcDbEntity
  8
AM_0
 48
0.5
100
AcDbLine
 10
-119.9999999999999
 20
-3.750000000000101
 30
0.0
 11
-119.7499999999999
 21
-4.000000000000101
 31
0.0
1001
GENIUS_GENFIL_13
1070
     0
1040
0.25
1040
0.25
1040
20.0
1040
0.0
1002
{
1002
}
1001
GENIUS_GENODEF_13
1002
{
1000
HIER
1070
     0
1002
}
1002
{
1000
MANEDIT
1070
     0
1002
}
1002
{
1000
NOSEL
1070
     0
1002
}
1002
{
1000
BEHIND
1070
     0
1002
}
1002
{
1000
REACTOR
1002
}
1001
GENIUS_GENOBJ-N-CHA_13
1002
{
1000
OWNER
1000
GEN
1002
}
  0
LINE
  5
1E22
330
1F
100
AcDbEntity
  8
AM_0
100
AcDbLine
 10
-119.7499999999999
 20
-4.000000000000101
 30
0.0
 11
-119.7499999999998
 21
3.999999999999897
 31
0.0
  0
LINE
  5
1E25
330
1F
100
AcDbEntity
  8
AM_0
100
AcDbLine
 10
-65.9999999999999
 20
-4.000001369653889
 30
0.0
 11
-65.56757426523699
 21
-3.75034025528402
 31
0.0
  0
LINE
  5
1E26
330
1F
100
AcDbEntity
  8
AM_0
100
AcDbLine
 10
-65.9999999999999
 20
3.999999999999942
 30
0.0
 11
-65.56791142731104
 21
3.750533546244278
 31
0.0
  0
ARC
  5
1F66
330
1F
100
AcDbEntity
  8
AM_11
 48
0.5
100
AcDbCircle
 10
-81.8524191904159
 20
17.66787048062779
 30
0.0
 40
19.53452809651666
100
AcDbArc
 50
244.7482808787518
 51
295.2516148471758
  0
ARC
  5
1F67
330
1F
100
AcDbEntity
  8
AM_11
 48
0.5
100
AcDbCircle
 10
-81.85241919041592
 20
-17.66785848258821
 30
0.0
 40
19.53452809651666
100
AcDbArc
 50
64.74833051131179
 51
115.2516644797366
  0
ARC
  5
1F68
330
1F
100
AcDbEntity
  8
AM_11
 48
0.5
100
AcDbCircle
 10
-98.519049399712
 20
17.66787048062773
 30
0.0
 40
19.53452809651666
100
AcDbArc
 50
244.7482808787518
 51
295.2516148471758
  0
ARC
  5
1F69
330
1F
100
AcDbEntity
  8
AM_11
 48
0.5
100
AcDbCircle
 10
-98.51904939971204
 20
-17.66785848258826
 30
0.0
 40
19.53452809651666
100
AcDbArc
 50
64.74833051131179
 51
115.2516644797366
  0
ARC
  5
1F6A
330
1F
100
AcDbEntity
  8
AM_11
 48
0.5
100
AcDbCircle
 10
-115.1856796090081
 20
17.66787048062767
 30
0.0
 40
19.53452809651666
100
AcDbArc
 50
255.732350805167
 51
295.2516148471758
  0
ARC
  5
1F6B
330
1F
100
AcDbEntity
  8
AM_11
 48
0.5
100
AcDbCircle
 10
-115.1856796090081
 20
-17.66785848258832
 30
0.0
 40
19.53452809651666
100
AcDbArc
 50
64.74833051131179
 51
104.2676491948328
  0
LINE
  5
220F
330
1F
100
AcDbEntity
  8
AM_0
100
AcDbLine
 10
-65.56791142731128
 20
-3.750534915898369
 30
0.0
 11
-65.56791142731104
 21
3.750533546244287
 31
0.0
  0
DIMENSION
  5
228A
330
1F
100
AcDbEntity
  8
AM_5
100
AcDbDimension
  2
*D7
 10
-129.0000009999998
 20
3.9999999999999
 30
0.0
 11
-129.0000009999998
 21
-0.0000000000001026
 31
0.0
 70
   160
  1
%%c<>
 51
359.9999999999998
  3
AM_JIS$0
100
AcDbAlignedDimension
 13
-119.7499999999999
 23
-4.000000000000101
 33
0.0
 14
-119.7499999999998
 24
3.999999999999897
 34
0.0
 50
270.0000000000002
100
AcDbRotatedDimension
1001
ACAD
1000
DSTYLE
1002
{
1070
   271
1070
     0
1002
}
1001
GENIUS_GENDTOL_13
1000

1000
h7
1000

1040
0.0
  0
ELLIPSE
  5
252F
330
1F
100
AcDbEntity
  8
AM_0
 48
0.5
100
AcDbEllipse
 10
6.998938941977094
 20
6.518511470746472
 30
0.0
 11
-6.499359672245508
 21
6.499359672245508
 31
0.0
210
0.0
220
0.0
230
1.0
 40
0.9999999999999978
 41
1.171329590070667
 42
1.424984195904709
  0
LINE
  5
2533
330
1F
100
AcDbEntity
  8
AM_0
100
AcDbLine
 10
-0.3757819382817846
 20
1.032452390067979
 30
0.0
 11
-0.0000000000000657
 21
0.0000000000000025
 31
0.0
  0
LINE
  5
2534
330
1F
100
AcDbEntity
  8
AM_0
100
AcDbLine
 10
-0.0000000000000657
 20
0.0000000000000025
 30
0.0
 11
-0.3757819382817722
 21
-1.032452390067978
 31
0.0
  0
LINE
  5
2535
330
1F
100
AcDbEntity
  8
AM_0
 48
0.5
100
AcDbLine
 10
-1.51649379259026
 20
3.058633200997604
 30
0.0
 11
-1.999999999999962
 21
3.750000790687268
 31
0.0
  0
ELLIPSE
  5
254F
330
1F
100
AcDbEntity
  8
AM_0
 48
0.5
100
AcDbEllipse
 10
6.998938941978924
 20
-6.518511470744941
 30
0.0
 11
-6.499359672243684
 21
-6.499359672247334
 31
0.0
210
0.0
220
0.0
230
-1.0
 40
0.9999999999999978
 41
1.171329590070667
 42
1.424984195904709
  0
LINE
  5
2550
330
1F
100
AcDbEntity
  8
AM_0
 48
0.5
100
AcDbLine
 10
-1.516493792589402
 20
-3.058633200998463
 30
0.0
 11
-2.000000462318765
 21
-3.749999209313011
 31
0.0
  0
DIMENSION
  5
258B
330
1F
100
AcDbEntity
  8
AM_5
100
AcDbDimension
  2
*D8
 10
-0.3757819382817722
 20
-1.032452390067978
 30
0.0
 11
12.0431196328606
 21
0.0000000000000819
 31
0.0
 70
    34
  1
<>
 51
359.9999999999998
  3
AM_JIS$2
100
AcDb2LineAngularDimension
 13
-0.3757819382817846
 23
1.032452390067979
 33
0.0
 14
-0.0000000000000657
 24
0.0000000000000025
 34
0.0
 15
-0.0000000000000657
 25
0.0000000000000025
 35
0.0
 16
12.48142138964305
 26
-5.383959643925755
 36
0.0
1001
ACAD
1000
DSTYLE
1002
{
1070
   179
1070
     3
1002
}
1001
GENIUS_GENDTOL_13
1000

1000
h7
1000

1040
0.0
  0
DIMENSION
  5
26D6
330
1F
100
AcDbEntity
  8
AM_5
100
AcDbDimension
  2
*D9
 10
8.555921024858003
 20
-3.749999209313013
 30
0.0
 11
6.855921024858003
 21
0.0000007906871277
 31
0.0
 70
    32
  1
%%c<>
 51
359.9999999999998
  3
AM_JIS$0
100
AcDbAlignedDimension
 13
-1.999999999999962
 23
3.750000790687268
 33
0.0
 14
-2.000000462318765
 24
-3.749999209313011
 34
0.0
 50
89.99999999999886
100
AcDbRotatedDimension
1001
ACAD
1000
DSTYLE
1002
{
1070
   271
1070
     1
1002
}
1001
GENIUS_GENDTOL_13
1000

1000
h7
1000

1040
0.0
  0
LINE
  5
289E
330
1F
100
AcDbEntity
  8
AM_0
100
AcDbLine
 10
-60.63639217811182
 20
-3.750340255284084
 30
0.0
 11
-65.56757426523701
 21
-3.75034025528402
 31
0.0
  0
LINE
  5
289F
330
1F
100
AcDbEntity
  8
AM_0
100
AcDbLine
 10
-59.47579133114017
 20
3.750533546244189
 30
0.0
 11
-65.56791142731104
 21
3.750533546244278
 31
0.0
  0
LINE
  5
28A0
330
1F
100
AcDbEntity
  8
AM_0
 48
0.5
100
AcDbLine
 10
-4.113971477864975
 20
3.750000790687328
 30
0.0
 11
-1.999999999999952
 21
3.750000790687268
 31
0.0
  0
LINE
  5
28A1
330
1F
100
AcDbEntity
  8
AM_0
 48
0.5
100
AcDbLine
 10
-0.0000000000000195
 20
-0.0000000000000233
 30
0.0
 11
-1.63588800430706
 21
1.419888151179583
 31
0.0
  0
LINE
  5
28A2
330
1F
100
AcDbEntity
  8
AM_0
 48
0.5
100
AcDbLine
 10
-4.113971477865172
 20
-3.749999209312671
 30
0.0
 11
-2.000000462318754
 21
-3.749999209313041
 31
0.0
  0
LINE
  5
28A3
330
1F
100
AcDbEntity
  8
AM_0
 48
0.5
100
AcDbLine
 10
-26.61365581253424
 20
-3.749999209312139
 30
0.0
 11
-16.01954627644891
 21
-3.749999209312349
 31
0.0
  0
LINE
  5
28A4
330
1F
100
AcDbEntity
  8
AM_0
 48
0.5
100
AcDbLine
 10
-29.37834907185872
 20
3.750000790688012
 30
0.0
 11
-16.0195462764487
 21
3.750000790687649
 31
0.0
  0
LINE
  5
28A5
330
1F
100
AcDbEntity
  8
AM_0
100
AcDbLine
 10
-51.87812019002313
 20
3.750000790688544
 30
0.0
 11
-36.9760202129758
 21
3.750533546243661
 31
0.0
  0
LINE
  5
28A6
330
1F
100
AcDbEntity
  8
AM_0
 48
0.5
100
AcDbLine
 10
-51.87812495841704
 20
-3.749999209311406
 30
0.0
 11
-38.51922885703531
 21
-3.749999209311738
 31
0.0
  0
LINE
  5
28A7
330
1F
100
AcDbEntity
  8
AM_11
 48
0.5
100
AcDbLine
 10
-36.9760202129758
 20
3.750533546243661
 30
0.0
 11
-29.37833881765717
 21
3.750000790688012
 31
0.0
  0
LINE
  5
28A8
330
1F
100
AcDbEntity
  8
AM_11
 48
0.5
100
AcDbLine
 10
-38.51923061111645
 20
-3.749999209311819
 30
0.0
 11
-26.61365581253425
 21
-3.750531964867571
 31
0.0
  0
LINE
  5
28A9
330
1F
100
AcDbEntity
  8
AM_11
 48
0.5
100
AcDbLine
 10
-16.01954627644891
 20
-3.749999209312349
 30
0.0
 11
-4.113971477865172
 21
-3.749999209312671
 31
0.0
  0
LINE
  5
28AA
330
1F
100
AcDbEntity
  8
AM_11
 48
0.5
100
AcDbLine
 10
-16.0195462764487
 20
3.750000790687649
 30
0.0
 11
-4.113971477864975
 21
3.750000790687328
 31
0.0
  0
ELLIPSE
  5
28AB
330
1F
100
AcDbEntity
  8
AM_11
 48
0.5
100
AcDbEllipse
 10
-31.85245564779084
 20
17.42248368017156
 30
0.0
 11
-19.53452809651663
 21
0.0000000000000012
 31
0.0
210
0.0
220
0.0
230
1.0
 40
0.9861111111111117
 41
1.130070686340284
 42
2.011520147323577
  0
ELLIPSE
  5
28AC
330
1F
100
AcDbEntity
  8
AM_11
 48
0.5
100
AcDbEllipse
 10
-31.85245564779148
 20
-17.42247126966643
 30
0.0
 11
-19.53452809651669
 21
0.0000000000008991
 31
0.0
210
0.0
220
0.0
230
1.0
 40
0.9861111111111078
 41
4.271664206181714
 42
5.153113667165019
  0
ELLIPSE
  5
28AD
330
1F
100
AcDbEntity
  8
AM_11
 48
0.5
100
AcDbEllipse
 10
-48.51912231445346
 20
-17.42247126966613
 30
0.0
 11
-19.53452809651668
 21
0.0000000000007603
 31
0.0
210
0.0
220
0.0
230
1.0
 40
0.9861111111111092
 41
4.271664206181706
 42
5.153113667165013
  0
ELLIPSE
  5
28AE
330
1F
100
AcDbEntity
  8
AM_11
 48
0.5
100
AcDbEllipse
 10
-48.51912231445284
 20
17.42248368017186
 30
0.0
 11
-19.53452809651663
 21
0.0000000000008991
 31
0.0
210
0.0
220
0.0
230
1.0
 40
0.9861111111111114
 41
1.130070686340331
 42
2.011520147323623
  0
ELLIPSE
  5
28AF
330
1F
100
AcDbEntity
  8
AM_11
 48
0.5
100
AcDbEllipse
 10
-15.18578898112481
 20
-17.42247126966675
 30
0.0
 11
-19.53452809651666
 21
0.0000000000009294
 31
0.0
210
0.0
220
0.0
230
1.0
 40
0.9861111111111096
 41
4.271664206181715
 42
5.153113667165023
  0
ELLIPSE
  5
28B0
330
1F
100
AcDbEntity
  8
AM_11
 48
0.5
100
AcDbEllipse
 10
-15.18578898112417
 20
17.42248368017123
 30
0.0
 11
-19.53452809651665
 21
0.0000000000007256
 31
0.0
210
0.0
220
0.0
230
1.0
 40
0.9861111111111105
 41
1.130070686340325
 42
2.011520147323613
  0
ELLIPSE
  5
28B1
330
1F
100
AcDbEntity
  8
AM_0
 48
0.5
100
AcDbEllipse
 10
-6.256098646553895
 20
7.132913209802503
 30
0.0
 11
-5.174876087286581
 21
8.192570187933624
 31
0.0
210
0.0
220
0.0
230
1.0
 40
0.6006848179475487
 41
3.114723617166605
 42
3.398686155106291
  0
ELLIPSE
  5
28B2
330
1F
100
AcDbEntity
  8
AM_0
 48
0.5
100
AcDbEllipse
 10
-6.036442693078519
 20
6.293859964516039
 30
0.0
 11
7.965260887998981
 21
6.993746491968851
 31
0.0
210
0.0
220
0.0
230
0.9999999999999998
 40
0.8360940570171761
 41
4.469616422135231
 42
4.529546941333125
  0
ELLIPSE
  5
28B3
330
1F
100
AcDbEntity
  8
AM_0
 48
0.5
100
AcDbEllipse
 10
-1.475464632491069
 20
-1.333004926574828
 30
0.0
 11
-0.5072281519635986
 21
0.3212786321795877
 31
0.0
210
0.0
220
0.0
230
1.0
 40
0.5128888859691799
 41
4.516911409282998
 42
7.660351750612511
  0
ELLIPSE
  5
28B4
330
1F
100
AcDbEntity
  8
AM_0
 48
0.5
100
AcDbEllipse
 10
-1.475464632491069
 20
-1.333004926574828
 30
0.0
 11
-0.0993839571296572
 21
0.6160869400709024
 31
0.0
210
0.0
220
0.0
230
0.9999999999999998
 40
0.4747693777197638
 41
1.817358545192461
 42
4.952700434904437
  0
ELLIPSE
  5
28B5
330
1F
100
AcDbEntity
  8
AM_0
 48
0.5
100
AcDbEllipse
 10
3.908992358985517
 20
-1.822361725291104
 30
0.0
 11
-0.000000000000179
 21
6.53276547844731
 31
0.0
210
0.0
220
0.0
230
1.0
 40
0.9466666666666569
 41
1.575304363691326
 42
1.870327662799696
  0
ELLIPSE
  5
28B6
330
1F
100
AcDbEntity
  8
AM_0
 48
0.5
100
AcDbEllipse
 10
3.351196164573233
 20
3.698864904002351
 30
0.0
 11
-0.0000000000004566
 21
8.132338981360682
 31
0.0
210
0.0
220
0.0
230
1.0
 40
0.9466666666666624
 41
1.951257656000286
 42
2.322034022628272
  0
SPLINE
  5
28B7
330
1F
100
AcDbEntity
  8
AM_0
 48
0.5
100
AcDbSpline
210
0.0
220
0.0
230
1.0
 70
     8
 71
     3
 72
    25
 73
    21
 74
     0
 42
0.0000000001
 43
0.0000000001
 40
6.846175049578289
 40
6.846175049578289
 40
6.846175049578289
 40
6.846175049578289
 40
7.604337694224321
 40
8.711974558287883
 40
9.814980593243754
 40
10.91239053451967
 40
12.0033633515982
 40
13.08720139956839
 40
14.16337181880432
 40
15.23152222380919
 40
16.29148850140128
 40
17.34331105512262
 40
18.38723020264746
 40
19.42369128463655
 40
20.45333379090873
 40
21.47697865721768
 40
22.49561244472435
 40
23.5103574802404
 40
24.52244778960836
 40
25.53320666051913
 40
25.53320666051913
 40
25.53320666051913
 40
25.53320666051913
 10
-3.796906315298301
 20
0.6787750333954006
 30
0.0
 10
-3.932821759016309
 20
0.7446183640449596
 30
0.0
 10
-4.267588757845889
 20
0.9059965571421688
 30
0.0
 10
-4.80170481114748
 20
1.159418413669827
 30
0.0
 10
-5.399359502562944
 20
1.435845440694639
 30
0.0
 10
-5.997044250420987
 20
1.703440700252899
 30
0.0
 10
-6.5947641899475
 20
1.96055886620278
 30
0.0
 10
-7.192525981217655
 20
2.205613648479391
 30
0.0
 10
-7.790335151650431
 20
2.437093818718145
 30
0.0
 10
-8.388194468787418
 20
2.653576763725268
 30
0.0
 10
-8.986111296721691
 20
2.853715240997235
 30
0.0
 10
-9.584084825802484
 20
3.036281993871931
 30
0.0
 10
-10.18211935114818
 20
3.200137807722919
 30
0.0
 10
-10.78021276226744
 20
3.344268604465347
 30
0.0
 10
-11.37836272270513
 20
3.467790965435944
 30
0.0
 10
-11.97656590403785
 20
3.569886127131908
 30
0.0
 10
-12.57481299846431
 20
3.650086827292779
 30
0.0
 10
-13.17309741269435
 20
3.707303741428471
 30
0.0
 10
-13.7714094347691
 20
3.743309050217043
 30
0.0
 10
-14.17038242962482
 20
3.747770984156674
 30
0.0
 10
-14.36973762512617
 20
3.750000482704984
 30
0.0
  0
SPLINE
  5
28B8
330
1F
100
AcDbEntity
  8
AM_0
 48
0.5
100
AcDbSpline
210
0.0
220
0.0
230
1.0
 70
     8
 71
     3
 72
    10
 73
     6
 74
     0
 42
0.0000000001
 43
0.0000000001
 40
0.0
 40
0.0
 40
0.0
 40
0.0
 40
2.69986029516136
 40
4.147722969032201
 40
6.285750005020438
 40
6.285750005020438
 40
6.285750005020438
 40
6.285750005020438
 10
-3.796810658777207
 20
0.6787304936910141
 30
0.0
 10
-3.370981688899092
 20
0.3303295800230814
 30
0.0
 10
-2.716792061973537
 20
-0.204909400542739
 30
0.0
 10
-1.169721473168839
 20
0.0542091665450411
 30
0.0
 10
-1.461079864363211
 20
0.9269547869865675
 30
0.0
 10
-1.653590873613988
 20
1.45892012248731
 30
0.0
  0
ELLIPSE
  5
28B9
330
1F
100
AcDbEntity
  8
AM_11
 48
0.5
100
AcDbEllipse
 10
1.480877685542559
 20
17.66787077425785
 30
0.0
 11
13.81299728432604
 21
13.81299728432604
 31
0.0
210
0.0
220
0.0
230
1.0
 40
0.9999999999999971
 41
3.486265176532629
 42
3.64799522757332
  0
SPLINE
  5
28BA
330
1F
100
AcDbEntity
  8
AM_0
100
AcDbSpline
210
0.0
220
0.0
230
1.0
 70
     8
 71
     3
 72
    17
 73
    13
 74
     0
 42
0.0000000001
 43
0.0000000001
 40
1.580019955310467
 40
1.580019955310467
 40
1.580019955310467
 40
1.580019955310467
 40
2.030549285115227
 40
3.082371838836284
 40
4.126290986361125
 40
5.162752068350215
 40
6.192395305374981
 40
7.216039564037012
 40
8.234688489606833
 40
9.249433870634691
 40
10.26152376260694
 40
11.27226744710342
 40
11.27226744710342
 40
11.27226744710342
 40
11.27226744710352
 10
-10.06629444425117
 20
-2.767609634026362
 30
0.0
 10
-10.15571431541305
 20
-2.796113722242051
 30
0.0
 10
-10.45440672678998
 20
-2.889539678634169
 30
0.0
 10
-10.96434874562858
 20
-3.036081634073933
 30
0.0
 10
-11.59598737397019
 20
-3.200189184046301
 30
0.0
 10
-12.22779989183479
 20
-3.344253824092633
 30
0.0
 10
-12.8596413591284
 20
-3.467791752772669
 30
0.0
 10
-13.49155166441747
 20
-3.569904349227185
 30
0.0
 10
-14.12350562657626
 20
-3.650008901893647
 30
0.0
 10
-14.75549893924747
 20
-3.707586306467463
 30
0.0
 10
-15.38751603175254
 20
-3.742265930508821
 30
0.0
 10
-15.80896302409954
 20
-3.749999230770053
 30
0.0
 10
-16.01954627644886
 20
-3.749999209312351
 30
0.0
  0
SPLINE
  5
28BB
330
1F
100
AcDbEntity
  8
AM_0
100
AcDbSpline
210
0.0
220
0.0
230
1.0
 70
     8
 71
     3
 72
    22
 73
    18
 74
     0
 42
0.0000000001
 43
0.0000000001
 40
17.17441611292
 40
17.17441611292
 40
17.17441611292
 40
17.17441611292
 40
17.38177636558528
 40
18.41823744757437
 40
19.46215659509824
 40
20.51397914882054
 40
21.57394542641293
 40
22.64209583141747
 40
23.71826625065247
 40
24.80210429862395
 40
25.8930771157021
 40
26.99048705697709
 40
28.09349309193389
 40
29.20112995599786
 40
30.31233024745139
 40
31.42594771747373
 40
32.5407895042663
 40
32.54078950426994
 40
32.54078950426994
 40
32.54078950426994
 10
-18.43181555987031
 20
-3.367526350496254
 30
0.0
 10
-18.47413632538443
 20
-3.35884546830289
 30
0.0
 10
-18.72782620192538
 20
-3.305969266019299
 30
0.0
 10
-19.19257176038078
 20
-3.199945598449746
 30
0.0
 10
-19.82429832361459
 20
-3.036090040083288
 30
0.0
 10
-20.45596051523768
 20
-2.85352321797338
 30
0.0
 10
-21.08756279474971
 20
-2.653384759491638
 30
0.0
 10
-21.71910432784798
 20
-2.436901809296983
 30
0.0
 10
-22.35059288807646
 20
-2.205421640824078
 30
0.0
 10
-22.98203139940464
 20
-1.960366856709449
 30
0.0
 10
-23.61342570414034
 20
-1.703248696379285
 30
0.0
 10
-24.24478282298791
 20
-1.43565341602146
 30
0.0
 10
-24.87610823574618
 20
-1.15922646710718
 30
0.0
 10
-25.50740829772616
 20
-0.8756684749367053
 30
0.0
 10
-26.13868860485338
 20
-0.586723000192695
 30
0.0
 10
-26.76995850899666
 20
-0.2941729926316588
 30
0.0
 10
-27.19072250461057
 20
-0.0979659081683053
 30
0.0
 10
-27.40122008931644
 20
0.000191525551719
 30
0.0
  0
SPLINE
  5
28BC
330
1F
100
AcDbEntity
  8
AM_0
100
AcDbSpline
210
0.0
220
0.0
230
1.0
 70
     8
 71
     3
 72
    11
 73
     7
 74
     0
 42
0.0000000001
 43
0.0000000001
 40
11.27226913003534
 40
11.27226913003534
 40
11.27226913003534
 40
11.2722691300354
 40
12.28301561507924
 40
13.29510212255852
 40
14.30984805882082
 40
15.18258238371378
 40
15.18258238371378
 40
15.18258238371378
 40
15.18258238371378
 10
-16.01954627644889
 20
-3.749999209312351
 30
0.0
 10
-16.22932878760033
 20
-3.731645619569462
 30
0.0
 10
-16.64849812019564
 20
-3.68721237758277
 30
0.0
 10
-17.27508760679949
 20
-3.597579537959268
 30
0.0
 10
-17.86973207807965
 20
-3.490522938886571
 30
0.0
 10
-18.25431321717345
 20
-3.408225344970609
 30
0.0
 10
-18.4315391570058
 20
-3.36757260671758
 30
0.0
  0
SPLINE
  5
28BD
330
1F
100
AcDbEntity
  8
AM_0
100
AcDbSpline
210
0.0
220
0.0
230
1.0
 70
     8
 71
     3
 72
    55
 73
    51
 74
     0
 42
0.0000000001
 43
0.0000000001
 40
0.0
 40
0.0
 40
0.0
 40
0.0
 40
1.010743684496582
 40
2.022833576467832
 40
3.037578957496688
 40
4.056212745003489
 40
5.079857003664532
 40
6.109500240690281
 40
7.145961322679372
 40
8.189895241603872
 40
9.241717795325891
 40
10.30168407291828
 40
11.36983447792315
 40
12.44600489715814
 40
13.52984294512926
 40
14.62081576220742
 40
15.7182257034828
 40
16.82123173843959
 40
17.92886860250316
 40
19.0400688939571
 40
20.15368796660465
 40
21.26852814259644
 40
22.38336992938901
 40
23.49698739941135
 40
24.6081876908653
 40
25.71582455492886
 40
26.81883757994213
 40
27.91624752121713
 40
29.00722033829659
 40
30.09105838626677
 40
31.16722880550176
 40
32.23537921050758
 40
33.29534548809967
 40
34.347168041821
 40
35.39108718934584
 40
36.42754827133493
 40
37.45720575381954
 40
38.48085062012849
 40
39.49948440763516
 40
40.51422944315121
 40
41.52631975251916
 40
42.53706336719636
 40
43.54780698187354
 40
44.55989729124051
 40
45.57464232675757
 40
46.59327611426424
 40
47.6169209805722
 40
48.64656348684535
 40
49.68302456883444
 40
50.58557219878025
 40
50.58557219878025
 40
50.58557219878025
 40
50.58557219878025
 10
-4.113971477865172
 20
-3.749999209312671
 30
0.0
 10
-4.324554732992702
 20
-3.74776805016197
 30
0.0
 10
-4.746001718660517
 20
-3.743302760184204
 30
0.0
 10
-5.378018824571019
 20
-3.707307510046268
 30
0.0
 10
-6.010008952054261
 20
-3.650084465335346
 30
0.0
 10
-6.641959965553303
 20
-3.569884191816731
 30
0.0
 10
-7.273865559191836
 20
-3.467793556961296
 30
0.0
 10
-7.905713266885337
 20
-3.34426654155299
 30
0.0
 10
-8.537505202136371
 20
-3.200135267596359
 30
0.0
 10
-9.169235762227291
 20
-3.036282326051596
 30
0.0
 10
-9.80090064392167
 20
-2.853713764039812
 30
0.0
 10
-10.43250299571972
 20
-2.653575545552405
 30
0.0
 10
-11.06404450917851
 20
-2.437092530207091
 30
0.0
 10
-11.69553307490337
 20
-2.205612379764829
 30
0.0
 10
-12.3269715840842
 20
-1.960557589346177
 30
0.0
 10
-12.95836589188477
 20
-1.703439436080033
 30
0.0
 10
-13.5897230005534
 20
-1.435844133641294
 30
0.0
 10
-14.22104845121717
 20
-1.15941726653132
 30
0.0
 10
-14.85234837096149
 20
-0.8758589675155404
 30
0.0
 10
-15.48362951496379
 20
-0.586914504235989
 30
0.0
 10
-16.11489742016061
 20
-0.2943601885071394
 30
0.0
 10
-16.74616100103261
 20
0.0000000255514487
 30
0.0
 10
-17.37742174805932
 20
0.2943655382773374
 30
0.0
 10
-18.00869176912858
 20
0.5869152981616677
 30
0.0
 10
-18.63997213380581
 20
0.8758606360596592
 30
0.0
 10
-19.27127317915092
 20
1.15942001530617
 30
0.0
 10
-19.9026012488555
 20
1.435844523340722
 30
0.0
 10
-20.53395935397245
 20
1.703441182859969
 30
0.0
 10
-21.16535375292536
 20
1.9605591276298
 30
0.0
 10
-21.79679223913014
 20
2.205613969582554
 30
0.0
 10
-22.428280806472
 20
2.437094120363425
 30
0.0
 10
-23.05982233601666
 20
2.653577083944386
 30
0.0
 10
-23.69142462262646
 20
2.853715506791324
 30
0.0
 10
-24.32308678965721
 20
3.036282456725046
 30
0.0
 10
-24.95481344322429
 20
3.20013754433454
 30
0.0
 10
-25.5866051441133
 20
3.344271716589769
 30
0.0
 10
-26.21845736341119
 20
3.467784623498177
 30
0.0
 10
-26.85036504468723
 20
3.569906857563261
 30
0.0
 10
-27.48231624552483
 20
3.650012064009279
 30
0.0
 10
-28.11430681213402
 20
3.707582603425337
 30
0.0
 10
-28.74632338216933
 20
3.74227310908795
 30
0.0
 10
-29.37835384038549
 20
3.753862059153921
 30
0.0
 10
-30.01038429767169
 20
3.742273109069811
 30
0.0
 10
-30.64240087050225
 20
3.707582603498288
 30
0.0
 10
-31.27439142682013
 20
3.65001206373465
 30
0.0
 10
-31.90634266624235
 20
3.569906858595674
 30
0.0
 10
-32.53824712179383
 20
3.467785117478939
 30
0.0
 10
-33.17009685183448
 20
3.344272979442658
 30
0.0
 10
-33.7731623551809
 20
3.206680323236112
 30
0.0
 10
-34.16443812165722
 20
3.106057512996208
 30
0.0
 10
-34.34596727210117
 20
3.057019108890014
 30
0.0
  0
SPLINE
  5
28BE
330
1F
100
AcDbEntity
  8
AM_0
100
AcDbSpline
210
0.0
220
0.0
230
1.0
 70
     8
 71
     3
 72
    46
 73
    42
 74
     0
 42
0.0000000001
 43
0.0000000001
 40
0.0
 40
0.0
 40
0.0
 40
0.0
 40
1.348332046947657
 40
2.024828967632895
 40
2.703918159304097
 40
3.386347665078124
 40
4.072776489761952
 40
4.763750544421347
 40
5.459696642770596
 40
6.160921452191754
 40
6.867565637253344
 40
7.579665907256596
 40
8.297112853413899
 40
9.019671552060676
 40
9.746986763446127
 40
10.47859339096366
 40
11.21393074760089
 40
11.95235532364328
 40
12.69315551794651
 40
13.43556823304427
 40
14.1787950170388
 40
14.92202180103393
 40
15.66443451613169
 40
16.40523471043432
 40
17.14365928647669
 40
17.87899664311455
 40
18.61060327063121
 40
19.3379184820169
 40
20.06048192311554
 40
20.77792886927283
 40
21.49002913927608
 40
22.19667332433747
 40
22.89788836015233
 40
23.59383445850158
 40
24.28480851316097
 40
24.97123685067576
 40
25.65366676154838
 40
26.33276604526152
 40
27.00926273560555
 40
27.68398960851751
 40
28.357818684969
 40
28.357818684969
 40
28.357818684969
 40
28.357818684969
 10
-2.344753033040793
 20
-3.749999209312722
 30
0.0
 10
-2.766220609936684
 20
-3.74145641943428
 30
0.0
 10
-3.399150577409283
 20
-3.728627466470192
 30
0.0
 10
-4.240785156117596
 20
-3.649641959874408
 30
0.0
 10
-4.872742959274599
 20
-3.570003558149712
 30
0.0
 10
-5.504646745083467
 20
-3.467761378182666
 30
0.0
 10
-6.136494848893255
 20
-3.344274971273319
 30
0.0
 10
-6.768284024776332
 20
-3.200134707647322
 30
0.0
 10
-7.400013214580772
 20
-3.036279569622501
 30
0.0
 10
-8.03167960688853
 20
-2.853715652002088
 30
0.0
 10
-8.663284464249242
 20
-2.653575283905808
 30
0.0
 10
-9.294826087837892
 20
-2.437092601118477
 30
0.0
 10
-9.926314623708524
 20
-2.205612360536421
 30
0.0
 10
-10.55775314102169
 20
-1.96055759463089
 30
0.0
 10
-11.18914744644345
 20
-1.703439434348473
 30
0.0
 10
-11.82050455642569
 20
-1.435844135247555
 30
0.0
 10
-12.45183000421411
 20
-1.159417261819308
 30
0.0
 10
-13.08312993419817
 20
-0.8758589848465236
 30
0.0
 10
-13.71441103995683
 20
-0.586914439370306
 30
0.0
 10
-14.34567908828418
 20
-0.2943604312351311
 30
0.0
 10
-14.97694183006086
 20
0.0000007906280615
 30
0.0
 10
-15.60820457169886
 20
0.2943620128489627
 30
0.0
 10
-16.2394726204422
 20
0.5869160199115367
 30
0.0
 10
-16.87075372468038
 20
0.8758605693076335
 30
0.0
 10
-17.50205366030233
 20
1.159418831743005
 30
0.0
 10
-18.13337908718605
 20
1.435845759074517
 30
0.0
 10
-18.76473627458553
 20
1.703440858552667
 30
0.0
 10
-19.39613166626643
 20
1.960560316205472
 30
0.0
 10
-20.02757263704503
 20
2.205612855664234
 30
0.0
 10
-20.65906229939444
 20
2.437094283197689
 30
0.0
 10
-21.290603908279
 20
2.653577030400138
 30
0.0
 10
-21.92220617107872
 20
2.853715559377473
 30
0.0
 10
-22.5538683547232
 20
3.036282301107041
 30
0.0
 10
-23.18559496585146
 20
3.200138108498034
 30
0.0
 10
-23.81738377608814
 20
3.34426894171126
 30
0.0
 10
-24.44923234313028
 20
3.467791164544729
 30
0.0
 10
-25.08114016179786
 20
3.569887341367762
 30
0.0
 10
-25.71309470863652
 20
3.650086382604636
 30
0.0
 10
-26.34508835419547
 20
3.707304175556812
 30
0.0
 10
-26.97710494065363
 20
3.743309139048743
 30
0.0
 10
-27.39855210281902
 20
3.747771230348842
 30
0.0
 10
-27.60913539540623
 20
3.750000790687965
 30
0.0
  0
SPLINE
  5
28BF
330
1F
100
AcDbEntity
  8
AM_0
 48
0.5
100
AcDbSpline
210
0.0
220
0.0
230
1.0
 70
     8
 71
     3
 72
    16
 73
    12
 74
     0
 42
0.0000000001
 43
0.0000000001
 40
0.0
 40
0.0
 40
0.0
 40
0.0
 40
1.010743614677189
 40
2.022833924044153
 40
3.037578959561199
 40
4.056212747067873
 40
5.079857613375832
 40
6.109500119648989
 40
7.14596120163808
 40
8.18989512056258
 40
8.545190612624931
 40
8.545190612624931
 40
8.545190612624931
 40
8.545190612624931
 10
-4.113971477864975
 20
3.750000790687328
 30
0.0
 10
-4.324543064256037
 20
3.74997825637759
 30
0.0
 10
-4.746007377002204
 20
3.7422835845149
 30
0.0
 10
-5.378017040498165
 20
3.707579774581677
 30
0.0
 10
-6.010009477237321
 20
3.650012873073938
 30
0.0
 10
-6.641960126843139
 20
3.569906462255782
 30
0.0
 10
-7.27386505425441
 20
3.4677858940162
 30
0.0
 10
-7.905713479462157
 20
3.344270248022652
 30
0.0
 10
-8.537505636593484
 20
3.200137520675599
 30
0.0
 10
-9.028753321398419
 20
3.072717036544521
 30
0.0
 10
-9.309540454009606
 20
2.994350283885498
 30
0.0
 10
-9.380746502673581
 20
2.974127174575747
 30
0.0
  0
SPLINE
  5
28C0
330
1F
100
AcDbEntity
  8
AM_0
100
AcDbSpline
210
0.0
220
0.0
230
1.0
 70
     8
 71
     3
 72
    55
 73
    51
 74
     0
 42
0.0000000001
 43
0.0000000001
 40
0.0
 40
0.0
 40
0.0
 40
0.0
 40
1.010743684496582
 40
2.022833576467832
 40
3.037578957496688
 40
4.056212745003489
 40
5.079857003664532
 40
6.109500240690281
 40
7.145961322679372
 40
8.189895241603872
 40
9.241717795325891
 40
10.30168407291828
 40
11.36983447792315
 40
12.44600489715814
 40
13.52984294512926
 40
14.62081576220742
 40
15.7182257034828
 40
16.82123173843959
 40
17.92886860250316
 40
19.0400688939571
 40
20.15368796660465
 40
21.26852814259644
 40
22.38336992938901
 40
23.49698739941135
 40
24.6081876908653
 40
25.71582455492886
 40
26.81883757994213
 40
27.91624752121713
 40
29.00722033829659
 40
30.09105838626677
 40
31.16722880550176
 40
32.23537921050758
 40
33.29534548809967
 40
34.347168041821
 40
35.39108718934584
 40
36.42754827133493
 40
37.45720575381954
 40
38.48085062012849
 40
39.49948440763516
 40
40.51422944315121
 40
41.52631975251916
 40
42.53706336719636
 40
43.54780698187354
 40
44.55989729124051
 40
45.57464232675757
 40
46.59327611426424
 40
47.6169209805722
 40
48.64656348684535
 40
49.68302456883444
 40
50.58557219878025
 40
50.58557219878025
 40
50.58557219878025
 40
50.58557219878025
 10
-26.61365581253424
 20
-3.74999920931214
 30
0.0
 10
-26.82423906766177
 20
-3.747768050161439
 30
0.0
 10
-27.24568605332959
 20
-3.743302760183672
 30
0.0
 10
-27.87770315924009
 20
-3.707307510045735
 30
0.0
 10
-28.50969328672333
 20
-3.650084465334814
 30
0.0
 10
-29.14164430022238
 20
-3.5698841918162
 30
0.0
 10
-29.77354989386091
 20
-3.467793556960764
 30
0.0
 10
-30.40539760155439
 20
-3.344266541552458
 30
0.0
 10
-31.03718953680541
 20
-3.200135267595828
 30
0.0
 10
-31.66892009689634
 20
-3.036282326051065
 30
0.0
 10
-32.30058497859073
 20
-2.853713764039279
 30
0.0
 10
-32.93218733038879
 20
-2.653575545551872
 30
0.0
 10
-33.56372884384759
 20
-2.43709253020656
 30
0.0
 10
-34.19521740957245
 20
-2.205612379764297
 30
0.0
 10
-34.82665591875329
 20
-1.960557589345646
 30
0.0
 10
-35.45805022655387
 20
-1.703439436079503
 30
0.0
 10
-36.08940733522251
 20
-1.435844133640763
 30
0.0
 10
-36.7207327858862
 20
-1.159417266530789
 30
0.0
 10
-37.35203270563054
 20
-0.8758589675150087
 30
0.0
 10
-37.98331384963285
 20
-0.5869145042354571
 30
0.0
 10
-38.61458175482968
 20
-0.2943601885066079
 30
0.0
 10
-39.24584533570168
 20
0.0000000255519804
 30
0.0
 10
-39.87710608272839
 20
0.2943655382778693
 30
0.0
 10
-40.50837610379764
 20
0.5869152981621994
 30
0.0
 10
-41.13965646847492
 20
0.8758606360601909
 30
0.0
 10
-41.77095751382003
 20
1.159420015306701
 30
0.0
 10
-42.40228558352454
 20
1.435844523341252
 30
0.0
 10
-43.03364368864149
 20
1.7034411828605
 30
0.0
 10
-43.6650380875944
 20
1.960559127630332
 30
0.0
 10
-44.29647657379922
 20
2.205613969583086
 30
0.0
 10
-44.92796514114107
 20
2.437094120363958
 30
0.0
 10
-45.55950667068573
 20
2.653577083944917
 30
0.0
 10
-46.19110895729552
 20
2.853715506791856
 30
0.0
 10
-46.82277112432628
 20
3.036282456725579
 30
0.0
 10
-47.45449777789336
 20
3.200137544335074
 30
0.0
 10
-48.08628947878237
 20
3.344271716590302
 30
0.0
 10
-48.71814169808029
 20
3.467784623498709
 30
0.0
 10
-49.35004937935634
 20
3.569906857563793
 30
0.0
 10
-49.98200058019394
 20
3.65001206400981
 30
0.0
 10
-50.61399114680313
 20
3.707582603425868
 30
0.0
 10
-51.24600771683843
 20
3.74227310908848
 30
0.0
 10
-51.87803817505457
 20
3.753862059154451
 30
0.0
 10
-52.5100686323408
 20
3.742273109070342
 30
0.0
 10
-53.14208520517135
 20
3.707582603498821
 30
0.0
 10
-53.77407576148923
 20
3.650012063735183
 30
0.0
 10
-54.40602700091146
 20
3.569906858596207
 30
0.0
 10
-55.03793145646289
 20
3.467785117479471
 30
0.0
 10
-55.66978118650354
 20
3.344272979443189
 30
0.0
 10
-56.27284668984996
 20
3.206680323236643
 30
0.0
 10
-56.6641224563263
 20
3.10605751299674
 30
0.0
 10
-56.84565160677024
 20
3.057019108890546
 30
0.0
  0
SPLINE
  5
28C1
330
1F
100
AcDbEntity
  8
AM_0
100
AcDbSpline
210
0.0
220
0.0
230
1.0
 70
     8
 71
     3
 72
    46
 73
    42
 74
     0
 42
0.0000000001
 43
0.0000000001
 40
0.0
 40
0.0
 40
0.0
 40
0.0
 40
1.348332046947654
 40
2.024828967632893
 40
2.703918159304094
 40
3.386347665078122
 40
4.072776489761951
 40
4.763750544421345
 40
5.459696642770595
 40
6.160921452191748
 40
6.867565637253344
 40
7.579665907256597
 40
8.297112853413899
 40
9.019671552060666
 40
9.746986763446125
 40
10.47859339096365
 40
11.21393074760088
 40
11.95235532364327
 40
12.69315551794651
 40
13.43556823304427
 40
14.1787950170388
 40
14.92202180103393
 40
15.66443451613169
 40
16.40523471043432
 40
17.14365928647669
 40
17.87899664311455
 40
18.61060327063121
 40
19.33791848201689
 40
20.06048192311554
 40
20.77792886927282
 40
21.49002913927608
 40
22.19667332433747
 40
22.89788836015233
 40
23.59383445850157
 40
24.28480851316097
 40
24.97123685067575
 40
25.65366676154837
 40
26.33276604526151
 40
27.00926273560554
 40
27.68398960851752
 40
28.35781868496899
 40
28.35781868496899
 40
28.35781868496899
 40
28.35781868496899
 10
-24.84443736770987
 20
-3.74999920931219
 30
0.0
 10
-25.26590494460576
 20
-3.741456419433748
 30
0.0
 10
-25.89883491207836
 20
-3.728627466469659
 30
0.0
 10
-26.74046949078666
 20
-3.649641959873875
 30
0.0
 10
-27.37242729394368
 20
-3.570003558149182
 30
0.0
 10
-28.00433107975253
 20
-3.467761378182133
 30
0.0
 10
-28.63617918356231
 20
-3.344274971272788
 30
0.0
 10
-29.26796835944539
 20
-3.200134707646791
 30
0.0
 10
-29.89969754924981
 20
-3.036279569621968
 30
0.0
 10
-30.53136394155759
 20
-2.853715652001554
 30
0.0
 10
-31.16296879891831
 20
-2.653575283905277
 30
0.0
 10
-31.79451042250695
 20
-2.437092601117945
 30
0.0
 10
-32.42599895837761
 20
-2.205612360535892
 30
0.0
 10
-33.05743747569076
 20
-1.960557594630354
 30
0.0
 10
-33.68883178111254
 20
-1.703439434347947
 30
0.0
 10
-34.3201888910948
 20
-1.435844135247018
 30
0.0
 10
-34.95151433888314
 20
-1.159417261818781
 30
0.0
 10
-35.58281426886721
 20
-0.8758589848459875
 30
0.0
 10
-36.21409537462587
 20
-0.5869144393697764
 30
0.0
 10
-36.84536342295325
 20
-0.2943604312345993
 30
0.0
 10
-37.47662616472993
 20
0.0000007906285941
 30
0.0
 10
-38.10788890636794
 20
0.2943620128494937
 30
0.0
 10
-38.73915695511128
 20
0.5869160199120685
 30
0.0
 10
-39.37043805934949
 20
0.8758605693081655
 30
0.0
 10
-40.00173799497144
 20
1.159418831743536
 30
0.0
 10
-40.63306342185509
 20
1.435845759075049
 30
0.0
 10
-41.26442060925456
 20
1.703440858553199
 30
0.0
 10
-41.89581600093547
 20
1.960560316206003
 30
0.0
 10
-42.5272569717141
 20
2.205612855664764
 30
0.0
 10
-43.15874663406351
 20
2.43709428319822
 30
0.0
 10
-43.79028824294807
 20
2.653577030400671
 30
0.0
 10
-44.42189050574778
 20
2.853715559378004
 30
0.0
 10
-45.05355268939228
 20
3.036282301107573
 30
0.0
 10
-45.68527930052055
 20
3.200138108498566
 30
0.0
 10
-46.31706811075722
 20
3.344268941711791
 30
0.0
 10
-46.94891667779939
 20
3.46779116454526
 30
0.0
 10
-47.58082449646695
 20
3.569887341368294
 30
0.0
 10
-48.21277904330563
 20
3.650086382605169
 30
0.0
 10
-48.84477268886457
 20
3.707304175557344
 30
0.0
 10
-49.47678927532273
 20
3.743309139049272
 30
0.0
 10
-49.89823643748813
 20
3.747771230349373
 30
0.0
 10
-50.10881973007533
 20
3.750000790688496
 30
0.0
  0
SPLINE
  5
28C2
330
1F
100
AcDbEntity
  8
AM_0
100
AcDbSpline
210
0.0
220
0.0
230
1.0
 70
     8
 71
     3
 72
    22
 73
    18
 74
     0
 42
0.0000000001
 43
0.0000000001
 40
17.17441611292
 40
17.17441611292
 40
17.17441611292
 40
17.17441611292
 40
17.38177636558528
 40
18.41823744757437
 40
19.46215659509824
 40
20.51397914882054
 40
21.57394542641293
 40
22.64209583141747
 40
23.71826625065247
 40
24.80210429862395
 40
25.8930771157021
 40
26.99048705697709
 40
28.09349309193389
 40
29.20112995599786
 40
30.31233024745139
 40
31.42594771747373
 40
32.5407895042663
 40
32.54078950426994
 40
32.54078950426994
 40
32.54078950426994
 10
-40.93149989453936
 20
-3.367526350495722
 30
0.0
 10
-40.97382066005349
 20
-3.358845468302359
 30
0.0
 10
-41.22751053659444
 20
-3.305969266018767
 30
0.0
 10
-41.69225609504985
 20
-3.199945598449214
 30
0.0
 10
-42.32398265828367
 20
-3.036090040082757
 30
0.0
 10
-42.95564484990675
 20
-2.853523217972849
 30
0.0
 10
-43.58724712941877
 20
-2.653384759491106
 30
0.0
 10
-44.21878866251705
 20
-2.436901809296451
 30
0.0
 10
-44.85027722274553
 20
-2.205421640823546
 30
0.0
 10
-45.48171573407374
 20
-1.960366856708917
 30
0.0
 10
-46.11311003880945
 20
-1.703248696378753
 30
0.0
 10
-46.74446715765701
 20
-1.435653416020928
 30
0.0
 10
-47.37579257041522
 20
-1.159226467106648
 30
0.0
 10
-48.00709263239519
 20
-0.8756684749361735
 30
0.0
 10
-48.63837293952245
 20
-0.5867230001921632
 30
0.0
 10
-49.26964284366574
 20
-0.2941729926311271
 30
0.0
 10
-49.69040683927964
 20
-0.0979659081677736
 30
0.0
 10
-49.90090442398551
 20
0.0001915255522508
 30
0.0
  0
SPLINE
  5
28C3
330
1F
100
AcDbEntity
  8
AM_0
100
AcDbSpline
210
0.0
220
0.0
230
1.0
 70
     8
 71
     3
 72
    17
 73
    13
 74
     0
 42
0.0000000001
 43
0.0000000001
 40
1.580019955310467
 40
1.580019955310467
 40
1.580019955310467
 40
1.580019955310467
 40
2.030549285115227
 40
3.082371838836284
 40
4.126290986361125
 40
5.162752068350215
 40
6.192395305374981
 40
7.216039564037012
 40
8.234688489606833
 40
9.249433870634691
 40
10.26152376260694
 40
11.27226744710342
 40
11.27226744710342
 40
11.27226744710342
 40
11.27226744710352
 10
-32.56597877892025
 20
-2.767609634025831
 30
0.0
 10
-32.65539865008212
 20
-2.796113722241519
 30
0.0
 10
-32.95409106145904
 20
-2.889539678633638
 30
0.0
 10
-33.46403308029764
 20
-3.036081634073401
 30
0.0
 10
-34.09567170863923
 20
-3.200189184045769
 30
0.0
 10
-34.72748422650384
 20
-3.344253824092101
 30
0.0
 10
-35.35932569379745
 20
-3.467791752772137
 30
0.0
 10
-35.99123599908652
 20
-3.569904349226654
 30
0.0
 10
-36.6231899612453
 20
-3.650008901893115
 30
0.0
 10
-37.25518327391652
 20
-3.707586306466931
 30
0.0
 10
-37.88720036642159
 20
-3.742265930508289
 30
0.0
 10
-38.3086473587686
 20
-3.749999230769522
 30
0.0
 10
-38.51923061111791
 20
-3.74999920931182
 30
0.0
  0
SPLINE
  5
28C4
330
1F
100
AcDbEntity
  8
AM_0
100
AcDbSpline
210
0.0
220
0.0
230
1.0
 70
     8
 71
     3
 72
    11
 73
     7
 74
     0
 42
0.0000000001
 43
0.0000000001
 40
11.27226913003534
 40
11.27226913003534
 40
11.27226913003534
 40
11.2722691300354
 40
12.28301561507924
 40
13.29510212255852
 40
14.30984805882082
 40
15.18258238371378
 40
15.18258238371378
 40
15.18258238371378
 40
15.18258238371378
 10
-38.51923061111794
 20
-3.74999920931182
 30
0.0
 10
-38.72901312226938
 20
-3.73164561956893
 30
0.0
 10
-39.14818245486468
 20
-3.687212377582238
 30
0.0
 10
-39.77477194146853
 20
-3.597579537958736
 30
0.0
 10
-40.3694164127487
 20
-3.490522938886039
 30
0.0
 10
-40.75399755184252
 20
-3.408225344970078
 30
0.0
 10
-40.93122349167486
 20
-3.367572606717047
 30
0.0
  0
SPLINE
  5
28C5
330
1F
100
AcDbEntity
  8
AM_0
100
AcDbSpline
210
0.0
220
0.0
230
1.0
 70
     8
 71
     3
 72
    23
 73
    19
 74
     0
 42
0.0000000001
 43
0.0000000001
 40
16.03460024169435
 40
16.03460024169435
 40
16.03460024169435
 40
16.03460024169435
 40
16.35212704903564
 40
17.38177054169784
 40
18.41822485651776
 40
19.46214173629503
 40
20.51396345435107
 40
21.57393551351153
 40
22.64208202342361
 40
23.7182574881101
 40
24.80209208578934
 40
25.89306333925047
 40
26.99048218457928
 40
28.09348763352352
 40
29.20111863782268
 40
30.31232390128032
 40
31.42594612798585
 40
32.5407912310448
 40
32.5407912310486
 40
32.5407912310486
 40
32.5407912310486
 10
-36.9760202129758
 20
3.750533546243662
 30
0.0
 10
-36.91108822252823
 20
3.737874206617216
 30
0.0
 10
-36.63587791486753
 20
3.682746345593204
 30
0.0
 10
-36.15109199411129
 20
3.574731715488902
 30
0.0
 10
-35.52329295763636
 20
3.414115141760295
 30
0.0
 10
-34.89607705043616
 20
3.233769501535457
 30
0.0
 10
-34.26940720982253
 20
3.034738543394148
 30
0.0
 10
-33.6432611941723
 20
2.818131869383711
 30
0.0
 10
-33.01760281374639
 20
2.585187694598678
 30
0.0
 10
-32.39238850007323
 20
2.337261695705568
 30
0.0
 10
-31.76758272622999
 20
2.075757863181108
 30
0.0
 10
-31.14313539927218
 20
1.802197826894996
 30
0.0
 10
-30.51899591472689
 20
1.518171635969288
 30
0.0
 10
-29.89512268796043
 20
1.2253123219304
 30
0.0
 10
-29.27146352025761
 20
0.9253228215840172
 30
0.0
 10
-28.64796064757136
 20
0.619954853522735
 30
0.0
 10
-28.02456329916712
 20
0.3109779424307395
 30
0.0
 10
-27.60907669643785
 20
0.1038258182264398
 30
0.0
 10
-27.40122008931365
 20
0.0001915255503717
 30
0.0
  0
SPLINE
  5
28C6
330
1F
100
AcDbEntity
  8
AM_0
 48
0.5
100
AcDbSpline
210
0.0
220
0.0
230
1.0
 70
     8
 71
     3
 72
    16
 73
    12
 74
     0
 42
0.0000000001
 43
0.0000000001
 40
0.0
 40
0.0
 40
0.0
 40
0.0
 40
1.010743614677189
 40
2.022833924044153
 40
3.037578959561199
 40
4.056212747067873
 40
5.079857613375832
 40
6.109500119648989
 40
7.14596120163808
 40
8.18989512056258
 40
8.547776576703423
 40
8.547776576703423
 40
8.547776576703423
 40
8.547776576703423
 10
-4.113971477864975
 20
3.750000790687328
 30
0.0
 10
-4.32455477131614
 20
3.747771239418411
 30
0.0
 10
-4.746001935210457
 20
3.743309166270846
 30
0.0
 10
-5.378018508675585
 20
3.70730406637702
 30
0.0
 10
-6.010009062385241
 20
3.650087078281783
 30
0.0
 10
-6.641960311660884
 20
3.569886647365927
 30
0.0
 10
-7.273864730146221
 20
3.467790475561477
 30
0.0
 10
-7.90571459975343
 20
3.344271917259632
 30
0.0
 10
-8.537501439995338
 20
3.200126102269219
 30
0.0
 10
-9.0292862681593
 20
3.072613844334628
 30
0.0
 10
-9.310570218406443
 20
2.994037768070663
 30
0.0
 10
-9.38228932712982
 20
2.973651863707623
 30
0.0
  0
ELLIPSE
  5
28C7
330
1F
100
AcDbEntity
  8
AM_0
 48
0.5
100
AcDbEllipse
 10
-61.06280793725356
 20
-2.538084193136855
 30
0.0
 11
0.461176439033592
 21
0.8229996346614022
 31
0.0
210
0.0
220
0.0
230
1.0
 40
0.9920227879073541
 41
0.2244417997052666
 42
2.052631154487227
  0
ELLIPSE
  5
28C8
330
1F
100
AcDbEntity
  8
AM_0
 48
0.5
100
AcDbEllipse
 10
-60.75007905541792
 20
-2.499999209311232
 30
0.0
 11
0.8838834764831831
 21
0.883883476483183
 31
0.0
210
0.0
220
0.0
230
1.0
 40
0.9999999999999868
 41
2.367441267584168
 42
3.926990503070705
  0
LINE
  5
28C9
330
1F
100
AcDbEntity
  8
AM_11
 48
0.5
100
AcDbLine
 10
-60.63464327116167
 20
-3.749999209311216
 30
0.0
 11
-51.87812019002329
 21
-3.749999209311456
 31
0.0
  0
SPLINE
  5
28CA
330
1F
100
AcDbEntity
  8
AM_0
 48
0.5
100
AcDbSpline
210
0.0
220
0.0
230
1.0
 70
     8
 71
     3
 72
    22
 73
    18
 74
     0
 42
0.0000000001
 43
0.0000000001
 40
0.0
 40
0.0
 40
0.0
 40
0.0
 40
1.010743684496582
 40
2.022833993863546
 40
3.037578683882831
 40
4.056212471389632
 40
5.079857945358201
 40
6.109499720892564
 40
7.145961650132166
 40
8.189873411961459
 40
9.241710626092514
 40
10.30166235592959
 40
11.36982472628033
 40
12.44598212828784
 40
13.52983440361964
 40
14.62080578343036
 40
14.90544694398022
 40
14.90544694398022
 40
14.90544694398022
 40
14.90544694398022
 10
-51.78821553765669
 20
-3.749999209311458
 30
0.0
 10
-51.99879883302308
 20
-3.747768716724076
 30
0.0
 10
-52.42024598618449
 20
-3.743304759839662
 30
0.0
 10
-53.05226242985975
 20
-3.707299482810479
 30
0.0
 10
-53.68425324122316
 20
-3.650086071802866
 30
0.0
 10
-54.31620459075267
 20
-3.569885724351198
 30
0.0
 10
-54.94810846329061
 20
-3.467785564883695
 30
0.0
 10
-55.57995826662663
 20
-3.344268932976027
 30
0.0
 10
-56.21174474191857
 20
-3.200134225260465
 30
0.0
 10
-56.84347223355063
 20
-3.03627559469688
 30
0.0
 10
-57.47513505188706
 20
-2.853716147181062
 30
0.0
 10
-58.10673649793566
 20
-2.653566960074718
 30
0.0
 10
-58.73828064320509
 20
-2.437101674164731
 30
0.0
 10
-59.36976701333158
 20
-2.205607166412158
 30
0.0
 10
-60.00120743846839
 20
-1.960558161641306
 30
0.0
 10
-60.47577904581114
 20
-1.767310508057792
 30
0.0
 10
-60.74022690624936
 20
-1.656856361048176
 30
0.0
 10
-60.79490593022718
 20
-1.633904972456744
 30
0.0
  0
SPLINE
  5
28CB
330
1F
100
AcDbEntity
  8
AM_0
100
AcDbSpline
210
0.0
220
0.0
230
1.0
 70
     8
 71
     3
 72
    13
 73
     9
 74
     0
 42
0.0000000001
 43
0.0000000001
 40
16.03460056234195
 40
16.03460056234195
 40
16.03460056234195
 40
16.03460056234195
 40
16.35212717791071
 40
17.38177067057215
 40
18.41822498539278
 40
19.46214186516937
 40
20.5139635832251
 40
21.34083983469381
 40
21.34083983469381
 40
21.34083983469381
 40
21.34083983469381
 10
-60.63639217811182
 20
-3.750340255284084
 30
0.0
 10
-60.57146016135103
 20
-3.737681288486738
 30
0.0
 10
-60.29624962595944
 20
-3.682554939993498
 30
0.0
 10
-59.81146396946749
 20
-3.57453904879305
 30
0.0
 10
-59.18366485398689
 20
-3.413922920415756
 30
0.0
 10
-58.55644896818301
 20
-3.233577159582275
 30
0.0
 10
-57.97606793905637
 20
-3.049247605500045
 30
0.0
 10
-57.60579506292813
 20
-2.922323589460913
 30
0.0
 10
-57.44335857137169
 20
-2.864952777679379
 30
0.0
  0
SPLINE
  5
28CC
330
1F
100
AcDbEntity
  8
AM_0
 48
0.5
100
AcDbSpline
210
0.0
220
0.0
230
1.0
 70
     8
 71
     3
 72
    26
 73
    22
 74
     0
 42
0.0000000001
 43
0.0000000001
 40
0.0
 40
0.0
 40
0.0
 40
0.0
 40
0.6738291229976858
 40
1.34855571764586
 40
2.025052638331105
 40
2.7041418300023
 40
3.386571335776987
 40
4.073000160460178
 40
4.763974215119558
 40
5.459920313469455
 40
6.161135349283505
 40
6.867779534345081
 40
7.579884616450838
 40
8.297322010138517
 40
9.01989019369366
 40
9.747205405079087
 40
10.47881203259601
 40
11.21414938923388
 40
11.95257396527625
 40
12.69337415957888
 40
13.41285713964268
 40
13.41285713964268
 40
13.41285713964268
 40
13.41285713964268
 10
-50.1089065135708
 20
-3.749999209311505
 30
0.0
 10
-50.31948976872364
 20
-3.747768050258029
 30
0.0
 10
-50.74093675444235
 20
-3.743302760474832
 30
0.0
 10
-51.37295385997189
 20
-3.707307508874841
 30
0.0
 10
-52.00494398890878
 20
-3.650084469742713
 30
0.0
 10
-52.63689499694362
 20
-3.569884175253747
 30
0.0
 10
-53.26880061112984
 20
-3.467793619255329
 30
0.0
 10
-53.90064824145634
 20
-3.344266306931251
 30
0.0
 10
-54.53243746758296
 20
-3.200136836732474
 30
0.0
 10
-55.16416398072113
 20
-3.036280578471587
 30
0.0
 10
-55.79582628740821
 20
-2.853714232853766
 30
0.0
 10
-56.42742958624859
 20
-2.653574107999421
 30
0.0
 10
-57.05897126008444
 20
-2.437096004667564
 30
0.0
 10
-57.69045846446081
 20
-2.205607853224889
 30
0.0
 10
-58.32189964279685
 20
-1.96056013175594
 30
0.0
 10
-58.95329615939968
 20
-1.703439362888784
 30
0.0
 10
-59.58465272099849
 20
-1.435842979104415
 30
0.0
 10
-60.21598092171375
 20
-1.159421992316373
 30
0.0
 10
-60.84727032814612
 20
-0.875841123454402
 30
0.0
 10
-61.47207502082217
 20
-0.5899627658632655
 30
0.0
 10
-61.74264870940075
 20
-0.3979076799147632
 30
0.0
 10
-61.99999999999999
 20
-0.2791685022437521
 30
0.0
  0
LINE
  5
28CD
330
1F
100
AcDbEntity
  8
AM_0
 48
0.5
100
AcDbLine
 10
-53.86702228200309
 20
1.900056199166096
 30
0.0
 11
-61.99999999999999
 21
-0.2791685022437521
 31
0.0
  0
SPLINE
  5
28CE
330
1F
100
AcDbEntity
  8
AM_0
100
AcDbSpline
210
0.0
220
0.0
230
1.0
 70
     8
 71
     3
 72
    23
 73
    19
 74
     0
 42
0.0000000001
 43
0.0000000001
 40
16.03460024169435
 40
16.03460024169435
 40
16.03460024169435
 40
16.03460024169435
 40
16.35212704903564
 40
17.38177054169784
 40
18.41822485651776
 40
19.46214173629503
 40
20.51396345435107
 40
21.57393551351153
 40
22.64208202342361
 40
23.7182574881101
 40
24.80209208578934
 40
25.89306333925047
 40
26.99048218457928
 40
28.09348763352352
 40
29.20111863782268
 40
30.31232390128032
 40
31.42594612798585
 40
32.5407912310448
 40
32.5407912310486
 40
32.5407912310486
 40
32.5407912310486
 10
-59.47579133114017
 20
3.750533546244189
 30
0.0
 10
-59.4108593406926
 20
3.737874206617745
 30
0.0
 10
-59.13564903303191
 20
3.682746345593734
 30
0.0
 10
-58.65086311227567
 20
3.574731715489431
 30
0.0
 10
-58.02306407580074
 20
3.414115141760824
 30
0.0
 10
-57.39584816860054
 20
3.233769501535986
 30
0.0
 10
-56.7691783279869
 20
3.034738543394676
 30
0.0
 10
-56.14303231233666
 20
2.818131869384241
 30
0.0
 10
-55.51737393191077
 20
2.585187694599209
 30
0.0
 10
-54.89215961823761
 20
2.337261695706098
 30
0.0
 10
-54.26735384439435
 20
2.075757863181638
 30
0.0
 10
-53.64290651743653
 20
1.802197826895525
 30
0.0
 10
-53.01876703289123
 20
1.518171635969818
 30
0.0
 10
-52.39489380612484
 20
1.22531232193093
 30
0.0
 10
-51.77123463842203
 20
0.9253228215845467
 30
0.0
 10
-51.14773176573573
 20
0.6199548535232645
 30
0.0
 10
-50.5243344173315
 20
0.3109779424312689
 30
0.0
 10
-50.10884781460223
 20
0.1038258182269692
 30
0.0
 10
-49.90099120747802
 20
0.0001915255509011
 30
0.0
  0
LINE
  5
28CF
330
1F
100
AcDbEntity
  8
AM_11
 48
0.5
100
AcDbLine
 10
-59.47305978347122
 20
3.75000079068875
 30
0.0
 11
-51.87812019002313
 21
3.750000790688544
 31
0.0
  0
VIEWPORT
  5
110
330
101
100
AcDbEntity
 67
     1
  8
0
100
AcDbViewport
 10
420.5
 20
297.0
 30
0.0
 40
948.9782706766916
 41
628.452
 68
     1
 69
     1
1001
ACAD
1000
MVIEW
1002
{
1070
    16
1010
0.0
1020
0.0
1030
0.0
1010
0.0
1020
0.0
1030
1.0
1040
0.0
1040
628.452
1040
420.5
1040
297.0
1040
50.0
1040
0.0
1040
0.0
1070
     0
1070
   100
1070
     1
1070
     1
1070
     0
1070
     0
1070
     0
1070
     0
1040
0.0
1040
0.0
1040
0.0
1040
10.0
1040
10.0
1040
10.0
1040
10.0
1070
     0
1002
{
1002
}
1002
}
  0
ENDSEC
  0
SECTION
  2
OBJECTS
  0
DICTIONARY
  5
C
330
0
100
AcDbDictionary
  3
ACAD_GROUP
350
D
  3
ACAD_LAYOUT
350
1A
  3
ACAD_MLINESTYLE
350
17
  3
ACAD_PLOTSETTINGS
350
19
  3
ACAD_PLOTSTYLENAME
350
E
  3
ACDBVARIABLEDICTIONARY
350
34
  3
ACMDICTIONARY
350
43
  3
AMG
350
2B
  3
AMGSNAPSETTINGS
350
6E
  3
DWGPROPS
350
291F
  3
ACDBHEADERROUNDTRIPXREC
350
292B
  0
DICTIONARY
  5
74
330
1F
100
AcDbDictionary
280
     1
  3
ACAD_INDEX
360
2921
  3
ACAD_LAYOUTSELFREF
360
294E
  0
DICTIONARY
  5
2953
330
101
100
AcDbDictionary
280
     1
  3
ACAD_LAYOUTSELFREF
360
2954
  0
DICTIONARY
  5
D
102
{ACAD_REACTORS
330
C
102
}
330
C
100
AcDbDictionary
  0
DICTIONARY
  5
1A
102
{ACAD_REACTORS
330
C
102
}
330
C
100
AcDbDictionary
  0
DICTIONARY
  5
17
102
{ACAD_REACTORS
330
C
102
}
330
C
100
AcDbDictionary
  3
STANDARD
350
18
  0
DICTIONARY
  5
19
102
{ACAD_REACTORS
330
C
102
}
330
C
100
AcDbDictionary
  0
ACDBDICTIONARYWDFLT
  5
E
102
{ACAD_REACTORS
330
C
102
}
330
C
100
AcDbDictionary
281
     1
  3
Normal
350
F
100
AcDbDictionaryWithDefault
340
F
  0
DICTIONARY
  5
34
102
{ACAD_REACTORS
330
C
102
}
330
C
100
AcDbDictionary
  3
INDEXCTL
350
35
  3
SORTENTS
350
B5E
  0
DICTIONARY
  5
43
102
{ACAD_REACTORS
330
C
102
}
330
C
100
AcDbDictionary
  3
ACMSTDDICTIONARY
350
260
  0
DICTIONARY
  5
2B
102
{ACAD_REACTORS
330
C
102
}
330
C
100
AcDbDictionary
  3
ACMGSETTINGS
350
2C
  0
DICTIONARY
  5
6E
102
{ACAD_REACTORS
330
C
102
}
330
C
100
AcDbDictionary
  0
XRECORD
  5
291F
102
{ACAD_REACTORS
330
C
102
}
330
C
100
AcDbXrecord
  1
DWGPROPS COOKIE
  2

  3

  4

  6

  7

  8

  9

300
AmdtFileType=82
301
=
302
=
303
=
304
=
305
=
306
=
307
=
308
=
309
=
 40
0.040110462962963
 41
2452800.443498622
 42
2452948.68953088
  1

 90
        1
  0
DICTIONARY
  5
292B
102
{ACAD_REACTORS
330
C
102
}
330
C
100
AcDbDictionary
  3
TSTACKALIGN
350
292C
  3
TSTACKSIZE
350
292D
  3
HYPERLINKBASE
350
292E
  3
STYLESHEET
350
292F
  3
LAYOUTDICT
350
2930
  3
PLOTSETDICT
350
2931
  3
PLOTSTYLNAMDICT
350
2932
  3
LWETCUNION
350
2933
  3
INSUNITS
350
2934
  3
CEPSNTYPE
350
2935
  3
FINGERPRINTGUID
350
2936
  3
VERSIONGUID
350
2937
  3
PSVPSCALE
350
2938
  3
DIMSTYLEDATA
350
2939
  3
PUCSORTHOREF
350
293A
  3
PUCSORTHOVIEW
350
293B
  3
PUCSBASE
350
293C
  3
PUCSORGTOP
350
293D
  3
PUCSORGBOTTOM
350
293E
  3
PUCSORGLEFT
350
293F
  3
PUCSORGRIGHT
350
2940
  3
PUCSORGFRONT
350
2941
  3
PUCSORGBACK
350
2942
  3
UCSORTHOREF
350
2943
  3
UCSORTHOVIEW
350
2944
  3
UCSBASE
350
2945
  3
UCSORGTOP
350
2946
  3
UCSORGBOTTOM
350
2947
  3
UCSORGLEFT
350
2948
  3
UCSORGRIGHT
350
2949
  3
UCSORGFRONT
350
294A
  3
UCSORGBACK
350
294B
  0
DICTIONARY
  5
2921
102
{ACAD_REACTORS
330
74
102
}
330
74
100
AcDbDictionary
  3
*A1
350
2922
  0
XRECORD
  5
294E
102
{ACAD_REACTORS
330
74
102
}
330
74
100
AcDbXrecord
340
1F
  0
XRECORD
  5
2954
102
{ACAD_REACTORS
330
2953
102
}
330
2953
100
AcDbXrecord
340
101
  0
MLINESTYLE
  5
18
102
{ACAD_REACTORS
330
17
102
}
330
17
100
AcDbMlineStyle
  2
STANDARD
 70
     0
  3

 62
   256
 51
90.0
 52
90.0
 71
     2
 49
0.5
 62
   256
  6
BYLAYER
 49
-0.5
 62
   256
  6
BYLAYER
  0
ACDBPLACEHOLDER
  5
F
102
{ACAD_REACTORS
330
E
102
}
330
E
100
AcDbPlaceHolder
280
     0
  0
DICTIONARYVAR
  5
35
102
{ACAD_REACTORS
330
34
102
}
330
34
100
DictionaryVariables
280
     0
  1
1
  0
DICTIONARYVAR
  5
B5E
102
{ACAD_REACTORS
330
34
102
}
330
34
100
DictionaryVariables
280
     0
  1
96
  0
DICTIONARY
  5
260
102
{ACAD_REACTORS
330
43
102
}
330
43
100
AcDbDictionary
  0
DICTIONARY
  5
2C
102
{ACAD_REACTORS
330
2B
102
}
330
2B
100
AcDbDictionary
  3
DWGSETTINGS
350
2D
  0
XRECORD
  5
292C
102
{ACAD_REACTORS
330
292B
102
}
330
292B
100
AcDbXrecord
 90
        1
  0
XRECORD
  5
292D
102
{ACAD_REACTORS
330
292B
102
}
330
292B
100
AcDbXrecord
 90
       70
  0
XRECORD
  5
292E
102
{ACAD_REACTORS
330
292B
102
}
330
292B
100
AcDbXrecord
  1

  0
XRECORD
  5
292F
102
{ACAD_REACTORS
330
292B
102
}
330
292B
100
AcDbXrecord
  1
ASAMI.ctb
  0
XRECORD
  5
2930
102
{ACAD_REACTORS
330
292B
102
}
330
292B
100
AcDbXrecord
340
1A
  0
XRECORD
  5
2931
102
{ACAD_REACTORS
330
292B
102
}
330
292B
100
AcDbXrecord
340
19
  0
XRECORD
  5
2932
102
{ACAD_REACTORS
330
292B
102
}
330
292B
100
AcDbXrecord
340
E
  0
XRECORD
  5
2933
102
{ACAD_REACTORS
330
292B
102
}
330
292B
100
AcDbXrecord
 90
    10781
  0
XRECORD
  5
2934
102
{ACAD_REACTORS
330
292B
102
}
330
292B
100
AcDbXrecord
 90
        4
  0
XRECORD
  5
2935
102
{ACAD_REACTORS
330
292B
102
}
330
292B
100
AcDbXrecord
 90
        0
  0
XRECORD
  5
2936
102
{ACAD_REACTORS
330
292B
102
}
330
292B
100
AcDbXrecord
  1
{AFB28963-8C59-40AE-9337-C84526B81ACE}
  0
XRECORD
  5
2937
102
{ACAD_REACTORS
330
292B
102
}
330
292B
100
AcDbXrecord
  1
{2C7CBBD3-8EE9-4AA9-9408-C4858B60A28A}
  0
XRECORD
  5
2938
102
{ACAD_REACTORS
330
292B
102
}
330
292B
100
AcDbXrecord
 40
0.0
  0
XRECORD
  5
2939
102
{ACAD_REACTORS
330
292B
102
}
330
292B
100
AcDbXrecord
1000
DSTYLE
1002
{
1070
    79
 70
     2
1070
   341
340
59
1070
   342
340
59
1070
   371
 70
    -1
1070
   372
 70
    -1
1002
}
  0
XRECORD
  5
293A
102
{ACAD_REACTORS
330
292B
102
}
330
292B
100
AcDbXrecord
340
0
  0
XRECORD
  5
293B
102
{ACAD_REACTORS
330
292B
102
}
330
292B
100
AcDbXrecord
 70
     0
  0
XRECORD
  5
293C
102
{ACAD_REACTORS
330
292B
102
}
330
292B
100
AcDbXrecord
340
0
  0
XRECORD
  5
293D
102
{ACAD_REACTORS
330
292B
102
}
330
292B
100
AcDbXrecord
 10
0.0
 20
0.0
 30
0.0
  0
XRECORD
  5
293E
102
{ACAD_REACTORS
330
292B
102
}
330
292B
100
AcDbXrecord
 10
0.0
 20
0.0
 30
0.0
  0
XRECORD
  5
293F
102
{ACAD_REACTORS
330
292B
102
}
330
292B
100
AcDbXrecord
 10
0.0
 20
0.0
 30
0.0
  0
XRECORD
  5
2940
102
{ACAD_REACTORS
330
292B
102
}
330
292B
100
AcDbXrecord
 10
0.0
 20
0.0
 30
0.0
  0
XRECORD
  5
2941
102
{ACAD_REACTORS
330
292B
102
}
330
292B
100
AcDbXrecord
 10
0.0
 20
0.0
 30
0.0
  0
XRECORD
  5
2942
102
{ACAD_REACTORS
330
292B
102
}
330
292B
100
AcDbXrecord
 10
0.0
 20
0.0
 30
0.0
  0
XRECORD
  5
2943
102
{ACAD_REACTORS
330
292B
102
}
330
292B
100
AcDbXrecord
340
0
  0
XRECORD
  5
2944
102
{ACAD_REACTORS
330
292B
102
}
330
292B
100
AcDbXrecord
 70
     0
  0
XRECORD
  5
2945
102
{ACAD_REACTORS
330
292B
102
}
330
292B
100
AcDbXrecord
340
0
  0
XRECORD
  5
2946
102
{ACAD_REACTORS
330
292B
102
}
330
292B
100
AcDbXrecord
 10
0.0
 20
0.0
 30
0.0
  0
XRECORD
  5
2947
102
{ACAD_REACTORS
330
292B
102
}
330
292B
100
AcDbXrecord
 10
0.0
 20
0.0
 30
0.0
  0
XRECORD
  5
2948
102
{ACAD_REACTORS
330
292B
102
}
330
292B
100
AcDbXrecord
 10
0.0
 20
0.0
 30
0.0
  0
XRECORD
  5
2949
102
{ACAD_REACTORS
330
292B
102
}
330
292B
100
AcDbXrecord
 10
0.0
 20
0.0
 30
0.0
  0
XRECORD
  5
294A
102
{ACAD_REACTORS
330
292B
102
}
330
292B
100
AcDbXrecord
 10
0.0
 20
0.0
 30
0.0
  0
XRECORD
  5
294B
102
{ACAD_REACTORS
330
292B
102
}
330
292B
100
AcDbXrecord
 10
0.0
 20
0.0
 30
0.0
  0
LAYER_INDEX
  5
2922
102
{ACAD_REACTORS
330
2921
102
}
330
2921
100
AcDbIndex
 40
2453151.677947037
100
AcDbLayerIndex
  8
0
360
2923
 90
        0
  8
AM_0
360
2924
 90
       53
  8
AM_7
360
2925
 90
        1
  8
AM_11
360
2926
 90
       21
  8
AM_5
360
2927
 90
        5
  8
Defpoints
360
2928
 90
        0
  8
AM_6
360
2929
 90
        1
  0
XRECORD
  5
2D
102
{ACAD_REACTORS
330
2C
102
}
330
2C
100
AcDbXrecord
  1
VERSION
140
15.0
  1
PRODUCT
  2
AutoCAD Mechanical 2000
  0
IDBUFFER
  5
2923
330
0
100
AcDbIdBuffer
  0
IDBUFFER
  5
2924
330
0
100
AcDbIdBuffer
330
28CA
330
28CB
330
28CC
330
28CD
330
28CE
330
C30
330
1CA9
330
1E12
330
1E16
330
1E1D
330
1E21
330
1E22
330
1E25
330
1E26
330
220F
330
252F
330
2533
330
2534
330
2535
330
254F
330
2550
330
289E
330
289F
330
28A0
330
28A1
330
28A2
330
28A3
330
28A4
330
28A5
330
28A6
330
28B1
330
28B2
330
28B3
330
28B4
330
28B5
330
28B6
330
28B7
330
28B8
330
28BA
330
28BB
330
28BC
330
28BD
330
28BE
330
28BF
330
28C0
330
28C1
330
28C2
330
28C3
330
28C4
330
28C5
330
28C6
330
28C7
330
28C8
  0
IDBUFFER
  5
2925
330
0
100
AcDbIdBuffer
330
C9F
  0
IDBUFFER
  5
2926
330
0
100
AcDbIdBuffer
330
28AF
330
28B0
330
28B9
330
28C9
330
28CF
330
1BE8
330
1BE9
330
1F66
330
1F67
330
1F68
330
1F69
330
1F6A
330
1F6B
330
28A7
330
28A8
330
28A9
330
28AA
330
28AB
330
28AC
330
28AD
330
28AE
  0
IDBUFFER
  5
2927
330
0
100
AcDbIdBuffer
330
CC6
330
DF5
330
228A
330
258B
330
26D6
  0
IDBUFFER
  5
2928
330
0
100
AcDbIdBuffer
  0
IDBUFFER
  5
2929
330
0
100
AcDbIdBuffer
330
19BD
  0
ENDSEC
  0
EOF
