  0
SECTION
  2
HEADER
  9
$ACADVER
  1
AC1014
  9
$ACADMAINTVER
 70
     9
  9
$DWGCODEPAGE
  3
ANSI_932
  9
$INSBASE
 10
0.0
 20
0.0
 30
0.0
  9
$EXTMIN
 10
-107.6500009999999
 20
-27.25000236965384
 30
-0.00000001
  9
$EXTMAX
 10
13.87150483951163
 20
13.50478524788581
 30
0.00000001
  9
$LIMMIN
 10
-138.8290064717842
 20
-45.22474571374511
  9
$LIMMAX
 10
23.05023987897198
 20
30.30997914579825
  9
$ORTHOMODE
 70
     0
  9
$REGENMODE
 70
     1
  9
$FILLMODE
 70
     1
  9
$QTEXTMODE
 70
     0
  9
$MIRRTEXT
 70
     0
  9
$DRAGMODE
 70
     2
  9
$LTSCALE
 40
1.0
  9
$OSMODE
 70
    55
  9
$ATTMODE
 70
     1
  9
$TEXTSIZE
 40
2.5
  9
$TRACEWID
 40
1.0
  9
$TEXTSTYLE
  7
STANDARD
  9
$CLAYER
  8
AM_0
  9
$CELTYPE
  6
BYLAYER
  9
$CECOLOR
 62
   256
  9
$CELTSCALE
 40
1.0
  9
$DELOBJ
 70
     1
  9
$DISPSILH
 70
     0
  9
$DIMSCALE
 40
0.5
  9
$DIMASZ
 40
2.5
  9
$DIMEXO
 40
1.0
  9
$DIMDLI
 40
12.0
  9
$DIMRND
 40
0.0
  9
$DIMDLE
 40
0.0
  9
$DIMEXE
 40
1.0
  9
$DIMTP
 40
0.1
  9
$DIMTM
 40
0.1
  9
$DIMTXT
 40
3.2
  9
$DIMCEN
 40
0.0
  9
$DIMTSZ
 40
0.0
  9
$DIMTOL
 70
     0
  9
$DIMLIM
 70
     0
  9
$DIMTIH
 70
     0
  9
$DIMTOH
 70
     0
  9
$DIMSE1
 70
     0
  9
$DIMSE2
 70
     0
  9
$DIMTAD
 70
     3
  9
$DIMZIN
 70
     8
  9
$DIMBLK
  1
OPEN30
  9
$DIMASO
 70
     1
  9
$DIMSHO
 70
     1
  9
$DIMPOST
  1

  9
$DIMAPOST
  1
"
  9
$DIMALT
 70
     0
  9
$DIMALTD
 70
     2
  9
$DIMALTF
 40
0.0393701
  9
$DIMLFAC
 40
1.0
  9
$DIMTOFL
 70
     1
  9
$DIMTVP
 40
0.0
  9
$DIMTIX
 70
     0
  9
$DIMSOXD
 70
     0
  9
$DIMSAH
 70
     0
  9
$DIMBLK1
  1

  9
$DIMBLK2
  1

  9
$DIMSTYLE
  2
AM_JIS
  9
$DIMCLRD
 70
   256
  9
$DIMCLRE
 70
   256
  9
$DIMCLRT
 70
     2
  9
$DIMTFAC
 40
0.71
  9
$DIMGAP
 40
1.5
  9
$DIMJUST
 70
     0
  9
$DIMSD1
 70
     0
  9
$DIMSD2
 70
     0
  9
$DIMTOLJ
 70
     0
  9
$DIMTZIN
 70
     0
  9
$DIMALTZ
 70
     0
  9
$DIMALTTZ
 70
     0
  9
$DIMFIT
 70
     3
  9
$DIMUPT
 70
     0
  9
$DIMUNIT
 70
     2
  9
$DIMDEC
 70
     3
  9
$DIMTDEC
 70
     3
  9
$DIMALTU
 70
     2
  9
$DIMALTTD
 70
     2
  9
$DIMTXSTY
  7
ASAMI
  9
$DIMAUNIT
 70
     0
  9
$LUNITS
 70
     2
  9
$LUPREC
 70
     2
  9
$SKETCHINC
 40
1.0
  9
$FILLETRAD
 40
2.5
  9
$AUNITS
 70
     0
  9
$AUPREC
 70
     0
  9
$MENU
  1
.
  9
$ELEVATION
 40
0.0
  9
$PELEVATION
 40
0.0
  9
$THICKNESS
 40
0.0
  9
$LIMCHECK
 70
     0
  9
$BLIPMODE
 70
     0
  9
$CHAMFERA
 40
0.5
  9
$CHAMFERB
 40
0.5
  9
$CHAMFERC
 40
20.0
  9
$CHAMFERD
 40
0.0
  9
$SKPOLY
 70
     0
  9
$TDCREATE
 40
2452800.443498622
  9
$TDUPDATE
 40
2453151.570116087
  9
$TDINDWG
 40
0.0444120602
  9
$TDUSRTIMER
 40
0.0444120602
  9
$USRTIMER
 70
     1
  9
$ANGBASE
 50
0.0
  9
$ANGDIR
 70
     0
  9
$PDMODE
 70
     3
  9
$PDSIZE
 40
0.0
  9
$PLINEWID
 40
0.0
  9
$COORDS
 70
     1
  9
$SPLFRAME
 70
     0
  9
$SPLINETYPE
 70
     6
  9
$SPLINESEGS
 70
     8
  9
$ATTDIA
 70
     1
  9
$ATTREQ
 70
     1
  9
$HANDLING
 70
 12289
  9
$HANDSEED
  5
2C35
  9
$SURFTAB1
 70
     6
  9
$SURFTAB2
 70
     6
  9
$SURFTYPE
 70
     6
  9
$SURFU
 70
     6
  9
$SURFV
 70
     6
  9
$UCSNAME
  2

  9
$UCSORG
 10
0.0
 20
0.0
 30
0.0
  9
$UCSXDIR
 10
1.0
 20
0.0000000000000027
 30
0.0
  9
$UCSYDIR
 10
-0.0000000000000027
 20
1.0
 30
0.0
  9
$PUCSNAME
  2

  9
$PUCSORG
 10
0.0
 20
0.0
 30
0.0
  9
$PUCSXDIR
 10
1.0
 20
0.0
 30
0.0
  9
$PUCSYDIR
 10
0.0
 20
1.0
 30
0.0
  9
$USERI1
 70
     0
  9
$USERI2
 70
     0
  9
$USERI3
 70
     0
  9
$USERI4
 70
     0
  9
$USERI5
 70
     0
  9
$USERR1
 40
0.0
  9
$USERR2
 40
0.0
  9
$USERR3
 40
0.0
  9
$USERR4
 40
0.0
  9
$USERR5
 40
0.0
  9
$WORLDVIEW
 70
     1
  9
$SHADEDGE
 70
     3
  9
$SHADEDIF
 70
    70
  9
$TILEMODE
 70
     1
  9
$MAXACTVP
 70
    64
  9
$PINSBASE
 10
0.0
 20
0.0
 30
0.0
  9
$PLIMCHECK
 70
     0
  9
$PEXTMIN
 10
1.000000000000000E+20
 20
1.000000000000000E+20
 30
1.000000000000000E+20
  9
$PEXTMAX
 10
-1.000000000000000E+20
 20
-1.000000000000000E+20
 30
-1.000000000000000E+20
  9
$PLIMMIN
 10
0.0
 20
0.0
  9
$PLIMMAX
 10
841.0
 20
594.0
  9
$UNITMODE
 70
     0
  9
$VISRETAIN
 70
     1
  9
$PLINEGEN
 70
     0
  9
$PSLTSCALE
 70
     0
  9
$TREEDEPTH
 70
  3020
  9
$PICKSTYLE
 70
     0
  9
$CMLSTYLE
  2
STANDARD
  9
$CMLJUST
 70
     0
  9
$CMLSCALE
 40
20.0
  9
$PROXYGRAPHICS
 70
     1
  9
$MEASUREMENT
 70
     1
  0
ENDSEC
  0
SECTION
  2
CLASSES
  0
CLASS
  1
ACDBDICTIONARYWDFLT
  2
AcDbDictionaryWithDefault
  3
AutoCAD 2000
 90
        0
280
     0
281
     0
  0
CLASS
  1
ACDBPLACEHOLDER
  2
AcDbPlaceHolder
  3
AutoCAD 2000
 90
        0
280
     0
281
     0
  0
CLASS
  1
LAYOUT
  2
AcDbLayout
  3
AutoCAD 2000
 90
        0
280
     0
281
     0
  0
CLASS
  1
AMGSETTINGSOBJ
  2
AmgSettingsObj
  3
"AcadM|Product Description: AutoCAD Mechanical 2000|Company: Autodesk"
 90
        0
280
     0
281
     0
  0
CLASS
  1
ACME_DOCUMENT
  2
AcMeDbDoc
  3
AcMeServices
 90
        0
280
     0
281
     0
  0
CLASS
  1
ACMESCOPE
  2
AcMeScope
  3
AcMeServices
 90
        0
280
     0
281
     0
  0
CLASS
  1
ACMECOMMANDHISTORY
  2
AcMeCommandHistory
  3
AcMeServices
 90
        0
280
     0
281
     0
  0
CLASS
  1
DICTIONARYVAR
  2
AcDbDictionaryVar
  3
AutoCAD 2000
 90
        0
280
     0
281
     0
  0
CLASS
  1
ACIMSYSVARMAN
  2
AcImSysVarManager
  3
AcMeServices
 90
        0
280
     0
281
     0
  0
CLASS
  1
ACIMREALSYSVAR
  2
AcImRealSysVar
  3
AcMeServices
 90
        0
280
     0
281
     0
  0
CLASS
  1
ACIMINTSYSVAR
  2
AcImIntSysVar
  3
AcMeServices
 90
        0
280
     0
281
     0
  0
CLASS
  1
ACMEDRAWINGMAN
  2
AcMeDrawingMan
  3
AcMeServices
 90
        0
280
     0
281
     0
  0
CLASS
  1
ACMEVIEW
  2
AcMeView
  3
AcMeServices
 90
        0
280
     0
281
     0
  0
CLASS
  1
ACDBENTITYCACHE
  2
AcMeEntityCache
  3
AcMeServices
 90
        0
280
     0
281
     0
  0
CLASS
  1
GSMANAGER
  2
AcMeGSManager
  3
AcMeServices
 90
        0
280
     0
281
     0
  0
CLASS
  1
AmdtInternalReactor
  2
AmdtInternalReactor
  3
AcMeServices
 90
        0
280
     0
281
     0
  0
CLASS
  1
ACMESTATEMGR
  2
AcMeStateMgr
  3
AcMeServices
 90
        0
280
     0
281
     0
  0
CLASS
  1
ACME_DATABASE
  2
AcMeDbDatabase
  3
AcMeServices
 90
        0
280
     0
281
     0
  0
CLASS
  1
ACRFINSADJUSTERMGR
  2
AcRfInsAdjusterMgr
  3
AcMeServices
 90
        0
280
     0
281
     0
  0
CLASS
  1
ACMDATADICTIONARY
  2
AcmDataDictionary
  3
"AcmSymBB|Product Description: AutoCAD Mechanical 2000|Company: Autodesk"
 90
        0
280
     0
281
     0
  0
CLASS
  1
ACMDATAENTRYBLOCK
  2
AcmDataEntryBlock
  3
"AcmSymBB|Product Description: AutoCAD Mechanical 2000|Company: Autodesk"
 90
        0
280
     0
281
     0
  0
CLASS
  1
AMGOBJPROPCFG
  2
AmgObjPropCfg
  3
"AmgLay|Product Description: AutoCAD Mechanical 2000|Company: Autodesk"
 90
        1
280
     0
281
     0
  0
CLASS
  1
ACAMGFILTERDAT
  2
AcAmgFilterDat
  3
"AcadM|Product Description: AutoCAD Mechanical 2000|Company: Autodesk"
 90
        0
280
     0
281
     0
  0
CLASS
  1
LAYER_INDEX
  2
AcDbLayerIndex
  3
AutoCAD 2000
 90
        0
280
     0
281
     0
  0
CLASS
  1
IDBUFFER
  2
AcDbIdBuffer
  3
AutoCAD 2000
 90
        0
280
     0
281
     0
  0
CLASS
  1
ACIMSTRSYSVAR
  2
AcImStrSysVar
  3
AcMeServices
 90
        0
280
     0
281
     0
  0
CLASS
  1
ACMSTANDARDJIS
  2
AcmStandardJIS
  3
"AcmSymBB|Product Description: AutoCAD Mechanical 2000|Company: Autodesk"
 90
        0
280
     0
281
     0
  0
CLASS
  1
ACMSURFSTANDARDJIS
  2
AcmSurfTextStdJIS
  3
"AcmSymBB|Product Description: AutoCAD Mechanical 2000|Company: Autodesk"
 90
        0
280
     0
281
     0
  0
CLASS
  1
ACMFCFSTANDARDJIS
  2
AcmFCFStdJIS
  3
"AcmSymBB|Product Description: AutoCAD Mechanical 2000|Company: Autodesk"
 90
        0
280
     0
281
     0
  0
CLASS
  1
ACMWELDSTANDARDJIS
  2
AcmWeldingStdJIS
  3
"AcmSymBB|Product Description: AutoCAD Mechanical 2000|Company: Autodesk"
 90
        0
280
     0
281
     0
  0
CLASS
  1
ACMIDSTANDARDJIS
  2
AcmIdStdJIS
  3
"AcmSymBB|Product Description: AutoCAD Mechanical 2000|Company: Autodesk"
 90
        0
280
     0
281
     0
  0
CLASS
  1
ACMDATUMSTANDARDJIS
  2
AcmDatumStdJIS
  3
"AcmSymBB|Product Description: AutoCAD Mechanical 2000|Company: Autodesk"
 90
        0
280
     0
281
     0
  0
CLASS
  1
ACMBOMSTANDARDJIS
  2
AcmBOMStdJIS
  3
"AcmSymBB|Product Description: AutoCAD Mechanical 2000|Company: Autodesk"
 90
        0
280
     0
281
     0
  0
CLASS
  1
ACMSTANDARDANSI
  2
AcmStandardANSI
  3
"AcmSymBB|Product Description: AutoCAD Mechanical 2000|Company: Autodesk"
 90
        0
280
     0
281
     0
  0
CLASS
  1
ACMSURFSTANDARDANSI
  2
AcmSurfTextStdANSI
  3
"AcmSymBB|Product Description: AutoCAD Mechanical 2000|Company: Autodesk"
 90
        0
280
     0
281
     0
  0
CLASS
  1
ACMFCFSTANDARDANSI
  2
AcmFCFStdANSI
  3
"AcmSymBB|Product Description: AutoCAD Mechanical 2000|Company: Autodesk"
 90
        0
280
     0
281
     0
  0
CLASS
  1
ACMWELDSTANDARDANSI
  2
AcmWeldingStdANSI
  3
"AcmSymBB|Product Description: AutoCAD Mechanical 2000|Company: Autodesk"
 90
        0
280
     0
281
     0
  0
CLASS
  1
ACMIDSTANDARDANSI
  2
AcmIdStdANSI
  3
"AcmSymBB|Product Description: AutoCAD Mechanical 2000|Company: Autodesk"
 90
        0
280
     0
281
     0
  0
CLASS
  1
ACMDATUMSTANDARDANSI
  2
AcmDatumStdANSI
  3
"AcmSymBB|Product Description: AutoCAD Mechanical 2000|Company: Autodesk"
 90
        0
280
     0
281
     0
  0
CLASS
  1
ACMBOMSTANDARDANSI
  2
AcmBOMStdANSI
  3
"AcmSymBB|Product Description: AutoCAD Mechanical 2000|Company: Autodesk"
 90
        0
280
     0
281
     0
  0
CLASS
  1
ACMSTANDARDBSI
  2
AcmStandardBSI
  3
"AcmSymBB|Product Description: AutoCAD Mechanical 2000|Company: Autodesk"
 90
        0
280
     0
281
     0
  0
CLASS
  1
ACMSURFSTANDARDBSI
  2
AcmSurfTextStdBSI
  3
"AcmSymBB|Product Description: AutoCAD Mechanical 2000|Company: Autodesk"
 90
        0
280
     0
281
     0
  0
CLASS
  1
ACMFCFSTANDARDBSI
  2
AcmFCFStdBSI
  3
"AcmSymBB|Product Description: AutoCAD Mechanical 2000|Company: Autodesk"
 90
        0
280
     0
281
     0
  0
CLASS
  1
ACMWELDSTANDARDBSI
  2
AcmWeldingStdBSI
  3
"AcmSymBB|Product Description: AutoCAD Mechanical 2000|Company: Autodesk"
 90
        0
280
     0
281
     0
  0
CLASS
  1
ACMIDSTANDARDBSI
  2
AcmIdStdBSI
  3
"AcmSymBB|Product Description: AutoCAD Mechanical 2000|Company: Autodesk"
 90
        0
280
     0
281
     0
  0
CLASS
  1
ACMDATUMSTANDARDBSI
  2
AcmDatumStdBSI
  3
"AcmSymBB|Product Description: AutoCAD Mechanical 2000|Company: Autodesk"
 90
        0
280
     0
281
     0
  0
CLASS
  1
ACMBOMSTANDARDBSI
  2
AcmBOMStdBSI
  3
"AcmSymBB|Product Description: AutoCAD Mechanical 2000|Company: Autodesk"
 90
        0
280
     0
281
     0
  0
CLASS
  1
LONG_TRANSACTION
  2
AcDbLongTransaction
  3
AutoCAD 2000
 90
        0
280
     0
281
     0
  0
CLASS
  1
LWPOLYLINE
  2
AcDbPolyline
  3
AutoCAD 2000
 90
        0
280
     0
281
     1
  0
CLASS
  1
HATCH
  2
AcDbHatch
  3
AutoCAD 2000
 90
        0
280
     0
281
     1
  0
CLASS
  1
XRECORD
  2
AcDbXrecord
  3
AutoCAD 2000
 90
        0
280
     0
281
     0
  0
ENDSEC
  0
SECTION
  2
TABLES
  0
TABLE
  2
VPORT
  5
8
330
0
100
AcDbSymbolTable
 70
     3
  0
VPORT
  5
2BFF
330
8
100
AcDbSymbolTableRecord
100
AcDbViewportTableRecord
  2
*ACTIVE
 70
     0
 10
0.0
 20
0.0
 11
1.0
 21
1.0
 12
-44.63914983374414
 22
-6.872454627410192
 13
0.0
 23
0.0
 14
2.5
 24
2.5
 15
10.0
 25
10.0
 16
0.0
 26
0.0
 36
1.0
 17
0.0
 27
0.0
 37
0.0
 40
80.89297608015245
 41
1.56570841889117
 42
50.0
 43
0.0
 44
0.0
 50
0.0
 51
0.0
 71
     0
 72
   100
 73
     1
 74
     1
 75
     0
 76
     0
 77
     0
 78
     0
  0
ENDTAB
  0
TABLE
  2
LTYPE
  5
5
330
0
100
AcDbSymbolTable
 70
    10
  0
LTYPE
  5
14
330
5
100
AcDbSymbolTableRecord
100
AcDbLinetypeTableRecord
  2
BYBLOCK
 70
     0
  3

 72
    65
 73
     0
 40
0.0
  0
LTYPE
  5
15
330
5
100
AcDbSymbolTableRecord
100
AcDbLinetypeTableRecord
  2
BYLAYER
 70
     0
  3

 72
    65
 73
     0
 40
0.0
  0
LTYPE
  5
16
330
5
100
AcDbSymbolTableRecord
100
AcDbLinetypeTableRecord
  2
CONTINUOUS
 70
     0
  3
Solid line
 72
    65
 73
     0
 40
0.0
  0
LTYPE
  5
4B
330
5
100
AcDbSymbolTableRecord
100
AcDbLinetypeTableRecord
  2
AM_ISO02W050
 70
     0
  3
__ __ __ __ __ __ __ __ __ __ __ __ __ __ __
 72
    65
 73
     2
 40
7.5
 49
6.0
 74
     0
 49
-1.5
 74
     0
  0
LTYPE
  5
4C
330
5
100
AcDbSymbolTableRecord
100
AcDbLinetypeTableRecord
  2
AM_ISO08W050
 70
     0
  3
____ . ____ . ____ . ____ . ____ . ____ . ____
 72
    65
 73
     4
 40
18.0
 49
12.0
 74
     0
 49
-1.5
 74
     0
 49
3.0
 74
     0
 49
-1.5
 74
     0
  0
LTYPE
  5
4D
330
5
100
AcDbSymbolTableRecord
100
AcDbLinetypeTableRecord
  2
AM_ISO09W050
 70
     0
  3
_____ . . _____ . . _____ . . ____ .. ____
 72
    65
 73
     6
 40
22.5
 49
12.0
 74
     0
 49
-1.5
 74
     0
 49
3.0
 74
     0
 49
-1.5
 74
     0
 49
3.0
 74
     0
 49
-1.5
 74
     0
  0
LTYPE
  5
4E
330
5
100
AcDbSymbolTableRecord
100
AcDbLinetypeTableRecord
  2
AMCONSTR
 70
     0
  3
_______________________
 72
    65
 73
     2
 40
9999.0
 49
9999.0
 74
     0
 49
0.0
 74
     0
  0
LTYPE
  5
4F
330
5
100
AcDbSymbolTableRecord
100
AcDbLinetypeTableRecord
  2
AM_ISO02W050X2
 70
     0
  3
 _ _ _ _ _ _ _ _ _ _ _ _
 72
    65
 73
     2
 40
3.75
 49
3.0
 74
     0
 49
-0.75
 74
     0
  0
LTYPE
  5
50
330
5
100
AcDbSymbolTableRecord
100
AcDbLinetypeTableRecord
  2
AM_ISO08W050X2
 70
     0
  3
__ . __ . __ . __ . __ . __
 72
    65
 73
     4
 40
9.0
 49
6.0
 74
     0
 49
-0.75
 74
     0
 49
1.5
 74
     0
 49
-0.75
 74
     0
  0
LTYPE
  5
53
330
5
100
AcDbSymbolTableRecord
100
AcDbLinetypeTableRecord
  2
AMZIGZAG
 70
     0
  3
/\/-/\/-/\/-/\/-/\/-/\/
 72
    65
 73
     2
 40
11.00009999999999
 49
0.0001
 74
     4
 75
   135
340
52
 46
0.04
 50
0.0
 44
0.0
 45
0.0
 49
-11.0
 74
     0
  0
LTYPE
  5
166
330
5
100
AcDbSymbolTableRecord
100
AcDbLinetypeTableRecord
  2
ACJISTGL
 70
     0
  3
_ _ _ _ _
 72
    65
 73
     2
 40
3.0
 49
2.0
 74
     0
 49
-1.0
 74
     0
  0
LTYPE
  5
26A
330
5
100
AcDbSymbolTableRecord
100
AcDbLinetypeTableRecord
  2
ACJISTGB
 70
     0
  3
__ . . __ . .
 72
    65
 73
     6
 40
9.0
 49
4.0
 74
     0
 49
-1.0
 74
     0
 49
1.0
 74
     0
 49
-1.0
 74
     0
 49
1.0
 74
     0
 49
-1.0
 74
     0
  0
ENDTAB
  0
TABLE
  2
LAYER
  5
2
330
0
100
AcDbSymbolTable
 70
     7
  0
LAYER
  5
10
330
2
100
AcDbSymbolTableRecord
100
AcDbLayerTableRecord
  2
0
 70
     0
 62
     7
  6
CONTINUOUS
  0
LAYER
  5
3F9
330
2
100
AcDbSymbolTableRecord
100
AcDbLayerTableRecord
  2
AM_0
 70
     0
 62
     7
  6
CONTINUOUS
  0
LAYER
  5
C7C
330
2
100
AcDbSymbolTableRecord
100
AcDbLayerTableRecord
  2
AM_7
 70
     0
 62
     4
  6
AM_ISO08W050
  0
LAYER
  5
C97
330
2
100
AcDbSymbolTableRecord
100
AcDbLayerTableRecord
  2
AM_11
 70
     0
 62
     3
  6
AM_ISO09W050
  0
LAYER
  5
CC5
330
2
100
AcDbSymbolTableRecord
100
AcDbLayerTableRecord
  2
AM_5
 70
     0
 62
     3
  6
CONTINUOUS
  0
LAYER
  5
CC7
330
2
100
AcDbSymbolTableRecord
100
AcDbLayerTableRecord
  2
DEFPOINTS
 70
     0
 62
     7
  6
CONTINUOUS
  0
LAYER
  5
19BC
330
2
100
AcDbSymbolTableRecord
100
AcDbLayerTableRecord
  2
AM_6
 70
     0
 62
     2
  6
CONTINUOUS
  0
ENDTAB
  0
TABLE
  2
STYLE
  5
3
330
0
100
AcDbSymbolTable
 70
     5
  0
STYLE
  5
11
330
3
100
AcDbSymbolTableRecord
100
AcDbTextStyleTableRecord
  2
STANDARD
 70
     0
 40
0.0
 41
1.0
 50
0.0
 71
     0
 42
2.5
  3
simplex.shx
  4
EXTFONT.SHX
  0
STYLE
  5
52
330
3
100
AcDbSymbolTableRecord
100
AcDbTextStyleTableRecord
  2

 70
     1
 40
0.0
 41
1.0
 50
0.0
 71
     0
 42
2.5
  3
ltypeshp.shx
  4

  0
STYLE
  5
6B
330
3
100
AcDbSymbolTableRecord
100
AcDbTextStyleTableRecord
  2
ASAMI
 70
     0
 40
0.0
 41
1.0
 50
0.0
 71
     0
 42
2.5
  3
simplex.shx
  4
EXTFONT.SHX
  0
STYLE
  5
262
330
3
100
AcDbSymbolTableRecord
100
AcDbTextStyleTableRecord
  2
ACJISTS
 70
     0
 40
1.0
 41
1.0
 50
0.0
 71
     0
 42
2.5
  3
simplex.shx
  4
bigfont.shx
  0
STYLE
  5
269
330
3
100
AcDbSymbolTableRecord
100
AcDbTextStyleTableRecord
  2
ACJISGDT
 70
     0
 40
0.0
 41
1.0
 50
0.0
 71
     0
 42
2.5
  3
amgdtans.shx
  4

  0
ENDTAB
  0
TABLE
  2
VIEW
  5
6
330
0
100
AcDbSymbolTable
 70
     0
  0
ENDTAB
  0
TABLE
  2
UCS
  5
7
330
0
100
AcDbSymbolTable
 70
     0
  0
ENDTAB
  0
TABLE
  2
APPID
  5
9
330
0
100
AcDbSymbolTable
 70
    16
  0
APPID
  5
12
330
9
100
AcDbSymbolTableRecord
100
AcDbRegAppTableRecord
  2
ACAD
 70
     0
  0
APPID
  5
30
330
9
100
AcDbSymbolTableRecord
100
AcDbRegAppTableRecord
  2
MCAD_NO_VIS
 70
     0
  0
APPID
  5
31
330
9
100
AcDbSymbolTableRecord
100
AcDbRegAppTableRecord
  2
ACAD_TEMP_GRAPHIC
 70
     0
  0
APPID
  5
2C2
330
9
100
AcDbSymbolTableRecord
100
AcDbRegAppTableRecord
  2
GENIUS_GENDTOL_13
 70
     0
  0
APPID
  5
339
330
9
100
AcDbSymbolTableRecord
100
AcDbRegAppTableRecord
  2
GENIUS_GENODEF_13
 70
     0
  0
APPID
  5
33A
330
9
100
AcDbSymbolTableRecord
100
AcDbRegAppTableRecord
  2
GENIUS_GENOBJ-N-RSBK_13
 70
     0
  0
APPID
  5
33B
330
9
100
AcDbSymbolTableRecord
100
AcDbRegAppTableRecord
  2
GENIUS_GENOBJ-N-LIB_13
 70
     0
  0
APPID
  5
33C
330
9
100
AcDbSymbolTableRecord
100
AcDbRegAppTableRecord
  2
GENIUS_GENSCALE_13
 70
     0
  0
APPID
  5
378
330
9
100
AcDbSymbolTableRecord
100
AcDbRegAppTableRecord
  2
GENIUS_GENDIMSH_14
 70
     0
  0
APPID
  5
C82
330
9
100
AcDbSymbolTableRecord
100
AcDbRegAppTableRecord
  2
GENIUS_GENOBJ-N-CRS_13
 70
     0
  0
APPID
  5
C83
330
9
100
AcDbSymbolTableRecord
100
AcDbRegAppTableRecord
  2
GENIUS_GENOENT_13
 70
     0
  0
APPID
  5
C84
330
9
100
AcDbSymbolTableRecord
100
AcDbRegAppTableRecord
  2
GENIUS_GENOREF_13
 70
     0
  0
APPID
  5
C85
330
9
100
AcDbSymbolTableRecord
100
AcDbRegAppTableRecord
  2
GENIUS_GENOLIS_13
 70
     0
  0
APPID
  5
CA0
330
9
100
AcDbSymbolTableRecord
100
AcDbRegAppTableRecord
  2
GENIUS_GENOBJ-N-CEN_13
 70
     0
  0
APPID
  5
1E1E
330
9
100
AcDbSymbolTableRecord
100
AcDbRegAppTableRecord
  2
GENIUS_GENFIL_13
 70
     0
  0
APPID
  5
1E1F
330
9
100
AcDbSymbolTableRecord
100
AcDbRegAppTableRecord
  2
GENIUS_GENOBJ-N-CHA_13
 70
     0
  0
ENDTAB
  0
TABLE
  2
DIMSTYLE
  5
A
330
0
100
AcDbSymbolTable
 70
     9
  0
DIMSTYLE
105
58
330
A
100
AcDbSymbolTableRecord
100
AcDbDimStyleTableRecord
  2
AM_JIS
 70
     0
  3

  4
"
  5
OPEN30
  6

  7

 40
0.5
 41
2.5
 42
1.0
 43
12.0
 44
1.0
 45
0.0
 46
0.0
 47
0.1
 48
0.1
140
3.2
141
0.0
142
0.0
143
0.0393701
144
1.0
145
0.0
146
0.71
147
1.5
 71
     0
 72
     0
 73
     0
 74
     0
 75
     0
 76
     0
 77
     3
 78
     8
170
     0
171
     2
172
     1
173
     0
174
     0
175
     0
176
   256
177
   256
178
     2
270
     2
271
     3
272
     3
273
     2
274
     2
340
6B
275
     0
280
     0
281
     0
282
     0
283
     0
284
     0
285
     0
286
     0
287
     3
288
     0
  0
DIMSTYLE
105
5F
330
A
100
AcDbSymbolTableRecord
100
AcDbDimStyleTableRecord
  2
AM_JIS$3
 70
     0
  3

  4
"
  5
OPEN30
  6

  7

 40
0.5
 41
2.5
 42
1.0
 43
10.0
 44
1.0
 45
0.0
 46
0.0
 47
0.1
 48
0.1
140
3.2
141
0.0
142
0.0
143
0.0393701
144
1.0
145
0.0
146
0.71
147
1.5
 71
     0
 72
     0
 73
     0
 74
     1
 75
     0
 76
     0
 77
     3
 78
     8
170
     0
171
     2
172
     0
173
     0
174
     0
175
     0
176
   256
177
   256
178
     2
270
     2
271
     2
272
     3
273
     2
274
     2
340
6B
275
     0
280
     0
281
     0
282
     0
283
     0
284
     0
285
     0
286
     0
287
     0
288
     1
  0
DIMSTYLE
105
60
330
A
100
AcDbSymbolTableRecord
100
AcDbDimStyleTableRecord
  2
AM_JIS$4
 70
     0
  3

  4
"
  5
OPEN30
  6

  7

 40
0.5
 41
2.5
 42
1.0
 43
10.0
 44
1.0
 45
0.0
 46
0.0
 47
0.1
 48
0.1
140
3.2
141
0.0
142
0.0
143
0.0393701
144
1.0
145
0.0
146
0.71
147
1.5
 71
     0
 72
     0
 73
     0
 74
     1
 75
     0
 76
     0
 77
     3
 78
     8
170
     0
171
     2
172
     0
173
     0
174
     0
175
     0
176
   256
177
   256
178
     2
270
     2
271
     2
272
     3
273
     2
274
     2
340
6B
275
     0
280
     0
281
     0
282
     0
283
     0
284
     0
285
     0
286
     0
287
     0
288
     1
  0
DIMSTYLE
105
61
330
A
100
AcDbSymbolTableRecord
100
AcDbDimStyleTableRecord
  2
AM_JIS$6
 70
     0
  3

  4
"
  5
OPEN30
  6

  7

 40
0.5
 41
2.5
 42
1.0
 43
10.0
 44
1.0
 45
0.0
 46
0.0
 47
0.1
 48
0.1
140
3.2
141
0.0
142
0.0
143
0.0393701
144
1.0
145
0.0
146
0.71
147
1.5
 71
     0
 72
     0
 73
     0
 74
     0
 75
     0
 76
     0
 77
     0
 78
     8
170
     0
171
     2
172
     1
173
     0
174
     0
175
     0
176
   256
177
   256
178
     2
270
     2
271
     2
272
     2
273
     2
274
     2
340
6B
275
     0
280
     0
281
     0
282
     0
283
     0
284
     0
285
     0
286
     0
287
     3
288
     0
  0
DIMSTYLE
105
62
330
A
100
AcDbSymbolTableRecord
100
AcDbDimStyleTableRecord
  2
AM_JIS$7
 70
     0
  3

  4
"
  5
OPEN30
  6

  7

 40
0.5
 41
2.5
 42
1.0
 43
10.0
 44
1.0
 45
0.0
 46
0.0
 47
0.1
 48
0.1
140
3.2
141
0.0
142
0.0
143
0.0393701
144
1.0
145
0.0
146
0.71
147
1.5
 71
     0
 72
     0
 73
     0
 74
     0
 75
     0
 76
     0
 77
     3
 78
     8
170
     0
171
     2
172
     1
173
     0
174
     0
175
     0
176
   256
177
   256
178
     2
270
     2
271
     2
272
     3
273
     2
274
     2
340
6B
275
     0
280
     0
281
     0
282
     0
283
     0
284
     0
285
     0
286
     0
287
     3
288
     0
  0
DIMSTYLE
105
63
330
A
100
AcDbSymbolTableRecord
100
AcDbDimStyleTableRecord
  2
AM_JIS$SF
 70
     0
  3

  4
"
  5
OPEN30
  6

  7

 40
0.5
 41
2.5
 42
1.0
 43
10.0
 44
1.0
 45
0.0
 46
0.0
 47
0.1
 48
0.1
140
3.2
141
0.0
142
0.0
143
0.0393701
144
1.0
145
0.0
146
0.71
147
1.5
 71
     0
 72
     0
 73
     0
 74
     0
 75
     1
 76
     1
 77
     3
 78
     8
170
     0
171
     2
172
     1
173
     0
174
     0
175
     0
176
   256
177
   256
178
     2
270
     2
271
     2
272
     2
273
     2
274
     2
340
6B
275
     0
280
     0
281
     0
282
     0
283
     0
284
     0
285
     0
286
     0
287
     3
288
     0
  0
DIMSTYLE
105
68
330
A
100
AcDbSymbolTableRecord
100
AcDbDimStyleTableRecord
  2
AM_JIS$SH
 70
     0
  3

  4
"
  5

  6
GENAXEH
  7
OPEN30
 40
0.5
 41
2.5
 42
1.0
 43
10.0
 44
1.0
 45
0.0
 46
0.0
 47
0.1
 48
0.1
140
3.2
141
0.0
142
0.0
143
0.0393701
144
2.0
145
0.0
146
0.71
147
1.5
 71
     0
 72
     0
 73
     0
 74
     0
 75
     1
 76
     1
 77
     3
 78
     8
170
     0
171
     2
172
     1
173
     1
174
     0
175
     0
176
   256
177
   256
178
     2
270
     2
271
     2
272
     2
273
     2
274
     2
340
6B
275
     0
280
     0
281
     0
282
     0
283
     0
284
     0
285
     0
286
     0
287
     3
288
     0
  0
DIMSTYLE
105
B34
102
{ACAD_REACTORS
330
26BF
102
}
330
A
100
AcDbSymbolTableRecord
100
AcDbDimStyleTableRecord
  2
AM_JIS$2
 70
     0
  3

  4
"
  5
OPEN30
  6

  7

 40
0.5
 41
2.5
 42
1.0
 43
12.0
 44
1.0
 45
0.0
 46
0.0
 47
0.1
 48
0.1
140
3.2
141
0.0
142
0.0
143
0.0393701
144
1.0
145
0.0
146
0.71
147
1.5
 71
     0
 72
     0
 73
     0
 74
     0
 75
     0
 76
     0
 77
     3
 78
     8
170
     0
171
     2
172
     1
173
     0
174
     0
175
     0
176
   256
177
   256
178
     2
270
     2
271
     3
272
     3
273
     2
274
     2
340
6B
275
     0
280
     0
281
     0
282
     0
283
     0
284
     0
285
     0
286
     0
287
     3
288
     0
  0
DIMSTYLE
105
BA5
102
{ACAD_REACTORS
330
CC6
330
DF5
330
228A
330
294C
102
}
330
A
100
AcDbSymbolTableRecord
100
AcDbDimStyleTableRecord
  2
AM_JIS$0
 70
     0
  3

  4
"
  5
OPEN30
  6

  7

 40
0.5
 41
2.5
 42
0.0
 43
10.0
 44
1.0
 45
0.0
 46
0.0
 47
0.1
 48
0.1000000001
140
3.799999999999999
141
0.0
142
0.0
143
0.0393701
144
1.0
145
0.0
146
0.71
147
1.5
 71
     0
 72
     0
 73
     0
 74
     0
 75
     0
 76
     0
 77
     3
 78
     1
170
     0
171
     2
172
     1
173
     0
174
     0
175
     0
176
     3
177
     3
178
     2
270
     2
271
     2
272
     2
273
     2
274
     2
340
11
275
     1
280
     0
281
     0
282
     0
283
     0
284
     8
285
     0
286
     0
287
     0
288
     0
  0
ENDTAB
  0
TABLE
  2
BLOCK_RECORD
  5
1
330
0
100
AcDbSymbolTable
 70
    10
  0
BLOCK_RECORD
  5
1F
102
{ACAD_XDICTIONARY
360
74
102
}
330
1
100
AcDbSymbolTableRecord
100
AcDbBlockTableRecord
  2
*MODEL_SPACE
  0
BLOCK_RECORD
  5
101
102
{ACAD_XDICTIONARY
360
2C28
102
}
330
1
100
AcDbSymbolTableRecord
100
AcDbBlockTableRecord
  2
*PAPER_SPACE
  0
BLOCK_RECORD
  5
59
330
1
100
AcDbSymbolTableRecord
100
AcDbBlockTableRecord
  2
_OPEN30
  0
BLOCK_RECORD
  5
64
330
1
100
AcDbSymbolTableRecord
100
AcDbBlockTableRecord
  2
GENAXEH
  0
BLOCK_RECORD
  5
CC8
330
1
100
AcDbSymbolTableRecord
100
AcDbBlockTableRecord
  2
*D5
  0
BLOCK_RECORD
  5
DF6
330
1
100
AcDbSymbolTableRecord
100
AcDbBlockTableRecord
  2
*D6
  0
BLOCK_RECORD
  5
228B
330
1
100
AcDbSymbolTableRecord
100
AcDbBlockTableRecord
  2
*D7
  0
BLOCK_RECORD
  5
26C0
330
1
100
AcDbSymbolTableRecord
100
AcDbBlockTableRecord
  2
*D8
  0
BLOCK_RECORD
  5
294D
330
1
100
AcDbSymbolTableRecord
100
AcDbBlockTableRecord
  2
*D9
  0
ENDTAB
  0
ENDSEC
  0
SECTION
  2
BLOCKS
  0
BLOCK
  5
20
330
1F
100
AcDbEntity
  8
0
100
AcDbBlockBegin
  2
*MODEL_SPACE
 70
     0
 10
0.0
 20
0.0
 30
0.0
  3
*MODEL_SPACE
  1

  0
ENDBLK
  5
21
330
1F
100
AcDbEntity
  8
0
100
AcDbBlockEnd
  0
BLOCK
  5
103
330
101
100
AcDbEntity
 67
     1
  8
0
100
AcDbBlockBegin
  2
*PAPER_SPACE
 70
     0
 10
0.0
 20
0.0
 30
0.0
  3
*PAPER_SPACE
  1

  0
ENDBLK
  5
104
330
101
100
AcDbEntity
 67
     1
  8
0
100
AcDbBlockEnd
  0
BLOCK
  5
5D
330
59
100
AcDbEntity
  8
0
100
AcDbBlockBegin
  2
_OPEN30
 70
     0
 10
0.0
 20
0.0
 30
0.0
  3
_OPEN30
  1

  0
LINE
  5
5A
330
59
100
AcDbEntity
  8
0
 62
     0
100
AcDbLine
 10
-1.0
 20
0.26794919
 30
0.0
 11
0.0
 21
0.0
 31
0.0
  0
LINE
  5
5B
330
59
100
AcDbEntity
  8
0
 62
     0
100
AcDbLine
 10
0.0
 20
0.0
 30
0.0
 11
-1.0
 21
-0.26794919
 31
0.0
  0
LINE
  5
5C
330
59
100
AcDbEntity
  8
0
 62
     0
100
AcDbLine
 10
0.0
 20
0.0
 30
0.0
 11
-1.0
 21
0.0
 31
0.0
  0
ENDBLK
  5
5E
330
59
100
AcDbEntity
  8
0
100
AcDbBlockEnd
  0
BLOCK
  5
66
330
64
100
AcDbEntity
  8
0
100
AcDbBlockBegin
  2
GENAXEH
 70
     0
 10
0.0
 20
0.0
 30
0.0
  3
GENAXEH
  1

  0
LINE
  5
65
330
64
100
AcDbEntity
  8
0
100
AcDbLine
 10
-1.0
 20
0.0
 30
0.0
 11
1.0
 21
0.0
 31
0.0
  0
ENDBLK
  5
67
330
64
100
AcDbEntity
  8
0
100
AcDbBlockEnd
  0
BLOCK
  5
CD2
330
CC8
100
AcDbEntity
  8
0
100
AcDbBlockBegin
  2
*D5
 70
     1
 10
0.0
 20
0.0
 30
0.0
  3
*D5
  1

  0
LINE
  5
2BAD
330
CC8
100
AcDbEntity
  8
AM_5
 62
     3
100
AcDbLine
 10
-95.99999999999999
 20
-3.500000000000002
 30
0.0
 11
-95.99999999999999
 21
-16.50000236965381
 31
0.0
  0
LINE
  5
2BAE
330
CC8
100
AcDbEntity
  8
AM_5
 62
     3
100
AcDbLine
 10
-2.000000000000033
 20
-3.799995115471619
 30
0.0
 11
-2.000000000000034
 21
-16.50000236965381
 31
0.0
  0
LINE
  5
2BAF
330
CC8
100
AcDbEntity
  8
AM_5
 62
     3
100
AcDbLine
 10
-94.74999999999999
 20
-16.00000236965381
 30
0.0
 11
-3.250000000000034
 21
-16.00000236965381
 31
0.0
  0
INSERT
  5
2BB0
330
CC8
100
AcDbEntity
  8
AM_5
 62
     3
100
AcDbBlockReference
  2
_OPEN30
 10
-95.99999999999999
 20
-16.00000236965381
 30
0.0
 41
1.25
 42
1.25
 43
1.25
 50
180.0
  0
INSERT
  5
2BB1
330
CC8
100
AcDbEntity
  8
AM_5
 62
     3
100
AcDbBlockReference
  2
_OPEN30
 10
-2.000000000000034
 20
-16.00000236965381
 30
0.0
 41
1.25
 42
1.25
 43
1.25
  0
MTEXT
  5
2BB2
330
CC8
100
AcDbEntity
  8
AM_5
 62
     2
100
AcDbMText
 10
-49.00000000000001
 20
-14.30000236965381
 30
0.0
 40
1.9
 41
0.0
 71
     5
 72
     1
  1
94
1001
ACAD
1000
MTEXTBEGIN
1070
    73
1070
     1
1070
    44
1040
1.0
1070
    74
1070
     0
1000
MTEXTEND
  0
POINT
  5
2BB3
330
CC8
100
AcDbEntity
  8
DEFPOINTS
 62
     0
100
AcDbPoint
 10
-95.99999999999999
 20
-3.500000000000002
 30
0.0
  0
POINT
  5
2BB4
330
CC8
100
AcDbEntity
  8
DEFPOINTS
 62
     0
100
AcDbPoint
 10
-2.000000000000033
 20
-3.799995115471619
 30
0.0
  0
POINT
  5
2BB5
330
CC8
100
AcDbEntity
  8
DEFPOINTS
 62
     0
100
AcDbPoint
 10
-2.000000000000034
 20
-16.00000236965381
 30
0.0
  0
ENDBLK
  5
CD3
330
CC8
100
AcDbEntity
  8
0
100
AcDbBlockEnd
  0
BLOCK
  5
E00
330
DF6
100
AcDbEntity
  8
0
100
AcDbBlockBegin
  2
*D6
 70
     1
 10
0.0
 20
0.0
 30
0.0
  3
*D6
  1

  0
LINE
  5
2BCA
330
DF6
100
AcDbEntity
  8
AM_5
 62
     3
100
AcDbLine
 10
-41.99999999999999
 20
-4.000001369653882
 30
0.0
 11
-41.99999999999999
 21
-11.50000236965373
 31
0.0
  0
LINE
  5
2BCB
330
DF6
100
AcDbEntity
  8
AM_5
 62
     3
100
AcDbLine
 10
-2.000000000000033
 20
-3.799995115471619
 30
0.0
 11
-2.000000000000033
 21
-11.50000236965373
 31
0.0
  0
LINE
  5
2BCC
330
DF6
100
AcDbEntity
  8
AM_5
 62
     3
100
AcDbLine
 10
-40.74999999999999
 20
-11.00000236965373
 30
0.0
 11
-3.250000000000033
 21
-11.00000236965373
 31
0.0
  0
INSERT
  5
2BCD
330
DF6
100
AcDbEntity
  8
AM_5
 62
     3
100
AcDbBlockReference
  2
_OPEN30
 10
-41.99999999999999
 20
-11.00000236965373
 30
0.0
 41
1.25
 42
1.25
 43
1.25
 50
180.0
  0
INSERT
  5
2BCE
330
DF6
100
AcDbEntity
  8
AM_5
 62
     3
100
AcDbBlockReference
  2
_OPEN30
 10
-2.000000000000033
 20
-11.00000236965373
 30
0.0
 41
1.25
 42
1.25
 43
1.25
  0
MTEXT
  5
2BCF
330
DF6
100
AcDbEntity
  8
AM_5
 62
     2
100
AcDbMText
 10
-22.00000000000001
 20
-9.300002369653734
 30
0.0
 40
1.9
 41
0.0
 71
     5
 72
     1
  1
40
1001
ACAD
1000
MTEXTBEGIN
1070
    73
1070
     1
1070
    44
1040
1.0
1070
    74
1070
     0
1000
MTEXTEND
  0
POINT
  5
2BD0
330
DF6
100
AcDbEntity
  8
DEFPOINTS
 62
     0
100
AcDbPoint
 10
-41.99999999999999
 20
-4.000001369653882
 30
0.0
  0
POINT
  5
2BD1
330
DF6
100
AcDbEntity
  8
DEFPOINTS
 62
     0
100
AcDbPoint
 10
-2.000000000000033
 20
-3.799995115471619
 30
0.0
  0
POINT
  5
2BD2
330
DF6
100
AcDbEntity
  8
DEFPOINTS
 62
     0
100
AcDbPoint
 10
-2.000000000000033
 20
-11.00000236965373
 30
0.0
  0
ENDBLK
  5
E01
330
DF6
100
AcDbEntity
  8
0
100
AcDbBlockEnd
  0
BLOCK
  5
2297
330
228B
100
AcDbEntity
  8
0
100
AcDbBlockBegin
  2
*D7
 70
     1
 10
0.0
 20
0.0
 30
0.0
  3
*D7
  1

  0
LINE
  5
2BB6
330
228B
100
AcDbEntity
  8
AM_5
 62
     3
100
AcDbLine
 10
-95.49999999999998
 20
-4.0000000000003
 30
0.0
 11
-105.5000009999999
 21
-4.000000000000328
 31
0.0
  0
LINE
  5
2BB7
330
228B
100
AcDbEntity
  8
AM_5
 62
     3
100
AcDbLine
 10
-95.5
 20
3.999999999999995
 30
0.0
 11
-105.5000009999999
 21
3.999999999999967
 31
0.0
  0
LINE
  5
2BB8
330
228B
100
AcDbEntity
  8
AM_5
 62
     3
100
AcDbLine
 10
-105.0000009999999
 20
-2.750000000000327
 30
0.0
 11
-105.0000009999999
 21
2.749999999999968
 31
0.0
  0
INSERT
  5
2BB9
330
228B
100
AcDbEntity
  8
AM_5
 62
     3
100
AcDbBlockReference
  2
_OPEN30
 10
-105.0000009999999
 20
-4.000000000000326
 30
0.0
 41
1.25
 42
1.25
 43
1.25
 50
270.0000000000001
  0
INSERT
  5
2BBA
330
228B
100
AcDbEntity
  8
AM_5
 62
     3
100
AcDbBlockReference
  2
_OPEN30
 10
-105.0000009999999
 20
3.999999999999968
 30
0.0
 41
1.25
 42
1.25
 43
1.25
 50
90.00000000000015
  0
MTEXT
  5
2BBB
330
228B
100
AcDbEntity
  8
AM_5
 62
     2
100
AcDbMText
 10
-106.7000009999999
 20
-0.0000000000003145
 30
0.0
 40
1.9
 41
0.0
 71
     5
 72
     1
  1
%%c8
 11
-0.0000000000000028
 21
1.0
 31
0.0
1001
ACAD
1000
MTEXTBEGIN
1070
    73
1070
     1
1070
    44
1040
1.0
1070
    74
1070
     0
1000
MTEXTEND
  0
POINT
  5
2BBC
330
228B
100
AcDbEntity
  8
DEFPOINTS
 62
     0
100
AcDbPoint
 10
-95.5
 20
-4.000000000000003
 30
0.0
  0
POINT
  5
2BBD
330
228B
100
AcDbEntity
  8
DEFPOINTS
 62
     0
100
AcDbPoint
 10
-95.49999999999998
 20
4.000000000000292
 30
0.0
  0
POINT
  5
2BBE
330
228B
100
AcDbEntity
  8
DEFPOINTS
 62
     0
100
AcDbPoint
 10
-105.0000009999999
 20
4.000000000000294
 30
0.0
  0
ENDBLK
  5
2298
330
228B
100
AcDbEntity
  8
0
100
AcDbBlockEnd
  0
BLOCK
  5
26CE
330
26C0
100
AcDbEntity
  8
0
100
AcDbBlockBegin
  2
*D8
 70
     1
 10
0.0
 20
0.0
 30
0.0
  3
*D8
  1

  0
LINE
  5
2C2A
330
26C0
100
AcDbEntity
  8
AM_5
100
AcDbLine
 10
0.1710101364597357
 20
-0.4698462868088197
 30
0.0
 11
4.915346007476467
 21
-13.50479636940693
 31
0.0
  0
LINE
  5
2C2B
330
26C0
100
AcDbEntity
  8
AM_5
100
AcDbLine
 10
0.1710111995358621
 20
0.4698458998791929
 30
0.0
 11
4.915376563483857
 21
13.50478524788581
 31
0.0
  0
ARC
  5
2C2C
330
26C0
100
AcDbEntity
  8
AM_5
100
AcDbCircle
 10
-0.0000000000000058
 20
-0.0000000000000161
 30
0.0
 40
13.8715048395205
100
AcDbArc
 50
295.1648389466326
 51
64.83503141564945
  0
INSERT
  5
2C2D
330
26C0
100
AcDbEntity
  8
AM_5
100
AcDbBlockReference
  2
_OPEN30
 10
4.744335871016727
 20
-13.03495008259813
 30
0.0
 41
1.25
 42
1.25
 43
1.25
 50
202.5824234241714
  0
INSERT
  5
2C2E
330
26C0
100
AcDbEntity
  8
AM_5
100
AcDbBlockReference
  2
_OPEN30
 10
4.74436536394799
 20
13.0349393480066
 30
0.0
 41
1.25
 42
1.25
 43
1.25
 50
157.4174469381106
  0
MTEXT
  5
2C2F
330
26C0
100
AcDbEntity
  8
AM_5
 62
     2
100
AcDbMText
 10
12.32150483951261
 20
-0.0000139393493217
 30
0.0
 40
1.6
 41
0.0
 71
     5
 72
     1
  1
140°
  7
ASAMI
 11
0.0000011313025075
 21
0.9999999999993601
 31
0.0
  0
POINT
  5
2C30
330
26C0
100
AcDbEntity
  8
DEFPOINTS
 62
     0
100
AcDbPoint
 10
12.73703527913145
 20
-5.494231412217867
 30
0.0
  0
POINT
  5
2C31
330
26C0
100
AcDbEntity
  8
DEFPOINTS
 62
     0
100
AcDbPoint
 10
-0.0000000000000058
 20
-0.0000000000000161
 30
0.0
  0
POINT
  5
2C32
330
26C0
100
AcDbEntity
  8
DEFPOINTS
 62
     0
100
AcDbPoint
 10
-0.0000000000000058
 20
-0.0000000000000161
 30
0.0
  0
POINT
  5
2C33
330
26C0
100
AcDbEntity
  8
DEFPOINTS
 62
     0
100
AcDbPoint
 10
-0.4497187230507568
 20
1.235591506492563
 30
0.0
  0
POINT
  5
2C34
330
26C0
100
AcDbEntity
  8
DEFPOINTS
 62
     0
100
AcDbPoint
 10
-0.4497245551033038
 20
-1.235598831326649
 30
0.0
  0
ENDBLK
  5
26CF
330
26C0
100
AcDbEntity
  8
0
100
AcDbBlockEnd
  0
BLOCK
  5
2957
330
294D
100
AcDbEntity
  8
0
100
AcDbBlockBegin
  2
*D9
 70
     1
 10
0.0
 20
0.0
 30
0.0
  3
*D9
  1

  0
LINE
  5
2BD3
330
294D
100
AcDbEntity
  8
AM_5
 62
     3
100
AcDbLine
 10
-1.999999999999967
 20
3.80000080122974
 30
0.0
 11
9.055921024858058
 21
3.800000801229771
 31
0.0
  0
LINE
  5
2BD4
330
294D
100
AcDbEntity
  8
AM_5
 62
     3
100
AcDbLine
 10
-1.999998253225081
 20
-3.799999198770242
 30
0.0
 11
9.055921024858079
 21
-3.799999198770211
 31
0.0
  0
LINE
  5
2BD5
330
294D
100
AcDbEntity
  8
AM_5
 62
     3
100
AcDbLine
 10
8.555921024858061
 20
2.55000080122977
 30
0.0
 11
8.555921024858076
 21
-2.549999198770211
 31
0.0
  0
INSERT
  5
2BD6
330
294D
100
AcDbEntity
  8
AM_5
 62
     3
100
AcDbBlockReference
  2
_OPEN30
 10
8.555921024858058
 20
3.80000080122977
 30
0.0
 41
1.25
 42
1.25
 43
1.25
 50
90.00000000000017
  0
INSERT
  5
2BD7
330
294D
100
AcDbEntity
  8
AM_5
 62
     3
100
AcDbBlockReference
  2
_OPEN30
 10
8.555921024858079
 20
-3.799999198770211
 30
0.0
 41
1.25
 42
1.25
 43
1.25
 50
270.0000000000001
  0
MTEXT
  5
2BD8
330
294D
100
AcDbEntity
  8
AM_5
 62
     2
100
AcDbMText
 10
6.855921024858068
 20
0.0000008012297742
 30
0.0
 40
1.9
 41
0.0
 71
     5
 72
     1
  1
%%c7.6
 11
-0.0000000000000028
 21
1.0
 31
0.0
1001
ACAD
1000
MTEXTBEGIN
1070
    73
1070
     1
1070
    44
1040
1.0
1070
    74
1070
     0
1000
MTEXTEND
  0
POINT
  5
2BD9
330
294D
100
AcDbEntity
  8
DEFPOINTS
 62
     0
100
AcDbPoint
 10
-1.999999999999955
 20
3.800000801229746
 30
0.0
  0
POINT
  5
2BDA
330
294D
100
AcDbEntity
  8
DEFPOINTS
 62
     0
100
AcDbPoint
 10
-1.999998253225093
 20
-3.799999198770235
 30
0.0
  0
POINT
  5
2BDB
330
294D
100
AcDbEntity
  8
DEFPOINTS
 62
     0
100
AcDbPoint
 10
8.555921024858069
 20
-3.799999198770238
 30
0.0
  0
ENDBLK
  5
2958
330
294D
100
AcDbEntity
  8
0
100
AcDbBlockEnd
  0
ENDSEC
  0
SECTION
  2
ENTITIES
  0
LINE
  5
C1D
330
1F
100
AcDbEntity
  8
AM_0
 48
0.5
100
AcDbLine
 10
-0.0000000000000058
 20
-0.0000000000000161
 30
0.0
 11
-0.4497187230507567
 21
1.235591506492563
 31
0.0
  0
LINE
  5
C20
330
1F
100
AcDbEntity
  8
AM_0
 48
0.5
100
AcDbLine
 10
-0.0000000000000058
 20
-0.0000000000000161
 30
0.0
 11
-0.4497245551033038
 21
-1.235598831326649
 31
0.0
  0
LINE
  5
C30
330
1F
100
AcDbEntity
  8
AM_0
 48
0.5
100
AcDbLine
 10
-95.99999999999999
 20
-3.500000000000002
 30
0.0
 11
-96.0
 21
3.499999999999996
 31
0.0
  0
LINE
  5
C9F
330
1F
100
AcDbEntity
  8
AM_7
100
AcDbLine
 10
-97.99999999999997
 20
-0.0000000000000049
 30
0.0
 11
1.555920024858054
 21
-0.0000000000000123
 31
0.0
1001
GENIUS_GENODEF_13
1002
{
1000
HIER
1070
     0
1002
}
1002
{
1000
MANEDIT
1070
     0
1002
}
1002
{
1000
NOSEL
1070
     0
1002
}
1002
{
1000
BEHIND
1070
     0
1002
}
1002
{
1000
REACTOR
1002
}
1001
GENIUS_GENOBJ-N-CEN_13
1002
{
1000
OWNER
1000
GEN
1002
}
  0
DIMENSION
  5
CC6
330
1F
100
AcDbEntity
  8
AM_5
100
AcDbDimension
  2
*D5
 10
-2.000000000000034
 20
-16.00000236965381
 30
0.0
 11
-49.00000000000001
 21
-14.30000236965381
 31
0.0
 70
    32
  1
<>
  3
AM_JIS$0
100
AcDbAlignedDimension
 13
-95.99999999999999
 23
-3.500000000000002
 33
0.0
 14
-2.000000000000033
 24
-3.799995115471619
 34
0.0
 50
0.0000000000001132
100
AcDbRotatedDimension
1001
GENIUS_GENDTOL_13
1000

1000
h7
1000

1040
0.0
1001
ACAD
1000
DSTYLE
1002
{
1070
   271
1070
     0
1002
}
  0
DIMENSION
  5
DF5
330
1F
100
AcDbEntity
  8
AM_5
100
AcDbDimension
  2
*D6
 10
-2.000000000000033
 20
-11.00000236965373
 30
0.0
 11
-22.00000000000001
 21
-9.300002369653734
 31
0.0
 70
    32
  1
<>
  3
AM_JIS$0
100
AcDbAlignedDimension
 13
-41.99999999999999
 23
-4.000001369653882
 33
0.0
 14
-2.000000000000033
 24
-3.799995115471619
 34
0.0
 50
0.0000000000001527
100
AcDbRotatedDimension
1001
GENIUS_GENDTOL_13
1000

1000
h7
1000

1040
0.0
1001
ACAD
1000
DSTYLE
1002
{
1070
   271
1070
     0
1002
}
  0
TEXT
  5
19BD
330
1F
100
AcDbEntity
  8
AM_6
100
AcDbText
 10
-60.24999999999996
 20
-27.25000236965384
 30
0.0
 40
2.5
  1
MDW076MHK
 50
0.0000000000001527
 72
     4
 11
-48.99999999999996
 21
-26.00000236965381
 31
0.0
100
AcDbText
  0
ARC
  5
1BE8
330
1F
100
AcDbEntity
  8
AM_11
 48
0.5
100
AcDbCircle
 10
-65.18578898111988
 20
17.66787048062783
 30
0.0
 40
19.53452809651666
100
AcDbArc
 50
244.7482808787518
 51
295.2516148471758
  0
ARC
  5
1BE9
330
1F
100
AcDbEntity
  8
AM_11
 48
0.5
100
AcDbCircle
 10
-65.18578898111991
 20
-17.66785848258816
 30
0.0
 40
19.53452809651666
100
AcDbArc
 50
64.74833051131179
 51
115.2516644797366
  0
LINE
  5
1CA9
330
1F
100
AcDbEntity
  8
AM_0
 48
0.5
100
AcDbLine
 10
-41.99999999999999
 20
-4.000001369653882
 30
0.0
 11
-41.99999999999999
 21
4.000029622605976
 31
0.0
  0
LINE
  5
1E12
330
1F
100
AcDbEntity
  8
AM_0
 48
0.5
100
AcDbLine
 10
-95.5
 20
3.999999999999996
 30
0.0
 11
-41.99999999999999
 21
3.999999999999881
 31
0.0
1001
GENIUS_GENODEF_13
1002
{
1000
HIER
1070
     0
1002
}
1002
{
1000
MANEDIT
1070
     0
1002
}
1002
{
1000
NOSEL
1070
     0
1002
}
1002
{
1000
BEHIND
1070
     0
1002
}
1002
{
1000
REACTOR
1002
}
1001
GENIUS_GENOBJ-N-CEN_13
1002
{
1000
OWNER
1000
GEN
1002
}
  0
LINE
  5
1E16
330
1F
100
AcDbEntity
  8
AM_0
 48
0.5
100
AcDbLine
 10
-95.49999999999998
 20
-4.000000000000003
 30
0.0
 11
-41.99999999999999
 21
-4.000000000000119
 31
0.0
1001
GENIUS_GENODEF_13
1002
{
1000
HIER
1070
     0
1002
}
1002
{
1000
MANEDIT
1070
     0
1002
}
1002
{
1000
NOSEL
1070
     0
1002
}
1002
{
1000
BEHIND
1070
     0
1002
}
1002
{
1000
REACTOR
1002
}
1001
GENIUS_GENOBJ-N-CEN_13
1002
{
1000
OWNER
1000
GEN
1002
}
  0
LINE
  5
1E22
330
1F
100
AcDbEntity
  8
AM_0
100
AcDbLine
 10
-95.5
 20
-3.999999999999707
 30
0.0
 11
-95.49999999999998
 21
4.000000000000292
 31
0.0
  0
LINE
  5
1E25
330
1F
100
AcDbEntity
  8
AM_0
100
AcDbLine
 10
-41.99999999999999
 20
-4.000001369653882
 30
0.0
 11
-41.6535860784028
 21
-3.799999198768713
 31
0.0
  0
LINE
  5
1E26
330
1F
100
AcDbEntity
  8
AM_0
100
AcDbLine
 10
-41.99999999999999
 20
3.999999999999949
 30
0.0
 11
-41.65358607840256
 21
3.799997829114643
 31
0.0
  0
ARC
  5
1F66
330
1F
100
AcDbEntity
  8
AM_11
 48
0.5
100
AcDbCircle
 10
-81.85241919041599
 20
17.66787048062777
 30
0.0
 40
19.53452809651666
100
AcDbArc
 50
244.7482808787518
 51
295.2516148471758
  0
ARC
  5
1F67
330
1F
100
AcDbEntity
  8
AM_11
 48
0.5
100
AcDbCircle
 10
-81.85241919041601
 20
-17.66785848258822
 30
0.0
 40
19.53452809651666
100
AcDbArc
 50
64.74833051131179
 51
115.2516644797366
  0
LINE
  5
220F
330
1F
100
AcDbEntity
  8
AM_0
100
AcDbLine
 10
-41.6535860784028
 20
-3.799999198768714
 30
0.0
 11
-41.65358607840278
 21
-3.342497588857771
 31
0.0
  0
ELLIPSE
  5
222E
330
1F
100
AcDbEntity
  8
AM_11
 48
0.5
100
AcDbEllipse
 10
-15.18578898112439
 20
16.72558433296424
 30
0.0
 11
-19.53452809651665
 21
0.000000000000166
 31
0.0
210
0.0
220
0.0
230
1.0
 40
0.9466666666666663
 41
1.130070686340305
 42
2.011520147323594
  0
ELLIPSE
  5
222F
330
1F
100
AcDbEntity
  8
AM_11
 48
0.5
100
AcDbEllipse
 10
-15.18578898112476
 20
-16.72557241888022
 30
0.0
 11
-19.53452809651663
 21
0.0000000000000489
 31
0.0
210
0.0
220
0.0
230
1.0
 40
0.9466666666666668
 41
4.271664206181679
 42
5.153113667164986
  0
ELLIPSE
  5
2230
330
1F
100
AcDbEntity
  8
AM_11
 48
0.5
100
AcDbEllipse
 10
-48.51912231445306
 20
16.72558433296459
 30
0.0
 11
-19.53452809651663
 21
0.000000000000114
 31
0.0
210
0.0
220
0.0
230
1.0
 40
0.946666666666667
 41
1.130070686340299
 42
2.011520147323592
  0
ELLIPSE
  5
2231
330
1F
100
AcDbEntity
  8
AM_11
 48
0.5
100
AcDbEllipse
 10
-48.51912231445343
 20
-16.72557241887988
 30
0.0
 11
-19.53452809651663
 21
0.0000000000000055
 31
0.0
210
0.0
220
0.0
230
1.0
 40
0.946666666666667
 41
4.271664206181676
 42
5.153113667164983
  0
ELLIPSE
  5
2232
330
1F
100
AcDbEntity
  8
AM_11
 48
0.5
100
AcDbEllipse
 10
-31.85245564779144
 20
-16.72557241888005
 30
0.0
 11
-19.53452809651665
 21
0.0000000000000576
 31
0.0
210
0.0
220
0.0
230
1.0
 40
0.9466666666666657
 41
4.271664206181679
 42
5.153113667164985
  0
ELLIPSE
  5
2233
330
1F
100
AcDbEntity
  8
AM_11
 48
0.5
100
AcDbEllipse
 10
-31.85245564779107
 20
16.72558433296442
 30
0.0
 11
19.53452809651663
 21
0.0000000000000446
 31
0.0
210
0.0
220
0.0
230
1.0
 40
0.9466666666666672
 41
4.271663339930084
 42
5.153112800913377
  0
ELLIPSE
  5
2234
330
1F
100
AcDbEntity
  8
AM_11
 48
0.5
100
AcDbEllipse
 10
1.480877685542287
 20
16.72558433296408
 30
0.0
 11
-19.53452809651675
 21
0.0000000000005521
 31
0.0
210
0.0
220
0.0
230
1.0
 40
0.946666666666662
 41
1.130070686340324
 42
1.291800737381015
  0
DIMENSION
  5
228A
330
1F
100
AcDbEntity
  8
AM_5
100
AcDbDimension
  2
*D7
 10
-105.0000009999999
 20
4.000000000000294
 30
0.0
 11
-105.0000009999999
 21
-0.0000000000000043
 31
0.0
 70
   160
  1
%%c<>
 51
359.9999999999998
  3
AM_JIS$0
100
AcDbAlignedDimension
 13
-95.5
 23
-4.000000000000003
 33
0.0
 14
-95.49999999999998
 24
4.000000000000292
 34
0.0
 50
270.0000000000002
100
AcDbRotatedDimension
1001
ACAD
1000
DSTYLE
1002
{
1070
   271
1070
     0
1002
}
1001
GENIUS_GENDTOL_13
1000

1000
h7
1000

1040
0.0
  0
ARC
  5
24F5
330
1F
100
AcDbEntity
  8
AM_11
 48
0.5
100
AcDbCircle
 10
-98.51902396212658
 20
-17.66785848258828
 30
0.0
 40
19.53452809651666
100
AcDbArc
 50
64.74833051131179
 51
82.59094121931479
  0
ARC
  5
24F6
330
1F
100
AcDbEntity
  8
AM_11
 48
0.5
100
AcDbCircle
 10
-98.51902396212656
 20
17.66787048062772
 30
0.0
 40
19.53452809651666
100
AcDbArc
 50
277.409058780685
 51
295.2516148471758
  0
LINE
  5
24F9
330
1F
100
AcDbEntity
  8
AM_0
 48
0.5
100
AcDbLine
 10
-95.5
 20
3.999999999999996
 30
0.0
 11
-96.0
 21
3.499999999999996
 31
0.0
1001
GENIUS_GENFIL_13
1070
     0
1040
0.5
1040
0.5
1040
20.0
1040
0.0
1002
{
1002
}
1001
GENIUS_GENODEF_13
1002
{
1000
HIER
1070
     0
1002
}
1002
{
1000
MANEDIT
1070
     0
1002
}
1002
{
1000
NOSEL
1070
     0
1002
}
1002
{
1000
BEHIND
1070
     0
1002
}
1002
{
1000
REACTOR
1002
}
1001
GENIUS_GENOBJ-N-CHA_13
1002
{
1000
OWNER
1000
GEN
1002
}
  0
LINE
  5
24FC
330
1F
100
AcDbEntity
  8
AM_0
 48
0.5
100
AcDbLine
 10
-95.99999999999999
 20
-3.500000000000002
 30
0.0
 11
-95.49999999999998
 21
-4.000000000000003
 31
0.0
1001
GENIUS_GENFIL_13
1070
     0
1040
0.5
1040
0.5
1040
20.0
1040
0.0
1002
{
1002
}
1001
GENIUS_GENODEF_13
1002
{
1000
HIER
1070
     0
1002
}
1002
{
1000
MANEDIT
1070
     0
1002
}
1002
{
1000
NOSEL
1070
     0
1002
}
1002
{
1000
BEHIND
1070
     0
1002
}
1002
{
1000
REACTOR
1002
}
1001
GENIUS_GENOBJ-N-CHA_13
1002
{
1000
OWNER
1000
GEN
1002
}
  0
ELLIPSE
  5
2541
330
1F
100
AcDbEntity
  8
AM_0
 48
0.5
100
AcDbEllipse
 10
5.425294056045901
 20
-5.329039651754257
 30
0.0
 11
7.270283370024311
 21
-0.8228207667782269
 31
0.0
210
0.0
220
0.0
230
-1.0
 40
0.9148199423618684
 41
3.349788544839671
 42
3.675583716501283
  0
LINE
  5
2542
330
1F
100
AcDbEntity
  8
AM_0
 48
0.5
100
AcDbLine
 10
-1.532404323548661
 20
-3.149258293794756
 30
0.0
 11
-2.000000000000033
 21
-3.799995115471619
 31
0.0
  0
DIMENSION
  5
26BF
330
1F
100
AcDbEntity
  8
AM_5
100
AcDbDimension
  2
*D8
 10
-0.4497245551033038
 20
-1.235598831326649
 30
0.0
 11
12.32150483951261
 21
-0.0000139393493582
 31
0.0
 70
    34
  1
<>
 51
359.9999999999998
  3
AM_JIS$2
100
AcDb2LineAngularDimension
 13
-0.0000000000000058
 23
-0.0000000000000161
 33
0.0
 14
-0.4497187230507567
 24
1.235591506492563
 34
0.0
 15
-0.0000000000000058
 25
-0.0000000000000161
 35
0.0
 16
12.73703527913145
 26
-5.494231412217867
 36
0.0
1001
GENIUS_GENDTOL_13
1000

1000
h7
1000

1040
0.0
1001
ACAD
1000
DSTYLE
1002
{
1070
   271
1070
     0
1002
}
  0
DIMENSION
  5
294C
330
1F
100
AcDbEntity
  8
AM_5
100
AcDbDimension
  2
*D9
 10
8.555921024858069
 20
-3.799999198770238
 30
0.0
 11
6.855921024858068
 21
0.0000008012297542
 31
0.0
 70
    32
  1
%%c<>
 51
359.9999999999998
  3
AM_JIS$0
100
AcDbAlignedDimension
 13
-1.999999999999955
 23
3.800000801229746
 33
0.0
 14
-1.999998253225093
 24
-3.799999198770235
 34
0.0
 50
90.00000000000017
100
AcDbRotatedDimension
1001
ACAD
1000
DSTYLE
1002
{
1070
   271
1070
     1
1002
}
1001
GENIUS_GENDTOL_13
1000

1000
h7
1000

1040
0.0
  0
ELLIPSE
  5
2A76
330
1F
100
AcDbEntity
  8
AM_0
 48
0.5
100
AcDbEllipse
 10
5.425294056045902
 20
5.329039651754231
 30
0.0
 11
7.270283370024311
 21
0.8228207667782259
 31
0.0
210
0.0
220
0.0
230
1.0
 40
0.9148199423618684
 41
3.349788544839671
 42
3.675583716501283
  0
LINE
  5
2A77
330
1F
100
AcDbEntity
  8
AM_0
 48
0.5
100
AcDbLine
 10
-1.532404323548661
 20
3.149258293794732
 30
0.0
 11
-1.999999999999955
 21
3.800000801229746
 31
0.0
  0
LINE
  5
2B1D
330
1F
100
AcDbEntity
  8
AM_0
 48
0.5
100
AcDbLine
 10
-4.247153603332717
 20
3.799985697967965
 30
0.0
 11
-1.999999999999955
 21
3.800000801229746
 31
0.0
  0
LINE
  5
2B1E
330
1F
100
AcDbEntity
  8
AM_0
 48
0.5
100
AcDbLine
 10
-0.000000000000009
 20
-0.0000000000000166
 30
0.0
 11
-2.124211688966207
 21
1.459085375610993
 31
0.0
  0
LINE
  5
2B1F
330
1F
100
AcDbEntity
  8
AM_0
 48
0.5
100
AcDbLine
 10
-4.58150721281557
 20
-3.800014302032145
 30
0.0
 11
-2.000000000000052
 21
-3.80000080122976
 31
0.0
  0
SPLINE
  5
2B28
330
1F
100
AcDbEntity
  8
AM_0
 48
0.5
100
AcDbSpline
210
0.0
220
0.0
230
1.0
 70
     8
 71
     3
 72
    10
 73
     6
 74
     0
 42
0.0000000001
 43
0.0000000001
 40
0.0
 40
0.0
 40
0.0
 40
0.0
 40
2.69986029516136
 40
4.147722969032201
 40
6.285750005020438
 40
6.285750005020438
 40
6.285750005020438
 40
6.285750005020438
 10
-4.879300766607139
 20
0.687810576001165
 30
0.0
 10
-3.957057130436682
 20
0.3347342865123874
 30
0.0
 10
-3.266011749881519
 20
-0.2076412137943153
 30
0.0
 10
-1.631782254665284
 20
0.0549322675212835
 30
0.0
 10
-1.939555203110042
 20
0.9393144962353709
 30
0.0
 10
-2.142911903022822
 20
1.478372702876119
 30
0.0
  0
ELLIPSE
  5
2B35
330
1F
100
AcDbEntity
  8
AM_0
 48
0.5
100
AcDbEllipse
 10
-7.797187151882771
 20
10.33515902334607
 30
0.0
 11
0.0090283774492854
 21
13.00944109962853
 31
0.0
210
0.0
220
0.0
230
0.9999999999999998
 40
0.9868503236192859
 41
3.687817814730681
 42
3.794996941149194
  0
ELLIPSE
  5
2B36
330
1F
100
AcDbEntity
  8
AM_0
 48
0.5
100
AcDbEllipse
 10
1.696122473890639
 20
-1.988312738144993
 30
0.0
 11
0.0000000000000177
 21
4.351481953646349
 31
0.0
210
0.0
220
0.0
230
1.0
 40
0.9342105263157893
 41
1.485102427261212
 42
2.000210031613682
  0
ELLIPSE
  5
2B37
330
1F
100
AcDbEntity
  8
AM_0
 48
0.5
100
AcDbEllipse
 10
-1.398529907197514
 20
-0.990333900308606
 30
0.0
 11
-0.1076171788943761
 21
0.6238704624654669
 31
0.0
210
0.0
220
0.0
230
1.0
 40
0.4938051871248362
 41
1.808820773739938
 42
4.944162663451914
  0
ELLIPSE
  5
2B38
330
1F
100
AcDbEntity
  8
AM_0
 48
0.5
100
AcDbEllipse
 10
-1.398529907197514
 20
-0.990333900308606
 30
0.0
 11
-0.5400432292757113
 21
0.3187774580513007
 31
0.0
210
0.0
220
0.0
230
0.9999999999999998
 40
0.5032665885250811
 41
4.491567931652944
 42
7.635008272982455
  0
ELLIPSE
  5
2B39
330
1F
100
AcDbEntity
  8
AM_0
 48
0.5
100
AcDbEllipse
 10
-187.8764063655733
 20
-202.4375181422797
 30
0.0
 11
-193.3233558376994
 21
193.3233558376995
 31
0.0
210
0.0
220
0.0
230
1.0
 40
0.9999999999987277
 41
-1.53121653338833
 42
-1.518714348247092
  0
ELLIPSE
  5
2B3A
330
1F
100
AcDbEntity
  8
AM_0
 48
0.5
100
AcDbEllipse
 10
-6.772684951752926
 20
6.377778409465284
 30
0.0
 11
0.0000000000211332
 21
9.16220261255898
 31
0.0
210
0.0
220
0.0
230
1.0
 40
0.9868421052631548
 41
3.652175978820488
 42
3.740670756499978
  0
LINE
  5
2B83
330
1F
100
AcDbEntity
  8
AM_0
100
AcDbLine
 10
-39.02807538099898
 20
3.79998569796824
 30
0.0
 11
-41.65359122625956
 21
3.800000801231274
 31
0.0
  0
LINE
  5
2B84
330
1F
100
AcDbEntity
  8
AM_0
 48
0.5
100
AcDbLine
 10
-32.98042140399335
 20
1.852050944098545
 30
0.0
 11
-41.99999999999996
 21
-0.2613046391380151
 31
0.0
  0
LINE
  5
2B85
330
1F
100
AcDbEntity
  8
AM_0
 48
0.5
100
AcDbLine
 10
-31.19516857583886
 20
-3.800014302031843
 30
0.0
 11
-17.0621695173377
 21
-3.800014302032003
 31
0.0
  0
LINE
  5
2B86
330
1F
100
AcDbEntity
  8
AM_0
100
AcDbLine
 10
-40.66302006870958
 20
-3.799999198768747
 30
0.0
 11
-41.6535860784028
 21
-3.799999198768713
 31
0.0
  0
LINE
  5
2B87
330
1F
100
AcDbEntity
  8
AM_11
 48
0.5
100
AcDbLine
 10
-40.66302006870957
 20
-3.799999198768747
 30
0.0
 11
-31.19516857583886
 21
-3.800014302031843
 31
0.0
  0
LINE
  5
2B88
330
1F
100
AcDbEntity
  8
AM_11
 48
0.5
100
AcDbLine
 10
-17.0621695173377
 20
-3.800014302032003
 30
0.0
 11
-4.58150721281557
 21
-3.800014302032145
 31
0.0
  0
SPLINE
  5
2B89
330
1F
100
AcDbEntity
  8
AM_0
 48
0.5
100
AcDbSpline
210
0.0
220
0.0
230
1.0
 70
     8
 71
     3
 72
    26
 73
    22
 74
     0
 42
0.0000000001
 43
0.0000000001
 40
0.0
 40
0.0
 40
0.0
 40
0.0
 40
0.2526859211241313
 40
0.5057083941171959
 40
0.7593947393741639
 40
1.01405318625086
 40
1.26996425091637
 40
1.527375060172565
 40
1.786490330669834
 40
2.047470117551047
 40
2.310425755981314
 40
2.575417325379407
 40
2.842456731169063
 40
3.111495753801943
 40
3.382458822635121
 40
3.655202026904655
 40
3.929554512223505
 40
4.205306020962704
 40
4.482215236978595
 40
4.76001530984208
 40
5.029821427366006
 40
5.029821427366006
 40
5.029821427366006
 40
5.029821427366006
 10
-29.439938298793
 20
-3.753980547545051
 30
0.0
 10
-29.66069357848455
 20
-3.751719639704198
 30
0.0
 10
-30.10249816137962
 20
-3.74719481272388
 30
0.0
 10
-30.76504425413385
 20
-3.710719624435881
 30
0.0
 10
-31.42756206721682
 20
-3.652733611448639
 30
0.0
 10
-32.09003886969956
 20
-3.571463979699807
 30
0.0
 10
-32.75246808562685
 20
-3.468012216288054
 30
0.0
 10
-33.41483651683909
 20
-3.34283787313298
 30
0.0
 10
-34.07714372269189
 20
-3.196786676664869
 30
0.0
 10
-34.73938518626482
 20
-3.030745668293825
 30
0.0
 10
-35.40155934195483
 20
-2.845745104734409
 30
0.0
 10
-36.06367163948005
 20
-2.642936444882029
 30
0.0
 10
-36.72571933526341
 20
-2.423571966839051
 30
0.0
 10
-37.38770993049154
 20
-2.188997306710468
 30
0.0
 10
-38.04965227643516
 20
-1.940682282288586
 30
0.0
 10
-38.71154780330282
 20
-1.680133236503185
 30
0.0
 10
-39.37340144517792
 20
-1.40896890093501
 30
0.0
 10
-40.03522535622386
 20
-1.128862300989788
 30
0.0
 10
-40.69700859906592
 20
-0.8415003538763134
 30
0.0
 10
-41.35199389020011
 20
-0.5518102848506206
 30
0.0
 10
-41.78594628868621
 20
-0.3571944644227831
 30
0.0
 10
-41.99999999999999
 20
-0.2613046391380114
 30
0.0
  0
SPLINE
  5
2B8A
330
1F
100
AcDbEntity
  8
AM_0
100
AcDbSpline
210
0.0
220
0.0
230
1.0
 70
     8
 71
     3
 72
    11
 73
     7
 74
     0
 42
0.0000000001
 43
0.0000000001
 40
11.27226913003534
 40
11.27226913003534
 40
11.27226913003534
 40
11.2722691300354
 40
12.28301561507924
 40
13.29510212255852
 40
14.30984805882082
 40
15.18258238371378
 40
15.18258238371378
 40
15.18258238371378
 40
15.18258238371378
 10
-17.0621695173377
 20
-3.800014302032003
 30
0.0
 10
-17.2820853738478
 20
-3.781418413722754
 30
0.0
 10
-17.7215022837442
 20
-3.736392728509572
 30
0.0
 10
-18.37835858158517
 20
-3.645564784357745
 30
0.0
 10
-19.00172679041633
 20
-3.537080763964079
 30
0.0
 10
-19.40488475690856
 20
-3.453685868795882
 30
0.0
 10
-19.59067142778079
 20
-3.412491094032802
 30
0.0
  0
SPLINE
  5
2B8B
330
1F
100
AcDbEntity
  8
AM_0
100
AcDbSpline
210
0.0
220
0.0
230
1.0
 70
     8
 71
     3
 72
    22
 73
    18
 74
     0
 42
0.0000000001
 43
0.0000000001
 40
17.17441611292
 40
17.17441611292
 40
17.17441611292
 40
17.17441611292
 40
17.38177636558528
 40
18.41823744757437
 40
19.46215659509824
 40
20.51397914882054
 40
21.57394542641293
 40
22.64209583141747
 40
23.71826625065247
 40
24.80210429862395
 40
25.8930771157021
 40
26.99048705697709
 40
28.09349309193389
 40
29.20112995599786
 40
30.31233024745139
 40
31.42594771747373
 40
32.5407895042663
 40
32.54078950426994
 40
32.54078950426994
 40
32.54078950426994
 10
-19.59096118202369
 20
-3.412444221061864
 30
0.0
 10
-19.6353262120022
 20
-3.403647593772584
 30
0.0
 10
-19.90127033756934
 20
-3.350066375458547
 30
0.0
 10
-20.38846498971653
 20
-3.24262905898805
 30
0.0
 10
-21.05070650580491
 20
-3.076588759843371
 30
0.0
 10
-21.71288054087292
 20
-2.891587713438657
 30
0.0
 10
-22.37499176983213
 20
-2.688780742177134
 30
0.0
 10
-23.03703931807965
 20
-2.469411352646545
 30
0.0
 10
-23.69903133465306
 20
-2.234844781927318
 30
0.0
 10
-24.36097088476152
 20
-1.986522600691155
 30
0.0
 10
-25.02286409291998
 20
-1.725976198223241
 30
0.0
 10
-25.6847183189612
 20
-1.454812980793962
 30
0.0
 10
-26.34653930738048
 20
-1.174700339227477
 30
0.0
 10
-27.00833372047623
 20
-0.8873615738280618
 30
0.0
 10
-27.67010742447978
 20
-0.5945634927541109
 30
0.0
 10
-28.33187022299313
 20
-0.2981128184255855
 30
0.0
 10
-28.7729588245937
 20
-0.0992896395027167
 30
0.0
 10
-28.99362429560852
 20
0.0001765600002456
 30
0.0
  0
SPLINE
  5
2B8C
330
1F
100
AcDbEntity
  8
AM_0
100
AcDbSpline
210
0.0
220
0.0
230
1.0
 70
     8
 71
     3
 72
    17
 73
    13
 74
     0
 42
0.0000000001
 43
0.0000000001
 40
1.580019955310467
 40
1.580019955310467
 40
1.580019955310467
 40
1.580019955310467
 40
2.030549285115227
 40
3.082371838836284
 40
4.126290986361125
 40
5.162752068350215
 40
6.192395305374981
 40
7.216039564037012
 40
8.234688489606833
 40
9.249433870634691
 40
10.26152376260694
 40
11.27226744710342
 40
11.27226744710342
 40
11.27226744710342
 40
11.27226744710352
 10
-10.82135149817947
 20
-2.804528615039207
 30
0.0
 10
-10.91509071146113
 20
-2.833412757764426
 30
0.0
 10
-11.22821117665382
 20
-2.928084393575111
 30
0.0
 10
-11.76278546136354
 20
-3.076580241754058
 30
0.0
 10
-12.42493479494807
 20
-3.242875892392707
 30
0.0
 10
-13.08726641762417
 20
-3.388861394306308
 30
0.0
 10
-13.74962838810408
 20
-3.514046495368736
 30
0.0
 10
-14.41206252173349
 20
-3.617520593109303
 30
0.0
 10
-15.07454242103639
 20
-3.698693206477971
 30
0.0
 10
-15.73706357164091
 20
-3.757038309779435
 30
0.0
 10
-16.39960965074158
 20
-3.792180328808
 30
0.0
 10
-16.84141424058509
 20
-3.800016739739366
 30
0.0
 10
-17.06216951733765
 20
-3.800014302032003
 30
0.0
  0
SPLINE
  5
2B8D
330
1F
100
AcDbEntity
  8
AM_0
 48
0.5
100
AcDbSpline
210
0.0
220
0.0
230
1.0
 70
     8
 71
     3
 72
    22
 73
    18
 74
     0
 42
0.0000000001
 43
0.0000000001
 40
0.0
 40
0.0
 40
0.0
 40
0.0
 40
1.010743684496582
 40
2.022833993863546
 40
3.037578683882831
 40
4.056212471389632
 40
5.079857945358201
 40
6.109499720892564
 40
7.145961650132166
 40
8.189873411961459
 40
9.241710626092514
 40
10.30166235592959
 40
11.36982472628033
 40
12.44598212828784
 40
13.52983440361964
 40
14.62080578343036
 40
14.90544694398022
 40
14.90544694398022
 40
14.90544694398022
 40
14.90544694398022
 10
-31.2710960995663
 20
-3.753782624546975
 30
0.0
 10
-31.51537248548726
 20
-3.751720315056415
 30
0.0
 10
-31.95717724391316
 20
-3.747196838746854
 30
0.0
 10
-32.61972264284295
 20
-3.710711491357271
 30
0.0
 10
-33.28224117131633
 20
-3.652735234869543
 30
0.0
 10
-33.94471833178935
 20
-3.571465549451856
 30
0.0
 10
-34.60714572193968
 20
-3.468004054524767
 30
0.0
 10
-35.26951643112662
 20
-3.342840534191659
 30
0.0
 10
-35.93182075326826
 20
-3.196784030373205
 30
0.0
 10
-36.59406324260027
 20
-3.03074061806875
 30
0.0
 10
-37.25623793465443
 20
-2.845747044586048
 30
0.0
 10
-37.91834828989052
 20
-2.642929201651606
 30
0.0
 10
-38.58039857648763
 20
-2.423577711929481
 30
0.0
 10
-39.24238829716827
 20
-2.188996610740195
 30
0.0
 10
-39.90432985353008
 20
-1.940680285905722
 30
0.0
 10
-40.40182519254249
 20
-1.744855996941084
 30
0.0
 10
-40.67904695622213
 20
-1.632929127971326
 30
0.0
 10
-40.63902735284409
 20
-1.649191646602128
 30
0.0
  0
SPLINE
  5
2B8E
330
1F
100
AcDbEntity
  8
AM_0
100
AcDbSpline
210
0.0
220
0.0
230
1.0
 70
     8
 71
     3
 72
    13
 73
     9
 74
     0
 42
0.0000000001
 43
0.0000000001
 40
16.03460056234195
 40
16.03460056234195
 40
16.03460056234195
 40
16.03460056234195
 40
16.35212717791071
 40
17.38177067057215
 40
18.41822498539278
 40
19.46214186516937
 40
20.5139635832251
 40
21.34083983469381
 40
21.34083983469381
 40
21.34083983469381
 40
21.34083983469381
 10
-40.6630200687102
 20
-3.799999198768751
 30
0.0
 10
-40.39554710869129
 20
-3.762573249381425
 30
0.0
 10
-40.06120664147318
 20
-3.685637021302604
 30
0.0
 10
-39.70542100610763
 20
-3.576180918219492
 30
0.0
 10
-39.04729664941354
 20
-3.413423241463834
 30
0.0
 10
-38.38978369475291
 20
-3.230672870485927
 30
0.0
 10
-37.78136791012885
 20
-3.043885589015947
 30
0.0
 10
-37.39320935368264
 20
-2.915269252762966
 30
0.0
 10
-37.22292652136709
 20
-2.85713349682435
 30
0.0
  0
ELLIPSE
  5
2B8F
330
1F
100
AcDbEntity
  8
AM_0
 48
0.5
100
AcDbEllipse
 10
-40.68970280892825
 20
-2.487313880877885
 30
0.0
 11
-0.9333018961561844
 21
0.9555183900177567
 31
0.0
210
0.0
220
0.0
230
1.0
 40
0.9646447176167846
 41
0.8259921123594583
 42
2.370302550721662
  0
ELLIPSE
  5
2B90
330
1F
100
AcDbEntity
  8
AM_0
 48
0.5
100
AcDbEllipse
 10
-41.01753776298066
 20
-2.525906664487858
 30
0.0
 11
-0.9827850488899903
 21
0.0000000000008448
 31
0.0
210
0.0
220
0.0
230
1.0
 40
0.9666406719078462
 41
4.317028824483905
 42
6.257553905070209
  0
LINE
  5
2B91
330
1F
100
AcDbEntity
  8
AM_0
100
AcDbLine
 10
-31.06624587010838
 20
3.799985697968148
 30
0.0
 11
-16.84759568462247
 21
3.799985697968217
 31
0.0
  0
LINE
  5
2B92
330
1F
100
AcDbEntity
  8
AM_11
 48
0.5
100
AcDbLine
 10
-39.02807538099898
 20
3.79998569796824
 30
0.0
 11
-31.06624587010838
 21
3.799985697968148
 31
0.0
  0
LINE
  5
2B93
330
1F
100
AcDbEntity
  8
AM_11
 48
0.5
100
AcDbLine
 10
-16.84735734473197
 20
3.799983282004485
 30
0.0
 11
-4.247391934018788
 21
3.799983282003914
 31
0.0
  0
SPLINE
  5
2B94
330
1F
100
AcDbEntity
  8
AM_0
100
AcDbSpline
210
0.0
220
0.0
230
1.0
 70
     8
 71
     3
 72
    55
 73
    51
 74
     0
 42
0.0000000001
 43
0.0000000001
 40
0.0
 40
0.0
 40
0.0
 40
0.0
 40
1.010743684496582
 40
2.022833576467832
 40
3.037578957496688
 40
4.056212745003489
 40
5.079857003664532
 40
6.109500240690281
 40
7.145961322679372
 40
8.189895241603872
 40
9.241717795325891
 40
10.30168407291828
 40
11.36983447792315
 40
12.44600489715814
 40
13.52984294512926
 40
14.62081576220742
 40
15.7182257034828
 40
16.82123173843959
 40
17.92886860250316
 40
19.0400688939571
 40
20.15368796660465
 40
21.26852814259644
 40
22.38336992938901
 40
23.49698739941135
 40
24.6081876908653
 40
25.71582455492886
 40
26.81883757994213
 40
27.91624752121713
 40
29.00722033829659
 40
30.09105838626677
 40
31.16722880550176
 40
32.23537921050758
 40
33.29534548809967
 40
34.347168041821
 40
35.39108718934584
 40
36.42754827133493
 40
37.45720575381954
 40
38.48085062012849
 40
39.49948440763516
 40
40.51422944315121
 40
41.52631975251916
 40
42.53706336719636
 40
43.54780698187354
 40
44.55989729124051
 40
45.57464232675757
 40
46.59327611426424
 40
47.6169209805722
 40
48.64656348684535
 40
49.68302456883444
 40
50.58557219878025
 40
50.58557219878025
 40
50.58557219878025
 40
50.58557219878025
 10
-4.58150721281557
 20
-3.800014302032133
 30
0.0
 10
-4.802262492480537
 20
-3.797755810056727
 30
0.0
 10
-5.244067075322237
 20
-3.793230982879253
 30
0.0
 10
-5.906613168475892
 20
-3.756755796072795
 30
0.0
 10
-6.56913098003496
 20
-3.698769777432375
 30
0.0
 10
-7.231607788245846
 20
-3.617500166933515
 30
0.0
 10
-7.894036982632963
 20
-3.514048323613327
 30
0.0
 10
-8.556405494949322
 20
-3.388874281332888
 30
0.0
 10
-9.218715540788263
 20
-3.242821257056831
 30
0.0
 10
-9.880961246798095
 20
-3.076783609624794
 30
0.0
 10
-10.54313810187873
 20
-2.891780800119497
 30
0.0
 10
-11.20524940661567
 20
-2.688974072052245
 30
0.0
 10
-11.86729693427502
 20
-2.469604616502324
 30
0.0
 10
-12.52928895661036
 20
-2.235038064054157
 30
0.0
 10
-13.19122850446774
 20
-1.986715876429914
 30
0.0
 10
-13.85312171583911
 20
-1.726169481120201
 30
0.0
 10
-14.5149759312097
 20
-1.45500624131561
 30
0.0
 10
-15.17679695936551
 20
-1.174893682644159
 30
0.0
 10
-15.83859122335505
 20
-0.8875546063081529
 30
0.0
 10
-16.50036580465807
 20
-0.5947575501848541
 30
0.0
 10
-17.16212650766774
 20
-0.2983025102462823
 30
0.0
 10
-17.82388267747013
 20
-0.0000174933335677
 30
0.0
 10
-18.48563587654105
 20
0.2982728928953293
 30
0.0
 10
-19.14739879762832
 20
0.5947233162448252
 30
0.0
 10
-19.80917256196178
 20
0.8875212586481273
 30
0.0
 10
-20.47096800592314
 20
1.174861429617936
 30
0.0
 10
-21.13279177963006
 20
1.454971597759627
 30
0.0
 10
-21.79464703958151
 20
1.726136212739149
 30
0.0
 10
-22.4565403465082
 20
1.986682396772577
 30
0.0
 10
-23.1184798702797
 20
2.235004636618044
 30
0.0
 10
-23.78047189431013
 20
2.469571189409347
 30
0.0
 10
-24.44251943883239
 20
2.688940592504736
 30
0.0
 10
-25.10463067523222
 20
2.891747527656322
 30
0.0
 10
-25.76680468451996
 20
3.07674870358916
 30
0.0
 10
-26.42904629530509
 20
3.242788525700127
 30
0.0
 10
-27.09135609546135
 20
3.388844486918772
 30
0.0
 10
-27.75372933731084
 20
3.514004232585972
 30
0.0
 10
-28.4161607201768
 20
3.617488096438596
 30
0.0
 10
-29.07863772477551
 20
3.698661372303905
 30
0.0
 10
-29.74115599667203
 20
3.756999518912191
 30
0.0
 10
-30.40370152806556
 20
3.792152564650329
 30
0.0
 10
-31.06626161849534
 20
3.803896034050512
 30
0.0
 10
-31.72882170795026
 20
3.792152564631965
 30
0.0
 10
-32.39136724227405
 20
3.756999518986176
 30
0.0
 10
-33.05388550338218
 20
3.698661372025687
 30
0.0
 10
-33.71636254842931
 20
3.617488097484876
 30
0.0
 10
-34.37879054975509
 20
3.514004733153272
 30
0.0
 10
-35.0411611821062
 20
3.388845766609856
 30
0.0
 10
-35.6733571929757
 20
3.249418541653884
 30
0.0
 10
-36.08353316448066
 20
3.147454093944135
 30
0.0
 10
-36.27383090847429
 20
3.09776184444985
 30
0.0
  0
SPLINE
  5
2B95
330
1F
100
AcDbEntity
  8
AM_0
 48
0.5
100
AcDbSpline
210
0.0
220
0.0
230
1.0
 70
     8
 71
     3
 72
    25
 73
    21
 74
     0
 42
0.0000000001
 43
0.0000000001
 40
6.846175049578289
 40
6.846175049578289
 40
6.846175049578289
 40
6.846175049578289
 40
7.604337694224321
 40
8.711974558287883
 40
9.814980593243754
 40
10.91239053451967
 40
12.0033633515982
 40
13.08720139956839
 40
14.16337181880432
 40
15.23152222380919
 40
16.29148850140128
 40
17.34331105512262
 40
18.38723020264746
 40
19.42369128463655
 40
20.45333379090873
 40
21.47697865721768
 40
22.49561244472435
 40
23.5103574802404
 40
24.52244778960836
 40
25.53320666051913
 40
25.53320666051913
 40
25.53320666051913
 40
25.53320666051913
 10
-4.879300766607139
 20
0.687810576001165
 30
0.0
 10
-5.031253017065874
 20
0.7545318177260486
 30
0.0
 10
-5.405519527625259
 20
0.9180617200645562
 30
0.0
 10
-6.150620574395163
 20
1.17486253467926
 30
0.0
 10
-6.818793174016842
 20
1.454975255397731
 30
0.0
 10
-7.486999376472535
 20
1.726138451750104
 30
0.0
 10
-8.155244922898813
 20
1.98668485991264
 30
0.0
 10
-8.823537259200158
 20
2.235007039286278
 30
0.0
 10
-9.491882564981553
 20
2.469573611794894
 30
0.0
 10
-10.16028393432975
 20
2.688942996068773
 30
0.0
 10
-10.82874960023495
 20
2.891749986371036
 30
0.0
 10
-11.4972786575148
 20
3.07675096261739
 30
0.0
 10
-12.16587590807329
 20
3.242791520653053
 30
0.0
 10
-12.83453899239996
 20
3.38884406135206
 30
0.0
 10
-13.50326529835883
 20
3.514013387135594
 30
0.0
 10
-14.17205110480237
 20
3.617469817654179
 30
0.0
 10
-14.84088600569193
 20
3.698739860483867
 30
0.0
 10
-15.50976262978812
 20
3.756719666808024
 30
0.0
 10
-16.17867011920778
 20
3.79320504638045
 30
0.0
 10
-16.62471835907056
 20
3.797726472772605
 30
0.0
 10
-16.84759568462245
 20
3.799985697968221
 30
0.0
  0
SPLINE
  5
2B96
330
1F
100
AcDbEntity
  8
AM_0
100
AcDbSpline
210
0.0
220
0.0
230
1.0
 70
     8
 71
     3
 72
    23
 73
    19
 74
     0
 42
0.0000000001
 43
0.0000000001
 40
16.03460024169435
 40
16.03460024169435
 40
16.03460024169435
 40
16.03460024169435
 40
16.35212704903564
 40
17.38177054169784
 40
18.41822485651776
 40
19.46214173629503
 40
20.51396345435107
 40
21.57393551351153
 40
22.64208202342361
 40
23.7182574881101
 40
24.80209208578934
 40
25.89306333925047
 40
26.99048218457928
 40
28.09348763352352
 40
29.20111863782268
 40
30.31232390128032
 40
31.42594612798585
 40
32.5407912310448
 40
32.5407912310486
 40
32.5407912310486
 40
32.5407912310486
 10
-39.02807538106875
 20
3.799985697968244
 30
0.0
 10
-38.96285759506008
 20
3.787695010146805
 30
0.0
 10
-38.6743535143461
 20
3.731832110975803
 30
0.0
 10
-38.16615046919242
 20
3.622377285803433
 30
0.0
 10
-37.50802619532026
 20
3.459619157758437
 30
0.0
 10
-36.8505132182298
 20
3.276868908997235
 30
0.0
 10
-36.1935726849548
 20
3.075184204747387
 30
0.0
 10
-35.53718127951149
 20
2.855689441750127
 30
0.0
 10
-34.88130106404981
 20
2.619639344634611
 30
0.0
 10
-34.22588636556449
 20
2.368407665756239
 30
0.0
 10
-33.57089994103834
 20
2.103417115464785
 30
0.0
 10
-32.91628927783467
 20
1.826209612028176
 30
0.0
 10
-32.26200132707944
 20
1.538396405223454
 30
0.0
 10
-31.60799249543273
 20
1.241632300330693
 30
0.0
 10
-30.95420806276984
 20
0.9376429399796746
 30
0.0
 10
-30.30058747480603
 20
0.628203399010909
 30
0.0
 10
-29.64707750837476
 20
0.3151067957710046
 30
0.0
 10
-29.21152121911989
 20
0.1051926432439607
 30
0.0
 10
-28.99362429560558
 20
0.0001765599988918
 30
0.0
  0
SPLINE
  5
2B97
330
1F
100
AcDbEntity
  8
AM_0
100
AcDbSpline
210
0.0
220
0.0
230
1.0
 70
     8
 71
     3
 72
    46
 73
    42
 74
     0
 42
0.0000000001
 43
0.0000000001
 40
0.0
 40
0.0
 40
0.0
 40
0.0
 40
0.5056245176053715
 40
0.759310862862336
 40
1.013969309739036
 40
1.269880374404297
 40
1.527291183660732
 40
1.786406454158005
 40
2.047386241038974
 40
2.310345544571907
 40
2.575337113970003
 40
2.842374715221223
 40
3.111417320030211
 40
3.382376832022752
 40
3.655120036292296
 40
3.929472521611371
 40
4.205224030350333
 40
4.482133246366229
 40
4.759933319229942
 40
5.038338087391601
 40
5.317048131389549
 40
5.595758175387723
 40
5.874162943549383
 40
6.151963016412869
 40
6.428872232428759
 40
6.704623741167955
 40
6.978976226486705
 40
7.251719430756336
 40
7.522680721168327
 40
7.791723325977311
 40
8.058760927228529
 40
8.32375249662655
 40
8.586708135057122
 40
8.84768792193809
 40
9.106803192435362
 40
9.364213819003406
 40
9.620125035580644
 40
9.87478726697307
 40
10.12847352585208
 40
10.38149610319407
 40
10.63418200686337
 40
10.63418200686337
 40
10.63418200686337
 40
10.63418200686337
 10
-2.726828347968878
 20
-3.800016717996197
 30
0.0
 10
-3.168654516678375
 20
-3.791360024252705
 30
0.0
 10
-3.832157566306659
 20
-3.778360018582421
 30
0.0
 10
-4.714446505595548
 20
-3.698321371898662
 30
0.0
 10
-5.376930431432421
 20
-3.617621124817627
 30
0.0
 10
-6.039357730664346
 20
-3.514015715784345
 30
0.0
 10
-6.701726658231028
 20
-3.388882823449537
 30
0.0
 10
-7.364033811413325
 20
-3.242820689641845
 30
0.0
 10
-8.026278080946323
 20
-3.076780816443338
 30
0.0
 10
-8.688456519609065
 20
-2.891782713254645
 30
0.0
 10
-9.350570450937475
 20
-2.688973806917067
 30
0.0
 10
-10.01261809404643
 20
-2.469604688359236
 30
0.0
 10
-10.67461008508549
 20
-2.235038044569411
 30
0.0
 10
-11.33654964146801
 20
-1.986715881785117
 30
0.0
 10
-11.99844285034563
 20
-1.726169479365601
 30
0.0
 10
-12.66029706709331
 20
-1.455006242943313
 30
0.0
 10
-13.3221180922349
 20
-1.174893677869352
 30
0.0
 10
-13.98391236695879
 20
-0.8875546238702394
 30
0.0
 10
-14.64568690817086
 20
-0.5947574844543362
 30
0.0
 10
-15.30744776122481
 20
-0.2983027562106781
 30
0.0
 10
-15.96920305140019
 20
-0.0000167180559572
 30
0.0
 10
-16.63095834143021
 20
0.298269320461211
 30
0.0
 10
-17.29271919492023
 20
0.5947240476179915
 30
0.0
 10
-17.95449373453839
 20
0.8875211910060441
 30
0.0
 10
-18.61628801517249
 20
1.174860230273883
 30
0.0
 10
-19.27810901839962
 20
1.454972849969839
 30
0.0
 10
-19.93996331630409
 20
1.726135884107696
 30
0.0
 10
-20.60185766391158
 20
1.986683601195892
 30
0.0
 10
-21.26379979227187
 20
2.235003507847455
 30
0.0
 10
-21.92579296420314
 20
2.469571354414693
 30
0.0
 10
-22.58784059189777
 20
2.688940538246527
 30
0.0
 10
-23.24995180333738
 20
2.891747580943569
 30
0.0
 10
-23.91212583004136
 20
3.076748545896209
 30
0.0
 10
-24.57436739633768
 20
3.242789097385768
 30
0.0
 10
-25.23667416621141
 20
3.388841675041849
 30
0.0
 10
-25.89904357938641
 20
3.514010860846443
 30
0.0
 10
-26.56147510628047
 20
3.617468320027126
 30
0.0
 10
-27.22395561850562
 20
3.698736681813846
 30
0.0
 10
-27.88647711807769
 20
3.756717378672064
 30
0.0
 10
-28.54902266668737
 20
3.793202408343883
 30
0.0
 10
-28.99082743455219
 20
3.797723994194675
 30
0.0
 10
-29.21158275348627
 20
3.799983282004988
 30
0.0
  0
SPLINE
  5
2B98
330
1F
100
AcDbEntity
  8
AM_0
 48
0.5
100
AcDbSpline
210
0.0
220
0.0
230
1.0
 70
     8
 71
     3
 72
    17
 73
    13
 74
     0
 42
0.0000000001
 43
0.0000000001
 40
0.0
 40
0.0
 40
0.0
 40
0.0
 40
1.010743614677189
 40
2.022833924044153
 40
3.037578959561199
 40
4.056212747067873
 40
5.079857613375832
 40
6.109500119648989
 40
7.14596120163808
 40
8.18989512056258
 40
9.241717674284874
 40
9.693948937866434
 40
9.693948937866434
 40
9.693948937866434
 40
9.693948937866434
 10
-4.247153603332717
 20
3.799985697967965
 30
0.0
 10
-4.470027562575263
 20
3.797726419348806
 30
0.0
 10
-4.916072433890993
 20
3.793204851892594
 30
0.0
 10
-5.584976570238102
 20
3.756719684000176
 30
0.0
 10
-6.253853168190201
 20
3.69873980273034
 30
0.0
 10
-6.922688167710207
 20
3.617470032735599
 30
0.0
 10
-7.591473603167128
 20
3.514012578640417
 30
0.0
 10
-8.260201306007916
 20
3.388847106227876
 30
0.0
 10
-8.928862300782935
 20
3.242779347037588
 30
0.0
 10
-9.597482534222828
 20
3.076792666842715
 30
0.0
 10
-10.13721022178223
 20
2.927263758789922
 30
0.0
 10
-10.45416996473417
 20
2.833786688059075
 30
0.0
 10
-10.54930427446792
 20
2.805173982471334
 30
0.0
  0
LINE
  5
2B9A
330
1F
100
AcDbEntity
  8
AM_0
100
AcDbLine
 10
-41.65358607840274
 20
-1.801694084615028
 30
0.0
 11
-41.6535860784027
 21
-0.4164621897111301
 31
0.0
  0
LINE
  5
2B9B
330
1F
100
AcDbEntity
  8
AM_0
100
AcDbLine
 10
-41.6535860784027
 20
-0.1801372334187944
 30
0.0
 11
-41.65358607840256
 21
3.799997829114644
 31
0.0
  0
VIEWPORT
  5
110
330
101
100
AcDbEntity
 67
     1
  8
0
100
AcDbViewport
 10
420.5
 20
297.0
 30
0.0
 40
948.9782706766916
 41
628.452
 68
     1
 69
     1
1001
ACAD
1000
MVIEW
1002
{
1070
    16
1010
0.0
1020
0.0
1030
0.0
1010
0.0
1020
0.0
1030
1.0
1040
0.0
1040
628.452
1040
420.5
1040
297.0
1040
50.0
1040
0.0
1040
0.0
1070
     0
1070
   100
1070
     1
1070
     1
1070
     0
1070
     0
1070
     0
1070
     0
1040
0.0
1040
0.0
1040
0.0
1040
10.0
1040
10.0
1040
10.0
1040
10.0
1070
     0
1002
{
1002
}
1002
}
  0
ENDSEC
  0
SECTION
  2
OBJECTS
  0
DICTIONARY
  5
C
330
0
100
AcDbDictionary
  3
ACAD_GROUP
350
D
  3
ACAD_LAYOUT
350
1A
  3
ACAD_MLINESTYLE
350
17
  3
ACAD_PLOTSETTINGS
350
19
  3
ACAD_PLOTSTYLENAME
350
E
  3
ACDBVARIABLEDICTIONARY
350
34
  3
ACMDICTIONARY
350
43
  3
AMG
350
2B
  3
AMGSNAPSETTINGS
350
6E
  3
DWGPROPS
350
2BF4
  3
ACDBHEADERROUNDTRIPXREC
350
2C00
  0
DICTIONARY
  5
74
330
1F
100
AcDbDictionary
280
     1
  3
ACAD_INDEX
360
2BF6
  3
ACAD_LAYOUTSELFREF
360
2C23
  0
DICTIONARY
  5
2C28
330
101
100
AcDbDictionary
280
     1
  3
ACAD_LAYOUTSELFREF
360
2C29
  0
DICTIONARY
  5
D
102
{ACAD_REACTORS
330
C
102
}
330
C
100
AcDbDictionary
  0
DICTIONARY
  5
1A
102
{ACAD_REACTORS
330
C
102
}
330
C
100
AcDbDictionary
  0
DICTIONARY
  5
17
102
{ACAD_REACTORS
330
C
102
}
330
C
100
AcDbDictionary
  3
STANDARD
350
18
  0
DICTIONARY
  5
19
102
{ACAD_REACTORS
330
C
102
}
330
C
100
AcDbDictionary
  0
ACDBDICTIONARYWDFLT
  5
E
102
{ACAD_REACTORS
330
C
102
}
330
C
100
AcDbDictionary
281
     1
  3
Normal
350
F
100
AcDbDictionaryWithDefault
340
F
  0
DICTIONARY
  5
34
102
{ACAD_REACTORS
330
C
102
}
330
C
100
AcDbDictionary
  3
INDEXCTL
350
35
  3
SORTENTS
350
B5E
  0
DICTIONARY
  5
43
102
{ACAD_REACTORS
330
C
102
}
330
C
100
AcDbDictionary
  3
ACMSTDDICTIONARY
350
260
  0
DICTIONARY
  5
2B
102
{ACAD_REACTORS
330
C
102
}
330
C
100
AcDbDictionary
  3
ACMGSETTINGS
350
2C
  0
DICTIONARY
  5
6E
102
{ACAD_REACTORS
330
C
102
}
330
C
100
AcDbDictionary
  0
XRECORD
  5
2BF4
102
{ACAD_REACTORS
330
C
102
}
330
C
100
AcDbXrecord
  1
DWGPROPS COOKIE
  2

  3

  4

  6

  7

  8

  9

300
AmdtFileType=82
301
=
302
=
303
=
304
=
305
=
306
=
307
=
308
=
309
=
 40
0.0443310416666667
 41
2452800.443498622
 42
2452946.61297272
  1

 90
        1
  0
DICTIONARY
  5
2C00
102
{ACAD_REACTORS
330
C
102
}
330
C
100
AcDbDictionary
  3
TSTACKALIGN
350
2C01
  3
TSTACKSIZE
350
2C02
  3
HYPERLINKBASE
350
2C03
  3
STYLESHEET
350
2C04
  3
LAYOUTDICT
350
2C05
  3
PLOTSETDICT
350
2C06
  3
PLOTSTYLNAMDICT
350
2C07
  3
LWETCUNION
350
2C08
  3
INSUNITS
350
2C09
  3
CEPSNTYPE
350
2C0A
  3
FINGERPRINTGUID
350
2C0B
  3
VERSIONGUID
350
2C0C
  3
PSVPSCALE
350
2C0D
  3
DIMSTYLEDATA
350
2C0E
  3
PUCSORTHOREF
350
2C0F
  3
PUCSORTHOVIEW
350
2C10
  3
PUCSBASE
350
2C11
  3
PUCSORGTOP
350
2C12
  3
PUCSORGBOTTOM
350
2C13
  3
PUCSORGLEFT
350
2C14
  3
PUCSORGRIGHT
350
2C15
  3
PUCSORGFRONT
350
2C16
  3
PUCSORGBACK
350
2C17
  3
UCSORTHOREF
350
2C18
  3
UCSORTHOVIEW
350
2C19
  3
UCSBASE
350
2C1A
  3
UCSORGTOP
350
2C1B
  3
UCSORGBOTTOM
350
2C1C
  3
UCSORGLEFT
350
2C1D
  3
UCSORGRIGHT
350
2C1E
  3
UCSORGFRONT
350
2C1F
  3
UCSORGBACK
350
2C20
  0
DICTIONARY
  5
2BF6
102
{ACAD_REACTORS
330
74
102
}
330
74
100
AcDbDictionary
  3
*A1
350
2BF7
  0
XRECORD
  5
2C23
102
{ACAD_REACTORS
330
74
102
}
330
74
100
AcDbXrecord
340
1F
  0
XRECORD
  5
2C29
102
{ACAD_REACTORS
330
2C28
102
}
330
2C28
100
AcDbXrecord
340
101
  0
MLINESTYLE
  5
18
102
{ACAD_REACTORS
330
17
102
}
330
17
100
AcDbMlineStyle
  2
STANDARD
 70
     0
  3

 62
   256
 51
90.0
 52
90.0
 71
     2
 49
0.5
 62
   256
  6
BYLAYER
 49
-0.5
 62
   256
  6
BYLAYER
  0
ACDBPLACEHOLDER
  5
F
102
{ACAD_REACTORS
330
E
102
}
330
E
100
AcDbPlaceHolder
280
     0
  0
DICTIONARYVAR
  5
35
102
{ACAD_REACTORS
330
34
102
}
330
34
100
DictionaryVariables
280
     0
  1
1
  0
DICTIONARYVAR
  5
B5E
102
{ACAD_REACTORS
330
34
102
}
330
34
100
DictionaryVariables
280
     0
  1
96
  0
DICTIONARY
  5
260
102
{ACAD_REACTORS
330
43
102
}
330
43
100
AcDbDictionary
  0
DICTIONARY
  5
2C
102
{ACAD_REACTORS
330
2B
102
}
330
2B
100
AcDbDictionary
  3
DWGSETTINGS
350
2D
  0
XRECORD
  5
2C01
102
{ACAD_REACTORS
330
2C00
102
}
330
2C00
100
AcDbXrecord
 90
        1
  0
XRECORD
  5
2C02
102
{ACAD_REACTORS
330
2C00
102
}
330
2C00
100
AcDbXrecord
 90
       70
  0
XRECORD
  5
2C03
102
{ACAD_REACTORS
330
2C00
102
}
330
2C00
100
AcDbXrecord
  1

  0
XRECORD
  5
2C04
102
{ACAD_REACTORS
330
2C00
102
}
330
2C00
100
AcDbXrecord
  1
ASAMI.ctb
  0
XRECORD
  5
2C05
102
{ACAD_REACTORS
330
2C00
102
}
330
2C00
100
AcDbXrecord
340
1A
  0
XRECORD
  5
2C06
102
{ACAD_REACTORS
330
2C00
102
}
330
2C00
100
AcDbXrecord
340
19
  0
XRECORD
  5
2C07
102
{ACAD_REACTORS
330
2C00
102
}
330
2C00
100
AcDbXrecord
340
E
  0
XRECORD
  5
2C08
102
{ACAD_REACTORS
330
2C00
102
}
330
2C00
100
AcDbXrecord
 90
    10781
  0
XRECORD
  5
2C09
102
{ACAD_REACTORS
330
2C00
102
}
330
2C00
100
AcDbXrecord
 90
        4
  0
XRECORD
  5
2C0A
102
{ACAD_REACTORS
330
2C00
102
}
330
2C00
100
AcDbXrecord
 90
        0
  0
XRECORD
  5
2C0B
102
{ACAD_REACTORS
330
2C00
102
}
330
2C00
100
AcDbXrecord
  1
{AFB28963-8C59-40AE-9337-C84526B81ACE}
  0
XRECORD
  5
2C0C
102
{ACAD_REACTORS
330
2C00
102
}
330
2C00
100
AcDbXrecord
  1
{DCCCA23C-AEAD-4F6D-BF2F-B7C55E12F4B0}
  0
XRECORD
  5
2C0D
102
{ACAD_REACTORS
330
2C00
102
}
330
2C00
100
AcDbXrecord
 40
0.0
  0
XRECORD
  5
2C0E
102
{ACAD_REACTORS
330
2C00
102
}
330
2C00
100
AcDbXrecord
1000
DSTYLE
1002
{
1070
    79
 70
     2
1070
   341
340
59
1070
   342
340
59
1070
   371
 70
    -1
1070
   372
 70
    -1
1002
}
  0
XRECORD
  5
2C0F
102
{ACAD_REACTORS
330
2C00
102
}
330
2C00
100
AcDbXrecord
340
0
  0
XRECORD
  5
2C10
102
{ACAD_REACTORS
330
2C00
102
}
330
2C00
100
AcDbXrecord
 70
     0
  0
XRECORD
  5
2C11
102
{ACAD_REACTORS
330
2C00
102
}
330
2C00
100
AcDbXrecord
340
0
  0
XRECORD
  5
2C12
102
{ACAD_REACTORS
330
2C00
102
}
330
2C00
100
AcDbXrecord
 10
0.0
 20
0.0
 30
0.0
  0
XRECORD
  5
2C13
102
{ACAD_REACTORS
330
2C00
102
}
330
2C00
100
AcDbXrecord
 10
0.0
 20
0.0
 30
0.0
  0
XRECORD
  5
2C14
102
{ACAD_REACTORS
330
2C00
102
}
330
2C00
100
AcDbXrecord
 10
0.0
 20
0.0
 30
0.0
  0
XRECORD
  5
2C15
102
{ACAD_REACTORS
330
2C00
102
}
330
2C00
100
AcDbXrecord
 10
0.0
 20
0.0
 30
0.0
  0
XRECORD
  5
2C16
102
{ACAD_REACTORS
330
2C00
102
}
330
2C00
100
AcDbXrecord
 10
0.0
 20
0.0
 30
0.0
  0
XRECORD
  5
2C17
102
{ACAD_REACTORS
330
2C00
102
}
330
2C00
100
AcDbXrecord
 10
0.0
 20
0.0
 30
0.0
  0
XRECORD
  5
2C18
102
{ACAD_REACTORS
330
2C00
102
}
330
2C00
100
AcDbXrecord
340
0
  0
XRECORD
  5
2C19
102
{ACAD_REACTORS
330
2C00
102
}
330
2C00
100
AcDbXrecord
 70
     0
  0
XRECORD
  5
2C1A
102
{ACAD_REACTORS
330
2C00
102
}
330
2C00
100
AcDbXrecord
340
0
  0
XRECORD
  5
2C1B
102
{ACAD_REACTORS
330
2C00
102
}
330
2C00
100
AcDbXrecord
 10
0.0
 20
0.0
 30
0.0
  0
XRECORD
  5
2C1C
102
{ACAD_REACTORS
330
2C00
102
}
330
2C00
100
AcDbXrecord
 10
0.0
 20
0.0
 30
0.0
  0
XRECORD
  5
2C1D
102
{ACAD_REACTORS
330
2C00
102
}
330
2C00
100
AcDbXrecord
 10
0.0
 20
0.0
 30
0.0
  0
XRECORD
  5
2C1E
102
{ACAD_REACTORS
330
2C00
102
}
330
2C00
100
AcDbXrecord
 10
0.0
 20
0.0
 30
0.0
  0
XRECORD
  5
2C1F
102
{ACAD_REACTORS
330
2C00
102
}
330
2C00
100
AcDbXrecord
 10
0.0
 20
0.0
 30
0.0
  0
XRECORD
  5
2C20
102
{ACAD_REACTORS
330
2C00
102
}
330
2C00
100
AcDbXrecord
 10
0.0
 20
0.0
 30
0.0
  0
LAYER_INDEX
  5
2BF7
102
{ACAD_REACTORS
330
2BF6
102
}
330
2BF6
100
AcDbIndex
 40
2453151.570116087
100
AcDbLayerIndex
  8
0
360
2BF8
 90
        0
  8
AM_0
360
2BF9
 90
       46
  8
AM_7
360
2BFA
 90
        1
  8
AM_11
360
2BFB
 90
       17
  8
AM_5
360
2BFC
 90
        5
  8
Defpoints
360
2BFD
 90
        0
  8
AM_6
360
2BFE
 90
        1
  0
XRECORD
  5
2D
102
{ACAD_REACTORS
330
2C
102
}
330
2C
100
AcDbXrecord
  1
VERSION
140
15.0
  1
PRODUCT
  2
AutoCAD Mechanical 2000
  0
IDBUFFER
  5
2BF8
330
0
100
AcDbIdBuffer
  0
IDBUFFER
  5
2BF9
330
0
100
AcDbIdBuffer
330
2B1D
330
2B1E
330
2B1F
330
2B28
330
2B35
330
2B36
330
2B37
330
2B38
330
2B39
330
2B3A
330
2B83
330
2B84
330
2B85
330
2B86
330
2B89
330
2B8A
330
2B8B
330
2B8C
330
2B8D
330
2B8E
330
2B8F
330
2B90
330
2B91
330
2B94
330
2B95
330
2B96
330
2B97
330
2B98
330
2B9A
330
2B9B
330
C1D
330
C20
330
C30
330
1CA9
330
1E12
330
1E16
330
1E22
330
1E25
330
1E26
330
220F
330
24F9
330
24FC
330
2541
330
2542
330
2A76
330
2A77
  0
IDBUFFER
  5
2BFA
330
0
100
AcDbIdBuffer
330
C9F
  0
IDBUFFER
  5
2BFB
330
0
100
AcDbIdBuffer
330
2B93
330
1BE8
330
1BE9
330
1F66
330
1F67
330
222E
330
222F
330
2230
330
2231
330
2232
330
2233
330
2234
330
24F5
330
24F6
330
2B87
330
2B88
330
2B92
  0
IDBUFFER
  5
2BFC
330
0
100
AcDbIdBuffer
330
CC6
330
DF5
330
228A
330
26BF
330
294C
  0
IDBUFFER
  5
2BFD
330
0
100
AcDbIdBuffer
  0
IDBUFFER
  5
2BFE
330
0
100
AcDbIdBuffer
330
19BD
  0
ENDSEC
  0
EOF
