  0
SECTION
  2
HEADER
  9
$ACADVER
  1
AC1014
  9
$ACADMAINTVER
 70
     9
  9
$DWGCODEPAGE
  3
ANSI_932
  9
$INSBASE
 10
0.0
 20
0.0
 30
0.0
  9
$EXTMIN
 10
-107.6500009999999
 20
-27.25000236965382
 30
-0.00000001
  9
$EXTMAX
 10
13.87150483951163
 20
13.50478524788583
 30
0.00000001
  9
$LIMMIN
 10
-138.8290064717842
 20
-45.22474571374511
  9
$LIMMAX
 10
23.05023987897198
 20
30.30997914579825
  9
$ORTHOMODE
 70
     0
  9
$REGENMODE
 70
     1
  9
$FILLMODE
 70
     1
  9
$QTEXTMODE
 70
     0
  9
$MIRRTEXT
 70
     0
  9
$DRAGMODE
 70
     2
  9
$LTSCALE
 40
1.0
  9
$OSMODE
 70
    55
  9
$ATTMODE
 70
     1
  9
$TEXTSIZE
 40
2.5
  9
$TRACEWID
 40
1.0
  9
$TEXTSTYLE
  7
STANDARD
  9
$CLAYER
  8
AM_0
  9
$CELTYPE
  6
BYLAYER
  9
$CECOLOR
 62
   256
  9
$CELTSCALE
 40
1.0
  9
$DELOBJ
 70
     1
  9
$DISPSILH
 70
     0
  9
$DIMSCALE
 40
0.5
  9
$DIMASZ
 40
2.5
  9
$DIMEXO
 40
1.0
  9
$DIMDLI
 40
12.0
  9
$DIMRND
 40
0.0
  9
$DIMDLE
 40
0.0
  9
$DIMEXE
 40
1.0
  9
$DIMTP
 40
0.1
  9
$DIMTM
 40
0.1
  9
$DIMTXT
 40
3.2
  9
$DIMCEN
 40
0.0
  9
$DIMTSZ
 40
0.0
  9
$DIMTOL
 70
     0
  9
$DIMLIM
 70
     0
  9
$DIMTIH
 70
     0
  9
$DIMTOH
 70
     0
  9
$DIMSE1
 70
     0
  9
$DIMSE2
 70
     0
  9
$DIMTAD
 70
     3
  9
$DIMZIN
 70
     8
  9
$DIMBLK
  1
OPEN30
  9
$DIMASO
 70
     1
  9
$DIMSHO
 70
     1
  9
$DIMPOST
  1

  9
$DIMAPOST
  1
"
  9
$DIMALT
 70
     0
  9
$DIMALTD
 70
     2
  9
$DIMALTF
 40
0.0393701
  9
$DIMLFAC
 40
1.0
  9
$DIMTOFL
 70
     1
  9
$DIMTVP
 40
0.0
  9
$DIMTIX
 70
     0
  9
$DIMSOXD
 70
     0
  9
$DIMSAH
 70
     0
  9
$DIMBLK1
  1

  9
$DIMBLK2
  1

  9
$DIMSTYLE
  2
AM_JIS
  9
$DIMCLRD
 70
   256
  9
$DIMCLRE
 70
   256
  9
$DIMCLRT
 70
     2
  9
$DIMTFAC
 40
0.71
  9
$DIMGAP
 40
1.5
  9
$DIMJUST
 70
     0
  9
$DIMSD1
 70
     0
  9
$DIMSD2
 70
     0
  9
$DIMTOLJ
 70
     0
  9
$DIMTZIN
 70
     0
  9
$DIMALTZ
 70
     0
  9
$DIMALTTZ
 70
     0
  9
$DIMFIT
 70
     3
  9
$DIMUPT
 70
     0
  9
$DIMUNIT
 70
     2
  9
$DIMDEC
 70
     3
  9
$DIMTDEC
 70
     3
  9
$DIMALTU
 70
     2
  9
$DIMALTTD
 70
     2
  9
$DIMTXSTY
  7
ASAMI
  9
$DIMAUNIT
 70
     0
  9
$LUNITS
 70
     2
  9
$LUPREC
 70
     2
  9
$SKETCHINC
 40
1.0
  9
$FILLETRAD
 40
2.5
  9
$AUNITS
 70
     0
  9
$AUPREC
 70
     0
  9
$MENU
  1
.
  9
$ELEVATION
 40
0.0
  9
$PELEVATION
 40
0.0
  9
$THICKNESS
 40
0.0
  9
$LIMCHECK
 70
     0
  9
$BLIPMODE
 70
     0
  9
$CHAMFERA
 40
0.5
  9
$CHAMFERB
 40
0.5
  9
$CHAMFERC
 40
20.0
  9
$CHAMFERD
 40
0.0
  9
$SKPOLY
 70
     0
  9
$TDCREATE
 40
2452800.443498622
  9
$TDUPDATE
 40
2453151.570228032
  9
$TDINDWG
 40
0.0450146296
  9
$TDUSRTIMER
 40
0.0450146296
  9
$USRTIMER
 70
     1
  9
$ANGBASE
 50
0.0
  9
$ANGDIR
 70
     0
  9
$PDMODE
 70
     3
  9
$PDSIZE
 40
0.0
  9
$PLINEWID
 40
0.0
  9
$COORDS
 70
     1
  9
$SPLFRAME
 70
     0
  9
$SPLINETYPE
 70
     6
  9
$SPLINESEGS
 70
     8
  9
$ATTDIA
 70
     1
  9
$ATTREQ
 70
     1
  9
$HANDLING
 70
 12289
  9
$HANDSEED
  5
2CF5
  9
$SURFTAB1
 70
     6
  9
$SURFTAB2
 70
     6
  9
$SURFTYPE
 70
     6
  9
$SURFU
 70
     6
  9
$SURFV
 70
     6
  9
$UCSNAME
  2

  9
$UCSORG
 10
0.0
 20
0.0
 30
0.0
  9
$UCSXDIR
 10
1.0
 20
0.0000000000000027
 30
0.0
  9
$UCSYDIR
 10
-0.0000000000000027
 20
1.0
 30
0.0
  9
$PUCSNAME
  2

  9
$PUCSORG
 10
0.0
 20
0.0
 30
0.0
  9
$PUCSXDIR
 10
1.0
 20
0.0
 30
0.0
  9
$PUCSYDIR
 10
0.0
 20
1.0
 30
0.0
  9
$USERI1
 70
     0
  9
$USERI2
 70
     0
  9
$USERI3
 70
     0
  9
$USERI4
 70
     0
  9
$USERI5
 70
     0
  9
$USERR1
 40
0.0
  9
$USERR2
 40
0.0
  9
$USERR3
 40
0.0
  9
$USERR4
 40
0.0
  9
$USERR5
 40
0.0
  9
$WORLDVIEW
 70
     1
  9
$SHADEDGE
 70
     3
  9
$SHADEDIF
 70
    70
  9
$TILEMODE
 70
     1
  9
$MAXACTVP
 70
    64
  9
$PINSBASE
 10
0.0
 20
0.0
 30
0.0
  9
$PLIMCHECK
 70
     0
  9
$PEXTMIN
 10
1.000000000000000E+20
 20
1.000000000000000E+20
 30
1.000000000000000E+20
  9
$PEXTMAX
 10
-1.000000000000000E+20
 20
-1.000000000000000E+20
 30
-1.000000000000000E+20
  9
$PLIMMIN
 10
0.0
 20
0.0
  9
$PLIMMAX
 10
841.0
 20
594.0
  9
$UNITMODE
 70
     0
  9
$VISRETAIN
 70
     1
  9
$PLINEGEN
 70
     0
  9
$PSLTSCALE
 70
     0
  9
$TREEDEPTH
 70
  3020
  9
$PICKSTYLE
 70
     0
  9
$CMLSTYLE
  2
STANDARD
  9
$CMLJUST
 70
     0
  9
$CMLSCALE
 40
20.0
  9
$PROXYGRAPHICS
 70
     1
  9
$MEASUREMENT
 70
     1
  0
ENDSEC
  0
SECTION
  2
CLASSES
  0
CLASS
  1
ACDBDICTIONARYWDFLT
  2
AcDbDictionaryWithDefault
  3
AutoCAD 2000
 90
        0
280
     0
281
     0
  0
CLASS
  1
ACDBPLACEHOLDER
  2
AcDbPlaceHolder
  3
AutoCAD 2000
 90
        0
280
     0
281
     0
  0
CLASS
  1
LAYOUT
  2
AcDbLayout
  3
AutoCAD 2000
 90
        0
280
     0
281
     0
  0
CLASS
  1
AMGSETTINGSOBJ
  2
AmgSettingsObj
  3
"AcadM|Product Description: AutoCAD Mechanical 2000|Company: Autodesk"
 90
        0
280
     0
281
     0
  0
CLASS
  1
ACME_DOCUMENT
  2
AcMeDbDoc
  3
AcMeServices
 90
        0
280
     0
281
     0
  0
CLASS
  1
ACMESCOPE
  2
AcMeScope
  3
AcMeServices
 90
        0
280
     0
281
     0
  0
CLASS
  1
ACMECOMMANDHISTORY
  2
AcMeCommandHistory
  3
AcMeServices
 90
        0
280
     0
281
     0
  0
CLASS
  1
DICTIONARYVAR
  2
AcDbDictionaryVar
  3
AutoCAD 2000
 90
        0
280
     0
281
     0
  0
CLASS
  1
ACIMSYSVARMAN
  2
AcImSysVarManager
  3
AcMeServices
 90
        0
280
     0
281
     0
  0
CLASS
  1
ACIMREALSYSVAR
  2
AcImRealSysVar
  3
AcMeServices
 90
        0
280
     0
281
     0
  0
CLASS
  1
ACIMINTSYSVAR
  2
AcImIntSysVar
  3
AcMeServices
 90
        0
280
     0
281
     0
  0
CLASS
  1
ACMEDRAWINGMAN
  2
AcMeDrawingMan
  3
AcMeServices
 90
        0
280
     0
281
     0
  0
CLASS
  1
ACMEVIEW
  2
AcMeView
  3
AcMeServices
 90
        0
280
     0
281
     0
  0
CLASS
  1
ACDBENTITYCACHE
  2
AcMeEntityCache
  3
AcMeServices
 90
        0
280
     0
281
     0
  0
CLASS
  1
GSMANAGER
  2
AcMeGSManager
  3
AcMeServices
 90
        0
280
     0
281
     0
  0
CLASS
  1
AmdtInternalReactor
  2
AmdtInternalReactor
  3
AcMeServices
 90
        0
280
     0
281
     0
  0
CLASS
  1
ACMESTATEMGR
  2
AcMeStateMgr
  3
AcMeServices
 90
        0
280
     0
281
     0
  0
CLASS
  1
ACME_DATABASE
  2
AcMeDbDatabase
  3
AcMeServices
 90
        0
280
     0
281
     0
  0
CLASS
  1
ACRFINSADJUSTERMGR
  2
AcRfInsAdjusterMgr
  3
AcMeServices
 90
        0
280
     0
281
     0
  0
CLASS
  1
ACMDATADICTIONARY
  2
AcmDataDictionary
  3
"AcmSymBB|Product Description: AutoCAD Mechanical 2000|Company: Autodesk"
 90
        0
280
     0
281
     0
  0
CLASS
  1
ACMDATAENTRYBLOCK
  2
AcmDataEntryBlock
  3
"AcmSymBB|Product Description: AutoCAD Mechanical 2000|Company: Autodesk"
 90
        0
280
     0
281
     0
  0
CLASS
  1
AMGOBJPROPCFG
  2
AmgObjPropCfg
  3
"AmgLay|Product Description: AutoCAD Mechanical 2000|Company: Autodesk"
 90
        1
280
     0
281
     0
  0
CLASS
  1
ACAMGFILTERDAT
  2
AcAmgFilterDat
  3
"AcadM|Product Description: AutoCAD Mechanical 2000|Company: Autodesk"
 90
        0
280
     0
281
     0
  0
CLASS
  1
LAYER_INDEX
  2
AcDbLayerIndex
  3
AutoCAD 2000
 90
        0
280
     0
281
     0
  0
CLASS
  1
IDBUFFER
  2
AcDbIdBuffer
  3
AutoCAD 2000
 90
        0
280
     0
281
     0
  0
CLASS
  1
ACIMSTRSYSVAR
  2
AcImStrSysVar
  3
AcMeServices
 90
        0
280
     0
281
     0
  0
CLASS
  1
ACMSTANDARDJIS
  2
AcmStandardJIS
  3
"AcmSymBB|Product Description: AutoCAD Mechanical 2000|Company: Autodesk"
 90
        0
280
     0
281
     0
  0
CLASS
  1
ACMSURFSTANDARDJIS
  2
AcmSurfTextStdJIS
  3
"AcmSymBB|Product Description: AutoCAD Mechanical 2000|Company: Autodesk"
 90
        0
280
     0
281
     0
  0
CLASS
  1
ACMFCFSTANDARDJIS
  2
AcmFCFStdJIS
  3
"AcmSymBB|Product Description: AutoCAD Mechanical 2000|Company: Autodesk"
 90
        0
280
     0
281
     0
  0
CLASS
  1
ACMWELDSTANDARDJIS
  2
AcmWeldingStdJIS
  3
"AcmSymBB|Product Description: AutoCAD Mechanical 2000|Company: Autodesk"
 90
        0
280
     0
281
     0
  0
CLASS
  1
ACMIDSTANDARDJIS
  2
AcmIdStdJIS
  3
"AcmSymBB|Product Description: AutoCAD Mechanical 2000|Company: Autodesk"
 90
        0
280
     0
281
     0
  0
CLASS
  1
ACMDATUMSTANDARDJIS
  2
AcmDatumStdJIS
  3
"AcmSymBB|Product Description: AutoCAD Mechanical 2000|Company: Autodesk"
 90
        0
280
     0
281
     0
  0
CLASS
  1
ACMBOMSTANDARDJIS
  2
AcmBOMStdJIS
  3
"AcmSymBB|Product Description: AutoCAD Mechanical 2000|Company: Autodesk"
 90
        0
280
     0
281
     0
  0
CLASS
  1
ACMSTANDARDANSI
  2
AcmStandardANSI
  3
"AcmSymBB|Product Description: AutoCAD Mechanical 2000|Company: Autodesk"
 90
        0
280
     0
281
     0
  0
CLASS
  1
ACMSURFSTANDARDANSI
  2
AcmSurfTextStdANSI
  3
"AcmSymBB|Product Description: AutoCAD Mechanical 2000|Company: Autodesk"
 90
        0
280
     0
281
     0
  0
CLASS
  1
ACMFCFSTANDARDANSI
  2
AcmFCFStdANSI
  3
"AcmSymBB|Product Description: AutoCAD Mechanical 2000|Company: Autodesk"
 90
        0
280
     0
281
     0
  0
CLASS
  1
ACMWELDSTANDARDANSI
  2
AcmWeldingStdANSI
  3
"AcmSymBB|Product Description: AutoCAD Mechanical 2000|Company: Autodesk"
 90
        0
280
     0
281
     0
  0
CLASS
  1
ACMIDSTANDARDANSI
  2
AcmIdStdANSI
  3
"AcmSymBB|Product Description: AutoCAD Mechanical 2000|Company: Autodesk"
 90
        0
280
     0
281
     0
  0
CLASS
  1
ACMDATUMSTANDARDANSI
  2
AcmDatumStdANSI
  3
"AcmSymBB|Product Description: AutoCAD Mechanical 2000|Company: Autodesk"
 90
        0
280
     0
281
     0
  0
CLASS
  1
ACMBOMSTANDARDANSI
  2
AcmBOMStdANSI
  3
"AcmSymBB|Product Description: AutoCAD Mechanical 2000|Company: Autodesk"
 90
        0
280
     0
281
     0
  0
CLASS
  1
ACMSTANDARDBSI
  2
AcmStandardBSI
  3
"AcmSymBB|Product Description: AutoCAD Mechanical 2000|Company: Autodesk"
 90
        0
280
     0
281
     0
  0
CLASS
  1
ACMSURFSTANDARDBSI
  2
AcmSurfTextStdBSI
  3
"AcmSymBB|Product Description: AutoCAD Mechanical 2000|Company: Autodesk"
 90
        0
280
     0
281
     0
  0
CLASS
  1
ACMFCFSTANDARDBSI
  2
AcmFCFStdBSI
  3
"AcmSymBB|Product Description: AutoCAD Mechanical 2000|Company: Autodesk"
 90
        0
280
     0
281
     0
  0
CLASS
  1
ACMWELDSTANDARDBSI
  2
AcmWeldingStdBSI
  3
"AcmSymBB|Product Description: AutoCAD Mechanical 2000|Company: Autodesk"
 90
        0
280
     0
281
     0
  0
CLASS
  1
ACMIDSTANDARDBSI
  2
AcmIdStdBSI
  3
"AcmSymBB|Product Description: AutoCAD Mechanical 2000|Company: Autodesk"
 90
        0
280
     0
281
     0
  0
CLASS
  1
ACMDATUMSTANDARDBSI
  2
AcmDatumStdBSI
  3
"AcmSymBB|Product Description: AutoCAD Mechanical 2000|Company: Autodesk"
 90
        0
280
     0
281
     0
  0
CLASS
  1
ACMBOMSTANDARDBSI
  2
AcmBOMStdBSI
  3
"AcmSymBB|Product Description: AutoCAD Mechanical 2000|Company: Autodesk"
 90
        0
280
     0
281
     0
  0
CLASS
  1
LONG_TRANSACTION
  2
AcDbLongTransaction
  3
AutoCAD 2000
 90
        0
280
     0
281
     0
  0
CLASS
  1
LWPOLYLINE
  2
AcDbPolyline
  3
AutoCAD 2000
 90
        0
280
     0
281
     1
  0
CLASS
  1
HATCH
  2
AcDbHatch
  3
AutoCAD 2000
 90
        0
280
     0
281
     1
  0
CLASS
  1
XRECORD
  2
AcDbXrecord
  3
AutoCAD 2000
 90
        0
280
     0
281
     0
  0
ENDSEC
  0
SECTION
  2
TABLES
  0
TABLE
  2
VPORT
  5
8
330
0
100
AcDbSymbolTable
 70
     3
  0
VPORT
  5
2CBF
330
8
100
AcDbSymbolTableRecord
100
AcDbViewportTableRecord
  2
*ACTIVE
 70
     0
 10
0.0
 20
0.0
 11
1.0
 21
1.0
 12
-44.63925399881754
 22
-6.871975639275291
 13
0.0
 23
0.0
 14
2.5
 24
2.5
 15
10.0
 25
10.0
 16
0.0
 26
0.0
 36
1.0
 17
0.0
 27
0.0
 37
0.0
 40
80.88923474412503
 41
1.56570841889117
 42
50.0
 43
0.0
 44
0.0
 50
0.0
 51
0.0
 71
     0
 72
   100
 73
     1
 74
     1
 75
     0
 76
     0
 77
     0
 78
     0
  0
ENDTAB
  0
TABLE
  2
LTYPE
  5
5
330
0
100
AcDbSymbolTable
 70
    10
  0
LTYPE
  5
14
330
5
100
AcDbSymbolTableRecord
100
AcDbLinetypeTableRecord
  2
BYBLOCK
 70
     0
  3

 72
    65
 73
     0
 40
0.0
  0
LTYPE
  5
15
330
5
100
AcDbSymbolTableRecord
100
AcDbLinetypeTableRecord
  2
BYLAYER
 70
     0
  3

 72
    65
 73
     0
 40
0.0
  0
LTYPE
  5
16
330
5
100
AcDbSymbolTableRecord
100
AcDbLinetypeTableRecord
  2
CONTINUOUS
 70
     0
  3
Solid line
 72
    65
 73
     0
 40
0.0
  0
LTYPE
  5
4B
330
5
100
AcDbSymbolTableRecord
100
AcDbLinetypeTableRecord
  2
AM_ISO02W050
 70
     0
  3
__ __ __ __ __ __ __ __ __ __ __ __ __ __ __
 72
    65
 73
     2
 40
7.5
 49
6.0
 74
     0
 49
-1.5
 74
     0
  0
LTYPE
  5
4C
330
5
100
AcDbSymbolTableRecord
100
AcDbLinetypeTableRecord
  2
AM_ISO08W050
 70
     0
  3
____ . ____ . ____ . ____ . ____ . ____ . ____
 72
    65
 73
     4
 40
18.0
 49
12.0
 74
     0
 49
-1.5
 74
     0
 49
3.0
 74
     0
 49
-1.5
 74
     0
  0
LTYPE
  5
4D
330
5
100
AcDbSymbolTableRecord
100
AcDbLinetypeTableRecord
  2
AM_ISO09W050
 70
     0
  3
_____ . . _____ . . _____ . . ____ .. ____
 72
    65
 73
     6
 40
22.5
 49
12.0
 74
     0
 49
-1.5
 74
     0
 49
3.0
 74
     0
 49
-1.5
 74
     0
 49
3.0
 74
     0
 49
-1.5
 74
     0
  0
LTYPE
  5
4E
330
5
100
AcDbSymbolTableRecord
100
AcDbLinetypeTableRecord
  2
AMCONSTR
 70
     0
  3
_______________________
 72
    65
 73
     2
 40
9999.0
 49
9999.0
 74
     0
 49
0.0
 74
     0
  0
LTYPE
  5
4F
330
5
100
AcDbSymbolTableRecord
100
AcDbLinetypeTableRecord
  2
AM_ISO02W050X2
 70
     0
  3
 _ _ _ _ _ _ _ _ _ _ _ _
 72
    65
 73
     2
 40
3.75
 49
3.0
 74
     0
 49
-0.75
 74
     0
  0
LTYPE
  5
50
330
5
100
AcDbSymbolTableRecord
100
AcDbLinetypeTableRecord
  2
AM_ISO08W050X2
 70
     0
  3
__ . __ . __ . __ . __ . __
 72
    65
 73
     4
 40
9.0
 49
6.0
 74
     0
 49
-0.75
 74
     0
 49
1.5
 74
     0
 49
-0.75
 74
     0
  0
LTYPE
  5
53
330
5
100
AcDbSymbolTableRecord
100
AcDbLinetypeTableRecord
  2
AMZIGZAG
 70
     0
  3
/\/-/\/-/\/-/\/-/\/-/\/
 72
    65
 73
     2
 40
11.00009999999999
 49
0.0001
 74
     4
 75
   135
340
52
 46
0.04
 50
0.0
 44
0.0
 45
0.0
 49
-11.0
 74
     0
  0
LTYPE
  5
166
330
5
100
AcDbSymbolTableRecord
100
AcDbLinetypeTableRecord
  2
ACJISTGL
 70
     0
  3
_ _ _ _ _
 72
    65
 73
     2
 40
3.0
 49
2.0
 74
     0
 49
-1.0
 74
     0
  0
LTYPE
  5
26A
330
5
100
AcDbSymbolTableRecord
100
AcDbLinetypeTableRecord
  2
ACJISTGB
 70
     0
  3
__ . . __ . .
 72
    65
 73
     6
 40
9.0
 49
4.0
 74
     0
 49
-1.0
 74
     0
 49
1.0
 74
     0
 49
-1.0
 74
     0
 49
1.0
 74
     0
 49
-1.0
 74
     0
  0
ENDTAB
  0
TABLE
  2
LAYER
  5
2
330
0
100
AcDbSymbolTable
 70
     7
  0
LAYER
  5
10
330
2
100
AcDbSymbolTableRecord
100
AcDbLayerTableRecord
  2
0
 70
     0
 62
     7
  6
CONTINUOUS
  0
LAYER
  5
3F9
330
2
100
AcDbSymbolTableRecord
100
AcDbLayerTableRecord
  2
AM_0
 70
     0
 62
     7
  6
CONTINUOUS
  0
LAYER
  5
C7C
330
2
100
AcDbSymbolTableRecord
100
AcDbLayerTableRecord
  2
AM_7
 70
     0
 62
     4
  6
AM_ISO08W050
  0
LAYER
  5
C97
330
2
100
AcDbSymbolTableRecord
100
AcDbLayerTableRecord
  2
AM_11
 70
     0
 62
     3
  6
AM_ISO09W050
  0
LAYER
  5
CC5
330
2
100
AcDbSymbolTableRecord
100
AcDbLayerTableRecord
  2
AM_5
 70
     0
 62
     3
  6
CONTINUOUS
  0
LAYER
  5
CC7
330
2
100
AcDbSymbolTableRecord
100
AcDbLayerTableRecord
  2
DEFPOINTS
 70
     0
 62
     7
  6
CONTINUOUS
  0
LAYER
  5
19BC
330
2
100
AcDbSymbolTableRecord
100
AcDbLayerTableRecord
  2
AM_6
 70
     0
 62
     2
  6
CONTINUOUS
  0
ENDTAB
  0
TABLE
  2
STYLE
  5
3
330
0
100
AcDbSymbolTable
 70
     5
  0
STYLE
  5
11
330
3
100
AcDbSymbolTableRecord
100
AcDbTextStyleTableRecord
  2
STANDARD
 70
     0
 40
0.0
 41
1.0
 50
0.0
 71
     0
 42
2.5
  3
simplex.shx
  4
EXTFONT.SHX
  0
STYLE
  5
52
330
3
100
AcDbSymbolTableRecord
100
AcDbTextStyleTableRecord
  2

 70
     1
 40
0.0
 41
1.0
 50
0.0
 71
     0
 42
2.5
  3
ltypeshp.shx
  4

  0
STYLE
  5
6B
330
3
100
AcDbSymbolTableRecord
100
AcDbTextStyleTableRecord
  2
ASAMI
 70
     0
 40
0.0
 41
1.0
 50
0.0
 71
     0
 42
2.5
  3
simplex.shx
  4
EXTFONT.SHX
  0
STYLE
  5
262
330
3
100
AcDbSymbolTableRecord
100
AcDbTextStyleTableRecord
  2
ACJISTS
 70
     0
 40
1.0
 41
1.0
 50
0.0
 71
     0
 42
2.5
  3
simplex.shx
  4
bigfont.shx
  0
STYLE
  5
269
330
3
100
AcDbSymbolTableRecord
100
AcDbTextStyleTableRecord
  2
ACJISGDT
 70
     0
 40
0.0
 41
1.0
 50
0.0
 71
     0
 42
2.5
  3
amgdtans.shx
  4

  0
ENDTAB
  0
TABLE
  2
VIEW
  5
6
330
0
100
AcDbSymbolTable
 70
     0
  0
ENDTAB
  0
TABLE
  2
UCS
  5
7
330
0
100
AcDbSymbolTable
 70
     0
  0
ENDTAB
  0
TABLE
  2
APPID
  5
9
330
0
100
AcDbSymbolTable
 70
    16
  0
APPID
  5
12
330
9
100
AcDbSymbolTableRecord
100
AcDbRegAppTableRecord
  2
ACAD
 70
     0
  0
APPID
  5
30
330
9
100
AcDbSymbolTableRecord
100
AcDbRegAppTableRecord
  2
MCAD_NO_VIS
 70
     0
  0
APPID
  5
31
330
9
100
AcDbSymbolTableRecord
100
AcDbRegAppTableRecord
  2
ACAD_TEMP_GRAPHIC
 70
     0
  0
APPID
  5
2C2
330
9
100
AcDbSymbolTableRecord
100
AcDbRegAppTableRecord
  2
GENIUS_GENDTOL_13
 70
     0
  0
APPID
  5
339
330
9
100
AcDbSymbolTableRecord
100
AcDbRegAppTableRecord
  2
GENIUS_GENODEF_13
 70
     0
  0
APPID
  5
33A
330
9
100
AcDbSymbolTableRecord
100
AcDbRegAppTableRecord
  2
GENIUS_GENOBJ-N-RSBK_13
 70
     0
  0
APPID
  5
33B
330
9
100
AcDbSymbolTableRecord
100
AcDbRegAppTableRecord
  2
GENIUS_GENOBJ-N-LIB_13
 70
     0
  0
APPID
  5
33C
330
9
100
AcDbSymbolTableRecord
100
AcDbRegAppTableRecord
  2
GENIUS_GENSCALE_13
 70
     0
  0
APPID
  5
378
330
9
100
AcDbSymbolTableRecord
100
AcDbRegAppTableRecord
  2
GENIUS_GENDIMSH_14
 70
     0
  0
APPID
  5
C82
330
9
100
AcDbSymbolTableRecord
100
AcDbRegAppTableRecord
  2
GENIUS_GENOBJ-N-CRS_13
 70
     0
  0
APPID
  5
C83
330
9
100
AcDbSymbolTableRecord
100
AcDbRegAppTableRecord
  2
GENIUS_GENOENT_13
 70
     0
  0
APPID
  5
C84
330
9
100
AcDbSymbolTableRecord
100
AcDbRegAppTableRecord
  2
GENIUS_GENOREF_13
 70
     0
  0
APPID
  5
C85
330
9
100
AcDbSymbolTableRecord
100
AcDbRegAppTableRecord
  2
GENIUS_GENOLIS_13
 70
     0
  0
APPID
  5
CA0
330
9
100
AcDbSymbolTableRecord
100
AcDbRegAppTableRecord
  2
GENIUS_GENOBJ-N-CEN_13
 70
     0
  0
APPID
  5
1E1E
330
9
100
AcDbSymbolTableRecord
100
AcDbRegAppTableRecord
  2
GENIUS_GENFIL_13
 70
     0
  0
APPID
  5
1E1F
330
9
100
AcDbSymbolTableRecord
100
AcDbRegAppTableRecord
  2
GENIUS_GENOBJ-N-CHA_13
 70
     0
  0
ENDTAB
  0
TABLE
  2
DIMSTYLE
  5
A
330
0
100
AcDbSymbolTable
 70
     9
  0
DIMSTYLE
105
58
330
A
100
AcDbSymbolTableRecord
100
AcDbDimStyleTableRecord
  2
AM_JIS
 70
     0
  3

  4
"
  5
OPEN30
  6

  7

 40
0.5
 41
2.5
 42
1.0
 43
12.0
 44
1.0
 45
0.0
 46
0.0
 47
0.1
 48
0.1
140
3.2
141
0.0
142
0.0
143
0.0393701
144
1.0
145
0.0
146
0.71
147
1.5
 71
     0
 72
     0
 73
     0
 74
     0
 75
     0
 76
     0
 77
     3
 78
     8
170
     0
171
     2
172
     1
173
     0
174
     0
175
     0
176
   256
177
   256
178
     2
270
     2
271
     3
272
     3
273
     2
274
     2
340
6B
275
     0
280
     0
281
     0
282
     0
283
     0
284
     0
285
     0
286
     0
287
     3
288
     0
  0
DIMSTYLE
105
5F
330
A
100
AcDbSymbolTableRecord
100
AcDbDimStyleTableRecord
  2
AM_JIS$3
 70
     0
  3

  4
"
  5
OPEN30
  6

  7

 40
0.5
 41
2.5
 42
1.0
 43
10.0
 44
1.0
 45
0.0
 46
0.0
 47
0.1
 48
0.1
140
3.2
141
0.0
142
0.0
143
0.0393701
144
1.0
145
0.0
146
0.71
147
1.5
 71
     0
 72
     0
 73
     0
 74
     1
 75
     0
 76
     0
 77
     3
 78
     8
170
     0
171
     2
172
     0
173
     0
174
     0
175
     0
176
   256
177
   256
178
     2
270
     2
271
     2
272
     3
273
     2
274
     2
340
6B
275
     0
280
     0
281
     0
282
     0
283
     0
284
     0
285
     0
286
     0
287
     0
288
     1
  0
DIMSTYLE
105
60
330
A
100
AcDbSymbolTableRecord
100
AcDbDimStyleTableRecord
  2
AM_JIS$4
 70
     0
  3

  4
"
  5
OPEN30
  6

  7

 40
0.5
 41
2.5
 42
1.0
 43
10.0
 44
1.0
 45
0.0
 46
0.0
 47
0.1
 48
0.1
140
3.2
141
0.0
142
0.0
143
0.0393701
144
1.0
145
0.0
146
0.71
147
1.5
 71
     0
 72
     0
 73
     0
 74
     1
 75
     0
 76
     0
 77
     3
 78
     8
170
     0
171
     2
172
     0
173
     0
174
     0
175
     0
176
   256
177
   256
178
     2
270
     2
271
     2
272
     3
273
     2
274
     2
340
6B
275
     0
280
     0
281
     0
282
     0
283
     0
284
     0
285
     0
286
     0
287
     0
288
     1
  0
DIMSTYLE
105
61
330
A
100
AcDbSymbolTableRecord
100
AcDbDimStyleTableRecord
  2
AM_JIS$6
 70
     0
  3

  4
"
  5
OPEN30
  6

  7

 40
0.5
 41
2.5
 42
1.0
 43
10.0
 44
1.0
 45
0.0
 46
0.0
 47
0.1
 48
0.1
140
3.2
141
0.0
142
0.0
143
0.0393701
144
1.0
145
0.0
146
0.71
147
1.5
 71
     0
 72
     0
 73
     0
 74
     0
 75
     0
 76
     0
 77
     0
 78
     8
170
     0
171
     2
172
     1
173
     0
174
     0
175
     0
176
   256
177
   256
178
     2
270
     2
271
     2
272
     2
273
     2
274
     2
340
6B
275
     0
280
     0
281
     0
282
     0
283
     0
284
     0
285
     0
286
     0
287
     3
288
     0
  0
DIMSTYLE
105
62
330
A
100
AcDbSymbolTableRecord
100
AcDbDimStyleTableRecord
  2
AM_JIS$7
 70
     0
  3

  4
"
  5
OPEN30
  6

  7

 40
0.5
 41
2.5
 42
1.0
 43
10.0
 44
1.0
 45
0.0
 46
0.0
 47
0.1
 48
0.1
140
3.2
141
0.0
142
0.0
143
0.0393701
144
1.0
145
0.0
146
0.71
147
1.5
 71
     0
 72
     0
 73
     0
 74
     0
 75
     0
 76
     0
 77
     3
 78
     8
170
     0
171
     2
172
     1
173
     0
174
     0
175
     0
176
   256
177
   256
178
     2
270
     2
271
     2
272
     3
273
     2
274
     2
340
6B
275
     0
280
     0
281
     0
282
     0
283
     0
284
     0
285
     0
286
     0
287
     3
288
     0
  0
DIMSTYLE
105
63
330
A
100
AcDbSymbolTableRecord
100
AcDbDimStyleTableRecord
  2
AM_JIS$SF
 70
     0
  3

  4
"
  5
OPEN30
  6

  7

 40
0.5
 41
2.5
 42
1.0
 43
10.0
 44
1.0
 45
0.0
 46
0.0
 47
0.1
 48
0.1
140
3.2
141
0.0
142
0.0
143
0.0393701
144
1.0
145
0.0
146
0.71
147
1.5
 71
     0
 72
     0
 73
     0
 74
     0
 75
     1
 76
     1
 77
     3
 78
     8
170
     0
171
     2
172
     1
173
     0
174
     0
175
     0
176
   256
177
   256
178
     2
270
     2
271
     2
272
     2
273
     2
274
     2
340
6B
275
     0
280
     0
281
     0
282
     0
283
     0
284
     0
285
     0
286
     0
287
     3
288
     0
  0
DIMSTYLE
105
68
330
A
100
AcDbSymbolTableRecord
100
AcDbDimStyleTableRecord
  2
AM_JIS$SH
 70
     0
  3

  4
"
  5

  6
GENAXEH
  7
OPEN30
 40
0.5
 41
2.5
 42
1.0
 43
10.0
 44
1.0
 45
0.0
 46
0.0
 47
0.1
 48
0.1
140
3.2
141
0.0
142
0.0
143
0.0393701
144
2.0
145
0.0
146
0.71
147
1.5
 71
     0
 72
     0
 73
     0
 74
     0
 75
     1
 76
     1
 77
     3
 78
     8
170
     0
171
     2
172
     1
173
     1
174
     0
175
     0
176
   256
177
   256
178
     2
270
     2
271
     2
272
     2
273
     2
274
     2
340
6B
275
     0
280
     0
281
     0
282
     0
283
     0
284
     0
285
     0
286
     0
287
     3
288
     0
  0
DIMSTYLE
105
B34
102
{ACAD_REACTORS
330
26BF
102
}
330
A
100
AcDbSymbolTableRecord
100
AcDbDimStyleTableRecord
  2
AM_JIS$2
 70
     0
  3

  4
"
  5
OPEN30
  6

  7

 40
0.5
 41
2.5
 42
1.0
 43
12.0
 44
1.0
 45
0.0
 46
0.0
 47
0.1
 48
0.1
140
3.2
141
0.0
142
0.0
143
0.0393701
144
1.0
145
0.0
146
0.71
147
1.5
 71
     0
 72
     0
 73
     0
 74
     0
 75
     0
 76
     0
 77
     3
 78
     8
170
     0
171
     2
172
     1
173
     0
174
     0
175
     0
176
   256
177
   256
178
     2
270
     2
271
     3
272
     3
273
     2
274
     2
340
6B
275
     0
280
     0
281
     0
282
     0
283
     0
284
     0
285
     0
286
     0
287
     3
288
     0
  0
DIMSTYLE
105
BA5
102
{ACAD_REACTORS
330
CC6
330
DF5
330
228A
330
294C
102
}
330
A
100
AcDbSymbolTableRecord
100
AcDbDimStyleTableRecord
  2
AM_JIS$0
 70
     0
  3

  4
"
  5
OPEN30
  6

  7

 40
0.5
 41
2.5
 42
0.0
 43
10.0
 44
1.0
 45
0.0
 46
0.0
 47
0.1
 48
0.1000000001
140
3.799999999999999
141
0.0
142
0.0
143
0.0393701
144
1.0
145
0.0
146
0.71
147
1.5
 71
     0
 72
     0
 73
     0
 74
     0
 75
     0
 76
     0
 77
     3
 78
     1
170
     0
171
     2
172
     1
173
     0
174
     0
175
     0
176
     3
177
     3
178
     2
270
     2
271
     2
272
     2
273
     2
274
     2
340
11
275
     1
280
     0
281
     0
282
     0
283
     0
284
     8
285
     0
286
     0
287
     0
288
     0
  0
ENDTAB
  0
TABLE
  2
BLOCK_RECORD
  5
1
330
0
100
AcDbSymbolTable
 70
    10
  0
BLOCK_RECORD
  5
1F
102
{ACAD_XDICTIONARY
360
74
102
}
330
1
100
AcDbSymbolTableRecord
100
AcDbBlockTableRecord
  2
*MODEL_SPACE
  0
BLOCK_RECORD
  5
101
102
{ACAD_XDICTIONARY
360
2CE8
102
}
330
1
100
AcDbSymbolTableRecord
100
AcDbBlockTableRecord
  2
*PAPER_SPACE
  0
BLOCK_RECORD
  5
59
330
1
100
AcDbSymbolTableRecord
100
AcDbBlockTableRecord
  2
_OPEN30
  0
BLOCK_RECORD
  5
64
330
1
100
AcDbSymbolTableRecord
100
AcDbBlockTableRecord
  2
GENAXEH
  0
BLOCK_RECORD
  5
CC8
330
1
100
AcDbSymbolTableRecord
100
AcDbBlockTableRecord
  2
*D5
  0
BLOCK_RECORD
  5
DF6
330
1
100
AcDbSymbolTableRecord
100
AcDbBlockTableRecord
  2
*D6
  0
BLOCK_RECORD
  5
228B
330
1
100
AcDbSymbolTableRecord
100
AcDbBlockTableRecord
  2
*D7
  0
BLOCK_RECORD
  5
26C0
330
1
100
AcDbSymbolTableRecord
100
AcDbBlockTableRecord
  2
*D8
  0
BLOCK_RECORD
  5
294D
330
1
100
AcDbSymbolTableRecord
100
AcDbBlockTableRecord
  2
*D9
  0
ENDTAB
  0
ENDSEC
  0
SECTION
  2
BLOCKS
  0
BLOCK
  5
20
330
1F
100
AcDbEntity
  8
0
100
AcDbBlockBegin
  2
*MODEL_SPACE
 70
     0
 10
0.0
 20
0.0
 30
0.0
  3
*MODEL_SPACE
  1

  0
ENDBLK
  5
21
330
1F
100
AcDbEntity
  8
0
100
AcDbBlockEnd
  0
BLOCK
  5
103
330
101
100
AcDbEntity
 67
     1
  8
0
100
AcDbBlockBegin
  2
*PAPER_SPACE
 70
     0
 10
0.0
 20
0.0
 30
0.0
  3
*PAPER_SPACE
  1

  0
ENDBLK
  5
104
330
101
100
AcDbEntity
 67
     1
  8
0
100
AcDbBlockEnd
  0
BLOCK
  5
5D
330
59
100
AcDbEntity
  8
0
100
AcDbBlockBegin
  2
_OPEN30
 70
     0
 10
0.0
 20
0.0
 30
0.0
  3
_OPEN30
  1

  0
LINE
  5
5A
330
59
100
AcDbEntity
  8
0
 62
     0
100
AcDbLine
 10
-1.0
 20
0.26794919
 30
0.0
 11
0.0
 21
0.0
 31
0.0
  0
LINE
  5
5B
330
59
100
AcDbEntity
  8
0
 62
     0
100
AcDbLine
 10
0.0
 20
0.0
 30
0.0
 11
-1.0
 21
-0.26794919
 31
0.0
  0
LINE
  5
5C
330
59
100
AcDbEntity
  8
0
 62
     0
100
AcDbLine
 10
0.0
 20
0.0
 30
0.0
 11
-1.0
 21
0.0
 31
0.0
  0
ENDBLK
  5
5E
330
59
100
AcDbEntity
  8
0
100
AcDbBlockEnd
  0
BLOCK
  5
66
330
64
100
AcDbEntity
  8
0
100
AcDbBlockBegin
  2
GENAXEH
 70
     0
 10
0.0
 20
0.0
 30
0.0
  3
GENAXEH
  1

  0
LINE
  5
65
330
64
100
AcDbEntity
  8
0
100
AcDbLine
 10
-1.0
 20
0.0
 30
0.0
 11
1.0
 21
0.0
 31
0.0
  0
ENDBLK
  5
67
330
64
100
AcDbEntity
  8
0
100
AcDbBlockEnd
  0
BLOCK
  5
CD2
330
CC8
100
AcDbEntity
  8
0
100
AcDbBlockBegin
  2
*D5
 70
     1
 10
0.0
 20
0.0
 30
0.0
  3
*D5
  1

  0
LINE
  5
2C6D
330
CC8
100
AcDbEntity
  8
AM_5
 62
     3
100
AcDbLine
 10
-95.99999999999999
 20
-3.499999999999982
 30
0.0
 11
-95.99999999999999
 21
-16.50000236965379
 31
0.0
  0
LINE
  5
2C6E
330
CC8
100
AcDbEntity
  8
AM_5
 62
     3
100
AcDbLine
 10
-2.000000000000028
 20
-3.849995051201508
 30
0.0
 11
-2.000000000000029
 21
-16.50000236965379
 31
0.0
  0
LINE
  5
2C6F
330
CC8
100
AcDbEntity
  8
AM_5
 62
     3
100
AcDbLine
 10
-94.74999999999999
 20
-16.00000236965379
 30
0.0
 11
-3.250000000000029
 21
-16.00000236965379
 31
0.0
  0
INSERT
  5
2C70
330
CC8
100
AcDbEntity
  8
AM_5
 62
     3
100
AcDbBlockReference
  2
_OPEN30
 10
-95.99999999999999
 20
-16.00000236965379
 30
0.0
 41
1.25
 42
1.25
 43
1.25
 50
180.0
  0
INSERT
  5
2C71
330
CC8
100
AcDbEntity
  8
AM_5
 62
     3
100
AcDbBlockReference
  2
_OPEN30
 10
-2.000000000000029
 20
-16.00000236965379
 30
0.0
 41
1.25
 42
1.25
 43
1.25
  0
MTEXT
  5
2C72
330
CC8
100
AcDbEntity
  8
AM_5
 62
     2
100
AcDbMText
 10
-49.00000000000001
 20
-14.30000236965379
 30
0.0
 40
1.9
 41
0.0
 71
     5
 72
     1
  1
94
1001
ACAD
1000
MTEXTBEGIN
1070
    73
1070
     1
1070
    44
1040
1.0
1070
    74
1070
     0
1000
MTEXTEND
  0
POINT
  5
2C73
330
CC8
100
AcDbEntity
  8
DEFPOINTS
 62
     0
100
AcDbPoint
 10
-95.99999999999999
 20
-3.499999999999982
 30
0.0
  0
POINT
  5
2C74
330
CC8
100
AcDbEntity
  8
DEFPOINTS
 62
     0
100
AcDbPoint
 10
-2.000000000000028
 20
-3.849995051201508
 30
0.0
  0
POINT
  5
2C75
330
CC8
100
AcDbEntity
  8
DEFPOINTS
 62
     0
100
AcDbPoint
 10
-2.000000000000029
 20
-16.00000236965379
 30
0.0
  0
ENDBLK
  5
CD3
330
CC8
100
AcDbEntity
  8
0
100
AcDbBlockEnd
  0
BLOCK
  5
E00
330
DF6
100
AcDbEntity
  8
0
100
AcDbBlockBegin
  2
*D6
 70
     1
 10
0.0
 20
0.0
 30
0.0
  3
*D6
  1

  0
LINE
  5
2C93
330
DF6
100
AcDbEntity
  8
AM_5
 62
     3
100
AcDbLine
 10
-41.99999999999998
 20
-4.000001369653862
 30
0.0
 11
-41.99999999999998
 21
-11.50000236965371
 31
0.0
  0
LINE
  5
2C94
330
DF6
100
AcDbEntity
  8
AM_5
 62
     3
100
AcDbLine
 10
-2.000000000000028
 20
-3.849995051201508
 30
0.0
 11
-2.000000000000029
 21
-11.50000236965371
 31
0.0
  0
LINE
  5
2C95
330
DF6
100
AcDbEntity
  8
AM_5
 62
     3
100
AcDbLine
 10
-40.74999999999998
 20
-11.00000236965371
 30
0.0
 11
-3.250000000000029
 21
-11.00000236965371
 31
0.0
  0
INSERT
  5
2C96
330
DF6
100
AcDbEntity
  8
AM_5
 62
     3
100
AcDbBlockReference
  2
_OPEN30
 10
-41.99999999999998
 20
-11.00000236965371
 30
0.0
 41
1.25
 42
1.25
 43
1.25
 50
180.0
  0
INSERT
  5
2C97
330
DF6
100
AcDbEntity
  8
AM_5
 62
     3
100
AcDbBlockReference
  2
_OPEN30
 10
-2.000000000000029
 20
-11.00000236965371
 30
0.0
 41
1.25
 42
1.25
 43
1.25
  0
MTEXT
  5
2C98
330
DF6
100
AcDbEntity
  8
AM_5
 62
     2
100
AcDbMText
 10
-22.0
 20
-9.300002369653714
 30
0.0
 40
1.9
 41
0.0
 71
     5
 72
     1
  1
40
1001
ACAD
1000
MTEXTBEGIN
1070
    73
1070
     1
1070
    44
1040
1.0
1070
    74
1070
     0
1000
MTEXTEND
  0
POINT
  5
2C99
330
DF6
100
AcDbEntity
  8
DEFPOINTS
 62
     0
100
AcDbPoint
 10
-41.99999999999998
 20
-4.000001369653862
 30
0.0
  0
POINT
  5
2C9A
330
DF6
100
AcDbEntity
  8
DEFPOINTS
 62
     0
100
AcDbPoint
 10
-2.000000000000028
 20
-3.849995051201508
 30
0.0
  0
POINT
  5
2C9B
330
DF6
100
AcDbEntity
  8
DEFPOINTS
 62
     0
100
AcDbPoint
 10
-2.000000000000029
 20
-11.00000236965371
 30
0.0
  0
ENDBLK
  5
E01
330
DF6
100
AcDbEntity
  8
0
100
AcDbBlockEnd
  0
BLOCK
  5
2297
330
228B
100
AcDbEntity
  8
0
100
AcDbBlockBegin
  2
*D7
 70
     1
 10
0.0
 20
0.0
 30
0.0
  3
*D7
  1

  0
LINE
  5
2C76
330
228B
100
AcDbEntity
  8
AM_5
 62
     3
100
AcDbLine
 10
-95.49999999999998
 20
-4.000000000000279
 30
0.0
 11
-105.5000009999999
 21
-4.000000000000308
 31
0.0
  0
LINE
  5
2C77
330
228B
100
AcDbEntity
  8
AM_5
 62
     3
100
AcDbLine
 10
-95.5
 20
4.000000000000015
 30
0.0
 11
-105.5000009999999
 21
3.999999999999987
 31
0.0
  0
LINE
  5
2C78
330
228B
100
AcDbEntity
  8
AM_5
 62
     3
100
AcDbLine
 10
-105.0000009999999
 20
-2.750000000000306
 30
0.0
 11
-105.0000009999999
 21
2.749999999999988
 31
0.0
  0
INSERT
  5
2C79
330
228B
100
AcDbEntity
  8
AM_5
 62
     3
100
AcDbBlockReference
  2
_OPEN30
 10
-105.0000009999999
 20
-4.000000000000306
 30
0.0
 41
1.25
 42
1.25
 43
1.25
 50
270.0000000000001
  0
INSERT
  5
2C7A
330
228B
100
AcDbEntity
  8
AM_5
 62
     3
100
AcDbBlockReference
  2
_OPEN30
 10
-105.0000009999999
 20
3.999999999999988
 30
0.0
 41
1.25
 42
1.25
 43
1.25
 50
90.00000000000015
  0
MTEXT
  5
2C7B
330
228B
100
AcDbEntity
  8
AM_5
 62
     2
100
AcDbMText
 10
-106.7000009999999
 20
-0.0000000000002944
 30
0.0
 40
1.9
 41
0.0
 71
     5
 72
     1
  1
%%c8
 11
-0.0000000000000028
 21
1.0
 31
0.0
1001
ACAD
1000
MTEXTBEGIN
1070
    73
1070
     1
1070
    44
1040
1.0
1070
    74
1070
     0
1000
MTEXTEND
  0
POINT
  5
2C7C
330
228B
100
AcDbEntity
  8
DEFPOINTS
 62
     0
100
AcDbPoint
 10
-95.5
 20
-3.999999999999983
 30
0.0
  0
POINT
  5
2C7D
330
228B
100
AcDbEntity
  8
DEFPOINTS
 62
     0
100
AcDbPoint
 10
-95.49999999999998
 20
4.000000000000312
 30
0.0
  0
POINT
  5
2C7E
330
228B
100
AcDbEntity
  8
DEFPOINTS
 62
     0
100
AcDbPoint
 10
-105.0000009999999
 20
4.000000000000315
 30
0.0
  0
ENDBLK
  5
2298
330
228B
100
AcDbEntity
  8
0
100
AcDbBlockEnd
  0
BLOCK
  5
26CE
330
26C0
100
AcDbEntity
  8
0
100
AcDbBlockBegin
  2
*D8
 70
     1
 10
0.0
 20
0.0
 30
0.0
  3
*D8
  1

  0
LINE
  5
2CEA
330
26C0
100
AcDbEntity
  8
AM_5
100
AcDbLine
 10
0.1710101364597401
 20
-0.4698462868087997
 30
0.0
 11
4.915346007476472
 21
-13.50479636940691
 31
0.0
  0
LINE
  5
2CEB
330
26C0
100
AcDbEntity
  8
AM_5
100
AcDbLine
 10
0.1710111995358665
 20
0.4698458998792129
 30
0.0
 11
4.915376563483862
 21
13.50478524788583
 31
0.0
  0
ARC
  5
2CEC
330
26C0
100
AcDbEntity
  8
AM_5
100
AcDbCircle
 10
-0.0000000000000014
 20
0.000000000000004
 30
0.0
 40
13.8715048395205
100
AcDbArc
 50
295.1648389466326
 51
64.83503141564945
  0
INSERT
  5
2CED
330
26C0
100
AcDbEntity
  8
AM_5
100
AcDbBlockReference
  2
_OPEN30
 10
4.744335871016732
 20
-13.03495008259811
 30
0.0
 41
1.25
 42
1.25
 43
1.25
 50
202.5824234241714
  0
INSERT
  5
2CEE
330
26C0
100
AcDbEntity
  8
AM_5
100
AcDbBlockReference
  2
_OPEN30
 10
4.744365363947994
 20
13.03493934800662
 30
0.0
 41
1.25
 42
1.25
 43
1.25
 50
157.4174469381106
  0
MTEXT
  5
2CEF
330
26C0
100
AcDbEntity
  8
AM_5
 62
     2
100
AcDbMText
 10
12.32150483951261
 20
-0.0000139393493017
 30
0.0
 40
1.6
 41
0.0
 71
     5
 72
     1
  1
140°
  7
ASAMI
 11
0.0000011313025075
 21
0.9999999999993601
 31
0.0
  0
POINT
  5
2CF0
330
26C0
100
AcDbEntity
  8
DEFPOINTS
 62
     0
100
AcDbPoint
 10
12.73703527913145
 20
-5.494231412217847
 30
0.0
  0
POINT
  5
2CF1
330
26C0
100
AcDbEntity
  8
DEFPOINTS
 62
     0
100
AcDbPoint
 10
-0.0000000000000014
 20
0.000000000000004
 30
0.0
  0
POINT
  5
2CF2
330
26C0
100
AcDbEntity
  8
DEFPOINTS
 62
     0
100
AcDbPoint
 10
-0.0000000000000014
 20
0.000000000000004
 30
0.0
  0
POINT
  5
2CF3
330
26C0
100
AcDbEntity
  8
DEFPOINTS
 62
     0
100
AcDbPoint
 10
-0.4497187230507524
 20
1.235591506492583
 30
0.0
  0
POINT
  5
2CF4
330
26C0
100
AcDbEntity
  8
DEFPOINTS
 62
     0
100
AcDbPoint
 10
-0.4497245551032994
 20
-1.235598831326629
 30
0.0
  0
ENDBLK
  5
26CF
330
26C0
100
AcDbEntity
  8
0
100
AcDbBlockEnd
  0
BLOCK
  5
2957
330
294D
100
AcDbEntity
  8
0
100
AcDbBlockBegin
  2
*D9
 70
     1
 10
0.0
 20
0.0
 30
0.0
  3
*D9
  1

  0
LINE
  5
2C7F
330
294D
100
AcDbEntity
  8
AM_5
 62
     3
100
AcDbLine
 10
-2.028867519546161
 20
3.850000811772262
 30
0.0
 11
9.055921024858061
 21
3.850000811772293
 31
0.0
  0
LINE
  5
2C80
330
294D
100
AcDbEntity
  8
AM_5
 62
     3
100
AcDbLine
 10
-2.000000000000016
 20
-3.849995051201515
 30
0.0
 11
9.055921024858083
 21
-3.849995051201484
 31
0.0
  0
LINE
  5
2C81
330
294D
100
AcDbEntity
  8
AM_5
 62
     3
100
AcDbLine
 10
8.555921024858065
 20
2.600000811772292
 30
0.0
 11
8.555921024858079
 21
-2.599995051201485
 31
0.0
  0
INSERT
  5
2C82
330
294D
100
AcDbEntity
  8
AM_5
 62
     3
100
AcDbBlockReference
  2
_OPEN30
 10
8.555921024858061
 20
3.850000811772292
 30
0.0
 41
1.25
 42
1.25
 43
1.25
 50
90.00000000000017
  0
INSERT
  5
2C83
330
294D
100
AcDbEntity
  8
AM_5
 62
     3
100
AcDbBlockReference
  2
_OPEN30
 10
8.555921024858083
 20
-3.849995051201485
 30
0.0
 41
1.25
 42
1.25
 43
1.25
 50
270.0000000000001
  0
MTEXT
  5
2C84
330
294D
100
AcDbEntity
  8
AM_5
 62
     2
100
AcDbMText
 10
6.855921024858072
 20
0.0000028802853985
 30
0.0
 40
1.9
 41
0.0
 71
     5
 72
     1
  1
%%c7.7
 11
-0.0000000000000028
 21
1.0
 31
0.0
1001
ACAD
1000
MTEXTBEGIN
1070
    73
1070
     1
1070
    44
1040
1.0
1070
    74
1070
     0
1000
MTEXTEND
  0
POINT
  5
2C85
330
294D
100
AcDbEntity
  8
DEFPOINTS
 62
     0
100
AcDbPoint
 10
-2.028867519546149
 20
3.850000811772268
 30
0.0
  0
POINT
  5
2C86
330
294D
100
AcDbEntity
  8
DEFPOINTS
 62
     0
100
AcDbPoint
 10
-2.000000000000028
 20
-3.849995051201508
 30
0.0
  0
POINT
  5
2C87
330
294D
100
AcDbEntity
  8
DEFPOINTS
 62
     0
100
AcDbPoint
 10
8.555921024858072
 20
-3.849995051201511
 30
0.0
  0
ENDBLK
  5
2958
330
294D
100
AcDbEntity
  8
0
100
AcDbBlockEnd
  0
ENDSEC
  0
SECTION
  2
ENTITIES
  0
LINE
  5
C1D
330
1F
100
AcDbEntity
  8
AM_0
 48
0.5
100
AcDbLine
 10
-0.0000000000000014
 20
0.000000000000004
 30
0.0
 11
-0.4497187230507524
 21
1.235591506492583
 31
0.0
  0
LINE
  5
C20
330
1F
100
AcDbEntity
  8
AM_0
 48
0.5
100
AcDbLine
 10
-0.0000000000000014
 20
0.000000000000004
 30
0.0
 11
-0.4497245551032993
 21
-1.235598831326629
 31
0.0
  0
LINE
  5
C30
330
1F
100
AcDbEntity
  8
AM_0
 48
0.5
100
AcDbLine
 10
-95.99999999999999
 20
-3.499999999999982
 30
0.0
 11
-96.0
 21
3.500000000000016
 31
0.0
  0
LINE
  5
C9F
330
1F
100
AcDbEntity
  8
AM_7
100
AcDbLine
 10
-97.99999999999997
 20
0.0000000000000151
 30
0.0
 11
1.555920024858059
 21
0.0000000000000078
 31
0.0
1001
GENIUS_GENODEF_13
1002
{
1000
HIER
1070
     0
1002
}
1002
{
1000
MANEDIT
1070
     0
1002
}
1002
{
1000
NOSEL
1070
     0
1002
}
1002
{
1000
BEHIND
1070
     0
1002
}
1002
{
1000
REACTOR
1002
}
1001
GENIUS_GENOBJ-N-CEN_13
1002
{
1000
OWNER
1000
GEN
1002
}
  0
DIMENSION
  5
CC6
330
1F
100
AcDbEntity
  8
AM_5
100
AcDbDimension
  2
*D5
 10
-2.000000000000029
 20
-16.00000236965379
 30
0.0
 11
-49.00000000000001
 21
-14.30000236965379
 31
0.0
 70
    32
  1
<>
  3
AM_JIS$0
100
AcDbAlignedDimension
 13
-95.99999999999999
 23
-3.499999999999982
 33
0.0
 14
-2.000000000000028
 24
-3.849995051201508
 34
0.0
 50
0.0000000000001132
100
AcDbRotatedDimension
1001
GENIUS_GENDTOL_13
1000

1000
h7
1000

1040
0.0
1001
ACAD
1000
DSTYLE
1002
{
1070
   271
1070
     0
1002
}
  0
DIMENSION
  5
DF5
330
1F
100
AcDbEntity
  8
AM_5
100
AcDbDimension
  2
*D6
 10
-2.000000000000029
 20
-11.00000236965371
 30
0.0
 11
-22.0
 21
-9.300002369653714
 31
0.0
 70
    32
  1
<>
  3
AM_JIS$0
100
AcDbAlignedDimension
 13
-41.99999999999998
 23
-4.000001369653862
 33
0.0
 14
-2.000000000000028
 24
-3.849995051201508
 34
0.0
 50
0.0000000000001527
100
AcDbRotatedDimension
1001
GENIUS_GENDTOL_13
1000

1000
h7
1000

1040
0.0
1001
ACAD
1000
DSTYLE
1002
{
1070
   271
1070
     0
1002
}
  0
TEXT
  5
19BD
330
1F
100
AcDbEntity
  8
AM_6
100
AcDbText
 10
-60.24999999999995
 20
-27.25000236965382
 30
0.0
 40
2.5
  1
MDW077MHK
 50
0.0000000000001527
 72
     4
 11
-48.99999999999995
 21
-26.00000236965379
 31
0.0
100
AcDbText
  0
ARC
  5
1BE8
330
1F
100
AcDbEntity
  8
AM_11
 48
0.5
100
AcDbCircle
 10
-65.18578898111988
 20
17.66787048062785
 30
0.0
 40
19.53452809651666
100
AcDbArc
 50
244.7482808787518
 51
295.2516148471758
  0
ARC
  5
1BE9
330
1F
100
AcDbEntity
  8
AM_11
 48
0.5
100
AcDbCircle
 10
-65.18578898111991
 20
-17.66785848258814
 30
0.0
 40
19.53452809651666
100
AcDbArc
 50
64.74833051131179
 51
115.2516644797366
  0
LINE
  5
1CA9
330
1F
100
AcDbEntity
  8
AM_0
 48
0.5
100
AcDbLine
 10
-41.99999999999998
 20
-4.000001369653862
 30
0.0
 11
-41.99999999999998
 21
4.000029622605996
 31
0.0
  0
LINE
  5
1E12
330
1F
100
AcDbEntity
  8
AM_0
 48
0.5
100
AcDbLine
 10
-95.5
 20
4.000000000000015
 30
0.0
 11
-41.99999999999998
 21
3.999999999999901
 31
0.0
1001
GENIUS_GENODEF_13
1002
{
1000
HIER
1070
     0
1002
}
1002
{
1000
MANEDIT
1070
     0
1002
}
1002
{
1000
NOSEL
1070
     0
1002
}
1002
{
1000
BEHIND
1070
     0
1002
}
1002
{
1000
REACTOR
1002
}
1001
GENIUS_GENOBJ-N-CEN_13
1002
{
1000
OWNER
1000
GEN
1002
}
  0
LINE
  5
1E16
330
1F
100
AcDbEntity
  8
AM_0
 48
0.5
100
AcDbLine
 10
-95.49999999999998
 20
-3.999999999999983
 30
0.0
 11
-41.99999999999998
 21
-4.000000000000098
 31
0.0
1001
GENIUS_GENODEF_13
1002
{
1000
HIER
1070
     0
1002
}
1002
{
1000
MANEDIT
1070
     0
1002
}
1002
{
1000
NOSEL
1070
     0
1002
}
1002
{
1000
BEHIND
1070
     0
1002
}
1002
{
1000
REACTOR
1002
}
1001
GENIUS_GENOBJ-N-CEN_13
1002
{
1000
OWNER
1000
GEN
1002
}
  0
LINE
  5
1E22
330
1F
100
AcDbEntity
  8
AM_0
100
AcDbLine
 10
-95.5
 20
-3.999999999999687
 30
0.0
 11
-95.49999999999998
 21
4.000000000000312
 31
0.0
  0
LINE
  5
1E25
330
1F
100
AcDbEntity
  8
AM_0
100
AcDbLine
 10
-41.99999999999998
 20
-4.000001369653862
 30
0.0
 11
-41.74018860052085
 21
-3.849999188226055
 31
0.0
  0
LINE
  5
1E26
330
1F
100
AcDbEntity
  8
AM_0
100
AcDbLine
 10
-41.99999999999998
 20
3.999999999999969
 30
0.0
 11
-41.7401886005206
 21
3.849997818572022
 31
0.0
  0
ARC
  5
1F66
330
1F
100
AcDbEntity
  8
AM_11
 48
0.5
100
AcDbCircle
 10
-81.85241919041599
 20
17.66787048062779
 30
0.0
 40
19.53452809651666
100
AcDbArc
 50
244.7482808787518
 51
295.2516148471758
  0
ARC
  5
1F67
330
1F
100
AcDbEntity
  8
AM_11
 48
0.5
100
AcDbCircle
 10
-81.85241919041601
 20
-17.6678584825882
 30
0.0
 40
19.53452809651666
100
AcDbArc
 50
64.74833051131179
 51
115.2516644797366
  0
LINE
  5
220F
330
1F
100
AcDbEntity
  8
AM_0
100
AcDbLine
 10
-41.74018860052085
 20
-3.84999918822606
 30
0.0
 11
-41.74018860052084
 21
-3.277796565926951
 31
0.0
  0
ELLIPSE
  5
222E
330
1F
100
AcDbEntity
  8
AM_11
 48
0.5
100
AcDbEllipse
 10
-15.18578898112439
 20
16.72558433296426
 30
0.0
 11
-19.53452809651665
 21
0.000000000000166
 31
0.0
210
0.0
220
0.0
230
1.0
 40
0.9466666666666663
 41
1.130070686340305
 42
2.011520147323594
  0
ELLIPSE
  5
222F
330
1F
100
AcDbEntity
  8
AM_11
 48
0.5
100
AcDbEllipse
 10
-15.18578898112476
 20
-16.7255724188802
 30
0.0
 11
-19.53452809651663
 21
0.0000000000000489
 31
0.0
210
0.0
220
0.0
230
1.0
 40
0.9466666666666668
 41
4.271664206181679
 42
5.153113667164986
  0
ELLIPSE
  5
2230
330
1F
100
AcDbEntity
  8
AM_11
 48
0.5
100
AcDbEllipse
 10
-48.51912231445306
 20
16.72558433296461
 30
0.0
 11
-19.53452809651663
 21
0.000000000000114
 31
0.0
210
0.0
220
0.0
230
1.0
 40
0.946666666666667
 41
1.130070686340299
 42
2.011520147323592
  0
ELLIPSE
  5
2231
330
1F
100
AcDbEntity
  8
AM_11
 48
0.5
100
AcDbEllipse
 10
-48.51912231445343
 20
-16.72557241887986
 30
0.0
 11
-19.53452809651663
 21
0.0000000000000055
 31
0.0
210
0.0
220
0.0
230
1.0
 40
0.946666666666667
 41
4.271664206181676
 42
5.153113667164983
  0
ELLIPSE
  5
2232
330
1F
100
AcDbEntity
  8
AM_11
 48
0.5
100
AcDbEllipse
 10
-31.85245564779143
 20
-16.72557241888003
 30
0.0
 11
-19.53452809651665
 21
0.0000000000000576
 31
0.0
210
0.0
220
0.0
230
1.0
 40
0.9466666666666657
 41
4.271664206181679
 42
5.153113667164985
  0
ELLIPSE
  5
2233
330
1F
100
AcDbEntity
  8
AM_11
 48
0.5
100
AcDbEllipse
 10
-31.85245564779106
 20
16.72558433296444
 30
0.0
 11
19.53452809651663
 21
0.0000000000000446
 31
0.0
210
0.0
220
0.0
230
1.0
 40
0.9466666666666672
 41
4.271663339930084
 42
5.153112800913377
  0
ELLIPSE
  5
2234
330
1F
100
AcDbEntity
  8
AM_11
 48
0.5
100
AcDbEllipse
 10
1.480877685542292
 20
16.7255843329641
 30
0.0
 11
-19.53452809651675
 21
0.0000000000005521
 31
0.0
210
0.0
220
0.0
230
1.0
 40
0.946666666666662
 41
1.130070686340324
 42
1.291800737381015
  0
DIMENSION
  5
228A
330
1F
100
AcDbEntity
  8
AM_5
100
AcDbDimension
  2
*D7
 10
-105.0000009999999
 20
4.000000000000315
 30
0.0
 11
-105.0000009999999
 21
0.0000000000000158
 31
0.0
 70
   160
  1
%%c<>
 51
359.9999999999998
  3
AM_JIS$0
100
AcDbAlignedDimension
 13
-95.5
 23
-3.999999999999983
 33
0.0
 14
-95.49999999999998
 24
4.000000000000312
 34
0.0
 50
270.0000000000002
100
AcDbRotatedDimension
1001
ACAD
1000
DSTYLE
1002
{
1070
   271
1070
     0
1002
}
1001
GENIUS_GENDTOL_13
1000

1000
h7
1000

1040
0.0
  0
ARC
  5
24F5
330
1F
100
AcDbEntity
  8
AM_11
 48
0.5
100
AcDbCircle
 10
-98.51902396212658
 20
-17.66785848258825
 30
0.0
 40
19.53452809651666
100
AcDbArc
 50
64.74833051131179
 51
82.59094121931479
  0
ARC
  5
24F6
330
1F
100
AcDbEntity
  8
AM_11
 48
0.5
100
AcDbCircle
 10
-98.51902396212656
 20
17.66787048062774
 30
0.0
 40
19.53452809651666
100
AcDbArc
 50
277.409058780685
 51
295.2516148471758
  0
LINE
  5
24F9
330
1F
100
AcDbEntity
  8
AM_0
 48
0.5
100
AcDbLine
 10
-95.5
 20
4.000000000000015
 30
0.0
 11
-96.0
 21
3.500000000000016
 31
0.0
1001
GENIUS_GENFIL_13
1070
     0
1040
0.5
1040
0.5
1040
20.0
1040
0.0
1002
{
1002
}
1001
GENIUS_GENODEF_13
1002
{
1000
HIER
1070
     0
1002
}
1002
{
1000
MANEDIT
1070
     0
1002
}
1002
{
1000
NOSEL
1070
     0
1002
}
1002
{
1000
BEHIND
1070
     0
1002
}
1002
{
1000
REACTOR
1002
}
1001
GENIUS_GENOBJ-N-CHA_13
1002
{
1000
OWNER
1000
GEN
1002
}
  0
LINE
  5
24FC
330
1F
100
AcDbEntity
  8
AM_0
 48
0.5
100
AcDbLine
 10
-95.99999999999999
 20
-3.499999999999982
 30
0.0
 11
-95.49999999999998
 21
-3.999999999999983
 31
0.0
1001
GENIUS_GENFIL_13
1070
     0
1040
0.5
1040
0.5
1040
20.0
1040
0.0
1002
{
1002
}
1001
GENIUS_GENODEF_13
1002
{
1000
HIER
1070
     0
1002
}
1002
{
1000
MANEDIT
1070
     0
1002
}
1002
{
1000
NOSEL
1070
     0
1002
}
1002
{
1000
BEHIND
1070
     0
1002
}
1002
{
1000
REACTOR
1002
}
1001
GENIUS_GENOBJ-N-CHA_13
1002
{
1000
OWNER
1000
GEN
1002
}
  0
ELLIPSE
  5
2541
330
1F
100
AcDbEntity
  8
AM_0
 48
0.5
100
AcDbEllipse
 10
5.425294056045905
 20
-5.329039651754237
 30
0.0
 11
7.270283370024311
 21
-0.8228207667782269
 31
0.0
210
0.0
220
0.0
230
-1.0
 40
0.9148199423618684
 41
3.349788544839671
 42
3.675583716501283
  0
LINE
  5
2542
330
1F
100
AcDbEntity
  8
AM_0
 48
0.5
100
AcDbLine
 10
-1.532404323548657
 20
-3.149258293794736
 30
0.0
 11
-2.000000000000028
 21
-3.849995051201508
 31
0.0
  0
DIMENSION
  5
26BF
330
1F
100
AcDbEntity
  8
AM_5
100
AcDbDimension
  2
*D8
 10
-0.4497245551032993
 20
-1.235598831326629
 30
0.0
 11
12.32150483951261
 21
-0.0000139393493381
 31
0.0
 70
    34
  1
<>
 51
359.9999999999998
  3
AM_JIS$2
100
AcDb2LineAngularDimension
 13
-0.0000000000000014
 23
0.000000000000004
 33
0.0
 14
-0.4497187230507524
 24
1.235591506492583
 34
0.0
 15
-0.0000000000000014
 25
0.000000000000004
 35
0.0
 16
12.73703527913145
 26
-5.494231412217847
 36
0.0
1001
GENIUS_GENDTOL_13
1000

1000
h7
1000

1040
0.0
1001
ACAD
1000
DSTYLE
1002
{
1070
   271
1070
     0
1002
}
  0
DIMENSION
  5
294C
330
1F
100
AcDbEntity
  8
AM_5
100
AcDbDimension
  2
*D9
 10
8.555921024858072
 20
-3.849995051201511
 30
0.0
 11
6.855921024858072
 21
0.0000028802853786
 31
0.0
 70
    32
  1
%%c<>
 51
359.9999999999998
  3
AM_JIS$0
100
AcDbAlignedDimension
 13
-2.028867519546149
 23
3.850000811772268
 33
0.0
 14
-2.000000000000028
 24
-3.849995051201508
 34
0.0
 50
90.00000000000017
100
AcDbRotatedDimension
1001
ACAD
1000
DSTYLE
1002
{
1070
   271
1070
     1
1002
}
1001
GENIUS_GENDTOL_13
1000

1000
h7
1000

1040
0.0
  0
ELLIPSE
  5
2A76
330
1F
100
AcDbEntity
  8
AM_0
 48
0.5
100
AcDbEllipse
 10
5.425294056045906
 20
5.329039651754252
 30
0.0
 11
7.270283370024311
 21
0.8228207667782259
 31
0.0
210
0.0
220
0.0
230
1.0
 40
0.9148199423618684
 41
3.349788544839671
 42
3.675583716501283
  0
LINE
  5
2A77
330
1F
100
AcDbEntity
  8
AM_0
 48
0.5
100
AcDbLine
 10
-1.532404323548656
 20
3.149258293794752
 30
0.0
 11
-2.028867519546149
 21
3.850000811772268
 31
0.0
  0
LINE
  5
2B83
330
1F
100
AcDbEntity
  8
AM_0
100
AcDbLine
 10
-39.02807538106873
 20
3.849985509783741
 30
0.0
 11
-41.74019430357225
 21
3.850001111230421
 31
0.0
  0
LINE
  5
2B9A
330
1F
100
AcDbEntity
  8
AM_0
100
AcDbLine
 10
-41.74018860052079
 20
-1.906825376061227
 30
0.0
 11
-41.74018860052075
 21
-0.3826645502205954
 31
0.0
  0
LINE
  5
2B9B
330
1F
100
AcDbEntity
  8
AM_0
100
AcDbLine
 10
-41.74018860052076
 20
-0.2030660821621756
 30
0.0
 11
-41.74018860052061
 21
3.849997818572025
 31
0.0
  0
LINE
  5
2C19
330
1F
100
AcDbEntity
  8
AM_0
 48
0.5
100
AcDbLine
 10
-32.98042140399334
 20
1.876420035468371
 30
0.0
 11
-41.99999999999995
 21
-0.2647428580739082
 31
0.0
  0
LINE
  5
2C1A
330
1F
100
AcDbEntity
  8
AM_0
100
AcDbLine
 10
-40.66302006870958
 20
-3.8499991882261
 30
0.0
 11
-41.74018860052085
 21
-3.84999918822606
 31
0.0
  0
LINE
  5
2C1B
330
1F
100
AcDbEntity
  8
AM_11
 48
0.5
100
AcDbLine
 10
-40.66302006870957
 20
-3.8499991882261
 30
0.0
 11
-31.19516857583886
 21
-3.850014490216368
 31
0.0
  0
SPLINE
  5
2C1C
330
1F
100
AcDbEntity
  8
AM_0
100
AcDbSpline
210
0.0
220
0.0
230
1.0
 70
     8
 71
     3
 72
    13
 73
     9
 74
     0
 42
0.0000000001
 43
0.0000000001
 40
16.03460056234195
 40
16.03460056234195
 40
16.03460056234195
 40
16.03460056234195
 40
16.35212717791071
 40
17.38177067057215
 40
18.41822498539278
 40
19.46214186516937
 40
20.5139635832251
 40
21.34083983469381
 40
21.34083983469381
 40
21.34083983469381
 40
21.34083983469381
 10
-40.6630200687102
 20
-3.849999188226104
 30
0.0
 10
-40.39554710869129
 20
-3.812080792136315
 30
0.0
 10
-40.06120664147318
 20
-3.734132245266984
 30
0.0
 10
-39.70542100610763
 20
-3.6232359303012
 30
0.0
 10
-39.04729664941354
 20
-3.458336705167179
 30
0.0
 10
-38.38978369475291
 20
-3.273181724044828
 30
0.0
 10
-37.78136791012885
 20
-3.083936715187087
 30
0.0
 10
-37.39320935368264
 20
-2.953628058720251
 30
0.0
 10
-37.22292652136709
 20
-2.894727358624549
 30
0.0
  0
ELLIPSE
  5
2C1D
330
1F
100
AcDbEntity
  8
AM_0
 48
0.5
100
AcDbEllipse
 10
-40.68970280892825
 20
-2.520041695099832
 30
0.0
 11
-0.7609961278040888
 21
1.110456258123416
 31
0.0
210
0.0
220
0.0
230
1.0
 40
0.9621504732378884
 41
0.9987189408028793
 42
2.543029379165089
  0
ELLIPSE
  5
2C1E
330
1F
100
AcDbEntity
  8
AM_0
 48
0.5
100
AcDbEllipse
 10
-41.01753776298066
 20
-2.559142278494147
 30
0.0
 11
-0.9827850488899906
 21
0.0000000000013192
 31
0.0
210
0.0
220
0.0
230
1.0
 40
0.9793596281171575
 41
4.317028824484388
 42
6.257553905070688
  0
SPLINE
  5
2C1F
330
1F
100
AcDbEntity
  8
AM_0
 48
0.5
100
AcDbSpline
210
0.0
220
0.0
230
1.0
 70
     8
 71
     3
 72
    22
 73
    18
 74
     0
 42
0.0000000001
 43
0.0000000001
 40
0.0
 40
0.0
 40
0.0
 40
0.0
 40
1.010743684496582
 40
2.022833993863546
 40
3.037578683882831
 40
4.056212471389632
 40
5.079857945358201
 40
6.109499720892564
 40
7.145961650132166
 40
8.189873411961459
 40
9.241710626092514
 40
10.30166235592959
 40
11.36982472628033
 40
12.44598212828784
 40
13.52983440361964
 40
14.62080578343036
 40
14.90544694398022
 40
14.90544694398022
 40
14.90544694398022
 40
14.90544694398022
 10
-31.2710960995663
 20
-3.803174501185646
 30
0.0
 10
-31.51537248548727
 20
-3.801085056043894
 30
0.0
 10
-31.95717724391316
 20
-3.796502060309206
 30
0.0
 10
-32.61972264284295
 20
-3.759536642559232
 30
0.0
 10
-33.28224117131633
 20
-3.700797540591401
 30
0.0
 10
-33.94471833178935
 20
-3.61845851720769
 30
0.0
 10
-34.60714572193968
 20
-3.513635686821032
 30
0.0
 10
-35.26951643112662
 20
-3.386825278062486
 30
0.0
 10
-35.93182075326826
 20
-3.238846978141157
 30
0.0
 10
-36.59406324260027
 20
-3.070618784095851
 30
0.0
 10
-37.25623793465443
 20
-2.88319108464627
 30
0.0
 10
-37.91834828989052
 20
-2.677704585883741
 30
0.0
 10
-38.58039857648763
 20
-2.455466892349481
 30
0.0
 10
-39.24238829716827
 20
-2.217799197723492
 30
0.0
 10
-39.90432985353008
 20
-1.966215552825406
 30
0.0
 10
-40.40182519254249
 20
-1.767814628479653
 30
0.0
 10
-40.67904695622213
 20
-1.654415037549766
 30
0.0
 10
-40.63902735284409
 20
-1.670891536688869
 30
0.0
  0
SPLINE
  5
2C20
330
1F
100
AcDbEntity
  8
AM_0
 48
0.5
100
AcDbSpline
210
0.0
220
0.0
230
1.0
 70
     8
 71
     3
 72
    26
 73
    22
 74
     0
 42
0.0000000001
 43
0.0000000001
 40
0.0
 40
0.0
 40
0.0
 40
0.0
 40
0.2526859211241313
 40
0.5057083941171959
 40
0.7593947393741639
 40
1.01405318625086
 40
1.26996425091637
 40
1.527375060172565
 40
1.786490330669834
 40
2.047470117551047
 40
2.310425755981314
 40
2.575417325379407
 40
2.842456731169063
 40
3.111495753801943
 40
3.382458822635121
 40
3.655202026904655
 40
3.929554512223505
 40
4.205306020962704
 40
4.482215236978595
 40
4.76001530984208
 40
5.029821427366006
 40
5.029821427366006
 40
5.029821427366006
 40
5.029821427366006
 10
-29.43993829879301
 20
-3.803375028433702
 30
0.0
 10
-29.66069357848456
 20
-3.801084371805469
 30
0.0
 10
-30.10249816137962
 20
-3.796500007628039
 30
0.0
 10
-30.76504425413386
 20
-3.759544882652039
 30
0.0
 10
-31.42756206721683
 20
-3.7007958958097
 30
0.0
 10
-32.09003886969957
 20
-3.618456926801013
 30
0.0
 10
-32.75246808562685
 20
-3.513643955975946
 30
0.0
 10
-33.41483651683909
 20
-3.386822581989882
 30
0.0
 10
-34.07714372269189
 20
-3.238849659252453
 30
0.0
 10
-34.73938518626482
 20
-3.070623900771261
 30
0.0
 10
-35.40155934195483
 20
-2.883189119270272
 30
0.0
 10
-36.06367163948005
 20
-2.677711924419832
 30
0.0
 10
-36.72571933526341
 20
-2.455461071665761
 30
0.0
 10
-37.38770993049154
 20
-2.217799902851274
 30
0.0
 10
-38.04965227643516
 20
-1.966217575476471
 30
0.0
 10
-38.71154780330282
 20
-1.702240252772839
 30
0.0
 10
-39.37340144517792
 20
-1.427507965420871
 30
0.0
 10
-40.03522535622386
 20
-1.143715752318472
 30
0.0
 10
-40.69700859906591
 20
-0.8525727269535034
 30
0.0
 10
-41.3519938902001
 20
-0.5590709464932601
 30
0.0
 10
-41.7859462886862
 20
-0.361894391586108
 30
0.0
 10
-41.99999999999998
 20
-0.2647428580739044
 30
0.0
  0
LINE
  5
2C21
330
1F
100
AcDbEntity
  8
AM_0
 48
0.5
100
AcDbLine
 10
-4.247153603332702
 20
3.849985509783364
 30
0.0
 11
-1.999999999999941
 21
3.850000811772268
 31
0.0
  0
LINE
  5
2C22
330
1F
100
AcDbEntity
  8
AM_0
 48
0.5
100
AcDbLine
 10
-0.0000000000000046
 20
0.0000000000000032
 30
0.0
 11
-2.124211688966199
 21
1.478283867395374
 31
0.0
  0
LINE
  5
2C23
330
1F
100
AcDbEntity
  8
AM_0
 48
0.5
100
AcDbLine
 10
-4.581507212815576
 20
-3.850014490216746
 30
0.0
 11
-2.000000000000058
 21
-3.850000811772232
 31
0.0
  0
LINE
  5
2C24
330
1F
100
AcDbEntity
  8
AM_0
100
AcDbLine
 10
-31.06624587010837
 20
3.849985509783622
 30
0.0
 11
-16.84759568462246
 21
3.849985509783653
 31
0.0
  0
LINE
  5
2C25
330
1F
100
AcDbEntity
  8
AM_0
 48
0.5
100
AcDbLine
 10
-31.19516857583886
 20
-3.850014490216368
 30
0.0
 11
-17.06216951733771
 21
-3.850014490216569
 31
0.0
  0
LINE
  5
2C26
330
1F
100
AcDbEntity
  8
AM_11
 48
0.5
100
AcDbLine
 10
-39.02807538099896
 20
3.849985509783737
 30
0.0
 11
-31.06624587010837
 21
3.849985509783622
 31
0.0
  0
LINE
  5
2C27
330
1F
100
AcDbEntity
  8
AM_11
 48
0.5
100
AcDbLine
 10
-16.84735734473195
 20
3.849983062030925
 30
0.0
 11
-4.247391934018772
 21
3.849983062030313
 31
0.0
  0
LINE
  5
2C28
330
1F
100
AcDbEntity
  8
AM_11
 48
0.5
100
AcDbLine
 10
-17.06216951733771
 20
-3.850014490216569
 30
0.0
 11
-4.581507212815576
 21
-3.850014490216746
 31
0.0
  0
ELLIPSE
  5
2C29
330
1F
100
AcDbEntity
  8
AM_0
 48
0.5
100
AcDbEllipse
 10
-187.8764063655738
 20
-205.1011696967828
 30
0.0
 11
-0.0000000030574025
 21
276.9978869034468
 31
0.0
210
0.0
220
0.0
230
1.0
 40
0.9870129870129066
 41
-0.7458183700019255
 42
-0.7333161848606754
  0
SPLINE
  5
2C2A
330
1F
100
AcDbEntity
  8
AM_0
 48
0.5
100
AcDbSpline
210
0.0
220
0.0
230
1.0
 70
     8
 71
     3
 72
    10
 73
     6
 74
     0
 42
0.0000000001
 43
0.0000000001
 40
0.0
 40
0.0
 40
0.0
 40
0.0
 40
2.69986029516136
 40
4.147722969032201
 40
6.285750005020438
 40
6.285750005020438
 40
6.285750005020438
 40
6.285750005020438
 10
-4.879300766607133
 20
0.6968607151591084
 30
0.0
 10
-3.957057130436677
 20
0.33913868501916
 30
0.0
 10
-3.266011749881515
 20
-0.2103733350284221
 30
0.0
 10
-1.63178225466528
 20
0.055655060515009
 30
0.0
 10
-1.939555203110035
 20
0.9516738975016512
 30
0.0
 10
-2.142911903022813
 20
1.497824975282409
 30
0.0
  0
SPLINE
  5
2C2B
330
1F
100
AcDbEntity
  8
AM_0
 48
0.5
100
AcDbSpline
210
0.0
220
0.0
230
1.0
 70
     8
 71
     3
 72
    25
 73
    21
 74
     0
 42
0.0000000001
 43
0.0000000001
 40
6.846175049578289
 40
6.846175049578289
 40
6.846175049578289
 40
6.846175049578289
 40
7.604337694224321
 40
8.711974558287883
 40
9.814980593243754
 40
10.91239053451967
 40
12.0033633515982
 40
13.08720139956839
 40
14.16337181880432
 40
15.23152222380919
 40
16.29148850140128
 40
17.34331105512262
 40
18.38723020264746
 40
19.42369128463655
 40
20.45333379090873
 40
21.47697865721768
 40
22.49561244472435
 40
23.5103574802404
 40
24.52244778960836
 40
25.53320666051913
 40
25.53320666051913
 40
25.53320666051913
 40
25.53320666051913
 10
-4.879300766607133
 20
0.6968607151591084
 30
0.0
 10
-5.031253017065868
 20
0.7644598679593197
 30
0.0
 10
-5.405519527625251
 20
0.9301414795391245
 30
0.0
 10
-6.150620574395155
 20
1.190321252240866
 30
0.0
 10
-6.818793174016834
 20
1.474119666653003
 30
0.0
 10
-7.486999376472526
 20
1.748850799799488
 30
0.0
 10
-8.155244922898802
 20
2.01282545017469
 30
0.0
 10
-8.823537259200149
 20
2.264415026645351
 30
0.0
 10
-9.491882564981542
 20
2.50206800142382
 30
0.0
 10
-10.16028393432974
 20
2.724323824964462
 30
0.0
 10
-10.82874960023494
 20
2.92979932829702
 30
0.0
 10
-11.49727865751479
 20
3.117234527915038
 30
0.0
 10
-12.16587590807328
 20
3.285459830135382
 30
0.0
 10
-12.83453899239995
 20
3.433434114790958
 30
0.0
 10
-13.50326529835881
 20
3.560250405387434
 30
0.0
 10
-14.17205110480236
 20
3.665068104728634
 30
0.0
 10
-14.84088600569192
 20
3.747407490227135
 30
0.0
 10
-15.50976262978811
 20
3.80615018873977
 30
0.0
 10
-16.17867011920776
 20
3.843115639096046
 30
0.0
 10
-16.62471835907054
 20
3.847696557940731
 30
0.0
 10
-16.84759568462244
 20
3.849985509783657
 30
0.0
  0
SPLINE
  5
2C2C
330
1F
100
AcDbEntity
  8
AM_0
 48
0.5
100
AcDbSpline
210
0.0
220
0.0
230
1.0
 70
     8
 71
     3
 72
    17
 73
    13
 74
     0
 42
0.0000000001
 43
0.0000000001
 40
0.0
 40
0.0
 40
0.0
 40
0.0
 40
1.010743614677189
 40
2.022833924044153
 40
3.037578959561199
 40
4.056212747067873
 40
5.079857613375832
 40
6.109500119648989
 40
7.14596120163808
 40
8.18989512056258
 40
9.241717674284874
 40
9.693948937866434
 40
9.693948937866434
 40
9.693948937866434
 40
9.693948937866434
 10
-4.247153603332702
 20
3.849985509783364
 30
0.0
 10
-4.470027562575249
 20
3.847696503813954
 30
0.0
 10
-4.916072433890978
 20
3.843115442049109
 30
0.0
 10
-5.584976570238088
 20
3.806150206158108
 30
0.0
 10
-6.253853168190187
 20
3.747407431713671
 30
0.0
 10
-6.922688167710193
 20
3.665068322640053
 30
0.0
 10
-7.591473603167114
 20
3.560249586254147
 30
0.0
 10
-8.260201306007903
 20
3.433437199730917
 30
0.0
 10
-8.928862300782922
 20
3.285447496340758
 30
0.0
 10
-9.597482534222816
 20
3.117276780880165
 30
0.0
 10
-10.13721022178222
 20
2.965780387195099
 30
0.0
 10
-10.45416996473416
 20
2.871073355007269
 30
0.0
 10
-10.5493042744679
 20
2.842084166451268
 30
0.0
  0
SPLINE
  5
2C2D
330
1F
100
AcDbEntity
  8
AM_0
100
AcDbSpline
210
0.0
220
0.0
230
1.0
 70
     8
 71
     3
 72
    46
 73
    42
 74
     0
 42
0.0000000001
 43
0.0000000001
 40
0.0
 40
0.0
 40
0.0
 40
0.0
 40
0.5056245176053715
 40
0.759310862862336
 40
1.013969309739036
 40
1.269880374404297
 40
1.527291183660732
 40
1.786406454158005
 40
2.047386241038974
 40
2.310345544571907
 40
2.575337113970003
 40
2.842374715221223
 40
3.111417320030211
 40
3.382376832022752
 40
3.655120036292296
 40
3.929472521611371
 40
4.205224030350333
 40
4.482133246366229
 40
4.759933319229942
 40
5.038338087391601
 40
5.317048131389549
 40
5.595758175387723
 40
5.874162943549383
 40
6.151963016412869
 40
6.428872232428759
 40
6.704623741167955
 40
6.978976226486705
 40
7.251719430756336
 40
7.522680721168327
 40
7.791723325977311
 40
8.058760927228529
 40
8.32375249662655
 40
8.586708135057122
 40
8.84768792193809
 40
9.106803192435362
 40
9.364213819003406
 40
9.620125035580644
 40
9.87478726697307
 40
10.12847352585208
 40
10.38149610319407
 40
10.63418200686337
 40
10.63418200686337
 40
10.63418200686337
 40
10.63418200686337
 10
-2.726828347968884
 20
-3.850016937969803
 30
0.0
 10
-3.168654516678381
 20
-3.841246340361265
 30
0.0
 10
-3.832157566306665
 20
-3.82807528198479
 30
0.0
 10
-4.714446505595553
 20
-3.746983495213085
 30
0.0
 10
-5.376930431432426
 20
-3.665221402775719
 30
0.0
 10
-6.039357730664351
 20
-3.560252764676207
 30
0.0
 10
-6.701726658231033
 20
-3.433473386915939
 30
0.0
 10
-7.364033811413329
 20
-3.285489382926566
 30
0.0
 10
-8.026278080946326
 20
-3.117264774554393
 30
0.0
 10
-8.688456519609069
 20
-2.929832485797426
 30
0.0
 10
-9.350570450937478
 20
-2.724355041218562
 30
0.0
 10
-10.01261809404644
 20
-2.502099486890231
 30
0.0
 10
-10.67461008508549
 20
-2.264446439892644
 30
0.0
 10
-11.33654964146801
 20
-2.012856880229608
 30
0.0
 10
-11.99844285034563
 20
-1.74888223567299
 30
0.0
 10
-12.66029706709331
 20
-1.474151061929355
 30
0.0
 10
-13.3221180922349
 20
-1.190352805209682
 30
0.0
 10
-13.98391236695879
 20
-0.8992329741842636
 30
0.0
 10
-14.64568690817086
 20
-0.6025832408286757
 30
0.0
 10
-15.3074477612248
 20
-0.3022277924765468
 30
0.0
 10
-15.96920305140018
 20
-0.0000169380303145
 30
0.0
 10
-16.6309583414302
 20
0.3021939167831339
 30
0.0
 10
-17.29271919492023
 20
0.6025493640340845
 30
0.0
 10
-17.95449373453838
 20
0.8991991014140868
 30
0.0
 10
-18.61628801517248
 20
1.190318917514399
 30
0.0
 10
-19.27810901839961
 20
1.474117229574777
 30
0.0
 10
-19.93996331630408
 20
1.748848198372344
 30
0.0
 10
-20.60185766391157
 20
2.012824174895913
 30
0.0
 10
-21.26379979227186
 20
2.264411448740262
 30
0.0
 10
-21.92579296420313
 20
2.502065714341281
 30
0.0
 10
-22.58784059189776
 20
2.724321334802483
 30
0.0
 10
-23.24995180333736
 20
2.929796891219226
 30
0.0
 10
-23.91212583004135
 20
3.117232079394928
 30
0.0
 10
-24.57436739633767
 20
3.285457374983036
 30
0.0
 10
-25.23667416621139
 20
3.433431697081962
 30
0.0
 10
-25.89904357938639
 20
3.56024784585767
 30
0.0
 10
-26.56147510628045
 20
3.665066587395996
 30
0.0
 10
-27.2239556185056
 20
3.747404269732543
 30
0.0
 10
-27.88647711807767
 20
3.806147870496792
 30
0.0
 10
-28.54902266668736
 20
3.843112966348504
 30
0.0
 10
-28.99082743455217
 20
3.847694046749966
 30
0.0
 10
-29.21158275348626
 20
3.849983062031469
 30
0.0
  0
SPLINE
  5
2C2E
330
1F
100
AcDbEntity
  8
AM_0
100
AcDbSpline
210
0.0
220
0.0
230
1.0
 70
     8
 71
     3
 72
    23
 73
    19
 74
     0
 42
0.0000000001
 43
0.0000000001
 40
16.03460024169435
 40
16.03460024169435
 40
16.03460024169435
 40
16.03460024169435
 40
16.35212704903564
 40
17.38177054169784
 40
18.41822485651776
 40
19.46214173629503
 40
20.51396345435107
 40
21.57393551351153
 40
22.64208202342361
 40
23.7182574881101
 40
24.80209208578934
 40
25.89306333925047
 40
26.99048218457928
 40
28.09348763352352
 40
29.20111863782268
 40
30.31232390128032
 40
31.42594612798585
 40
32.5407912310448
 40
32.5407912310486
 40
32.5407912310486
 40
32.5407912310486
 10
-39.02807538106873
 20
3.849985509783741
 30
0.0
 10
-38.96285759506006
 20
3.837533102385703
 30
0.0
 10
-38.67435351434608
 20
3.780935165067714
 30
0.0
 10
-38.1661504691924
 20
3.670040144827285
 30
0.0
 10
-37.50802619532024
 20
3.505140462465906
 30
0.0
 10
-36.85051321822978
 20
3.31998560516837
 30
0.0
 10
-36.19357268495479
 20
3.11564715480997
 30
0.0
 10
-35.53718127951148
 20
2.893264302825903
 30
0.0
 10
-34.8813010640498
 20
2.654108283379918
 30
0.0
 10
-34.22588636556448
 20
2.399570924516302
 30
0.0
 10
-33.57089994103832
 20
2.131093656457854
 30
0.0
 10
-32.91628927783465
 20
1.850238685870761
 30
0.0
 10
-32.26200132707944
 20
1.558638463187028
 30
0.0
 10
-31.60799249543272
 20
1.257969567440413
 30
0.0
 10
-30.95420806276983
 20
0.9499803470847739
 30
0.0
 10
-30.30058747480603
 20
0.6364692332085229
 30
0.0
 10
-29.64707750837475
 20
0.3192529378207231
 30
0.0
 10
-29.21152121911989
 20
0.1065767569709538
 30
0.0
 10
-28.99362429560557
 20
0.0001788831568702
 30
0.0
  0
SPLINE
  5
2C2F
330
1F
100
AcDbEntity
  8
AM_0
100
AcDbSpline
210
0.0
220
0.0
230
1.0
 70
     8
 71
     3
 72
    55
 73
    51
 74
     0
 42
0.0000000001
 43
0.0000000001
 40
0.0
 40
0.0
 40
0.0
 40
0.0
 40
1.010743684496582
 40
2.022833576467832
 40
3.037578957496688
 40
4.056212745003489
 40
5.079857003664532
 40
6.109500240690281
 40
7.145961322679372
 40
8.189895241603872
 40
9.241717795325891
 40
10.30168407291828
 40
11.36983447792315
 40
12.44600489715814
 40
13.52984294512926
 40
14.62081576220742
 40
15.7182257034828
 40
16.82123173843959
 40
17.92886860250316
 40
19.0400688939571
 40
20.15368796660465
 40
21.26852814259644
 40
22.38336992938901
 40
23.49698739941135
 40
24.6081876908653
 40
25.71582455492886
 40
26.81883757994213
 40
27.91624752121713
 40
29.00722033829659
 40
30.09105838626677
 40
31.16722880550176
 40
32.23537921050758
 40
33.29534548809967
 40
34.347168041821
 40
35.39108718934584
 40
36.42754827133493
 40
37.45720575381954
 40
38.48085062012849
 40
39.49948440763516
 40
40.51422944315121
 40
41.52631975251916
 40
42.53706336719636
 40
43.54780698187354
 40
44.55989729124051
 40
45.57464232675757
 40
46.59327611426424
 40
47.6169209805722
 40
48.64656348684535
 40
49.68302456883444
 40
50.58557219878025
 40
50.58557219878025
 40
50.58557219878025
 40
50.58557219878025
 10
-4.581507212815576
 20
-3.850014490216734
 30
0.0
 10
-4.802262492480543
 20
-3.847726281241651
 30
0.0
 10
-5.244067075322242
 20
-3.843141916864472
 30
0.0
 10
-5.906613168475897
 20
-3.806186793389506
 30
0.0
 10
-6.569130980034965
 20
-3.747437800819605
 30
0.0
 10
-7.231607788245852
 20
-3.665098853340495
 30
0.0
 10
-7.894036982632968
 20
-3.560285801555565
 30
0.0
 10
-8.556405494949327
 20
-3.433464732403014
 30
0.0
 10
-9.218715540788268
 20
-3.285489957807533
 30
0.0
 10
-9.880961246798101
 20
-3.117267604488231
 30
0.0
 10
-10.54313810187874
 20
-2.929830547489441
 30
0.0
 10
-11.20524940661568
 20
-2.724355309842355
 30
0.0
 10
-11.86729693427503
 20
-2.502099414087828
 30
0.0
 10
-12.52928895661037
 20
-2.264446459633763
 30
0.0
 10
-13.19122850446774
 20
-2.012856874803936
 30
0.0
 10
-13.85312171583911
 20
-1.748882237450672
 30
0.0
 10
-14.5149759312097
 20
-1.47415106028023
 30
0.0
 10
-15.17679695936551
 20
-1.190352810047311
 30
0.0
 10
-15.83859122335504
 20
-0.8992329563910919
 30
0.0
 10
-16.50036580465807
 20
-0.6025833074240638
 30
0.0
 10
-17.16212650766774
 20
-0.3022275432757723
 30
0.0
 10
-17.82388267747013
 20
-0.0000177235089412
 30
0.0
 10
-18.48563587654104
 20
0.3021975362229693
 30
0.0
 10
-19.14739879762831
 20
0.602548623037592
 30
0.0
 10
-19.80917256196177
 20
0.8991991699462026
 30
0.0
 10
-20.47096800592314
 20
1.1903201326393
 30
0.0
 10
-21.13279177963005
 20
1.47411596088812
 30
0.0
 10
-21.7946470395815
 20
1.7488485313279
 30
0.0
 10
-22.45654034650819
 20
2.012822954624929
 30
0.0
 10
-23.11847987027968
 20
2.2644125923631
 30
0.0
 10
-23.78047189431012
 20
2.502065547164817
 30
0.0
 10
-24.44251943883237
 20
2.724321389774622
 30
0.0
 10
-25.10463067523221
 20
2.929796837230835
 30
0.0
 10
-25.76680468451995
 20
3.117232239162791
 30
0.0
 10
-26.42904629530508
 20
3.28545679577522
 30
0.0
 10
-27.09135609546133
 20
3.43343454595727
 30
0.0
 10
-27.75372933731083
 20
3.56024113038325
 30
0.0
 10
-28.41616072017679
 20
3.665086624023411
 30
0.0
 10
-29.07863772477549
 20
3.747327969308002
 30
0.0
 10
-29.74115599667202
 20
3.806433723108504
 30
0.0
 10
-30.40370152806554
 20
3.842049308922146
 30
0.0
 10
-31.06626161849533
 20
3.853947297656544
 30
0.0
 10
-31.72882170795025
 20
3.842049308903544
 30
0.0
 10
-32.39136724227404
 20
3.80643372318347
 30
0.0
 10
-33.05388550338216
 20
3.747327969026134
 30
0.0
 10
-33.71636254842929
 20
3.665086625083472
 30
0.0
 10
-34.37879054975507
 20
3.560241637536981
 30
0.0
 10
-35.04116118210618
 20
3.433435842486416
 30
0.0
 10
-35.67335719297569
 20
3.292174048781025
 30
0.0
 10
-36.08353316448065
 20
3.188867963601412
 30
0.0
 10
-36.27383090847427
 20
3.138521868719045
 30
0.0
  0
SPLINE
  5
2C30
330
1F
100
AcDbEntity
  8
AM_0
100
AcDbSpline
210
0.0
220
0.0
230
1.0
 70
     8
 71
     3
 72
    17
 73
    13
 74
     0
 42
0.0000000001
 43
0.0000000001
 40
1.580019955310467
 40
1.580019955310467
 40
1.580019955310467
 40
1.580019955310467
 40
2.030549285115227
 40
3.082371838836284
 40
4.126290986361125
 40
5.162752068350215
 40
6.192395305374981
 40
7.216039564037012
 40
8.234688489606833
 40
9.249433870634691
 40
10.26152376260694
 40
11.27226744710342
 40
11.27226744710342
 40
11.27226744710342
 40
11.27226744710352
 10
-10.82135149817948
 20
-2.841430307342305
 30
0.0
 10
-10.91509071146113
 20
-2.870694504577066
 30
0.0
 10
-11.22821117665382
 20
-2.966611819806312
 30
0.0
 10
-11.76278546136354
 20
-3.117061560724454
 30
0.0
 10
-12.42493479494808
 20
-3.2855453120294
 30
0.0
 10
-13.08726641762417
 20
-3.433451675810283
 30
0.0
 10
-13.74962838810409
 20
-3.560283949255109
 30
0.0
 10
-14.4120625217335
 20
-3.665119548281735
 30
0.0
 10
-15.0745424210364
 20
-3.74736022235262
 30
0.0
 10
-15.73706357164092
 20
-3.806473024381734
 30
0.0
 10
-16.39960965074159
 20
-3.842077438397515
 30
0.0
 10
-16.84141424058509
 20
-3.850016959999029
 30
0.0
 10
-17.06216951733766
 20
-3.850014490216569
 30
0.0
  0
SPLINE
  5
2C31
330
1F
100
AcDbEntity
  8
AM_0
100
AcDbSpline
210
0.0
220
0.0
230
1.0
 70
     8
 71
     3
 72
    22
 73
    18
 74
     0
 42
0.0000000001
 43
0.0000000001
 40
17.17441611292
 40
17.17441611292
 40
17.17441611292
 40
17.17441611292
 40
17.38177636558528
 40
18.41823744757437
 40
19.46215659509824
 40
20.51397914882054
 40
21.57394542641293
 40
22.64209583141747
 40
23.71826625065247
 40
24.80210429862395
 40
25.8930771157021
 40
26.99048705697709
 40
28.09349309193389
 40
29.20112995599786
 40
30.31233024745139
 40
31.42594771747373
 40
32.5407895042663
 40
32.54078950426994
 40
32.54078950426994
 40
32.54078950426994
 10
-19.59096118202369
 20
-3.457344802917868
 30
0.0
 10
-19.6353262120022
 20
-3.448432430532676
 30
0.0
 10
-19.90127033756934
 20
-3.39414619618819
 30
0.0
 10
-20.38846498971654
 20
-3.285295230816765
 30
0.0
 10
-21.05070650580491
 20
-3.117070190893865
 30
0.0
 10
-21.71288054087292
 20
-2.92963492019435
 30
0.0
 10
-22.37499176983213
 20
-2.724159436153068
 30
0.0
 10
-23.03703931807965
 20
-2.501903607286549
 30
0.0
 10
-23.69903133465306
 20
-2.264250634321014
 30
0.0
 10
-24.36097088476152
 20
-2.012661055963321
 30
0.0
 10
-25.02286409291998
 20
-1.74868641135767
 30
0.0
 10
-25.6847183189612
 20
-1.473955256856951
 30
0.0
 10
-26.34653930738048
 20
-1.190156922638274
 30
0.0
 10
-27.00833372047623
 20
-0.8990373840099168
 30
0.0
 10
-27.67010742447977
 20
-0.6023866966060439
 30
0.0
 10
-28.33187022299313
 20
-0.3020353555100361
 30
0.0
 10
-28.7729588245937
 20
-0.1005960821276547
 30
0.0
 10
-28.99362429560852
 20
0.0001788831582419
 30
0.0
  0
SPLINE
  5
2C32
330
1F
100
AcDbEntity
  8
AM_0
100
AcDbSpline
210
0.0
220
0.0
230
1.0
 70
     8
 71
     3
 72
    11
 73
     7
 74
     0
 42
0.0000000001
 43
0.0000000001
 40
11.27226913003534
 40
11.27226913003534
 40
11.27226913003534
 40
11.2722691300354
 40
12.28301561507924
 40
13.29510212255852
 40
14.30984805882082
 40
15.18258238371378
 40
15.18258238371378
 40
15.18258238371378
 40
15.18258238371378
 10
-17.06216951733771
 20
-3.850014490216569
 30
0.0
 10
-17.28208537384781
 20
-3.831173919166407
 30
0.0
 10
-17.72150228374421
 20
-3.785555790726735
 30
0.0
 10
-18.37835858158518
 20
-3.693532742046593
 30
0.0
 10
-19.00172679041634
 20
-3.583621300331956
 30
0.0
 10
-19.40488475690857
 20
-3.499129103911545
 30
0.0
 10
-19.5906714277808
 20
-3.457392292638424
 30
0.0
  0
ELLIPSE
  5
2C33
330
1F
100
AcDbEntity
  8
AM_0
 48
0.5
100
AcDbEllipse
 10
-6.772684951752904
 20
6.46169654643197
 30
0.0
 11
0.0000000000138228
 21
9.282757910092707
 31
0.0
210
0.0
220
0.0
230
1.0
 40
0.9740259740259766
 41
3.65217597881967
 42
3.740670756499159
  0
ELLIPSE
  5
2C34
330
1F
100
AcDbEntity
  8
AM_0
 48
0.5
100
AcDbEllipse
 10
-1.398529907197513
 20
-1.003364609523168
 30
0.0
 11
-0.5387762949976968
 21
0.3251084896808789
 31
0.0
210
0.0
220
0.0
230
1.0
 40
0.5063993385762214
 41
4.499362857390007
 42
7.642803198719517
  0
ELLIPSE
  5
2C35
330
1F
100
AcDbEntity
  8
AM_0
 48
0.5
100
AcDbEllipse
 10
-1.398529907197513
 20
-1.003364609523168
 30
0.0
 11
-0.1067532183796931
 21
0.6322277207740381
 31
0.0
210
0.0
220
0.0
230
0.9999999999999998
 40
0.487752919821486
 41
1.81162383001365
 42
4.946965719725626
  0
ELLIPSE
  5
2C36
330
1F
100
AcDbEntity
  8
AM_0
 48
0.5
100
AcDbEllipse
 10
1.696122473890639
 20
-2.014474747857412
 30
0.0
 11
0.0000000000000346
 21
4.408738295141688
 31
0.0
210
0.0
220
0.0
230
1.0
 40
0.9220779220779236
 41
1.485102427261213
 42
2.000210031613684
  0
ELLIPSE
  5
2C37
330
1F
100
AcDbEntity
  8
AM_0
 48
0.5
100
AcDbEllipse
 10
-7.797187151882739
 20
10.47114795786382
 30
0.0
 11
0.0046018417469708
 21
13.18062028512428
 31
0.0
210
0.0
220
0.0
230
1.0
 40
0.9740340918205049
 41
3.687473025255588
 42
3.794652151674108
  0
VIEWPORT
  5
110
330
101
100
AcDbEntity
 67
     1
  8
0
100
AcDbViewport
 10
420.5
 20
297.0
 30
0.0
 40
948.9782706766916
 41
628.452
 68
     1
 69
     1
1001
ACAD
1000
MVIEW
1002
{
1070
    16
1010
0.0
1020
0.0
1030
0.0
1010
0.0
1020
0.0
1030
1.0
1040
0.0
1040
628.452
1040
420.5
1040
297.0
1040
50.0
1040
0.0
1040
0.0
1070
     0
1070
   100
1070
     1
1070
     1
1070
     0
1070
     0
1070
     0
1070
     0
1040
0.0
1040
0.0
1040
0.0
1040
10.0
1040
10.0
1040
10.0
1040
10.0
1070
     0
1002
{
1002
}
1002
}
  0
ENDSEC
  0
SECTION
  2
OBJECTS
  0
DICTIONARY
  5
C
330
0
100
AcDbDictionary
  3
ACAD_GROUP
350
D
  3
ACAD_LAYOUT
350
1A
  3
ACAD_MLINESTYLE
350
17
  3
ACAD_PLOTSETTINGS
350
19
  3
ACAD_PLOTSTYLENAME
350
E
  3
ACDBVARIABLEDICTIONARY
350
34
  3
ACMDICTIONARY
350
43
  3
AMG
350
2B
  3
AMGSNAPSETTINGS
350
6E
  3
DWGPROPS
350
2CB4
  3
ACDBHEADERROUNDTRIPXREC
350
2CC0
  0
DICTIONARY
  5
74
330
1F
100
AcDbDictionary
280
     1
  3
ACAD_INDEX
360
2CB6
  3
ACAD_LAYOUTSELFREF
360
2CE3
  0
DICTIONARY
  5
2CE8
330
101
100
AcDbDictionary
280
     1
  3
ACAD_LAYOUTSELFREF
360
2CE9
  0
DICTIONARY
  5
D
102
{ACAD_REACTORS
330
C
102
}
330
C
100
AcDbDictionary
  0
DICTIONARY
  5
1A
102
{ACAD_REACTORS
330
C
102
}
330
C
100
AcDbDictionary
  0
DICTIONARY
  5
17
102
{ACAD_REACTORS
330
C
102
}
330
C
100
AcDbDictionary
  3
STANDARD
350
18
  0
DICTIONARY
  5
19
102
{ACAD_REACTORS
330
C
102
}
330
C
100
AcDbDictionary
  0
ACDBDICTIONARYWDFLT
  5
E
102
{ACAD_REACTORS
330
C
102
}
330
C
100
AcDbDictionary
281
     1
  3
Normal
350
F
100
AcDbDictionaryWithDefault
340
F
  0
DICTIONARY
  5
34
102
{ACAD_REACTORS
330
C
102
}
330
C
100
AcDbDictionary
  3
INDEXCTL
350
35
  3
SORTENTS
350
B5E
  0
DICTIONARY
  5
43
102
{ACAD_REACTORS
330
C
102
}
330
C
100
AcDbDictionary
  3
ACMSTDDICTIONARY
350
260
  0
DICTIONARY
  5
2B
102
{ACAD_REACTORS
330
C
102
}
330
C
100
AcDbDictionary
  3
ACMGSETTINGS
350
2C
  0
DICTIONARY
  5
6E
102
{ACAD_REACTORS
330
C
102
}
330
C
100
AcDbDictionary
  0
XRECORD
  5
2CB4
102
{ACAD_REACTORS
330
C
102
}
330
C
100
AcDbXrecord
  1
DWGPROPS COOKIE
  2

  3

  4

  6

  7

  8

  9

300
AmdtFileType=82
301
=
302
=
303
=
304
=
305
=
306
=
307
=
308
=
309
=
 40
0.0449330671296296
 41
2452800.443498622
 42
2452946.612381898
  1

 90
        1
  0
DICTIONARY
  5
2CC0
102
{ACAD_REACTORS
330
C
102
}
330
C
100
AcDbDictionary
  3
TSTACKALIGN
350
2CC1
  3
TSTACKSIZE
350
2CC2
  3
HYPERLINKBASE
350
2CC3
  3
STYLESHEET
350
2CC4
  3
LAYOUTDICT
350
2CC5
  3
PLOTSETDICT
350
2CC6
  3
PLOTSTYLNAMDICT
350
2CC7
  3
LWETCUNION
350
2CC8
  3
INSUNITS
350
2CC9
  3
CEPSNTYPE
350
2CCA
  3
FINGERPRINTGUID
350
2CCB
  3
VERSIONGUID
350
2CCC
  3
PSVPSCALE
350
2CCD
  3
DIMSTYLEDATA
350
2CCE
  3
PUCSORTHOREF
350
2CCF
  3
PUCSORTHOVIEW
350
2CD0
  3
PUCSBASE
350
2CD1
  3
PUCSORGTOP
350
2CD2
  3
PUCSORGBOTTOM
350
2CD3
  3
PUCSORGLEFT
350
2CD4
  3
PUCSORGRIGHT
350
2CD5
  3
PUCSORGFRONT
350
2CD6
  3
PUCSORGBACK
350
2CD7
  3
UCSORTHOREF
350
2CD8
  3
UCSORTHOVIEW
350
2CD9
  3
UCSBASE
350
2CDA
  3
UCSORGTOP
350
2CDB
  3
UCSORGBOTTOM
350
2CDC
  3
UCSORGLEFT
350
2CDD
  3
UCSORGRIGHT
350
2CDE
  3
UCSORGFRONT
350
2CDF
  3
UCSORGBACK
350
2CE0
  0
DICTIONARY
  5
2CB6
102
{ACAD_REACTORS
330
74
102
}
330
74
100
AcDbDictionary
  3
*A1
350
2CB7
  0
XRECORD
  5
2CE3
102
{ACAD_REACTORS
330
74
102
}
330
74
100
AcDbXrecord
340
1F
  0
XRECORD
  5
2CE9
102
{ACAD_REACTORS
330
2CE8
102
}
330
2CE8
100
AcDbXrecord
340
101
  0
MLINESTYLE
  5
18
102
{ACAD_REACTORS
330
17
102
}
330
17
100
AcDbMlineStyle
  2
STANDARD
 70
     0
  3

 62
   256
 51
90.0
 52
90.0
 71
     2
 49
0.5
 62
   256
  6
BYLAYER
 49
-0.5
 62
   256
  6
BYLAYER
  0
ACDBPLACEHOLDER
  5
F
102
{ACAD_REACTORS
330
E
102
}
330
E
100
AcDbPlaceHolder
280
     0
  0
DICTIONARYVAR
  5
35
102
{ACAD_REACTORS
330
34
102
}
330
34
100
DictionaryVariables
280
     0
  1
1
  0
DICTIONARYVAR
  5
B5E
102
{ACAD_REACTORS
330
34
102
}
330
34
100
DictionaryVariables
280
     0
  1
96
  0
DICTIONARY
  5
260
102
{ACAD_REACTORS
330
43
102
}
330
43
100
AcDbDictionary
  0
DICTIONARY
  5
2C
102
{ACAD_REACTORS
330
2B
102
}
330
2B
100
AcDbDictionary
  3
DWGSETTINGS
350
2D
  0
XRECORD
  5
2CC1
102
{ACAD_REACTORS
330
2CC0
102
}
330
2CC0
100
AcDbXrecord
 90
        1
  0
XRECORD
  5
2CC2
102
{ACAD_REACTORS
330
2CC0
102
}
330
2CC0
100
AcDbXrecord
 90
       70
  0
XRECORD
  5
2CC3
102
{ACAD_REACTORS
330
2CC0
102
}
330
2CC0
100
AcDbXrecord
  1

  0
XRECORD
  5
2CC4
102
{ACAD_REACTORS
330
2CC0
102
}
330
2CC0
100
AcDbXrecord
  1
ASAMI.ctb
  0
XRECORD
  5
2CC5
102
{ACAD_REACTORS
330
2CC0
102
}
330
2CC0
100
AcDbXrecord
340
1A
  0
XRECORD
  5
2CC6
102
{ACAD_REACTORS
330
2CC0
102
}
330
2CC0
100
AcDbXrecord
340
19
  0
XRECORD
  5
2CC7
102
{ACAD_REACTORS
330
2CC0
102
}
330
2CC0
100
AcDbXrecord
340
E
  0
XRECORD
  5
2CC8
102
{ACAD_REACTORS
330
2CC0
102
}
330
2CC0
100
AcDbXrecord
 90
    10781
  0
XRECORD
  5
2CC9
102
{ACAD_REACTORS
330
2CC0
102
}
330
2CC0
100
AcDbXrecord
 90
        4
  0
XRECORD
  5
2CCA
102
{ACAD_REACTORS
330
2CC0
102
}
330
2CC0
100
AcDbXrecord
 90
        0
  0
XRECORD
  5
2CCB
102
{ACAD_REACTORS
330
2CC0
102
}
330
2CC0
100
AcDbXrecord
  1
{AFB28963-8C59-40AE-9337-C84526B81ACE}
  0
XRECORD
  5
2CCC
102
{ACAD_REACTORS
330
2CC0
102
}
330
2CC0
100
AcDbXrecord
  1
{41DBE9EC-64CE-4293-A3B7-469DCA353C06}
  0
XRECORD
  5
2CCD
102
{ACAD_REACTORS
330
2CC0
102
}
330
2CC0
100
AcDbXrecord
 40
0.0
  0
XRECORD
  5
2CCE
102
{ACAD_REACTORS
330
2CC0
102
}
330
2CC0
100
AcDbXrecord
1000
DSTYLE
1002
{
1070
    79
 70
     2
1070
   341
340
59
1070
   342
340
59
1070
   371
 70
    -1
1070
   372
 70
    -1
1002
}
  0
XRECORD
  5
2CCF
102
{ACAD_REACTORS
330
2CC0
102
}
330
2CC0
100
AcDbXrecord
340
0
  0
XRECORD
  5
2CD0
102
{ACAD_REACTORS
330
2CC0
102
}
330
2CC0
100
AcDbXrecord
 70
     0
  0
XRECORD
  5
2CD1
102
{ACAD_REACTORS
330
2CC0
102
}
330
2CC0
100
AcDbXrecord
340
0
  0
XRECORD
  5
2CD2
102
{ACAD_REACTORS
330
2CC0
102
}
330
2CC0
100
AcDbXrecord
 10
0.0
 20
0.0
 30
0.0
  0
XRECORD
  5
2CD3
102
{ACAD_REACTORS
330
2CC0
102
}
330
2CC0
100
AcDbXrecord
 10
0.0
 20
0.0
 30
0.0
  0
XRECORD
  5
2CD4
102
{ACAD_REACTORS
330
2CC0
102
}
330
2CC0
100
AcDbXrecord
 10
0.0
 20
0.0
 30
0.0
  0
XRECORD
  5
2CD5
102
{ACAD_REACTORS
330
2CC0
102
}
330
2CC0
100
AcDbXrecord
 10
0.0
 20
0.0
 30
0.0
  0
XRECORD
  5
2CD6
102
{ACAD_REACTORS
330
2CC0
102
}
330
2CC0
100
AcDbXrecord
 10
0.0
 20
0.0
 30
0.0
  0
XRECORD
  5
2CD7
102
{ACAD_REACTORS
330
2CC0
102
}
330
2CC0
100
AcDbXrecord
 10
0.0
 20
0.0
 30
0.0
  0
XRECORD
  5
2CD8
102
{ACAD_REACTORS
330
2CC0
102
}
330
2CC0
100
AcDbXrecord
340
0
  0
XRECORD
  5
2CD9
102
{ACAD_REACTORS
330
2CC0
102
}
330
2CC0
100
AcDbXrecord
 70
     0
  0
XRECORD
  5
2CDA
102
{ACAD_REACTORS
330
2CC0
102
}
330
2CC0
100
AcDbXrecord
340
0
  0
XRECORD
  5
2CDB
102
{ACAD_REACTORS
330
2CC0
102
}
330
2CC0
100
AcDbXrecord
 10
0.0
 20
0.0
 30
0.0
  0
XRECORD
  5
2CDC
102
{ACAD_REACTORS
330
2CC0
102
}
330
2CC0
100
AcDbXrecord
 10
0.0
 20
0.0
 30
0.0
  0
XRECORD
  5
2CDD
102
{ACAD_REACTORS
330
2CC0
102
}
330
2CC0
100
AcDbXrecord
 10
0.0
 20
0.0
 30
0.0
  0
XRECORD
  5
2CDE
102
{ACAD_REACTORS
330
2CC0
102
}
330
2CC0
100
AcDbXrecord
 10
0.0
 20
0.0
 30
0.0
  0
XRECORD
  5
2CDF
102
{ACAD_REACTORS
330
2CC0
102
}
330
2CC0
100
AcDbXrecord
 10
0.0
 20
0.0
 30
0.0
  0
XRECORD
  5
2CE0
102
{ACAD_REACTORS
330
2CC0
102
}
330
2CC0
100
AcDbXrecord
 10
0.0
 20
0.0
 30
0.0
  0
LAYER_INDEX
  5
2CB7
102
{ACAD_REACTORS
330
2CB6
102
}
330
2CB6
100
AcDbIndex
 40
2453151.570228032
100
AcDbLayerIndex
  8
0
360
2CB8
 90
        0
  8
AM_0
360
2CB9
 90
       46
  8
AM_7
360
2CBA
 90
        1
  8
AM_11
360
2CBB
 90
       17
  8
AM_5
360
2CBC
 90
        5
  8
Defpoints
360
2CBD
 90
        0
  8
AM_6
360
2CBE
 90
        1
  0
XRECORD
  5
2D
102
{ACAD_REACTORS
330
2C
102
}
330
2C
100
AcDbXrecord
  1
VERSION
140
15.0
  1
PRODUCT
  2
AutoCAD Mechanical 2000
  0
IDBUFFER
  5
2CB8
330
0
100
AcDbIdBuffer
  0
IDBUFFER
  5
2CB9
330
0
100
AcDbIdBuffer
330
2B83
330
2B9A
330
2B9B
330
2C19
330
2C1A
330
2C1C
330
2C1D
330
2C1E
330
2C1F
330
2C20
330
2C21
330
2C22
330
2C23
330
2C24
330
2C25
330
2C29
330
2C2A
330
2C2B
330
2C2C
330
2C2D
330
2C2E
330
2C2F
330
2C30
330
2C31
330
2C32
330
2C33
330
2C34
330
2C35
330
2C36
330
2C37
330
C1D
330
C20
330
C30
330
1CA9
330
1E12
330
1E16
330
1E22
330
1E25
330
1E26
330
220F
330
24F9
330
24FC
330
2541
330
2542
330
2A76
330
2A77
  0
IDBUFFER
  5
2CBA
330
0
100
AcDbIdBuffer
330
C9F
  0
IDBUFFER
  5
2CBB
330
0
100
AcDbIdBuffer
330
2C28
330
1BE8
330
1BE9
330
1F66
330
1F67
330
222E
330
222F
330
2230
330
2231
330
2232
330
2233
330
2234
330
24F5
330
24F6
330
2C1B
330
2C26
330
2C27
  0
IDBUFFER
  5
2CBC
330
0
100
AcDbIdBuffer
330
CC6
330
DF5
330
228A
330
26BF
330
294C
  0
IDBUFFER
  5
2CBD
330
0
100
AcDbIdBuffer
  0
IDBUFFER
  5
2CBE
330
0
100
AcDbIdBuffer
330
19BD
  0
ENDSEC
  0
EOF
