  0
SECTION
  2
HEADER
  9
$ACADVER
  1
AC1014
  9
$ACADMAINTVER
 70
     9
  9
$DWGCODEPAGE
  3
ANSI_932
  9
$INSBASE
 10
0.0
 20
0.0
 30
0.0
  9
$EXTMIN
 10
-131.6500034038123
 20
-27.2500277042839
 30
-0.00000001
  9
$EXTMAX
 10
13.85004729783946
 20
13.48463355370871
 30
0.00000001
  9
$LIMMIN
 10
-135.7759350683174
 20
-45.122688468523
  9
$LIMMAX
 10
23.3747022447477
 20
29.51806847929566
  9
$ORTHOMODE
 70
     0
  9
$REGENMODE
 70
     1
  9
$FILLMODE
 70
     1
  9
$QTEXTMODE
 70
     0
  9
$MIRRTEXT
 70
     0
  9
$DRAGMODE
 70
     2
  9
$LTSCALE
 40
1.0
  9
$OSMODE
 70
    55
  9
$ATTMODE
 70
     1
  9
$TEXTSIZE
 40
2.5
  9
$TRACEWID
 40
1.0
  9
$TEXTSTYLE
  7
STANDARD
  9
$CLAYER
  8
AM_0
  9
$CELTYPE
  6
BYLAYER
  9
$CECOLOR
 62
   256
  9
$CELTSCALE
 40
1.0
  9
$DELOBJ
 70
     1
  9
$DISPSILH
 70
     0
  9
$DIMSCALE
 40
0.5
  9
$DIMASZ
 40
2.5
  9
$DIMEXO
 40
1.0
  9
$DIMDLI
 40
12.0
  9
$DIMRND
 40
0.0
  9
$DIMDLE
 40
0.0
  9
$DIMEXE
 40
1.0
  9
$DIMTP
 40
0.1
  9
$DIMTM
 40
0.1
  9
$DIMTXT
 40
3.2
  9
$DIMCEN
 40
0.0
  9
$DIMTSZ
 40
0.0
  9
$DIMTOL
 70
     0
  9
$DIMLIM
 70
     0
  9
$DIMTIH
 70
     0
  9
$DIMTOH
 70
     0
  9
$DIMSE1
 70
     0
  9
$DIMSE2
 70
     0
  9
$DIMTAD
 70
     3
  9
$DIMZIN
 70
     8
  9
$DIMBLK
  1
OPEN30
  9
$DIMASO
 70
     1
  9
$DIMSHO
 70
     1
  9
$DIMPOST
  1

  9
$DIMAPOST
  1
"
  9
$DIMALT
 70
     0
  9
$DIMALTD
 70
     2
  9
$DIMALTF
 40
0.0393701
  9
$DIMLFAC
 40
1.0
  9
$DIMTOFL
 70
     1
  9
$DIMTVP
 40
0.0
  9
$DIMTIX
 70
     0
  9
$DIMSOXD
 70
     0
  9
$DIMSAH
 70
     0
  9
$DIMBLK1
  1

  9
$DIMBLK2
  1

  9
$DIMSTYLE
  2
AM_JIS
  9
$DIMCLRD
 70
   256
  9
$DIMCLRE
 70
   256
  9
$DIMCLRT
 70
     2
  9
$DIMTFAC
 40
0.71
  9
$DIMGAP
 40
1.5
  9
$DIMJUST
 70
     0
  9
$DIMSD1
 70
     0
  9
$DIMSD2
 70
     0
  9
$DIMTOLJ
 70
     0
  9
$DIMTZIN
 70
     0
  9
$DIMALTZ
 70
     0
  9
$DIMALTTZ
 70
     0
  9
$DIMFIT
 70
     3
  9
$DIMUPT
 70
     0
  9
$DIMUNIT
 70
     2
  9
$DIMDEC
 70
     3
  9
$DIMTDEC
 70
     3
  9
$DIMALTU
 70
     2
  9
$DIMALTTD
 70
     2
  9
$DIMTXSTY
  7
ASAMI
  9
$DIMAUNIT
 70
     0
  9
$LUNITS
 70
     2
  9
$LUPREC
 70
     2
  9
$SKETCHINC
 40
1.0
  9
$FILLETRAD
 40
2.5
  9
$AUNITS
 70
     0
  9
$AUPREC
 70
     0
  9
$MENU
  1
.
  9
$ELEVATION
 40
0.0
  9
$PELEVATION
 40
0.0
  9
$THICKNESS
 40
0.0
  9
$LIMCHECK
 70
     0
  9
$BLIPMODE
 70
     0
  9
$CHAMFERA
 40
2.5
  9
$CHAMFERB
 40
2.5
  9
$CHAMFERC
 40
20.0
  9
$CHAMFERD
 40
0.0
  9
$SKPOLY
 70
     0
  9
$TDCREATE
 40
2452800.443498622
  9
$TDUPDATE
 40
2453151.678888506
  9
$TDINDWG
 40
0.0604027315
  9
$TDUSRTIMER
 40
0.0604027315
  9
$USRTIMER
 70
     1
  9
$ANGBASE
 50
0.0
  9
$ANGDIR
 70
     0
  9
$PDMODE
 70
     3
  9
$PDSIZE
 40
0.0
  9
$PLINEWID
 40
0.0
  9
$COORDS
 70
     1
  9
$SPLFRAME
 70
     0
  9
$SPLINETYPE
 70
     6
  9
$SPLINESEGS
 70
     8
  9
$ATTDIA
 70
     1
  9
$ATTREQ
 70
     1
  9
$HANDLING
 70
 12289
  9
$HANDSEED
  5
2705
  9
$SURFTAB1
 70
     6
  9
$SURFTAB2
 70
     6
  9
$SURFTYPE
 70
     6
  9
$SURFU
 70
     6
  9
$SURFV
 70
     6
  9
$UCSNAME
  2

  9
$UCSORG
 10
-0.0000000000001503
 20
-0.0000000000002264
 30
0.0
  9
$UCSXDIR
 10
1.0
 20
0.0000000000000027
 30
0.0
  9
$UCSYDIR
 10
-0.0000000000000027
 20
1.0
 30
0.0
  9
$PUCSNAME
  2

  9
$PUCSORG
 10
0.0
 20
0.0
 30
0.0
  9
$PUCSXDIR
 10
1.0
 20
0.0
 30
0.0
  9
$PUCSYDIR
 10
0.0
 20
1.0
 30
0.0
  9
$USERI1
 70
     0
  9
$USERI2
 70
     0
  9
$USERI3
 70
     0
  9
$USERI4
 70
     0
  9
$USERI5
 70
     0
  9
$USERR1
 40
0.0
  9
$USERR2
 40
0.0
  9
$USERR3
 40
0.0
  9
$USERR4
 40
0.0
  9
$USERR5
 40
0.0
  9
$WORLDVIEW
 70
     1
  9
$SHADEDGE
 70
     3
  9
$SHADEDIF
 70
    70
  9
$TILEMODE
 70
     1
  9
$MAXACTVP
 70
    64
  9
$PINSBASE
 10
0.0
 20
0.0
 30
0.0
  9
$PLIMCHECK
 70
     0
  9
$PEXTMIN
 10
1.000000000000000E+20
 20
1.000000000000000E+20
 30
1.000000000000000E+20
  9
$PEXTMAX
 10
-1.000000000000000E+20
 20
-1.000000000000000E+20
 30
-1.000000000000000E+20
  9
$PLIMMIN
 10
0.0
 20
0.0
  9
$PLIMMAX
 10
841.0
 20
594.0
  9
$UNITMODE
 70
     0
  9
$VISRETAIN
 70
     1
  9
$PLINEGEN
 70
     0
  9
$PSLTSCALE
 70
     0
  9
$TREEDEPTH
 70
  3020
  9
$PICKSTYLE
 70
     0
  9
$CMLSTYLE
  2
STANDARD
  9
$CMLJUST
 70
     0
  9
$CMLSCALE
 40
20.0
  9
$PROXYGRAPHICS
 70
     1
  9
$MEASUREMENT
 70
     1
  0
ENDSEC
  0
SECTION
  2
CLASSES
  0
CLASS
  1
ACDBDICTIONARYWDFLT
  2
AcDbDictionaryWithDefault
  3
AutoCAD 2000
 90
        0
280
     0
281
     0
  0
CLASS
  1
ACDBPLACEHOLDER
  2
AcDbPlaceHolder
  3
AutoCAD 2000
 90
        0
280
     0
281
     0
  0
CLASS
  1
LAYOUT
  2
AcDbLayout
  3
AutoCAD 2000
 90
        0
280
     0
281
     0
  0
CLASS
  1
AMGSETTINGSOBJ
  2
AmgSettingsObj
  3
"AcadM|Product Description: AutoCAD Mechanical 2000|Company: Autodesk"
 90
        0
280
     0
281
     0
  0
CLASS
  1
ACME_DOCUMENT
  2
AcMeDbDoc
  3
AcMeServices
 90
        0
280
     0
281
     0
  0
CLASS
  1
ACMESCOPE
  2
AcMeScope
  3
AcMeServices
 90
        0
280
     0
281
     0
  0
CLASS
  1
ACMECOMMANDHISTORY
  2
AcMeCommandHistory
  3
AcMeServices
 90
        0
280
     0
281
     0
  0
CLASS
  1
DICTIONARYVAR
  2
AcDbDictionaryVar
  3
AutoCAD 2000
 90
        0
280
     0
281
     0
  0
CLASS
  1
ACIMSYSVARMAN
  2
AcImSysVarManager
  3
AcMeServices
 90
        0
280
     0
281
     0
  0
CLASS
  1
ACIMREALSYSVAR
  2
AcImRealSysVar
  3
AcMeServices
 90
        0
280
     0
281
     0
  0
CLASS
  1
ACIMINTSYSVAR
  2
AcImIntSysVar
  3
AcMeServices
 90
        0
280
     0
281
     0
  0
CLASS
  1
ACMEDRAWINGMAN
  2
AcMeDrawingMan
  3
AcMeServices
 90
        0
280
     0
281
     0
  0
CLASS
  1
ACMEVIEW
  2
AcMeView
  3
AcMeServices
 90
        0
280
     0
281
     0
  0
CLASS
  1
ACDBENTITYCACHE
  2
AcMeEntityCache
  3
AcMeServices
 90
        0
280
     0
281
     0
  0
CLASS
  1
GSMANAGER
  2
AcMeGSManager
  3
AcMeServices
 90
        0
280
     0
281
     0
  0
CLASS
  1
AmdtInternalReactor
  2
AmdtInternalReactor
  3
AcMeServices
 90
        0
280
     0
281
     0
  0
CLASS
  1
ACMESTATEMGR
  2
AcMeStateMgr
  3
AcMeServices
 90
        0
280
     0
281
     0
  0
CLASS
  1
ACME_DATABASE
  2
AcMeDbDatabase
  3
AcMeServices
 90
        0
280
     0
281
     0
  0
CLASS
  1
ACRFINSADJUSTERMGR
  2
AcRfInsAdjusterMgr
  3
AcMeServices
 90
        0
280
     0
281
     0
  0
CLASS
  1
ACMDATADICTIONARY
  2
AcmDataDictionary
  3
"AcmSymBB|Product Description: AutoCAD Mechanical 2000|Company: Autodesk"
 90
        0
280
     0
281
     0
  0
CLASS
  1
ACMDATAENTRYBLOCK
  2
AcmDataEntryBlock
  3
"AcmSymBB|Product Description: AutoCAD Mechanical 2000|Company: Autodesk"
 90
        0
280
     0
281
     0
  0
CLASS
  1
AMGOBJPROPCFG
  2
AmgObjPropCfg
  3
"AmgLay|Product Description: AutoCAD Mechanical 2000|Company: Autodesk"
 90
        1
280
     0
281
     0
  0
CLASS
  1
ACAMGFILTERDAT
  2
AcAmgFilterDat
  3
"AcadM|Product Description: AutoCAD Mechanical 2000|Company: Autodesk"
 90
        0
280
     0
281
     0
  0
CLASS
  1
LAYER_INDEX
  2
AcDbLayerIndex
  3
AutoCAD 2000
 90
        0
280
     0
281
     0
  0
CLASS
  1
IDBUFFER
  2
AcDbIdBuffer
  3
AutoCAD 2000
 90
        0
280
     0
281
     0
  0
CLASS
  1
ACIMSTRSYSVAR
  2
AcImStrSysVar
  3
AcMeServices
 90
        0
280
     0
281
     0
  0
CLASS
  1
ACMSTANDARDJIS
  2
AcmStandardJIS
  3
"AcmSymBB|Product Description: AutoCAD Mechanical 2000|Company: Autodesk"
 90
        0
280
     0
281
     0
  0
CLASS
  1
ACMSURFSTANDARDJIS
  2
AcmSurfTextStdJIS
  3
"AcmSymBB|Product Description: AutoCAD Mechanical 2000|Company: Autodesk"
 90
        0
280
     0
281
     0
  0
CLASS
  1
ACMFCFSTANDARDJIS
  2
AcmFCFStdJIS
  3
"AcmSymBB|Product Description: AutoCAD Mechanical 2000|Company: Autodesk"
 90
        0
280
     0
281
     0
  0
CLASS
  1
ACMWELDSTANDARDJIS
  2
AcmWeldingStdJIS
  3
"AcmSymBB|Product Description: AutoCAD Mechanical 2000|Company: Autodesk"
 90
        0
280
     0
281
     0
  0
CLASS
  1
ACMIDSTANDARDJIS
  2
AcmIdStdJIS
  3
"AcmSymBB|Product Description: AutoCAD Mechanical 2000|Company: Autodesk"
 90
        0
280
     0
281
     0
  0
CLASS
  1
ACMDATUMSTANDARDJIS
  2
AcmDatumStdJIS
  3
"AcmSymBB|Product Description: AutoCAD Mechanical 2000|Company: Autodesk"
 90
        0
280
     0
281
     0
  0
CLASS
  1
ACMBOMSTANDARDJIS
  2
AcmBOMStdJIS
  3
"AcmSymBB|Product Description: AutoCAD Mechanical 2000|Company: Autodesk"
 90
        0
280
     0
281
     0
  0
CLASS
  1
ACMSTANDARDANSI
  2
AcmStandardANSI
  3
"AcmSymBB|Product Description: AutoCAD Mechanical 2000|Company: Autodesk"
 90
        0
280
     0
281
     0
  0
CLASS
  1
ACMSURFSTANDARDANSI
  2
AcmSurfTextStdANSI
  3
"AcmSymBB|Product Description: AutoCAD Mechanical 2000|Company: Autodesk"
 90
        0
280
     0
281
     0
  0
CLASS
  1
ACMFCFSTANDARDANSI
  2
AcmFCFStdANSI
  3
"AcmSymBB|Product Description: AutoCAD Mechanical 2000|Company: Autodesk"
 90
        0
280
     0
281
     0
  0
CLASS
  1
ACMWELDSTANDARDANSI
  2
AcmWeldingStdANSI
  3
"AcmSymBB|Product Description: AutoCAD Mechanical 2000|Company: Autodesk"
 90
        0
280
     0
281
     0
  0
CLASS
  1
ACMIDSTANDARDANSI
  2
AcmIdStdANSI
  3
"AcmSymBB|Product Description: AutoCAD Mechanical 2000|Company: Autodesk"
 90
        0
280
     0
281
     0
  0
CLASS
  1
ACMDATUMSTANDARDANSI
  2
AcmDatumStdANSI
  3
"AcmSymBB|Product Description: AutoCAD Mechanical 2000|Company: Autodesk"
 90
        0
280
     0
281
     0
  0
CLASS
  1
ACMBOMSTANDARDANSI
  2
AcmBOMStdANSI
  3
"AcmSymBB|Product Description: AutoCAD Mechanical 2000|Company: Autodesk"
 90
        0
280
     0
281
     0
  0
CLASS
  1
ACMSTANDARDBSI
  2
AcmStandardBSI
  3
"AcmSymBB|Product Description: AutoCAD Mechanical 2000|Company: Autodesk"
 90
        0
280
     0
281
     0
  0
CLASS
  1
ACMSURFSTANDARDBSI
  2
AcmSurfTextStdBSI
  3
"AcmSymBB|Product Description: AutoCAD Mechanical 2000|Company: Autodesk"
 90
        0
280
     0
281
     0
  0
CLASS
  1
ACMFCFSTANDARDBSI
  2
AcmFCFStdBSI
  3
"AcmSymBB|Product Description: AutoCAD Mechanical 2000|Company: Autodesk"
 90
        0
280
     0
281
     0
  0
CLASS
  1
ACMWELDSTANDARDBSI
  2
AcmWeldingStdBSI
  3
"AcmSymBB|Product Description: AutoCAD Mechanical 2000|Company: Autodesk"
 90
        0
280
     0
281
     0
  0
CLASS
  1
ACMIDSTANDARDBSI
  2
AcmIdStdBSI
  3
"AcmSymBB|Product Description: AutoCAD Mechanical 2000|Company: Autodesk"
 90
        0
280
     0
281
     0
  0
CLASS
  1
ACMDATUMSTANDARDBSI
  2
AcmDatumStdBSI
  3
"AcmSymBB|Product Description: AutoCAD Mechanical 2000|Company: Autodesk"
 90
        0
280
     0
281
     0
  0
CLASS
  1
ACMBOMSTANDARDBSI
  2
AcmBOMStdBSI
  3
"AcmSymBB|Product Description: AutoCAD Mechanical 2000|Company: Autodesk"
 90
        0
280
     0
281
     0
  0
CLASS
  1
LONG_TRANSACTION
  2
AcDbLongTransaction
  3
AutoCAD 2000
 90
        0
280
     0
281
     0
  0
CLASS
  1
LWPOLYLINE
  2
AcDbPolyline
  3
AutoCAD 2000
 90
        0
280
     0
281
     1
  0
CLASS
  1
HATCH
  2
AcDbHatch
  3
AutoCAD 2000
 90
        0
280
     0
281
     1
  0
CLASS
  1
XRECORD
  2
AcDbXrecord
  3
AutoCAD 2000
 90
        0
280
     0
281
     0
  0
ENDSEC
  0
SECTION
  2
TABLES
  0
TABLE
  2
VPORT
  5
8
330
0
100
AcDbSymbolTable
 70
     3
  0
VPORT
  5
26DA
330
8
100
AcDbSymbolTableRecord
100
AcDbViewportTableRecord
  2
*ACTIVE
 70
     0
 10
0.0
 20
0.0
 11
1.0
 21
1.0
 12
-56.19990538688518
 22
-6.882625810427796
 13
0.0
 23
0.0
 14
2.5
 24
2.5
 15
10.0
 25
10.0
 16
0.0
 26
0.0
 36
1.0
 17
0.0
 27
0.0
 37
0.0
 40
96.84350600147118
 41
1.56570841889117
 42
50.0
 43
0.0
 44
0.0
 50
0.0
 51
0.0
 71
     0
 72
   100
 73
     1
 74
     1
 75
     0
 76
     0
 77
     0
 78
     0
  0
ENDTAB
  0
TABLE
  2
LTYPE
  5
5
330
0
100
AcDbSymbolTable
 70
    10
  0
LTYPE
  5
14
330
5
100
AcDbSymbolTableRecord
100
AcDbLinetypeTableRecord
  2
BYBLOCK
 70
     0
  3

 72
    65
 73
     0
 40
0.0
  0
LTYPE
  5
15
330
5
100
AcDbSymbolTableRecord
100
AcDbLinetypeTableRecord
  2
BYLAYER
 70
     0
  3

 72
    65
 73
     0
 40
0.0
  0
LTYPE
  5
16
330
5
100
AcDbSymbolTableRecord
100
AcDbLinetypeTableRecord
  2
CONTINUOUS
 70
     0
  3
Solid line
 72
    65
 73
     0
 40
0.0
  0
LTYPE
  5
4B
330
5
100
AcDbSymbolTableRecord
100
AcDbLinetypeTableRecord
  2
AM_ISO02W050
 70
     0
  3
__ __ __ __ __ __ __ __ __ __ __ __ __ __ __
 72
    65
 73
     2
 40
7.5
 49
6.0
 74
     0
 49
-1.5
 74
     0
  0
LTYPE
  5
4C
330
5
100
AcDbSymbolTableRecord
100
AcDbLinetypeTableRecord
  2
AM_ISO08W050
 70
     0
  3
____ . ____ . ____ . ____ . ____ . ____ . ____
 72
    65
 73
     4
 40
18.0
 49
12.0
 74
     0
 49
-1.5
 74
     0
 49
3.0
 74
     0
 49
-1.5
 74
     0
  0
LTYPE
  5
4D
330
5
100
AcDbSymbolTableRecord
100
AcDbLinetypeTableRecord
  2
AM_ISO09W050
 70
     0
  3
_____ . . _____ . . _____ . . ____ .. ____
 72
    65
 73
     6
 40
22.5
 49
12.0
 74
     0
 49
-1.5
 74
     0
 49
3.0
 74
     0
 49
-1.5
 74
     0
 49
3.0
 74
     0
 49
-1.5
 74
     0
  0
LTYPE
  5
4E
330
5
100
AcDbSymbolTableRecord
100
AcDbLinetypeTableRecord
  2
AMCONSTR
 70
     0
  3
_______________________
 72
    65
 73
     2
 40
9999.0
 49
9999.0
 74
     0
 49
0.0
 74
     0
  0
LTYPE
  5
4F
330
5
100
AcDbSymbolTableRecord
100
AcDbLinetypeTableRecord
  2
AM_ISO02W050X2
 70
     0
  3
 _ _ _ _ _ _ _ _ _ _ _ _
 72
    65
 73
     2
 40
3.75
 49
3.0
 74
     0
 49
-0.75
 74
     0
  0
LTYPE
  5
50
330
5
100
AcDbSymbolTableRecord
100
AcDbLinetypeTableRecord
  2
AM_ISO08W050X2
 70
     0
  3
__ . __ . __ . __ . __ . __
 72
    65
 73
     4
 40
9.0
 49
6.0
 74
     0
 49
-0.75
 74
     0
 49
1.5
 74
     0
 49
-0.75
 74
     0
  0
LTYPE
  5
53
330
5
100
AcDbSymbolTableRecord
100
AcDbLinetypeTableRecord
  2
AMZIGZAG
 70
     0
  3
/\/-/\/-/\/-/\/-/\/-/\/
 72
    65
 73
     2
 40
11.00009999999999
 49
0.0001
 74
     4
 75
   135
340
52
 46
0.04
 50
0.0
 44
0.0
 45
0.0
 49
-11.0
 74
     0
  0
LTYPE
  5
166
330
5
100
AcDbSymbolTableRecord
100
AcDbLinetypeTableRecord
  2
ACJISTGL
 70
     0
  3
_ _ _ _ _
 72
    65
 73
     2
 40
3.0
 49
2.0
 74
     0
 49
-1.0
 74
     0
  0
LTYPE
  5
26A
330
5
100
AcDbSymbolTableRecord
100
AcDbLinetypeTableRecord
  2
ACJISTGB
 70
     0
  3
__ . . __ . .
 72
    65
 73
     6
 40
9.0
 49
4.0
 74
     0
 49
-1.0
 74
     0
 49
1.0
 74
     0
 49
-1.0
 74
     0
 49
1.0
 74
     0
 49
-1.0
 74
     0
  0
ENDTAB
  0
TABLE
  2
LAYER
  5
2
330
0
100
AcDbSymbolTable
 70
     7
  0
LAYER
  5
10
330
2
100
AcDbSymbolTableRecord
100
AcDbLayerTableRecord
  2
0
 70
     0
 62
     7
  6
CONTINUOUS
  0
LAYER
  5
3F9
330
2
100
AcDbSymbolTableRecord
100
AcDbLayerTableRecord
  2
AM_0
 70
     0
 62
     7
  6
CONTINUOUS
  0
LAYER
  5
C7C
330
2
100
AcDbSymbolTableRecord
100
AcDbLayerTableRecord
  2
AM_7
 70
     0
 62
     4
  6
AM_ISO08W050
  0
LAYER
  5
C97
330
2
100
AcDbSymbolTableRecord
100
AcDbLayerTableRecord
  2
AM_11
 70
     0
 62
     3
  6
AM_ISO09W050
  0
LAYER
  5
CC5
330
2
100
AcDbSymbolTableRecord
100
AcDbLayerTableRecord
  2
AM_5
 70
     0
 62
     3
  6
CONTINUOUS
  0
LAYER
  5
CC7
330
2
100
AcDbSymbolTableRecord
100
AcDbLayerTableRecord
  2
DEFPOINTS
 70
     0
 62
     7
  6
CONTINUOUS
  0
LAYER
  5
19BC
330
2
100
AcDbSymbolTableRecord
100
AcDbLayerTableRecord
  2
AM_6
 70
     0
 62
     2
  6
CONTINUOUS
  0
ENDTAB
  0
TABLE
  2
STYLE
  5
3
330
0
100
AcDbSymbolTable
 70
     5
  0
STYLE
  5
11
330
3
100
AcDbSymbolTableRecord
100
AcDbTextStyleTableRecord
  2
STANDARD
 70
     0
 40
0.0
 41
1.0
 50
0.0
 71
     0
 42
2.5
  3
simplex.shx
  4
EXTFONT.SHX
  0
STYLE
  5
52
330
3
100
AcDbSymbolTableRecord
100
AcDbTextStyleTableRecord
  2

 70
     1
 40
0.0
 41
1.0
 50
0.0
 71
     0
 42
2.5
  3
ltypeshp.shx
  4

  0
STYLE
  5
6B
330
3
100
AcDbSymbolTableRecord
100
AcDbTextStyleTableRecord
  2
ASAMI
 70
     0
 40
0.0
 41
1.0
 50
0.0
 71
     0
 42
2.5
  3
simplex.shx
  4
EXTFONT.SHX
  0
STYLE
  5
262
330
3
100
AcDbSymbolTableRecord
100
AcDbTextStyleTableRecord
  2
ACJISTS
 70
     0
 40
1.0
 41
1.0
 50
0.0
 71
     0
 42
2.5
  3
simplex.shx
  4
bigfont.shx
  0
STYLE
  5
269
330
3
100
AcDbSymbolTableRecord
100
AcDbTextStyleTableRecord
  2
ACJISGDT
 70
     0
 40
0.0
 41
1.0
 50
0.0
 71
     0
 42
2.5
  3
amgdtans.shx
  4

  0
ENDTAB
  0
TABLE
  2
VIEW
  5
6
330
0
100
AcDbSymbolTable
 70
     0
  0
ENDTAB
  0
TABLE
  2
UCS
  5
7
330
0
100
AcDbSymbolTable
 70
     0
  0
ENDTAB
  0
TABLE
  2
APPID
  5
9
330
0
100
AcDbSymbolTable
 70
    14
  0
APPID
  5
12
330
9
100
AcDbSymbolTableRecord
100
AcDbRegAppTableRecord
  2
ACAD
 70
     0
  0
APPID
  5
30
330
9
100
AcDbSymbolTableRecord
100
AcDbRegAppTableRecord
  2
MCAD_NO_VIS
 70
     0
  0
APPID
  5
31
330
9
100
AcDbSymbolTableRecord
100
AcDbRegAppTableRecord
  2
ACAD_TEMP_GRAPHIC
 70
     0
  0
APPID
  5
2C2
330
9
100
AcDbSymbolTableRecord
100
AcDbRegAppTableRecord
  2
GENIUS_GENDTOL_13
 70
     0
  0
APPID
  5
339
330
9
100
AcDbSymbolTableRecord
100
AcDbRegAppTableRecord
  2
GENIUS_GENODEF_13
 70
     0
  0
APPID
  5
33A
330
9
100
AcDbSymbolTableRecord
100
AcDbRegAppTableRecord
  2
GENIUS_GENOBJ-N-RSBK_13
 70
     0
  0
APPID
  5
33B
330
9
100
AcDbSymbolTableRecord
100
AcDbRegAppTableRecord
  2
GENIUS_GENOBJ-N-LIB_13
 70
     0
  0
APPID
  5
33C
330
9
100
AcDbSymbolTableRecord
100
AcDbRegAppTableRecord
  2
GENIUS_GENSCALE_13
 70
     0
  0
APPID
  5
378
330
9
100
AcDbSymbolTableRecord
100
AcDbRegAppTableRecord
  2
GENIUS_GENDIMSH_14
 70
     0
  0
APPID
  5
C82
330
9
100
AcDbSymbolTableRecord
100
AcDbRegAppTableRecord
  2
GENIUS_GENOBJ-N-CRS_13
 70
     0
  0
APPID
  5
C83
330
9
100
AcDbSymbolTableRecord
100
AcDbRegAppTableRecord
  2
GENIUS_GENOENT_13
 70
     0
  0
APPID
  5
C84
330
9
100
AcDbSymbolTableRecord
100
AcDbRegAppTableRecord
  2
GENIUS_GENOREF_13
 70
     0
  0
APPID
  5
C85
330
9
100
AcDbSymbolTableRecord
100
AcDbRegAppTableRecord
  2
GENIUS_GENOLIS_13
 70
     0
  0
APPID
  5
CA0
330
9
100
AcDbSymbolTableRecord
100
AcDbRegAppTableRecord
  2
GENIUS_GENOBJ-N-CEN_13
 70
     0
  0
ENDTAB
  0
TABLE
  2
DIMSTYLE
  5
A
330
0
100
AcDbSymbolTable
 70
     9
  0
DIMSTYLE
105
58
330
A
100
AcDbSymbolTableRecord
100
AcDbDimStyleTableRecord
  2
AM_JIS
 70
     0
  3

  4
"
  5
OPEN30
  6

  7

 40
0.5
 41
2.5
 42
1.0
 43
12.0
 44
1.0
 45
0.0
 46
0.0
 47
0.1
 48
0.1
140
3.2
141
0.0
142
0.0
143
0.0393701
144
1.0
145
0.0
146
0.71
147
1.5
 71
     0
 72
     0
 73
     0
 74
     0
 75
     0
 76
     0
 77
     3
 78
     8
170
     0
171
     2
172
     1
173
     0
174
     0
175
     0
176
   256
177
   256
178
     2
270
     2
271
     3
272
     3
273
     2
274
     2
340
6B
275
     0
280
     0
281
     0
282
     0
283
     0
284
     0
285
     0
286
     0
287
     3
288
     0
  0
DIMSTYLE
105
5F
330
A
100
AcDbSymbolTableRecord
100
AcDbDimStyleTableRecord
  2
AM_JIS$3
 70
     0
  3

  4
"
  5
OPEN30
  6

  7

 40
0.5
 41
2.5
 42
1.0
 43
10.0
 44
1.0
 45
0.0
 46
0.0
 47
0.1
 48
0.1
140
3.2
141
0.0
142
0.0
143
0.0393701
144
1.0
145
0.0
146
0.71
147
1.5
 71
     0
 72
     0
 73
     0
 74
     1
 75
     0
 76
     0
 77
     3
 78
     8
170
     0
171
     2
172
     0
173
     0
174
     0
175
     0
176
   256
177
   256
178
     2
270
     2
271
     2
272
     3
273
     2
274
     2
340
6B
275
     0
280
     0
281
     0
282
     0
283
     0
284
     0
285
     0
286
     0
287
     0
288
     1
  0
DIMSTYLE
105
60
330
A
100
AcDbSymbolTableRecord
100
AcDbDimStyleTableRecord
  2
AM_JIS$4
 70
     0
  3

  4
"
  5
OPEN30
  6

  7

 40
0.5
 41
2.5
 42
1.0
 43
10.0
 44
1.0
 45
0.0
 46
0.0
 47
0.1
 48
0.1
140
3.2
141
0.0
142
0.0
143
0.0393701
144
1.0
145
0.0
146
0.71
147
1.5
 71
     0
 72
     0
 73
     0
 74
     1
 75
     0
 76
     0
 77
     3
 78
     8
170
     0
171
     2
172
     0
173
     0
174
     0
175
     0
176
   256
177
   256
178
     2
270
     2
271
     2
272
     3
273
     2
274
     2
340
6B
275
     0
280
     0
281
     0
282
     0
283
     0
284
     0
285
     0
286
     0
287
     0
288
     1
  0
DIMSTYLE
105
61
330
A
100
AcDbSymbolTableRecord
100
AcDbDimStyleTableRecord
  2
AM_JIS$6
 70
     0
  3

  4
"
  5
OPEN30
  6

  7

 40
0.5
 41
2.5
 42
1.0
 43
10.0
 44
1.0
 45
0.0
 46
0.0
 47
0.1
 48
0.1
140
3.2
141
0.0
142
0.0
143
0.0393701
144
1.0
145
0.0
146
0.71
147
1.5
 71
     0
 72
     0
 73
     0
 74
     0
 75
     0
 76
     0
 77
     0
 78
     8
170
     0
171
     2
172
     1
173
     0
174
     0
175
     0
176
   256
177
   256
178
     2
270
     2
271
     2
272
     2
273
     2
274
     2
340
6B
275
     0
280
     0
281
     0
282
     0
283
     0
284
     0
285
     0
286
     0
287
     3
288
     0
  0
DIMSTYLE
105
62
330
A
100
AcDbSymbolTableRecord
100
AcDbDimStyleTableRecord
  2
AM_JIS$7
 70
     0
  3

  4
"
  5
OPEN30
  6

  7

 40
0.5
 41
2.5
 42
1.0
 43
10.0
 44
1.0
 45
0.0
 46
0.0
 47
0.1
 48
0.1
140
3.2
141
0.0
142
0.0
143
0.0393701
144
1.0
145
0.0
146
0.71
147
1.5
 71
     0
 72
     0
 73
     0
 74
     0
 75
     0
 76
     0
 77
     3
 78
     8
170
     0
171
     2
172
     1
173
     0
174
     0
175
     0
176
   256
177
   256
178
     2
270
     2
271
     2
272
     3
273
     2
274
     2
340
6B
275
     0
280
     0
281
     0
282
     0
283
     0
284
     0
285
     0
286
     0
287
     3
288
     0
  0
DIMSTYLE
105
63
330
A
100
AcDbSymbolTableRecord
100
AcDbDimStyleTableRecord
  2
AM_JIS$SF
 70
     0
  3

  4
"
  5
OPEN30
  6

  7

 40
0.5
 41
2.5
 42
1.0
 43
10.0
 44
1.0
 45
0.0
 46
0.0
 47
0.1
 48
0.1
140
3.2
141
0.0
142
0.0
143
0.0393701
144
1.0
145
0.0
146
0.71
147
1.5
 71
     0
 72
     0
 73
     0
 74
     0
 75
     1
 76
     1
 77
     3
 78
     8
170
     0
171
     2
172
     1
173
     0
174
     0
175
     0
176
   256
177
   256
178
     2
270
     2
271
     2
272
     2
273
     2
274
     2
340
6B
275
     0
280
     0
281
     0
282
     0
283
     0
284
     0
285
     0
286
     0
287
     3
288
     0
  0
DIMSTYLE
105
68
330
A
100
AcDbSymbolTableRecord
100
AcDbDimStyleTableRecord
  2
AM_JIS$SH
 70
     0
  3

  4
"
  5

  6
GENAXEH
  7
OPEN30
 40
0.5
 41
2.5
 42
1.0
 43
10.0
 44
1.0
 45
0.0
 46
0.0
 47
0.1
 48
0.1
140
3.2
141
0.0
142
0.0
143
0.0393701
144
2.0
145
0.0
146
0.71
147
1.5
 71
     0
 72
     0
 73
     0
 74
     0
 75
     1
 76
     1
 77
     3
 78
     8
170
     0
171
     2
172
     1
173
     1
174
     0
175
     0
176
   256
177
   256
178
     2
270
     2
271
     2
272
     2
273
     2
274
     2
340
6B
275
     0
280
     0
281
     0
282
     0
283
     0
284
     0
285
     0
286
     0
287
     3
288
     0
  0
DIMSTYLE
105
B34
102
{ACAD_REACTORS
330
22C8
102
}
330
A
100
AcDbSymbolTableRecord
100
AcDbDimStyleTableRecord
  2
AM_JIS$2
 70
     0
  3

  4
"
  5
OPEN30
  6

  7

 40
0.5
 41
2.5
 42
1.0
 43
12.0
 44
1.0
 45
0.0
 46
0.0
 47
0.1
 48
0.1
140
3.2
141
0.0
142
0.0
143
0.0393701
144
1.0
145
0.0
146
0.71
147
1.5
 71
     0
 72
     0
 73
     0
 74
     0
 75
     0
 76
     0
 77
     3
 78
     8
170
     0
171
     2
172
     1
173
     0
174
     0
175
     0
176
   256
177
   256
178
     2
270
     2
271
     3
272
     3
273
     2
274
     2
340
6B
275
     0
280
     0
281
     0
282
     0
283
     0
284
     0
285
     0
286
     0
287
     3
288
     0
  0
DIMSTYLE
105
BA5
102
{ACAD_REACTORS
330
CC6
330
DF5
330
20B5
330
2641
102
}
330
A
100
AcDbSymbolTableRecord
100
AcDbDimStyleTableRecord
  2
AM_JIS$0
 70
     0
  3

  4
"
  5
OPEN30
  6

  7

 40
0.5
 41
2.5
 42
0.0
 43
10.0
 44
1.0
 45
0.0
 46
0.0
 47
0.1
 48
0.1000000001
140
3.799999999999999
141
0.0
142
0.0
143
0.0393701
144
1.0
145
0.0
146
0.71
147
1.5
 71
     0
 72
     0
 73
     0
 74
     0
 75
     0
 76
     0
 77
     3
 78
     1
170
     0
171
     2
172
     1
173
     0
174
     0
175
     0
176
     3
177
     3
178
     2
270
     2
271
     2
272
     2
273
     2
274
     2
340
11
275
     1
280
     0
281
     0
282
     0
283
     0
284
     8
285
     0
286
     0
287
     0
288
     0
  0
ENDTAB
  0
TABLE
  2
BLOCK_RECORD
  5
1
330
0
100
AcDbSymbolTable
 70
    10
  0
BLOCK_RECORD
  5
1F
102
{ACAD_XDICTIONARY
360
74
102
}
330
1
100
AcDbSymbolTableRecord
100
AcDbBlockTableRecord
  2
*MODEL_SPACE
  0
BLOCK_RECORD
  5
101
102
{ACAD_XDICTIONARY
360
2703
102
}
330
1
100
AcDbSymbolTableRecord
100
AcDbBlockTableRecord
  2
*PAPER_SPACE
  0
BLOCK_RECORD
  5
59
330
1
100
AcDbSymbolTableRecord
100
AcDbBlockTableRecord
  2
_OPEN30
  0
BLOCK_RECORD
  5
64
330
1
100
AcDbSymbolTableRecord
100
AcDbBlockTableRecord
  2
GENAXEH
  0
BLOCK_RECORD
  5
CC8
330
1
100
AcDbSymbolTableRecord
100
AcDbBlockTableRecord
  2
*D5
  0
BLOCK_RECORD
  5
DF6
330
1
100
AcDbSymbolTableRecord
100
AcDbBlockTableRecord
  2
*D6
  0
BLOCK_RECORD
  5
20B6
330
1
100
AcDbSymbolTableRecord
100
AcDbBlockTableRecord
  2
*D7
  0
BLOCK_RECORD
  5
22C9
330
1
100
AcDbSymbolTableRecord
100
AcDbBlockTableRecord
  2
*D8
  0
BLOCK_RECORD
  5
2642
330
1
100
AcDbSymbolTableRecord
100
AcDbBlockTableRecord
  2
*D9
  0
ENDTAB
  0
ENDSEC
  0
SECTION
  2
BLOCKS
  0
BLOCK
  5
20
330
1F
100
AcDbEntity
  8
0
100
AcDbBlockBegin
  2
*MODEL_SPACE
 70
     0
 10
0.0
 20
0.0
 30
0.0
  3
*MODEL_SPACE
  1

  0
ENDBLK
  5
21
330
1F
100
AcDbEntity
  8
0
100
AcDbBlockEnd
  0
BLOCK
  5
103
330
101
100
AcDbEntity
 67
     1
  8
0
100
AcDbBlockBegin
  2
*PAPER_SPACE
 70
     0
 10
0.0
 20
0.0
 30
0.0
  3
*PAPER_SPACE
  1

  0
ENDBLK
  5
104
330
101
100
AcDbEntity
 67
     1
  8
0
100
AcDbBlockEnd
  0
BLOCK
  5
5D
330
59
100
AcDbEntity
  8
0
100
AcDbBlockBegin
  2
_OPEN30
 70
     0
 10
0.0
 20
0.0
 30
0.0
  3
_OPEN30
  1

  0
LINE
  5
5A
330
59
100
AcDbEntity
  8
0
 62
     0
100
AcDbLine
 10
-1.0
 20
0.26794919
 30
0.0
 11
0.0
 21
0.0
 31
0.0
  0
LINE
  5
5B
330
59
100
AcDbEntity
  8
0
 62
     0
100
AcDbLine
 10
0.0
 20
0.0
 30
0.0
 11
-1.0
 21
-0.26794919
 31
0.0
  0
LINE
  5
5C
330
59
100
AcDbEntity
  8
0
 62
     0
100
AcDbLine
 10
0.0
 20
0.0
 30
0.0
 11
-1.0
 21
0.0
 31
0.0
  0
ENDBLK
  5
5E
330
59
100
AcDbEntity
  8
0
100
AcDbBlockEnd
  0
BLOCK
  5
66
330
64
100
AcDbEntity
  8
0
100
AcDbBlockBegin
  2
GENAXEH
 70
     0
 10
0.0
 20
0.0
 30
0.0
  3
GENAXEH
  1

  0
LINE
  5
65
330
64
100
AcDbEntity
  8
0
100
AcDbLine
 10
-1.0
 20
0.0
 30
0.0
 11
1.0
 21
0.0
 31
0.0
  0
ENDBLK
  5
67
330
64
100
AcDbEntity
  8
0
100
AcDbBlockEnd
  0
BLOCK
  5
CD2
330
CC8
100
AcDbEntity
  8
0
100
AcDbBlockBegin
  2
*D5
 70
     1
 10
0.0
 20
0.0
 30
0.0
  3
*D5
  1

  0
LINE
  5
268F
330
CC8
100
AcDbEntity
  8
AM_5
 62
     3
100
AcDbLine
 10
-119.9999999999999
 20
-3.764324189635425
 30
0.0
 11
-119.9999999999999
 21
-16.50002770428387
 31
0.0
  0
LINE
  5
2690
330
CC8
100
AcDbEntity
  8
AM_5
 62
     3
100
AcDbLine
 10
-2.000000000000104
 20
-3.999999807742003
 30
0.0
 11
-2.000000000000105
 21
-16.50002770428387
 31
0.0
  0
LINE
  5
2691
330
CC8
100
AcDbEntity
  8
AM_5
 62
     3
100
AcDbLine
 10
-118.7499999999999
 20
-16.00002770428387
 30
0.0
 11
-3.250000000000105
 21
-16.00002770428387
 31
0.0
  0
INSERT
  5
2692
330
CC8
100
AcDbEntity
  8
AM_5
 62
     3
100
AcDbBlockReference
  2
_OPEN30
 10
-119.9999999999999
 20
-16.00002770428387
 30
0.0
 41
1.25
 42
1.25
 43
1.25
 50
180.0
  0
INSERT
  5
2693
330
CC8
100
AcDbEntity
  8
AM_5
 62
     3
100
AcDbBlockReference
  2
_OPEN30
 10
-2.000000000000105
 20
-16.00002770428387
 30
0.0
 41
1.25
 42
1.25
 43
1.25
  0
MTEXT
  5
2694
330
CC8
100
AcDbEntity
  8
AM_5
 62
     2
100
AcDbMText
 10
-61.00000000000004
 20
-14.30002770428387
 30
0.0
 40
1.9
 41
0.0
 71
     5
 72
     1
  1
118
1001
ACAD
1000
MTEXTBEGIN
1070
    73
1070
     1
1070
    44
1040
1.0
1070
    74
1070
     0
1000
MTEXTEND
  0
POINT
  5
2695
330
CC8
100
AcDbEntity
  8
DEFPOINTS
 62
     0
100
AcDbPoint
 10
-119.9999999999999
 20
-3.764324189635425
 30
0.0
  0
POINT
  5
2696
330
CC8
100
AcDbEntity
  8
DEFPOINTS
 62
     0
100
AcDbPoint
 10
-2.000000000000104
 20
-3.999999807742003
 30
0.0
  0
POINT
  5
2697
330
CC8
100
AcDbEntity
  8
DEFPOINTS
 62
     0
100
AcDbPoint
 10
-2.000000000000105
 20
-16.00002770428387
 30
0.0
  0
ENDBLK
  5
CD3
330
CC8
100
AcDbEntity
  8
0
100
AcDbBlockEnd
  0
BLOCK
  5
E00
330
DF6
100
AcDbEntity
  8
0
100
AcDbBlockBegin
  2
*D6
 70
     1
 10
0.0
 20
0.0
 30
0.0
  3
*D6
  1

  0
LINE
  5
2686
330
DF6
100
AcDbEntity
  8
AM_5
 62
     3
100
AcDbLine
 10
-66.00000000000007
 20
-2.707290649414128
 30
0.0
 11
-66.00000000000007
 21
-11.50002770428379
 31
0.0
  0
LINE
  5
2687
330
DF6
100
AcDbEntity
  8
AM_5
 62
     3
100
AcDbLine
 10
-2.000000000000104
 20
-3.999999807742003
 30
0.0
 11
-2.000000000000104
 21
-11.50002770428379
 31
0.0
  0
LINE
  5
2688
330
DF6
100
AcDbEntity
  8
AM_5
 62
     3
100
AcDbLine
 10
-64.75000000000007
 20
-11.00002770428379
 30
0.0
 11
-3.250000000000104
 21
-11.00002770428379
 31
0.0
  0
INSERT
  5
2689
330
DF6
100
AcDbEntity
  8
AM_5
 62
     3
100
AcDbBlockReference
  2
_OPEN30
 10
-66.00000000000007
 20
-11.00002770428379
 30
0.0
 41
1.25
 42
1.25
 43
1.25
 50
180.0
  0
INSERT
  5
268A
330
DF6
100
AcDbEntity
  8
AM_5
 62
     3
100
AcDbBlockReference
  2
_OPEN30
 10
-2.000000000000104
 20
-11.00002770428379
 30
0.0
 41
1.25
 42
1.25
 43
1.25
  0
MTEXT
  5
268B
330
DF6
100
AcDbEntity
  8
AM_5
 62
     2
100
AcDbMText
 10
-34.00000000000008
 20
-9.300027704283797
 30
0.0
 40
1.9
 41
0.0
 71
     5
 72
     1
  1
64
1001
ACAD
1000
MTEXTBEGIN
1070
    73
1070
     1
1070
    44
1040
1.0
1070
    74
1070
     0
1000
MTEXTEND
  0
POINT
  5
268C
330
DF6
100
AcDbEntity
  8
DEFPOINTS
 62
     0
100
AcDbPoint
 10
-66.00000000000007
 20
-2.707290649414128
 30
0.0
  0
POINT
  5
268D
330
DF6
100
AcDbEntity
  8
DEFPOINTS
 62
     0
100
AcDbPoint
 10
-2.000000000000104
 20
-3.999999807742003
 30
0.0
  0
POINT
  5
268E
330
DF6
100
AcDbEntity
  8
DEFPOINTS
 62
     0
100
AcDbPoint
 10
-2.000000000000104
 20
-11.00002770428379
 30
0.0
  0
ENDBLK
  5
E01
330
DF6
100
AcDbEntity
  8
0
100
AcDbBlockEnd
  0
BLOCK
  5
20C0
330
20B6
100
AcDbEntity
  8
0
100
AcDbBlockBegin
  2
*D7
 70
     1
 10
0.0
 20
0.0
 30
0.0
  3
*D7
  1

  0
LINE
  5
2407
330
20B6
100
AcDbEntity
  8
AM_5
 62
     3
100
AcDbLine
 10
-119.7643025716199
 20
-4.000016531758475
 30
0.0
 11
-129.5000034038123
 21
-4.000016531758503
 31
0.0
  0
LINE
  5
2408
330
20B6
100
AcDbEntity
  8
AM_5
 62
     3
100
AcDbLine
 10
-119.7642618815133
 20
4.000030584232177
 30
0.0
 11
-129.5000034038123
 21
4.00003058423215
 31
0.0
  0
LINE
  5
2409
330
20B6
100
AcDbEntity
  8
AM_5
 62
     3
100
AcDbLine
 10
-129.0000034038123
 20
-2.750016531758502
 30
0.0
 11
-129.0000034038123
 21
2.750030584232151
 31
0.0
  0
INSERT
  5
240A
330
20B6
100
AcDbEntity
  8
AM_5
 62
     3
100
AcDbBlockReference
  2
_OPEN30
 10
-129.0000034038123
 20
-4.000016531758501
 30
0.0
 41
1.25
 42
1.25
 43
1.25
 50
270.0000000000001
  0
INSERT
  5
240B
330
20B6
100
AcDbEntity
  8
AM_5
 62
     3
100
AcDbBlockReference
  2
_OPEN30
 10
-129.0000034038123
 20
4.000030584232152
 30
0.0
 41
1.25
 42
1.25
 43
1.25
 50
90.00000000000015
  0
MTEXT
  5
240C
330
20B6
100
AcDbEntity
  8
AM_5
 62
     2
100
AcDbMText
 10
-130.7000034038123
 20
0.000008528607709
 30
0.0
 40
1.9
 41
0.0
 71
     5
 72
     1
  1
%%c8
 11
-0.0000000000000028
 21
1.0
 31
0.0
1001
ACAD
1000
MTEXTBEGIN
1070
    73
1070
     1
1070
    44
1040
1.0
1070
    74
1070
     0
1000
MTEXTEND
  0
POINT
  5
240D
330
20B6
100
AcDbEntity
  8
DEFPOINTS
 62
     0
100
AcDbPoint
 10
-119.7643025716199
 20
-4.000016531758103
 30
0.0
  0
POINT
  5
240E
330
20B6
100
AcDbEntity
  8
DEFPOINTS
 62
     0
100
AcDbPoint
 10
-119.7642618815133
 20
4.00003058423255
 30
0.0
  0
POINT
  5
240F
330
20B6
100
AcDbEntity
  8
DEFPOINTS
 62
     0
100
AcDbPoint
 10
-129.0000034038123
 20
4.000030584232552
 30
0.0
  0
ENDBLK
  5
20C1
330
20B6
100
AcDbEntity
  8
0
100
AcDbBlockEnd
  0
BLOCK
  5
22D9
330
22C9
100
AcDbEntity
  8
0
100
AcDbBlockBegin
  2
*D8
 70
     1
 10
0.0
 20
0.0
 30
0.0
  3
*D8
  1

  0
LINE
  5
2410
330
22C9
100
AcDbEntity
  8
AM_5
100
AcDbLine
 10
0.1710100716627514
 20
-0.4698463103929799
 30
0.0
 11
4.908005233536933
 21
-13.48463355370865
 31
0.0
  0
LINE
  5
2411
330
22C9
100
AcDbEntity
  8
AM_5
100
AcDbLine
 10
0.1710100716627411
 20
0.4698463103929371
 30
0.0
 11
4.908005233536637
 21
13.48463355370871
 31
0.0
  0
ARC
  5
2412
330
22C9
100
AcDbEntity
  8
AM_5
100
AcDbCircle
 10
-0.0000000000000764
 20
-0.0000000000000233
 30
0.0
 40
13.85004729783952
100
AcDbArc
 50
295.1728382275628
 51
64.8271617724384
  0
INSERT
  5
2413
330
22C9
100
AcDbEntity
  8
AM_5
100
AcDbBlockReference
  2
_OPEN30
 10
4.736995161874104
 20
-13.01478724331569
 30
0.0
 41
1.25
 42
1.25
 43
1.25
 50
202.586419113781
  0
INSERT
  5
2414
330
22C9
100
AcDbEntity
  8
AM_5
100
AcDbBlockReference
  2
_OPEN30
 10
4.73699516187382
 20
13.01478724331575
 30
0.0
 41
1.25
 42
1.25
 43
1.25
 50
157.4135808862202
  0
MTEXT
  5
2415
330
22C9
100
AcDbEntity
  8
AM_5
 62
     2
100
AcDbMText
 10
12.30004729783944
 20
0.00000000000012
 30
0.0
 40
1.6
 41
0.0
 71
     5
 72
     1
  1
140°
  7
ASAMI
 11
-0.0000000000000028
 21
1.0
 31
0.0
1001
ACAD
1000
MTEXTBEGIN
1070
    73
1070
     1
1070
    44
1040
1.0
1070
    74
1070
     0
1000
MTEXTEND
  0
POINT
  5
2416
330
22C9
100
AcDbEntity
  8
DEFPOINTS
 62
     0
100
AcDbPoint
 10
12.71733650992978
 20
-5.485723493359559
 30
0.0
  0
POINT
  5
2417
330
22C9
100
AcDbEntity
  8
DEFPOINTS
 62
     0
100
AcDbPoint
 10
-0.0000000000000764
 20
-0.0000000000000233
 30
0.0
  0
POINT
  5
2418
330
22C9
100
AcDbEntity
  8
DEFPOINTS
 62
     0
100
AcDbPoint
 10
-0.380792364125555
 20
1.046218421935527
 30
0.0
  0
POINT
  5
2419
330
22C9
100
AcDbEntity
  8
DEFPOINTS
 62
     0
100
AcDbPoint
 10
-0.0000000000000764
 20
-0.0000000000000233
 30
0.0
  0
POINT
  5
241A
330
22C9
100
AcDbEntity
  8
DEFPOINTS
 62
     0
100
AcDbPoint
 10
-0.3807923641255373
 20
-1.046218421935577
 30
0.0
  0
ENDBLK
  5
22DA
330
22C9
100
AcDbEntity
  8
0
100
AcDbBlockEnd
  0
BLOCK
  5
264C
330
2642
100
AcDbEntity
  8
0
100
AcDbBlockBegin
  2
*D9
 70
     1
 10
0.0
 20
0.0
 30
0.0
  3
*D9
  1

  0
LINE
  5
2698
330
2642
100
AcDbEntity
  8
AM_5
 62
     3
100
AcDbLine
 10
-2.000000000000056
 20
4.000000192257984
 30
0.0
 11
9.055921084961529
 21
4.000000192258015
 31
0.0
  0
LINE
  5
2699
330
2642
100
AcDbEntity
  8
AM_5
 62
     3
100
AcDbLine
 10
-2.000000000000115
 20
-3.99999980774201
 30
0.0
 11
9.055921084961552
 21
-3.999999807741978
 31
0.0
  0
LINE
  5
269A
330
2642
100
AcDbEntity
  8
AM_5
 62
     3
100
AcDbLine
 10
8.555921084961534
 20
2.750000192258014
 30
0.0
 11
8.555921084961548
 21
-2.749999807741979
 31
0.0
  0
INSERT
  5
269B
330
2642
100
AcDbEntity
  8
AM_5
 62
     3
100
AcDbBlockReference
  2
_OPEN30
 10
8.555921084961529
 20
4.000000192258014
 30
0.0
 41
1.25
 42
1.25
 43
1.25
 50
90.00000000000017
  0
INSERT
  5
269C
330
2642
100
AcDbEntity
  8
AM_5
 62
     3
100
AcDbBlockReference
  2
_OPEN30
 10
8.555921084961552
 20
-3.999999807741979
 30
0.0
 41
1.25
 42
1.25
 43
1.25
 50
270.0000000000001
  0
MTEXT
  5
269D
330
2642
100
AcDbEntity
  8
AM_5
 62
     2
100
AcDbMText
 10
6.855921084961541
 20
0.0000001922580123
 30
0.0
 40
1.9
 41
0.0
 71
     5
 72
     1
  1
%%c8
 11
-0.0000000000000028
 21
1.0
 31
0.0
1001
ACAD
1000
MTEXTBEGIN
1070
    73
1070
     1
1070
    44
1040
1.0
1070
    74
1070
     0
1000
MTEXTEND
  0
POINT
  5
269E
330
2642
100
AcDbEntity
  8
DEFPOINTS
 62
     0
100
AcDbPoint
 10
-2.000000000000043
 20
4.000000192257991
 30
0.0
  0
POINT
  5
269F
330
2642
100
AcDbEntity
  8
DEFPOINTS
 62
     0
100
AcDbPoint
 10
-2.000000000000127
 20
-3.999999807742003
 30
0.0
  0
POINT
  5
26A0
330
2642
100
AcDbEntity
  8
DEFPOINTS
 62
     0
100
AcDbPoint
 10
8.555921084961541
 20
-3.999999807742006
 30
0.0
  0
ENDBLK
  5
264D
330
2642
100
AcDbEntity
  8
0
100
AcDbBlockEnd
  0
ENDSEC
  0
SECTION
  2
ENTITIES
  0
LINE
  5
C25
330
1F
100
AcDbEntity
  8
AM_0
 48
0.5
100
AcDbLine
 10
-63.89778947740224
 20
-3.999999807740733
 30
0.0
 11
-119.7643025716199
 21
-4.000016531758104
 31
0.0
  0
LINE
  5
C2B
330
1F
100
AcDbEntity
  8
AM_0
 48
0.5
100
AcDbLine
 10
-119.9999694824266
 20
3.764280956399901
 30
0.0
 11
-119.7642618815133
 21
3.999983471047904
 31
0.0
  0
LINE
  5
C2E
330
1F
100
AcDbEntity
  8
AM_0
 48
0.5
100
AcDbLine
 10
-119.7643025716199
 20
-4.000026704284108
 30
0.0
 11
-119.7643025716199
 21
4.000026704283903
 31
0.0
  0
LINE
  5
C2F
330
1F
100
AcDbEntity
  8
AM_0
 48
0.5
100
AcDbLine
 10
-119.9999694824266
 20
-3.764303844583436
 30
0.0
 11
-119.7642618815133
 21
-4.0000063592321
 31
0.0
  0
LINE
  5
C30
330
1F
100
AcDbEntity
  8
AM_0
 48
0.5
100
AcDbLine
 10
-119.9999999999999
 20
-3.764324189635425
 30
0.0
 11
-119.9999999999999
 21
3.764324189635238
 31
0.0
  0
LINE
  5
C9F
330
1F
100
AcDbEntity
  8
AM_7
100
AcDbLine
 10
-121.9999999999999
 20
-0.0000000000001033
 30
0.0
 11
1.555920024858041
 21
0.0000000000000013
 31
0.0
1001
GENIUS_GENODEF_13
1002
{
1000
HIER
1070
     0
1002
}
1002
{
1000
MANEDIT
1070
     0
1002
}
1002
{
1000
NOSEL
1070
     0
1002
}
1002
{
1000
BEHIND
1070
     0
1002
}
1002
{
1000
REACTOR
1002
}
1001
GENIUS_GENOBJ-N-CEN_13
1002
{
1000
OWNER
1000
GEN
1002
}
  0
DIMENSION
  5
CC6
330
1F
100
AcDbEntity
  8
AM_5
100
AcDbDimension
  2
*D5
 10
-2.000000000000105
 20
-16.00002770428387
 30
0.0
 11
-61.00000000000004
 21
-14.30002770428387
 31
0.0
 70
    32
  1
<>
  3
AM_JIS$0
100
AcDbAlignedDimension
 13
-119.9999999999999
 23
-3.764324189635425
 33
0.0
 14
-2.000000000000104
 24
-3.999999807742003
 34
0.0
 50
0.0000000000001132
100
AcDbRotatedDimension
1001
GENIUS_GENDTOL_13
1000

1000
h7
1000

1040
0.0
1001
ACAD
1000
DSTYLE
1002
{
1070
   271
1070
     0
1002
}
  0
DIMENSION
  5
DF5
330
1F
100
AcDbEntity
  8
AM_5
100
AcDbDimension
  2
*D6
 10
-2.000000000000104
 20
-11.00002770428379
 30
0.0
 11
-34.00000000000008
 21
-9.300027704283797
 31
0.0
 70
    32
  1
<>
  3
AM_JIS$0
100
AcDbAlignedDimension
 13
-66.00000000000007
 23
-2.707290649414128
 33
0.0
 14
-2.000000000000104
 24
-3.999999807742003
 34
0.0
 50
0.0000000000001527
100
AcDbRotatedDimension
1001
GENIUS_GENDTOL_13
1000

1000
h7
1000

1040
0.0
1001
ACAD
1000
DSTYLE
1002
{
1070
   271
1070
     0
1002
}
  0
ARC
  5
144A
330
1F
100
AcDbEntity
  8
AM_11
 48
0.5
100
AcDbCircle
 10
-65.18578898111993
 20
-17.66785848258815
 30
0.0
 40
19.53452809651666
100
AcDbArc
 50
64.74833051131179
 51
115.2516644797366
  0
ARC
  5
144B
330
1F
100
AcDbEntity
  8
AM_11
 48
0.5
100
AcDbCircle
 10
-65.18578898111989
 20
17.66787048062784
 30
0.0
 40
19.53452809651666
100
AcDbArc
 50
244.7482808787518
 51
295.2516148471758
  0
TEXT
  5
19BD
330
1F
100
AcDbEntity
  8
AM_6
100
AcDbText
 10
-71.93331807454663
 20
-27.2500277042839
 30
0.0
 40
2.5
  1
MDW080LHK
 50
0.0000000000001527
 72
     4
 11
-61.0999847412133
 21
-26.00002770428387
 31
0.0
100
AcDbText
  0
ARC
  5
1BDA
330
1F
100
AcDbEntity
  8
AM_11
 48
0.5
100
AcDbCircle
 10
-81.85241919041603
 20
-17.66785848258821
 30
0.0
 40
19.53452809651666
100
AcDbArc
 50
64.74833051131179
 51
115.2516644797366
  0
ARC
  5
1BDB
330
1F
100
AcDbEntity
  8
AM_11
 48
0.5
100
AcDbCircle
 10
-81.85241919041599
 20
17.66787048062779
 30
0.0
 40
19.53452809651666
100
AcDbArc
 50
244.7482808787518
 51
295.2516148471758
  0
ARC
  5
1BDC
330
1F
100
AcDbEntity
  8
AM_11
 48
0.5
100
AcDbCircle
 10
-98.51904939971227
 20
-17.66785848258821
 30
0.0
 40
19.53452809651666
100
AcDbArc
 50
64.74833051131179
 51
115.2516644797366
  0
ARC
  5
1BDD
330
1F
100
AcDbEntity
  8
AM_11
 48
0.5
100
AcDbCircle
 10
-98.51904939971223
 20
17.66787048062779
 30
0.0
 40
19.53452809651666
100
AcDbArc
 50
244.7482808787518
 51
295.2516148471758
  0
ARC
  5
1BDE
330
1F
100
AcDbEntity
  8
AM_11
 48
0.5
100
AcDbCircle
 10
-115.1856796090082
 20
-17.66785848258832
 30
0.0
 40
19.53452809651666
100
AcDbArc
 50
64.74833051131179
 51
104.2676491948327
  0
ARC
  5
1BDF
330
1F
100
AcDbEntity
  8
AM_11
 48
0.5
100
AcDbCircle
 10
-115.1856796090082
 20
17.66787048062767
 30
0.0
 40
19.53452809651666
100
AcDbArc
 50
255.7323508051672
 51
295.2516148471758
  0
LINE
  5
1CEA
330
1F
100
AcDbEntity
  8
AM_0
100
AcDbLine
 10
-63.4083245637453
 20
4.000030584232741
 30
0.0
 11
-119.7642618815133
 21
4.00003058423255
 31
0.0
  0
DIMENSION
  5
20B5
330
1F
100
AcDbEntity
  8
AM_5
100
AcDbDimension
  2
*D7
 10
-129.0000034038123
 20
4.000030584232552
 30
0.0
 11
-129.0000034038123
 21
0.0000085286080891
 31
0.0
 70
   160
  1
%%c<>
 51
359.9999999999998
  3
AM_JIS$0
100
AcDbAlignedDimension
 13
-119.7643025716199
 23
-4.000016531758103
 33
0.0
 14
-119.7642618815133
 24
4.00003058423255
 34
0.0
 50
270.000017215907
100
AcDbRotatedDimension
1001
ACAD
1000
DSTYLE
1002
{
1070
   271
1070
     0
1002
}
1001
GENIUS_GENDTOL_13
1000

1000
h7
1000

1040
0.0
  0
ELLIPSE
  5
22AD
330
1F
100
AcDbEntity
  8
AM_0
 48
0.5
100
AcDbEllipse
 10
7.092258127871976
 20
-6.605424957021546
 30
0.0
 11
-6.586017801206915
 21
-6.586017801210648
 31
0.0
210
0.0
220
0.0
230
-0.9999999999999996
 40
0.9999999999999978
 41
1.171329590070667
 42
1.424984195904709
  0
ELLIPSE
  5
22AE
330
1F
100
AcDbEntity
  8
AM_0
 48
0.5
100
AcDbEllipse
 10
7.092258127870096
 20
6.605424957023085
 30
0.0
 11
-6.586017801208798
 21
6.586017801208765
 31
0.0
210
0.0
220
0.0
230
1.0
 40
0.9999999999999978
 41
1.171329590070667
 42
1.424984195904709
  0
LINE
  5
22AF
330
1F
100
AcDbEntity
  8
AM_0
 48
0.5
100
AcDbLine
 10
-1.53671370982393
 20
-3.099414977011806
 30
0.0
 11
-2.000000000000104
 21
-3.999999807742003
 31
0.0
  0
LINE
  5
22B1
330
1F
100
AcDbEntity
  8
AM_0
 48
0.5
100
AcDbLine
 10
-1.536713709824816
 20
3.099414977010876
 30
0.0
 11
-2.000000000000056
 21
4.000000192257984
 31
0.0
  0
LINE
  5
22B2
330
1F
100
AcDbEntity
  8
AM_0
100
AcDbLine
 10
-0.0000000000000764
 20
-0.0000000000000233
 30
0.0
 11
-0.3807923641255373
 21
-1.046218421935577
 31
0.0
  0
LINE
  5
22B3
330
1F
100
AcDbEntity
  8
AM_0
100
AcDbLine
 10
-0.380792364125555
 20
1.046218421935527
 30
0.0
 11
-0.0000000000000764
 21
-0.0000000000000233
 31
0.0
  0
DIMENSION
  5
22C8
330
1F
100
AcDbEntity
  8
AM_5
100
AcDbDimension
  2
*D8
 10
-0.3807923641255373
 20
-1.046218421935577
 30
0.0
 11
12.30004729783944
 21
0.0000000000000823
 31
0.0
 70
    34
  1
<>
 51
359.9999999999998
  3
AM_JIS$2
100
AcDb2LineAngularDimension
 13
-0.380792364125555
 23
1.046218421935527
 33
0.0
 14
-0.0000000000000764
 24
-0.0000000000000233
 34
0.0
 15
-0.0000000000000764
 25
-0.0000000000000233
 35
0.0
 16
12.71733650992978
 26
-5.485723493359559
 36
0.0
1001
ACAD
1000
DSTYLE
1002
{
1070
   179
1070
     3
1002
}
1001
GENIUS_GENDTOL_13
1000

1000
h7
1000

1040
0.0
  0
DIMENSION
  5
2641
330
1F
100
AcDbEntity
  8
AM_5
100
AcDbDimension
  2
*D9
 10
8.555921084961541
 20
-3.999999807742006
 30
0.0
 11
6.855921084961541
 21
0.0000001922579923
 31
0.0
 70
    32
  1
%%c<>
 51
359.9999999999998
  3
AM_JIS$0
100
AcDbAlignedDimension
 13
-2.000000000000043
 23
4.000000192257991
 33
0.0
 14
-2.000000000000127
 24
-3.999999807742003
 34
0.0
 50
89.99999999999884
100
AcDbRotatedDimension
1001
GENIUS_GENDTOL_13
1000

1000
h7
1000

1040
0.0
1001
ACAD
1000
DSTYLE
1002
{
1070
   271
1070
     0
1002
}
  0
LINE
  5
264E
330
1F
100
AcDbEntity
  8
AM_0
 48
0.5
100
AcDbLine
 10
-4.358630371098606
 20
4.000000192258042
 30
0.0
 11
-2.000000000000043
 21
4.000000192257991
 31
0.0
  0
LINE
  5
264F
330
1F
100
AcDbEntity
  8
AM_0
 48
0.5
100
AcDbLine
 10
-0.0000000000000293
 20
-0.0000000000000446
 30
0.0
 11
-1.657699844364486
 21
1.514547361258218
 31
0.0
  0
LINE
  5
2650
330
1F
100
AcDbEntity
  8
AM_0
 48
0.5
100
AcDbLine
 10
-4.358630371098773
 20
-3.999999807741954
 30
0.0
 11
-2.000000000000127
 21
-3.999999807742003
 31
0.0
  0
LINE
  5
2651
330
1F
100
AcDbEntity
  8
AM_0
 48
0.5
100
AcDbLine
 10
-31.30729980469194
 20
4.000000192258632
 30
0.0
 11
-17.05791015625459
 21
4.00000019225832
 31
0.0
  0
LINE
  5
2652
330
1F
100
AcDbEntity
  8
AM_0
 48
0.5
100
AcDbLine
 10
-28.35829366141244
 20
-3.999999807741511
 30
0.0
 11
-17.05791015625476
 21
-3.999999807741676
 31
0.0
  0
LINE
  5
2653
330
1F
100
AcDbEntity
  8
AM_0
100
AcDbLine
 10
-55.3070556640673
 20
4.000000192259076
 30
0.0
 11
-39.41148235521682
 21
4.00056846485128
 31
0.0
  0
LINE
  5
2654
330
1F
100
AcDbEntity
  8
AM_0
 48
0.5
100
AcDbLine
 10
-55.30706075035409
 20
-3.999999807740868
 30
0.0
 11
-41.0575715755468
 21
-3.999999807741149
 31
0.0
  0
LINE
  5
2655
330
1F
100
AcDbEntity
  8
AM_11
 48
0.5
100
AcDbLine
 10
-41.05757344656679
 20
-3.999999807741233
 30
0.0
 11
-28.35829366141245
 21
-4.000568080333972
 31
0.0
  0
LINE
  5
2656
330
1F
100
AcDbEntity
  8
AM_11
 48
0.5
100
AcDbLine
 10
-39.41148235521682
 20
4.00056846485128
 30
0.0
 11
-31.30728886687696
 21
4.000000192258632
 31
0.0
  0
LINE
  5
2657
330
1F
100
AcDbEntity
  8
AM_11
 48
0.5
100
AcDbLine
 10
-17.05791015625459
 20
4.00000019225832
 30
0.0
 11
-4.358630371098606
 21
4.000000192258042
 31
0.0
  0
LINE
  5
2658
330
1F
100
AcDbEntity
  8
AM_11
 48
0.5
100
AcDbLine
 10
-17.05791015625476
 20
-3.999999807741676
 30
0.0
 11
-4.358630371098773
 21
-3.999999807741954
 31
0.0
  0
ELLIPSE
  5
2659
330
1F
100
AcDbEntity
  8
AM_0
 48
0.5
100
AcDbEllipse
 10
3.961112257105298
 20
-1.94385250697723
 30
0.0
 11
1.840767904680955
 21
6.139601255022045
 31
0.0
210
0.0
220
0.0
230
1.0
 40
0.9757215924387812
 41
1.860305507245635
 42
2.182631585815374
  0
SPLINE
  5
265A
330
1F
100
AcDbEntity
  8
AM_0
 48
0.5
100
AcDbSpline
210
0.0
220
0.0
230
1.0
 70
     8
 71
     3
 72
    25
 73
    21
 74
     0
 42
0.0000000001
 43
0.0000000001
 40
6.846175049578289
 40
6.846175049578289
 40
6.846175049578289
 40
6.846175049578289
 40
7.604337694224321
 40
8.711974558287883
 40
9.814980593243754
 40
10.91239053451967
 40
12.0033633515982
 40
13.08720139956839
 40
14.16337181880432
 40
15.23152222380919
 40
16.29148850140128
 40
17.34331105512262
 40
18.38723020264746
 40
19.42369128463655
 40
20.45333379090873
 40
21.47697865721768
 40
22.49561244472435
 40
23.5103574802404
 40
24.52244778960836
 40
25.53320666051913
 40
25.53320666051913
 40
25.53320666051913
 40
25.53320666051913
 10
-3.84753173283562
 20
0.7240267022884388
 30
0.0
 10
-3.985259382469867
 20
0.7942595883146372
 30
0.0
 10
-4.324489941283839
 20
0.9663963276183281
 30
0.0
 10
-4.865727541962781
 20
1.236712974581167
 30
0.0
 10
-5.471350962597117
 20
1.531568470074305
 30
0.0
 10
-6.077004840426599
 20
1.817003413603121
 30
0.0
 10
-6.682694379146794
 20
2.091262790616332
 30
0.0
 10
-7.288426327633886
 20
2.352654558378056
 30
0.0
 10
-7.894206287005761
 20
2.599566739966067
 30
0.0
 10
-8.500037061704574
 20
2.830481881307003
 30
0.0
 10
-9.105926114011301
 20
3.043962923730437
 30
0.0
 10
-9.711872623479834
 20
3.238700793463452
 30
0.0
 10
-10.31788094249681
 20
3.413480328237845
 30
0.0
 10
-10.92394893243099
 20
3.567219844763107
 30
0.0
 10
-11.53007422567452
 20
3.698977029798416
 30
0.0
 10
-12.13625344942501
 20
3.807878535607448
 30
0.0
 10
-12.74247717177714
 20
3.893425949112381
 30
0.0
 10
-13.34873871153025
 20
3.954457324190458
 30
0.0
 10
-13.95502822723267
 20
3.992862986898274
 30
0.0
 10
-14.35932086201979
 20
3.997622383100549
 30
0.0
 10
-14.5613341267945
 20
4.000000514885411
 30
0.0
  0
ELLIPSE
  5
265B
330
1F
100
AcDbEntity
  8
AM_0
 48
0.5
100
AcDbEllipse
 10
-6.339513295174564
 20
7.608440757122703
 30
0.0
 11
-5.032735129128475
 21
8.868627970241602
 31
0.0
210
0.0
220
0.0
230
1.0
 40
0.5863109918266473
 41
3.156172241839643
 42
3.440134779779334
  0
ELLIPSE
  5
265C
330
1F
100
AcDbEntity
  8
AM_0
 48
0.5
100
AcDbEllipse
 10
-6.11692859565286
 20
6.713450628817137
 30
0.0
 11
7.146950062500571
 21
8.394246973713562
 31
0.0
210
0.0
220
0.0
230
0.9999999999999998
 40
0.8354343358595405
 41
4.326946977515849
 42
4.386877496713746
  0
ELLIPSE
  5
265D
330
1F
100
AcDbEntity
  8
AM_0
 48
0.5
100
AcDbEllipse
 10
-1.495137494257638
 20
-1.421871921679825
 30
0.0
 11
-0.5081186308734665
 21
0.3517869772028064
 31
0.0
210
0.0
220
0.0
230
0.9999999999999998
 40
0.5232587092931852
 41
4.550365143806308
 42
7.69380548513582
  0
ELLIPSE
  5
265E
330
1F
100
AcDbEntity
  8
AM_0
 48
0.5
100
AcDbEllipse
 10
-1.495137494257638
 20
-1.421871921679825
 30
0.0
 11
-0.0979867906183029
 21
0.6575933097474812
 31
0.0
210
0.0
220
0.0
230
0.9999999999999998
 40
0.4521187512975889
 41
1.826528912199957
 42
4.961870801911933
  0
ELLIPSE
  5
265F
330
1F
100
AcDbEntity
  8
AM_0
 48
0.5
100
AcDbEllipse
 10
3.395878780100896
 20
3.945455897602463
 30
0.0
 11
-0.0000000000001797
 21
8.674494913451393
 31
0.0
210
0.0
220
0.0
230
1.0
 40
0.8993333333333289
 41
1.95125765600031
 42
2.322034022628296
  0
SPLINE
  5
2660
330
1F
100
AcDbEntity
  8
AM_0
 48
0.5
100
AcDbSpline
210
0.0
220
0.0
230
1.0
 70
     8
 71
     3
 72
    10
 73
     6
 74
     0
 42
0.0000000001
 43
0.0000000001
 40
0.0
 40
0.0
 40
0.0
 40
0.0
 40
2.69986029516136
 40
4.147722969032201
 40
6.285750005020438
 40
6.285750005020438
 40
6.285750005020438
 40
6.285750005020438
 10
-3.847434800894245
 20
0.7239791932704253
 30
0.0
 10
-3.415928111417755
 20
0.3523515520246271
 30
0.0
 10
-2.753015956133196
 20
-0.2185700272455859
 30
0.0
 10
-1.185317759477766
 20
0.0578231109813671
 30
0.0
 10
-1.480560929221391
 20
0.9887517727856623
 30
0.0
 10
-1.675638751928842
 20
1.556181463986457
 30
0.0
  0
SPLINE
  5
2661
330
1F
100
AcDbEntity
  8
AM_0
100
AcDbSpline
210
0.0
220
0.0
230
1.0
 70
     8
 71
     3
 72
    23
 73
    19
 74
     0
 42
0.0000000001
 43
0.0000000001
 40
16.03460024169435
 40
16.03460024169435
 40
16.03460024169435
 40
16.03460024169435
 40
16.35212704903564
 40
17.38177054169784
 40
18.41822485651776
 40
19.46214173629503
 40
20.51396345435107
 40
21.57393551351153
 40
22.64208202342361
 40
23.7182574881101
 40
24.80209208578934
 40
25.89306333925047
 40
26.99048218457928
 40
28.09348763352352
 40
29.20111863782268
 40
30.31232390128032
 40
31.42594612798585
 40
32.5407912310448
 40
32.5407912310486
 40
32.5407912310486
 40
32.5407912310486
 10
-39.41148235521682
 20
4.000568464851281
 30
0.0
 10
-39.34222156540608
 20
3.987065169249741
 30
0.0
 10
-39.04866390390132
 20
3.928262117490798
 30
0.0
 10
-38.53155892176134
 20
3.813046512046212
 30
0.0
 10
-37.86190661618808
 20
3.641722166735702
 30
0.0
 10
-37.19287631517453
 20
3.449353483829209
 30
0.0
 10
-36.52442848518666
 20
3.237053795145149
 30
0.0
 10
-35.85653940182641
 20
3.006006676200688
 30
0.0
 10
-35.18917046270544
 20
2.757532889763325
 30
0.0
 10
-34.52227519478741
 20
2.493078490944009
 30
0.0
 10
-33.85581570268795
 20
2.214141069584588
 30
0.0
 10
-33.18973855393292
 20
1.922343697546073
 30
0.0
 10
-32.52398977041794
 20
1.619382427225322
 30
0.0
 10
-31.85852499520041
 20
1.306999158917178
 30
0.0
 10
-31.19328854965074
 20
0.9870103585477066
 30
0.0
 10
-30.52821881878539
 20
0.661284525949009
 30
0.0
 10
-29.86326164715421
 20
0.331709154117551
 30
0.0
 10
-29.42007593757632
 20
0.1107468882996338
 30
0.0
 10
-29.1983622233105
 20
0.0002036427784957
 30
0.0
  0
SPLINE
  5
2662
330
1F
100
AcDbEntity
  8
AM_0
100
AcDbSpline
210
0.0
220
0.0
230
1.0
 70
     8
 71
     3
 72
    11
 73
     7
 74
     0
 42
0.0000000001
 43
0.0000000001
 40
11.27226913003534
 40
11.27226913003534
 40
11.27226913003534
 40
11.2722691300354
 40
12.28301561507924
 40
13.29510212255852
 40
14.30984805882082
 40
15.18258238371378
 40
15.18258238371378
 40
15.18258238371378
 40
15.18258238371378
 10
-41.05757344656839
 20
-3.999999807741234
 30
0.0
 10
-41.28134145846326
 20
-3.98042264534882
 30
0.0
 10
-41.72845541323158
 20
-3.933027187229684
 30
0.0
 10
-42.39681753227569
 20
-3.83741882496462
 30
0.0
 10
-43.03110496830786
 20
-3.723225119287079
 30
0.0
 10
-43.44132485000794
 20
-3.635441019110057
 30
0.0
 10
-43.63036585249577
 20
-3.592078098306824
 30
0.0
  0
SPLINE
  5
2663
330
1F
100
AcDbEntity
  8
AM_0
100
AcDbSpline
210
0.0
220
0.0
230
1.0
 70
     8
 71
     3
 72
    17
 73
    13
 74
     0
 42
0.0000000001
 43
0.0000000001
 40
1.580019955310467
 40
1.580019955310467
 40
1.580019955310467
 40
1.580019955310467
 40
2.030549285115227
 40
3.082371838836284
 40
4.126290986361125
 40
5.162752068350215
 40
6.192395305374981
 40
7.216039564037012
 40
8.234688489606833
 40
9.249433870634691
 40
10.26152376260694
 40
11.27226744710342
 40
11.27226744710342
 40
11.27226744710342
 40
11.27226744710352
 10
-34.70743815889085
 20
-2.952117594102813
 30
0.0
 10
-34.80281935479685
 20
-2.982521954866215
 30
0.0
 10
-35.1214245935989
 20
-3.082176308351143
 30
0.0
 10
-35.66536274702674
 20
-3.238487727486894
 30
0.0
 10
-36.33911061725777
 20
-3.413535780790758
 30
0.0
 10
-37.01304396964669
 20
-3.567204730173514
 30
0.0
 10
-37.68700820142653
 20
-3.698978520765555
 30
0.0
 10
-38.36104586040154
 20
-3.807898623650377
 30
0.0
 10
-39.03513008670424
 20
-3.893343479827941
 30
0.0
 10
-39.70925628688688
 20
-3.954759378040015
 30
0.0
 10
-40.38340785222561
 20
-3.991750977017466
 30
0.0
 10
-40.83295131072909
 20
-3.99999983062945
 30
0.0
 10
-41.05757344656836
 20
-3.999999807741234
 30
0.0
  0
SPLINE
  5
2664
330
1F
100
AcDbEntity
  8
AM_0
100
AcDbSpline
210
0.0
220
0.0
230
1.0
 70
     8
 71
     3
 72
    22
 73
    18
 74
     0
 42
0.0000000001
 43
0.0000000001
 40
17.17441611292
 40
17.17441611292
 40
17.17441611292
 40
17.17441611292
 40
17.38177636558528
 40
18.41823744757437
 40
19.46215659509824
 40
20.51397914882054
 40
21.57394542641293
 40
22.64209583141747
 40
23.71826625065247
 40
24.80210429862395
 40
25.8930771157021
 40
26.99048705697709
 40
28.09349309193389
 40
29.20112995599786
 40
30.31233024745139
 40
31.42594771747373
 40
32.5407895042663
 40
32.54078950426994
 40
32.54078950426994
 40
32.54078950426994
 10
-43.63066068221792
 20
-3.592028758337412
 30
0.0
 10
-43.67580283209965
 20
-3.582769150664491
 30
0.0
 10
-43.94640536707667
 20
-3.526367868228659
 30
0.0
 10
-44.44213396276243
 20
-3.413275956154471
 30
0.0
 10
-45.11597563021183
 20
-3.238496693896921
 30
0.0
 10
-45.78974863460979
 20
-3.043758750313024
 30
0.0
 10
-46.46345773275595
 20
-2.830277727932502
 30
0.0
 10
-47.13710203472745
 20
-2.599362581058207
 30
0.0
 10
-47.81068983230449
 20
-2.352450401353778
 30
0.0
 10
-48.48422424438791
 20
-2.091058631631513
 30
0.0
 10
-49.15771150277267
 20
-1.816799260612673
 30
0.0
 10
-49.83115909621007
 20
-1.531364294897665
 30
0.0
 10
-50.50457286981885
 20
-1.236508882722436
 30
0.0
 10
-51.17795960259748
 20
-0.9340470244072665
 30
0.0
 10
-51.85132526353323
 20
-0.6258385180136593
 30
0.0
 10
-52.52467982795273
 20
-0.3137851766152244
 30
0.0
 10
-52.97349475660756
 20
-0.1044976198543161
 30
0.0
 10
-53.19802551362716
 20
0.0002036427803753
 30
0.0
  0
SPLINE
  5
2665
330
1F
100
AcDbEntity
  8
AM_0
100
AcDbSpline
210
0.0
220
0.0
230
1.0
 70
     8
 71
     3
 72
    46
 73
    42
 74
     0
 42
0.0000000001
 43
0.0000000001
 40
0.0
 40
0.0
 40
0.0
 40
0.0
 40
1.348332046947654
 40
2.024828967632893
 40
2.703918159304094
 40
3.386347665078122
 40
4.072776489761951
 40
4.763750544421345
 40
5.459696642770595
 40
6.160921452191748
 40
6.867565637253344
 40
7.579665907256597
 40
8.297112853413899
 40
9.019671552060666
 40
9.746986763446125
 40
10.47859339096365
 40
11.21393074760088
 40
11.95235532364327
 40
12.69315551794651
 40
13.43556823304427
 40
14.1787950170388
 40
14.92202180103393
 40
15.66443451613169
 40
16.40523471043432
 40
17.14365928647669
 40
17.87899664311455
 40
18.61060327063121
 40
19.33791848201689
 40
20.06048192311554
 40
20.77792886927282
 40
21.49002913927608
 40
22.19667332433747
 40
22.89788836015233
 40
23.59383445850157
 40
24.28480851316097
 40
24.97123685067575
 40
25.65366676154837
 40
26.33276604526151
 40
27.00926273560554
 40
27.68398960851752
 40
28.35781868496899
 40
28.35781868496899
 40
28.35781868496899
 40
28.35781868496899
 10
-26.47112732026644
 20
-3.999999807741552
 30
0.0
 10
-26.92069273562206
 20
-3.990887498537885
 30
0.0
 10
-27.5958180342595
 20
-3.977203282042859
 30
0.0
 10
-28.49356158488168
 20
-3.892952075007362
 30
0.0
 10
-29.16764990824918
 20
-3.808004446501027
 30
0.0
 10
-29.84168061311196
 20
-3.698946121202843
 30
0.0
 10
-30.51565192384241
 20
-3.567227287166214
 30
0.0
 10
-31.18956037811768
 20
-3.413477672631822
 30
0.0
 10
-31.86340484724239
 20
-3.238698858738679
 30
0.0
 10
-32.53718233237069
 20
-3.043964013276907
 30
0.0
 10
-33.21089418022213
 20
-2.830480953974216
 30
0.0
 10
-33.88453857871668
 20
-2.599566092334399
 30
0.0
 10
-34.55812635031205
 20
-2.352653835713547
 30
0.0
 10
-35.23166076877941
 20
-2.091262085414308
 30
0.0
 10
-35.90514802789597
 20
-1.817002714446411
 30
0.0
 10
-36.57859561187704
 20
-1.531567728738758
 30
0.0
 10
-37.25200942285129
 20
-1.236712397081974
 30
0.0
 10
-37.9253960148343
 20
-0.9342502349776655
 30
0.0
 10
-38.59876252764353
 20
-0.626042719803044
 30
0.0
 10
-39.27211511252607
 20
-0.3139851111255254
 30
0.0
 10
-39.94546203708787
 20
0.0000001921952104
 30
0.0
 10
-40.61880896150174
 20
0.3139854958974996
 30
0.0
 10
-41.29216154682796
 20
0.6260431034309089
 30
0.0
 10
-41.96552805801539
 20
0.9342506227867424
 30
0.0
 10
-42.63891465601214
 20
1.236712769384467
 30
0.0
 10
-43.31232844468805
 20
1.531568158538078
 30
0.0
 10
-43.98577611124749
 20
1.817002931314768
 30
0.0
 10
-44.65926452904046
 20
2.09126368614442
 30
0.0
 10
-45.33280156453766
 20
2.352653061567097
 30
0.0
 10
-46.00639053771037
 20
2.599566584269445
 30
0.0
 10
-46.68003492052057
 20
2.830481514618722
 30
0.0
 10
-47.35374400084026
 20
3.043962612194539
 30
0.0
 10
-48.02751699672772
 20
3.238700470039412
 30
0.0
 10
-48.70135871526454
 20
3.413479997923134
 30
0.0
 10
-49.375266779517
 20
3.567219553350572
 30
0.0
 10
-50.04923858436197
 20
3.698976591039599
 30
0.0
 10
-50.72327359094071
 20
3.807879179650833
 30
0.0
 10
-51.39735844090196
 20
3.893424823636829
 30
0.0
 10
-52.07148499616483
 20
3.954457136119147
 30
0.0
 10
-52.74563602172021
 20
3.992862430510533
 30
0.0
 10
-53.1951796613633
 20
3.997621994563971
 30
0.0
 10
-53.41980184012298
 20
4.000000192259035
 30
0.0
  0
SPLINE
  5
2666
330
1F
100
AcDbEntity
  8
AM_0
100
AcDbSpline
210
0.0
220
0.0
230
1.0
 70
     8
 71
     3
 72
    46
 73
    42
 74
     0
 42
0.0000000001
 43
0.0000000001
 40
0.0
 40
0.0
 40
0.0
 40
0.0
 40
1.348332046947657
 40
2.024828967632895
 40
2.703918159304097
 40
3.386347665078124
 40
4.072776489761952
 40
4.763750544421347
 40
5.459696642770596
 40
6.160921452191754
 40
6.867565637253344
 40
7.579665907256596
 40
8.297112853413899
 40
9.019671552060676
 40
9.746986763446127
 40
10.47859339096366
 40
11.21393074760089
 40
11.95235532364328
 40
12.69315551794651
 40
13.43556823304427
 40
14.1787950170388
 40
14.92202180103393
 40
15.66443451613169
 40
16.40523471043432
 40
17.14365928647669
 40
17.87899664311455
 40
18.61060327063121
 40
19.3379184820169
 40
20.06048192311554
 40
20.77792886927283
 40
21.49002913927608
 40
22.19667332433747
 40
22.89788836015233
 40
23.59383445850158
 40
24.28480851316097
 40
24.97123685067576
 40
25.65366676154838
 40
26.33276604526152
 40
27.00926273560555
 40
27.68398960851751
 40
28.357818684969
 40
28.357818684969
 40
28.357818684969
 40
28.357818684969
 10
-2.471464029952769
 20
-3.999999807741995
 30
0.0
 10
-2.921029445308386
 20
-3.990887498538328
 30
0.0
 10
-3.596154743945826
 20
-3.977203282043302
 30
0.0
 10
-4.493898294568025
 20
-3.892952075007805
 30
0.0
 10
-5.167986617935497
 20
-3.808004446501469
 30
0.0
 10
-5.842017322798293
 20
-3.698946121203288
 30
0.0
 10
-6.515988633528729
 20
-3.567227287166656
 30
0.0
 10
-7.189897087804016
 20
-3.413477672632263
 30
0.0
 10
-7.863741556928748
 20
-3.238698858739122
 30
0.0
 10
-8.537519042057027
 20
-3.043964013277352
 30
0.0
 10
-9.211230889908451
 20
-2.830480953974656
 30
0.0
 10
-9.884875288403012
 20
-2.599566092334842
 30
0.0
 10
-10.55846305999835
 20
-2.352653835713987
 30
0.0
 10
-11.23199747846573
 20
-2.091262085414757
 30
0.0
 10
-11.90548473758228
 20
-1.817002714446847
 30
0.0
 10
-12.57893232156334
 20
-1.531567728739206
 30
0.0
 10
-13.25234613253766
 20
-1.236712397082412
 30
0.0
 10
-13.92573272452066
 20
-0.9342502349781128
 30
0.0
 10
-14.59909923732989
 20
-0.626042719803484
 30
0.0
 10
-15.2724518222124
 20
-0.3139851111259681
 30
0.0
 10
-15.94579874677419
 20
0.0000001921947671
 30
0.0
 10
-16.61914567118806
 20
0.3139854958970582
 30
0.0
 10
-17.2924982565143
 20
0.6260431034304662
 30
0.0
 10
-17.96586476770169
 20
0.9342506227862996
 30
0.0
 10
-18.63925136569845
 20
1.236712769384026
 30
0.0
 10
-19.3126651543744
 20
1.531568158537635
 30
0.0
 10
-19.98611282093385
 20
1.817002931314325
 30
0.0
 10
-20.6596012387268
 20
2.091263686143979
 30
0.0
 10
-21.33313827422399
 20
2.352653061566654
 30
0.0
 10
-22.0067272473967
 20
2.599566584269004
 30
0.0
 10
-22.68037163020689
 20
2.830481514618277
 30
0.0
 10
-23.3540807105266
 20
3.043962612194097
 30
0.0
 10
-24.02785370641405
 20
3.238700470038969
 30
0.0
 10
-24.70169542495085
 20
3.413479997922692
 30
0.0
 10
-25.3756034892033
 20
3.56721955335013
 30
0.0
 10
-26.04957529404826
 20
3.698976591039156
 30
0.0
 10
-26.72361030062702
 20
3.80787917965039
 30
0.0
 10
-27.39769515058826
 20
3.893424823636384
 30
0.0
 10
-28.07182170585114
 20
3.954457136118703
 30
0.0
 10
-28.74597273140651
 20
3.992862430510092
 30
0.0
 10
-29.1955163710496
 20
3.997621994563528
 30
0.0
 10
-29.42013854980928
 20
4.000000192258592
 30
0.0
  0
SPLINE
  5
2667
330
1F
100
AcDbEntity
  8
AM_0
100
AcDbSpline
210
0.0
220
0.0
230
1.0
 70
     8
 71
     3
 72
    55
 73
    51
 74
     0
 42
0.0000000001
 43
0.0000000001
 40
0.0
 40
0.0
 40
0.0
 40
0.0
 40
1.010743684496582
 40
2.022833576467832
 40
3.037578957496688
 40
4.056212745003489
 40
5.079857003664532
 40
6.109500240690281
 40
7.145961322679372
 40
8.189895241603872
 40
9.241717795325891
 40
10.30168407291828
 40
11.36983447792315
 40
12.44600489715814
 40
13.52984294512926
 40
14.62081576220742
 40
15.7182257034828
 40
16.82123173843959
 40
17.92886860250316
 40
19.0400688939571
 40
20.15368796660465
 40
21.26852814259644
 40
22.38336992938901
 40
23.49698739941135
 40
24.6081876908653
 40
25.71582455492886
 40
26.81883757994213
 40
27.91624752121713
 40
29.00722033829659
 40
30.09105838626677
 40
31.16722880550176
 40
32.23537921050758
 40
33.29534548809967
 40
34.347168041821
 40
35.39108718934584
 40
36.42754827133493
 40
37.45720575381954
 40
38.48085062012849
 40
39.49948440763516
 40
40.51422944315121
 40
41.52631975251916
 40
42.53706336719636
 40
43.54780698187354
 40
44.55989729124051
 40
45.57464232675757
 40
46.59327611426424
 40
47.6169209805722
 40
48.64656348684535
 40
49.68302456883444
 40
50.58557219878025
 40
50.58557219878025
 40
50.58557219878025
 40
50.58557219878025
 10
-4.358630371098773
 20
-3.999999807741955
 30
0.0
 10
-4.583252509901472
 20
-3.997619904647874
 30
0.0
 10
-5.032795961280475
 20
-3.99285692867159
 30
0.0
 10
-5.706947540918342
 20
-3.954461995191129
 30
0.0
 10
-6.381070343567133
 20
-3.893424080832815
 30
0.0
 10
-7.055151424632781
 20
-3.807877122412964
 30
0.0
 10
-7.729184057847219
 20
-3.698980445233837
 30
0.0
 10
-8.403154946053614
 20
-3.567218295464981
 30
0.0
 10
-9.077066343654717
 20
-3.413478269911246
 30
0.0
 10
-9.750912274418379
 20
-3.238701798930166
 30
0.0
 10
-10.42468814822571
 20
-3.043961999450933
 30
0.0
 10
-11.09839732347696
 20
-2.83048123306437
 30
0.0
 10
-11.77204160449968
 20
-2.599566016696039
 30
0.0
 10
-12.44562940793953
 20
-2.352653856224297
 30
0.0
 10
-13.11916381773241
 20
-2.091262079777739
 30
0.0
 10
-13.79265107938637
 20
-1.817002716293855
 30
0.0
 10
-14.46609866196623
 20
-1.531567727025871
 30
0.0
 10
-15.13951247600759
 20
-1.236712402108568
 30
0.0
 10
-15.81289905706819
 20
-0.9342502164917403
 30
0.0
 10
-16.48626561067064
 20
-0.6260427889935558
 30
0.0
 10
-17.1596180428806
 20
-0.3139848522161201
 30
0.0
 10
-17.83296586247739
 20
-0.0000006238869631
 30
0.0
 10
-18.50631065930588
 20
0.3139892563539812
 30
0.0
 10
-19.17966534844643
 20
0.6260423335639295
 30
0.0
 10
-19.85303107076882
 20
0.9342506939884502
 30
0.0
 10
-20.52641885247026
 20
1.236714031851391
 30
0.0
 10
-21.19983546015515
 20
1.531566840421575
 30
0.0
 10
-21.87328410561324
 20
1.817003277242104
 30
0.0
 10
-22.54677146449632
 20
2.091262418329919
 30
0.0
 10
-23.22030584978145
 20
2.352654249746186
 30
0.0
 10
-23.8938936549461
 20
2.599566410579112
 30
0.0
 10
-24.56753795312707
 20
2.830481571732133
 30
0.0
 10
-25.24124705884418
 20
3.043962556102199
 30
0.0
 10
-25.91502003701033
 20
3.238700636031497
 30
0.0
 10
-26.5888618008152
 20
3.413479396148289
 30
0.0
 10
-27.26277294843013
 20
3.567222513220528
 30
0.0
 10
-27.93674864901456
 20
3.698969613922827
 30
0.0
 10
-28.61078350904235
 20
3.807899996925581
 30
0.0
 10
-29.28486478993579
 20
3.893345550467995
 30
0.0
 10
-29.95898806098559
 20
3.95475412584512
 30
0.0
 10
-30.63313906902326
 20
3.991757331885237
 30
0.0
 10
-31.30730489112049
 20
4.004118878622268
 30
0.0
 10
-31.98147071222578
 20
3.991757331865882
 30
0.0
 10
-32.65562172324507
 20
3.95475412592292
 30
0.0
 10
-33.32974498331747
 20
3.893345550175035
 30
0.0
 10
-34.00382630536784
 20
3.807899998026792
 30
0.0
 10
-34.67785772462271
 20
3.698970140835601
 30
0.0
 10
-35.3518307699994
 20
3.567223860263568
 30
0.0
 10
-35.99510064023558
 20
3.420458360309912
 30
0.0
 10
-36.41246145781034
 20
3.313127362720682
 30
0.0
 10
-36.60609255161721
 20
3.260819731674077
 30
0.0
  0
SPLINE
  5
2668
330
1F
100
AcDbEntity
  8
AM_0
100
AcDbSpline
210
0.0
220
0.0
230
1.0
 70
     8
 71
     3
 72
    11
 73
     7
 74
     0
 42
0.0000000001
 43
0.0000000001
 40
11.27226913003534
 40
11.27226913003534
 40
11.27226913003534
 40
11.2722691300354
 40
12.28301561507924
 40
13.29510212255852
 40
14.30984805882082
 40
15.18258238371378
 40
15.18258238371378
 40
15.18258238371378
 40
15.18258238371378
 10
-17.05791015625474
 20
-3.999999807741676
 30
0.0
 10
-17.28167816814961
 20
-3.980422645349261
 30
0.0
 10
-17.72879212291794
 20
-3.933027187230127
 30
0.0
 10
-18.39715424196204
 20
-3.837418824965062
 30
0.0
 10
-19.03144167799421
 20
-3.723225119287522
 30
0.0
 10
-19.44166155969429
 20
-3.635441019110499
 30
0.0
 10
-19.63070256218213
 20
-3.592078098307267
 30
0.0
  0
SPLINE
  5
2669
330
1F
100
AcDbEntity
  8
AM_0
100
AcDbSpline
210
0.0
220
0.0
230
1.0
 70
     8
 71
     3
 72
    22
 73
    18
 74
     0
 42
0.0000000001
 43
0.0000000001
 40
17.17441611292
 40
17.17441611292
 40
17.17441611292
 40
17.17441611292
 40
17.38177636558528
 40
18.41823744757437
 40
19.46215659509824
 40
20.51397914882054
 40
21.57394542641293
 40
22.64209583141747
 40
23.71826625065247
 40
24.80210429862395
 40
25.8930771157021
 40
26.99048705697709
 40
28.09349309193389
 40
29.20112995599786
 40
30.31233024745139
 40
31.42594771747373
 40
32.5407895042663
 40
32.54078950426994
 40
32.54078950426994
 40
32.54078950426994
 10
-19.63099739190427
 20
-3.592028758337855
 30
0.0
 10
-19.676139541786
 20
-3.582769150664933
 30
0.0
 10
-19.94674207676302
 20
-3.526367868229102
 30
0.0
 10
-20.44247067244877
 20
-3.413275956154914
 30
0.0
 10
-21.11631233989816
 20
-3.238496693897364
 30
0.0
 10
-21.79008534429612
 20
-3.043758750313466
 30
0.0
 10
-22.46379444244228
 20
-2.830277727932945
 30
0.0
 10
-23.13743874441378
 20
-2.599362581058649
 30
0.0
 10
-23.81102654199082
 20
-2.352450401354221
 30
0.0
 10
-24.48456095407424
 20
-2.091058631631955
 30
0.0
 10
-25.15804821245897
 20
-1.816799260613115
 30
0.0
 10
-25.83149580589637
 20
-1.531364294898107
 30
0.0
 10
-26.5049095795052
 20
-1.236508882722878
 30
0.0
 10
-27.17829631228384
 20
-0.934047024407709
 30
0.0
 10
-27.85166197321955
 20
-0.6258385180141018
 30
0.0
 10
-28.52501653763905
 20
-0.3137851766156666
 30
0.0
 10
-28.97383146629389
 20
-0.1044976198547585
 30
0.0
 10
-29.19836222331348
 20
0.0002036427799328
 30
0.0
  0
SPLINE
  5
266A
330
1F
100
AcDbEntity
  8
AM_0
100
AcDbSpline
210
0.0
220
0.0
230
1.0
 70
     8
 71
     3
 72
    17
 73
    13
 74
     0
 42
0.0000000001
 43
0.0000000001
 40
1.580019955310467
 40
1.580019955310467
 40
1.580019955310467
 40
1.580019955310467
 40
2.030549285115227
 40
3.082371838836284
 40
4.126290986361125
 40
5.162752068350215
 40
6.192395305374981
 40
7.216039564037012
 40
8.234688489606833
 40
9.249433870634691
 40
10.26152376260694
 40
11.27226744710342
 40
11.27226744710342
 40
11.27226744710342
 40
11.27226744710352
 10
-10.70777486857718
 20
-2.952117594103256
 30
0.0
 10
-10.80315606448318
 20
-2.982521954866657
 30
0.0
 10
-11.12176130328524
 20
-3.082176308351586
 30
0.0
 10
-11.66569945671309
 20
-3.238487727487337
 30
0.0
 10
-12.33944732694412
 20
-3.413535780791201
 30
0.0
 10
-13.01338067933303
 20
-3.567204730173958
 30
0.0
 10
-13.68734491111288
 20
-3.698978520765997
 30
0.0
 10
-14.36138257008789
 20
-3.807898623650818
 30
0.0
 10
-15.0354667963906
 20
-3.893343479828383
 30
0.0
 10
-15.70959299657323
 20
-3.954759378040458
 30
0.0
 10
-16.38374456191197
 20
-3.991750977017908
 30
0.0
 10
-16.83328802041544
 20
-3.999999830629892
 30
0.0
 10
-17.0579101562547
 20
-3.999999807741676
 30
0.0
  0
ELLIPSE
  5
266B
330
1F
100
AcDbEntity
  8
AM_11
 48
0.5
100
AcDbEllipse
 10
-15.18578898112422
 20
17.66787067288613
 30
0.0
 11
-13.81299728432605
 21
13.81299728432606
 31
0.0
210
0.0
220
0.0
230
1.0
 40
0.999999999999998
 41
1.91546884973773
 42
2.796918310721022
  0
ELLIPSE
  5
266C
330
1F
100
AcDbEntity
  8
AM_11
 48
0.5
100
AcDbEllipse
 10
-15.18578898112496
 20
-17.66785829032985
 30
0.0
 11
-13.81299728432605
 21
13.81299728432605
 31
0.0
210
0.0
220
0.0
230
0.9999999999999998
 40
0.9999999999999992
 41
-1.226122937600473
 42
-0.3446734766171657
  0
ELLIPSE
  5
266D
330
1F
100
AcDbEntity
  8
AM_11
 48
0.5
100
AcDbEllipse
 10
-31.85245564779163
 20
-17.66785829032946
 30
0.0
 11
-13.81299728432607
 21
13.81299728432607
 31
0.0
210
0.0
220
0.0
230
0.9999999999999998
 40
0.999999999999998
 41
-1.226122937600472
 42
-0.3446734766171653
  0
ELLIPSE
  5
266E
330
1F
100
AcDbEntity
  8
AM_11
 48
0.5
100
AcDbEllipse
 10
-31.85245564779089
 20
17.66787067288651
 30
0.0
 11
-13.81299728432606
 21
13.81299728432607
 31
0.0
210
0.0
220
0.0
230
0.9999999999999998
 40
0.9999999999999996
 41
1.915468849737731
 42
2.796918310721022
  0
ELLIPSE
  5
266F
330
1F
100
AcDbEntity
  8
AM_11
 48
0.5
100
AcDbEllipse
 10
1.480877685542458
 20
17.66787067288578
 30
0.0
 11
-13.8129972843267
 21
13.8129972843267
 31
0.0
210
0.0
220
0.0
230
1.0
 40
0.9999999999999628
 41
1.915468849737721
 42
2.077198900778408
  0
SPLINE
  5
2670
330
1F
100
AcDbEntity
  8
AM_0
 48
0.5
100
AcDbSpline
210
0.0
220
0.0
230
1.0
 70
     8
 71
     3
 72
    15
 73
    11
 74
     0
 42
0.0000000001
 43
0.0000000001
 40
0.0
 40
0.0
 40
0.0
 40
0.0
 40
1.010743614677189
 40
2.022833924044153
 40
3.037578959561199
 40
4.056212747067873
 40
5.079857613375832
 40
6.109500119648989
 40
7.14596120163808
 40
8.161889262902015
 40
8.161889262902015
 40
8.161889262902015
 40
8.161889262902015
 10
-4.358630371098606
 20
4.000000192258042
 30
0.0
 10
-4.58325255077985
 20
3.997622004237864
 30
0.0
 10
-5.03279619226712
 20
3.992862459547127
 30
0.0
 10
-5.706947203963258
 20
3.954457019660373
 30
0.0
 10
-6.381070461253559
 20
3.893425565692119
 30
0.0
 10
-7.055151793814242
 20
3.807878439381869
 30
0.0
 10
-7.729183173531931
 20
3.698975856123783
 30
0.0
 10
-8.403156367779626
 20
3.567222727268481
 30
0.0
 10
-9.070993814028675
 20
3.414851758392604
 30
0.0
 10
-9.512587306968073
 20
3.300539706438728
 30
0.0
 10
-9.730362165691909
 20
3.240999635316812
 30
0.0
  0
LINE
  5
2671
330
1F
100
AcDbEntity
  8
AM_0
 48
0.5
100
AcDbLine
 10
-57.42855122884593
 20
2.026725961301787
 30
0.0
 11
-65.99975077311206
 21
-0.3234988515233526
 31
0.0
  0
ELLIPSE
  5
2672
330
1F
100
AcDbEntity
  8
AM_0
 48
0.5
100
AcDbEllipse
 10
-64.64662720303782
 20
-2.66666645959123
 30
0.0
 11
-1.176743353987925
 21
0.6838250504709961
 31
0.0
210
0.0
220
0.0
230
1.0
 40
0.9783166477828729
 41
0.5359933893535663
 42
2.014694630217366
  0
ELLIPSE
  5
2673
330
1F
100
AcDbEntity
  8
AM_0
 48
0.5
100
AcDbEllipse
 10
-65.05438124522726
 20
-2.651435505253848
 30
0.0
 11
-0.8869925862052481
 21
0.3493515271699018
 31
0.0
210
0.0
220
0.0
230
1.0
 40
0.9489486679904974
 41
-1.490560466848419
 42
0.4101260796212055
  0
SPLINE
  5
2674
330
1F
100
AcDbEntity
  8
AM_0
100
AcDbSpline
210
0.0
220
0.0
230
1.0
 70
     8
 71
     3
 72
    13
 73
     9
 74
     0
 42
0.0000000001
 43
0.0000000001
 40
16.03745138764937
 40
16.03745138764937
 40
16.03745138764937
 40
16.03745138764937
 40
16.35212717791071
 40
17.38177067057215
 40
18.41822498539278
 40
19.46214186516937
 40
20.5139635832251
 40
21.34083983469381
 40
21.34083983469381
 40
21.34083983469381
 40
21.34083983469381
 10
-64.74542032878146
 20
-3.999999807740716
 30
0.0
 10
-64.67461259139977
 20
-3.986611797595622
 30
0.0
 10
-64.38167865168821
 20
-3.927921453821465
 30
0.0
 10
-63.86519241092893
 20
-3.812842303188
 30
0.0
 10
-63.19554002108295
 20
-3.64151843291888
 30
0.0
 10
-62.52650974289215
 20
-3.449149621363164
 30
0.0
 10
-61.90743664515707
 20
-3.252531430342118
 30
0.0
 10
-61.51247891062028
 20
-3.11714581323371
 30
0.0
 10
-61.33921331962675
 20
-3.055950280666738
 30
0.0
  0
LINE
  5
2675
330
1F
100
AcDbEntity
  8
AM_11
 48
0.5
100
AcDbLine
 10
-64.74542032878146
 20
-3.999999807740716
 30
0.0
 11
-55.30705566406742
 21
-3.999999807740921
 31
0.0
  0
SPLINE
  5
2676
330
1F
100
AcDbEntity
  8
AM_0
 48
0.5
100
AcDbSpline
210
0.0
220
0.0
230
1.0
 70
     8
 71
     3
 72
    22
 73
    18
 74
     0
 42
0.0000000001
 43
0.0000000001
 40
0.0
 40
0.0
 40
0.0
 40
0.0
 40
1.010743684496582
 40
2.022833993863546
 40
3.037578683882831
 40
4.056212471389632
 40
5.079857945358201
 40
6.109499720892564
 40
7.145961650132166
 40
8.189873411961459
 40
9.241710626092514
 40
10.30166235592959
 40
11.36982472628033
 40
12.44598212828784
 40
13.52983440361964
 40
14.62080578343036
 40
14.90544694398022
 40
14.90544694398022
 40
14.90544694398022
 40
14.90544694398022
 10
-55.30706075033075
 20
-3.999999807740922
 30
0.0
 10
-55.5316829320549
 20
-3.997620615647716
 30
0.0
 10
-55.98122656209373
 20
-3.992859061637676
 30
0.0
 10
-56.65537743534734
 20
-3.954453432806551
 30
0.0
 10
-57.32950096746831
 20
-3.893425794398435
 30
0.0
 10
-58.00358240696645
 20
-3.807878757116659
 30
0.0
 10
-58.67761320434026
 20
-3.698971920351326
 30
0.0
 10
-59.35158632789868
 20
-3.567220846316482
 30
0.0
 10
-60.02549190154341
 20
-3.413477158086554
 30
0.0
 10
-60.69933455928428
 20
-3.238694618818733
 30
0.0
 10
-61.37310823217647
 20
-3.043964541468533
 30
0.0
 10
-62.04681644129498
 20
-2.830472075221769
 30
0.0
 10
-62.72046352958237
 20
-2.599575770251117
 30
0.0
 10
-63.39404899105063
 20
-2.352648295315044
 30
0.0
 10
-64.06758544452987
 20
-2.091262690226141
 30
0.0
 10
-64.57379515902878
 20
-1.88513185973706
 30
0.0
 10
-64.79502340039274
 20
-1.7844325435908
 30
0.0
 10
-64.79502340039274
 20
-1.7844325435908
 30
0.0
  0
SPLINE
  5
2677
330
1F
100
AcDbEntity
  8
AM_0
 48
0.5
100
AcDbSpline
210
0.0
220
0.0
230
1.0
 70
     8
 71
     3
 72
    26
 73
    22
 74
     0
 42
0.0000000001
 43
0.0000000001
 40
0.0
 40
0.0
 40
0.0
 40
0.0
 40
0.6738291229976858
 40
1.34855571764586
 40
2.025052638331105
 40
2.7041418300023
 40
3.386571335776987
 40
4.073000160460178
 40
4.763974215119558
 40
5.459920313469455
 40
6.161135349283505
 40
6.867779534345081
 40
7.579884616450838
 40
8.297322010138517
 40
9.01989019369366
 40
9.747205405079087
 40
10.47881203259601
 40
11.21414938923388
 40
11.95257396527625
 40
12.69337415957888
 40
13.41285713964268
 40
13.41285713964268
 40
13.41285713964268
 40
13.41285713964268
 10
-53.41989440918476
 20
-3.999999807740962
 30
0.0
 10
-53.64451654801446
 20
-3.997619904750592
 30
0.0
 10
-54.09405999944776
 20
-3.992856928981849
 30
0.0
 10
-54.76821157867927
 20
-3.954461993941862
 30
0.0
 10
-55.44233438287863
 20
-3.893424085534262
 30
0.0
 10
-56.11641545811579
 20
-3.807877104746035
 30
0.0
 10
-56.79044811324775
 20
-3.698980511681061
 30
0.0
 10
-57.46441891892935
 20
-3.567218045202047
 30
0.0
 10
-58.13832742679775
 20
-3.41347994365669
 30
0.0
 10
-58.81216904081179
 20
-3.238699934845076
 30
0.0
 10
-59.48594216794468
 20
-3.043962499519408
 30
0.0
 10
-60.15965235337442
 20
-2.830479699674778
 30
0.0
 10
-60.83329680546599
 20
-2.599569722787468
 30
0.0
 10
-61.50688315680079
 20
-2.352649027915282
 30
0.0
 10
-62.18042041369256
 20
-2.091264791681742
 30
0.0
 10
-62.85391003140225
 20
-1.817002638223444
 30
0.0
 10
-63.52735703044098
 20
-1.531566495520122
 30
0.0
 10
-64.20077377787061
 20
-1.236717442946214
 30
0.0
 10
-64.6741898348312
 20
-0.9342311828267838
 30
0.0
 10
-65.34064817368565
 20
-0.6292942680629082
 30
0.0
 10
-65.78220189794738
 20
-0.4244355097178401
 30
0.0
 10
-65.99975585937539
 20
-0.3235013946546926
 30
0.0
  0
SPLINE
  5
2678
330
1F
100
AcDbEntity
  8
AM_0
100
AcDbSpline
210
0.0
220
0.0
230
1.0
 70
     8
 71
     3
 72
    55
 73
    51
 74
     0
 42
0.0000000001
 43
0.0000000001
 40
0.0
 40
0.0
 40
0.0
 40
0.0
 40
1.010743684496582
 40
2.022833576467832
 40
3.037578957496688
 40
4.056212745003489
 40
5.079857003664532
 40
6.109500240690281
 40
7.145961322679372
 40
8.189895241603872
 40
9.241717795325891
 40
10.30168407291828
 40
11.36983447792315
 40
12.44600489715814
 40
13.52984294512926
 40
14.62081576220742
 40
15.7182257034828
 40
16.82123173843959
 40
17.92886860250316
 40
19.0400688939571
 40
20.15368796660465
 40
21.26852814259644
 40
22.38336992938901
 40
23.49698739941135
 40
24.6081876908653
 40
25.71582455492886
 40
26.81883757994213
 40
27.91624752121713
 40
29.00722033829659
 40
30.09105838626677
 40
31.16722880550176
 40
32.23537921050758
 40
33.29534548809967
 40
34.347168041821
 40
35.39108718934584
 40
36.42754827133493
 40
37.45720575381954
 40
38.48085062012849
 40
39.49948440763516
 40
40.51422944315121
 40
41.52631975251916
 40
42.53706336719636
 40
43.54780698187354
 40
44.55989729124051
 40
45.57464232675757
 40
46.59327611426424
 40
47.6169209805722
 40
48.64656348684535
 40
49.68302456883444
 40
50.58557219878025
 40
50.58557219878025
 40
50.58557219878025
 40
50.58557219878025
 10
-28.35829366141244
 20
-3.999999807741512
 30
0.0
 10
-28.58291580021514
 20
-3.99761990464743
 30
0.0
 10
-29.03245925159414
 20
-3.992856928671148
 30
0.0
 10
-29.70661083123201
 20
-3.954461995190685
 30
0.0
 10
-30.38073363388081
 20
-3.893424080832372
 30
0.0
 10
-31.05481471494646
 20
-3.807877122412522
 30
0.0
 10
-31.7288473481609
 20
-3.698980445233394
 30
0.0
 10
-32.40281823636728
 20
-3.567218295464538
 30
0.0
 10
-33.07672963396837
 20
-3.413478269910804
 30
0.0
 10
-33.75057556473203
 20
-3.238701798929723
 30
0.0
 10
-34.42435143853937
 20
-3.043961999450491
 30
0.0
 10
-35.09806061379063
 20
-2.830481233063928
 30
0.0
 10
-35.77170489481335
 20
-2.599566016695598
 30
0.0
 10
-36.44529269825321
 20
-2.352653856223855
 30
0.0
 10
-37.1188271080461
 20
-2.091262079777297
 30
0.0
 10
-37.79231436970005
 20
-1.817002716293413
 30
0.0
 10
-38.46576195227993
 20
-1.531567727025429
 30
0.0
 10
-39.13917576632123
 20
-1.236712402108126
 30
0.0
 10
-39.81256234738185
 20
-0.9342502164912978
 30
0.0
 10
-40.48592890098431
 20
-0.6260427889931135
 30
0.0
 10
-41.15928133319427
 20
-0.3139848522156777
 30
0.0
 10
-41.83262915279107
 20
-0.0000006238865207
 30
0.0
 10
-42.50597394961956
 20
0.3139892563544235
 30
0.0
 10
-43.1793286387601
 20
0.6260423335643721
 30
0.0
 10
-43.85269436108252
 20
0.9342506939888927
 30
0.0
 10
-44.52608214278397
 20
1.236714031851833
 30
0.0
 10
-45.19949875046879
 20
1.531566840422017
 30
0.0
 10
-45.87294739592688
 20
1.817003277242545
 30
0.0
 10
-46.54643475480999
 20
2.091262418330362
 30
0.0
 10
-47.21996914009512
 20
2.35265424974663
 30
0.0
 10
-47.89355694525977
 20
2.599566410579553
 30
0.0
 10
-48.56720124344074
 20
2.830481571732576
 30
0.0
 10
-49.24091034915786
 20
3.043962556102641
 30
0.0
 10
-49.914683327324
 20
3.238700636031941
 30
0.0
 10
-50.58852509112888
 20
3.413479396148732
 30
0.0
 10
-51.26243623874383
 20
3.567222513220971
 30
0.0
 10
-51.93641193932826
 20
3.69896961392327
 30
0.0
 10
-52.61044679935605
 20
3.807899996926024
 30
0.0
 10
-53.28452808024949
 20
3.893345550468437
 30
0.0
 10
-53.9586513512993
 20
3.954754125845561
 30
0.0
 10
-54.63280235933695
 20
3.991757331885679
 30
0.0
 10
-55.30696818143418
 20
4.00411887862271
 30
0.0
 10
-55.98113400253947
 20
3.991757331866324
 30
0.0
 10
-56.65528501355874
 20
3.954754125923363
 30
0.0
 10
-57.32940827363115
 20
3.893345550175478
 30
0.0
 10
-58.00348959568151
 20
3.807899998027234
 30
0.0
 10
-58.67752101493638
 20
3.698970140836045
 30
0.0
 10
-59.35149406031307
 20
3.56722386026401
 30
0.0
 10
-59.99476393054925
 20
3.420458360310355
 30
0.0
 10
-60.412124748124
 20
3.313127362721125
 30
0.0
 10
-60.60575584193088
 20
3.260819731674519
 30
0.0
  0
SPLINE
  5
2679
330
1F
100
AcDbEntity
  8
AM_0
100
AcDbSpline
210
0.0
220
0.0
230
1.0
 70
     8
 71
     3
 72
    23
 73
    19
 74
     0
 42
0.0000000001
 43
0.0000000001
 40
16.03460024169435
 40
16.03460024169435
 40
16.03460024169435
 40
16.03460024169435
 40
16.35212704903564
 40
17.38177054169784
 40
18.41822485651776
 40
19.46214173629503
 40
20.51396345435107
 40
21.57393551351153
 40
22.64208202342361
 40
23.7182574881101
 40
24.80209208578934
 40
25.89306333925047
 40
26.99048218457928
 40
28.09348763352352
 40
29.20111863782268
 40
30.31232390128032
 40
31.42594612798585
 40
32.5407912310448
 40
32.5407912310486
 40
32.5407912310486
 40
32.5407912310486
 10
-63.41123821459215
 20
4.000568464851721
 30
0.0
 10
-63.3419774247814
 20
3.987065169250181
 30
0.0
 10
-63.04841976327666
 20
3.928262117491238
 30
0.0
 10
-62.53131478113668
 20
3.813046512046652
 30
0.0
 10
-61.86166247556341
 20
3.641722166736141
 30
0.0
 10
-61.19263217454986
 20
3.449353483829649
 30
0.0
 10
-60.52418434456199
 20
3.237053795145587
 30
0.0
 10
-59.85629526120174
 20
3.006006676201129
 30
0.0
 10
-59.18892632208078
 20
2.757532889763766
 30
0.0
 10
-58.52203105416275
 20
2.493078490944449
 30
0.0
 10
-57.85557156206327
 20
2.214141069585029
 30
0.0
 10
-57.18949441330826
 20
1.922343697546513
 30
0.0
 10
-56.52374562979328
 20
1.619382427225762
 30
0.0
 10
-55.85828085457578
 20
1.306999158917618
 30
0.0
 10
-55.19304440902611
 20
0.9870103585481462
 30
0.0
 10
-54.52797467816072
 20
0.6612845259494489
 30
0.0
 10
-53.86301750652954
 20
0.3317091541179909
 30
0.0
 10
-53.41983179695166
 20
0.1107468883000737
 30
0.0
 10
-53.19811808268583
 20
0.0002036427789356
 30
0.0
  0
ELLIPSE
  5
267A
330
1F
100
AcDbEntity
  8
AM_11
 48
0.5
100
AcDbEllipse
 10
-48.5191223144529
 20
17.66787067288687
 30
0.0
 11
-13.81299728432606
 21
13.81299728432606
 31
0.0
210
0.0
220
0.0
230
0.9999999999999998
 40
0.9999999999999998
 41
1.91546884973773
 42
2.796918310721023
  0
ELLIPSE
  5
267B
330
1F
100
AcDbEntity
  8
AM_11
 48
0.5
100
AcDbEllipse
 10
-48.51912231445361
 20
-17.66785829032912
 30
0.0
 11
-13.81299728432606
 21
13.81299728432607
 31
0.0
210
0.0
220
0.0
230
1.0
 40
0.9999999999999987
 41
-1.226122937600473
 42
-0.3446734766171642
  0
LINE
  5
267C
330
1F
100
AcDbEntity
  8
AM_11
 48
0.5
100
AcDbLine
 10
-63.40832456374529
 20
4.000000192259252
 30
0.0
 11
-55.3070556640673
 21
4.000000192259076
 31
0.0
  0
VIEWPORT
  5
110
330
101
100
AcDbEntity
 67
     1
  8
0
100
AcDbViewport
 10
420.5
 20
297.0
 30
0.0
 40
948.9782706766916
 41
628.452
 68
     1
 69
     1
1001
ACAD
1000
MVIEW
1002
{
1070
    16
1010
0.0
1020
0.0
1030
0.0
1010
0.0
1020
0.0
1030
1.0
1040
0.0
1040
628.452
1040
420.5
1040
297.0
1040
50.0
1040
0.0
1040
0.0
1070
     0
1070
   100
1070
     1
1070
     1
1070
     0
1070
     0
1070
     0
1070
     0
1040
0.0
1040
0.0
1040
0.0
1040
10.0
1040
10.0
1040
10.0
1040
10.0
1070
     0
1002
{
1002
}
1002
}
  0
ENDSEC
  0
SECTION
  2
OBJECTS
  0
DICTIONARY
  5
C
330
0
100
AcDbDictionary
  3
ACAD_GROUP
350
D
  3
ACAD_LAYOUT
350
1A
  3
ACAD_MLINESTYLE
350
17
  3
ACAD_PLOTSETTINGS
350
19
  3
ACAD_PLOTSTYLENAME
350
E
  3
ACDBVARIABLEDICTIONARY
350
34
  3
ACMDICTIONARY
350
43
  3
AMG
350
2B
  3
AMGSNAPSETTINGS
350
6E
  3
DWGPROPS
350
26CF
  3
ACDBHEADERROUNDTRIPXREC
350
26DB
  0
DICTIONARY
  5
74
330
1F
100
AcDbDictionary
280
     1
  3
ACAD_INDEX
360
26D1
  3
ACAD_LAYOUTSELFREF
360
26FE
  0
DICTIONARY
  5
2703
330
101
100
AcDbDictionary
280
     1
  3
ACAD_LAYOUTSELFREF
360
2704
  0
DICTIONARY
  5
D
102
{ACAD_REACTORS
330
C
102
}
330
C
100
AcDbDictionary
  0
DICTIONARY
  5
1A
102
{ACAD_REACTORS
330
C
102
}
330
C
100
AcDbDictionary
  0
DICTIONARY
  5
17
102
{ACAD_REACTORS
330
C
102
}
330
C
100
AcDbDictionary
  3
STANDARD
350
18
  0
DICTIONARY
  5
19
102
{ACAD_REACTORS
330
C
102
}
330
C
100
AcDbDictionary
  0
ACDBDICTIONARYWDFLT
  5
E
102
{ACAD_REACTORS
330
C
102
}
330
C
100
AcDbDictionary
281
     1
  3
Normal
350
F
100
AcDbDictionaryWithDefault
340
F
  0
DICTIONARY
  5
34
102
{ACAD_REACTORS
330
C
102
}
330
C
100
AcDbDictionary
  3
INDEXCTL
350
35
  3
SORTENTS
350
B5E
  0
DICTIONARY
  5
43
102
{ACAD_REACTORS
330
C
102
}
330
C
100
AcDbDictionary
  3
ACMSTDDICTIONARY
350
260
  0
DICTIONARY
  5
2B
102
{ACAD_REACTORS
330
C
102
}
330
C
100
AcDbDictionary
  3
ACMGSETTINGS
350
2C
  0
DICTIONARY
  5
6E
102
{ACAD_REACTORS
330
C
102
}
330
C
100
AcDbDictionary
  0
XRECORD
  5
26CF
102
{ACAD_REACTORS
330
C
102
}
330
C
100
AcDbXrecord
  1
DWGPROPS COOKIE
  2

  3

  4

  6

  7

  8

  9

300
AmdtFileType=82
301
=
302
=
303
=
304
=
305
=
306
=
307
=
308
=
309
=
 40
0.0602486574074074
 41
2452800.443498622
 42
2452948.690095845
  1

 90
        1
  0
DICTIONARY
  5
26DB
102
{ACAD_REACTORS
330
C
102
}
330
C
100
AcDbDictionary
  3
TSTACKALIGN
350
26DC
  3
TSTACKSIZE
350
26DD
  3
HYPERLINKBASE
350
26DE
  3
STYLESHEET
350
26DF
  3
LAYOUTDICT
350
26E0
  3
PLOTSETDICT
350
26E1
  3
PLOTSTYLNAMDICT
350
26E2
  3
LWETCUNION
350
26E3
  3
INSUNITS
350
26E4
  3
CEPSNTYPE
350
26E5
  3
FINGERPRINTGUID
350
26E6
  3
VERSIONGUID
350
26E7
  3
PSVPSCALE
350
26E8
  3
DIMSTYLEDATA
350
26E9
  3
PUCSORTHOREF
350
26EA
  3
PUCSORTHOVIEW
350
26EB
  3
PUCSBASE
350
26EC
  3
PUCSORGTOP
350
26ED
  3
PUCSORGBOTTOM
350
26EE
  3
PUCSORGLEFT
350
26EF
  3
PUCSORGRIGHT
350
26F0
  3
PUCSORGFRONT
350
26F1
  3
PUCSORGBACK
350
26F2
  3
UCSORTHOREF
350
26F3
  3
UCSORTHOVIEW
350
26F4
  3
UCSBASE
350
26F5
  3
UCSORGTOP
350
26F6
  3
UCSORGBOTTOM
350
26F7
  3
UCSORGLEFT
350
26F8
  3
UCSORGRIGHT
350
26F9
  3
UCSORGFRONT
350
26FA
  3
UCSORGBACK
350
26FB
  0
DICTIONARY
  5
26D1
102
{ACAD_REACTORS
330
74
102
}
330
74
100
AcDbDictionary
  3
*A1
350
26D2
  0
XRECORD
  5
26FE
102
{ACAD_REACTORS
330
74
102
}
330
74
100
AcDbXrecord
340
1F
  0
XRECORD
  5
2704
102
{ACAD_REACTORS
330
2703
102
}
330
2703
100
AcDbXrecord
340
101
  0
MLINESTYLE
  5
18
102
{ACAD_REACTORS
330
17
102
}
330
17
100
AcDbMlineStyle
  2
STANDARD
 70
     0
  3

 62
   256
 51
90.0
 52
90.0
 71
     2
 49
0.5
 62
   256
  6
BYLAYER
 49
-0.5
 62
   256
  6
BYLAYER
  0
ACDBPLACEHOLDER
  5
F
102
{ACAD_REACTORS
330
E
102
}
330
E
100
AcDbPlaceHolder
280
     0
  0
DICTIONARYVAR
  5
35
102
{ACAD_REACTORS
330
34
102
}
330
34
100
DictionaryVariables
280
     0
  1
1
  0
DICTIONARYVAR
  5
B5E
102
{ACAD_REACTORS
330
34
102
}
330
34
100
DictionaryVariables
280
     0
  1
96
  0
DICTIONARY
  5
260
102
{ACAD_REACTORS
330
43
102
}
330
43
100
AcDbDictionary
  0
DICTIONARY
  5
2C
102
{ACAD_REACTORS
330
2B
102
}
330
2B
100
AcDbDictionary
  3
DWGSETTINGS
350
2D
  0
XRECORD
  5
26DC
102
{ACAD_REACTORS
330
26DB
102
}
330
26DB
100
AcDbXrecord
 90
        1
  0
XRECORD
  5
26DD
102
{ACAD_REACTORS
330
26DB
102
}
330
26DB
100
AcDbXrecord
 90
       70
  0
XRECORD
  5
26DE
102
{ACAD_REACTORS
330
26DB
102
}
330
26DB
100
AcDbXrecord
  1

  0
XRECORD
  5
26DF
102
{ACAD_REACTORS
330
26DB
102
}
330
26DB
100
AcDbXrecord
  1
ASAMI.ctb
  0
XRECORD
  5
26E0
102
{ACAD_REACTORS
330
26DB
102
}
330
26DB
100
AcDbXrecord
340
1A
  0
XRECORD
  5
26E1
102
{ACAD_REACTORS
330
26DB
102
}
330
26DB
100
AcDbXrecord
340
19
  0
XRECORD
  5
26E2
102
{ACAD_REACTORS
330
26DB
102
}
330
26DB
100
AcDbXrecord
340
E
  0
XRECORD
  5
26E3
102
{ACAD_REACTORS
330
26DB
102
}
330
26DB
100
AcDbXrecord
 90
    10781
  0
XRECORD
  5
26E4
102
{ACAD_REACTORS
330
26DB
102
}
330
26DB
100
AcDbXrecord
 90
        4
  0
XRECORD
  5
26E5
102
{ACAD_REACTORS
330
26DB
102
}
330
26DB
100
AcDbXrecord
 90
        0
  0
XRECORD
  5
26E6
102
{ACAD_REACTORS
330
26DB
102
}
330
26DB
100
AcDbXrecord
  1
{AFB28963-8C59-40AE-9337-C84526B81ACE}
  0
XRECORD
  5
26E7
102
{ACAD_REACTORS
330
26DB
102
}
330
26DB
100
AcDbXrecord
  1
{26E4B31F-C46C-4467-911C-5321ADFA86C9}
  0
XRECORD
  5
26E8
102
{ACAD_REACTORS
330
26DB
102
}
330
26DB
100
AcDbXrecord
 40
0.0
  0
XRECORD
  5
26E9
102
{ACAD_REACTORS
330
26DB
102
}
330
26DB
100
AcDbXrecord
1000
DSTYLE
1002
{
1070
    79
 70
     2
1070
   341
340
59
1070
   342
340
59
1070
   371
 70
    -1
1070
   372
 70
    -1
1002
}
  0
XRECORD
  5
26EA
102
{ACAD_REACTORS
330
26DB
102
}
330
26DB
100
AcDbXrecord
340
0
  0
XRECORD
  5
26EB
102
{ACAD_REACTORS
330
26DB
102
}
330
26DB
100
AcDbXrecord
 70
     0
  0
XRECORD
  5
26EC
102
{ACAD_REACTORS
330
26DB
102
}
330
26DB
100
AcDbXrecord
340
0
  0
XRECORD
  5
26ED
102
{ACAD_REACTORS
330
26DB
102
}
330
26DB
100
AcDbXrecord
 10
0.0
 20
0.0
 30
0.0
  0
XRECORD
  5
26EE
102
{ACAD_REACTORS
330
26DB
102
}
330
26DB
100
AcDbXrecord
 10
0.0
 20
0.0
 30
0.0
  0
XRECORD
  5
26EF
102
{ACAD_REACTORS
330
26DB
102
}
330
26DB
100
AcDbXrecord
 10
0.0
 20
0.0
 30
0.0
  0
XRECORD
  5
26F0
102
{ACAD_REACTORS
330
26DB
102
}
330
26DB
100
AcDbXrecord
 10
0.0
 20
0.0
 30
0.0
  0
XRECORD
  5
26F1
102
{ACAD_REACTORS
330
26DB
102
}
330
26DB
100
AcDbXrecord
 10
0.0
 20
0.0
 30
0.0
  0
XRECORD
  5
26F2
102
{ACAD_REACTORS
330
26DB
102
}
330
26DB
100
AcDbXrecord
 10
0.0
 20
0.0
 30
0.0
  0
XRECORD
  5
26F3
102
{ACAD_REACTORS
330
26DB
102
}
330
26DB
100
AcDbXrecord
340
0
  0
XRECORD
  5
26F4
102
{ACAD_REACTORS
330
26DB
102
}
330
26DB
100
AcDbXrecord
 70
     0
  0
XRECORD
  5
26F5
102
{ACAD_REACTORS
330
26DB
102
}
330
26DB
100
AcDbXrecord
340
0
  0
XRECORD
  5
26F6
102
{ACAD_REACTORS
330
26DB
102
}
330
26DB
100
AcDbXrecord
 10
0.0
 20
0.0
 30
0.0
  0
XRECORD
  5
26F7
102
{ACAD_REACTORS
330
26DB
102
}
330
26DB
100
AcDbXrecord
 10
0.0
 20
0.0
 30
0.0
  0
XRECORD
  5
26F8
102
{ACAD_REACTORS
330
26DB
102
}
330
26DB
100
AcDbXrecord
 10
0.0
 20
0.0
 30
0.0
  0
XRECORD
  5
26F9
102
{ACAD_REACTORS
330
26DB
102
}
330
26DB
100
AcDbXrecord
 10
0.0
 20
0.0
 30
0.0
  0
XRECORD
  5
26FA
102
{ACAD_REACTORS
330
26DB
102
}
330
26DB
100
AcDbXrecord
 10
0.0
 20
0.0
 30
0.0
  0
XRECORD
  5
26FB
102
{ACAD_REACTORS
330
26DB
102
}
330
26DB
100
AcDbXrecord
 10
0.0
 20
0.0
 30
0.0
  0
LAYER_INDEX
  5
26D2
102
{ACAD_REACTORS
330
26D1
102
}
330
26D1
100
AcDbIndex
 40
2453151.678888506
100
AcDbLayerIndex
  8
0
360
26D3
 90
        0
  8
AM_0
360
26D4
 90
       46
  8
AM_7
360
26D5
 90
        1
  8
AM_11
360
26D6
 90
       21
  8
AM_5
360
26D7
 90
        5
  8
Defpoints
360
26D8
 90
        0
  8
AM_6
360
26D9
 90
        1
  0
XRECORD
  5
2D
102
{ACAD_REACTORS
330
2C
102
}
330
2C
100
AcDbXrecord
  1
VERSION
140
15.0
  1
PRODUCT
  2
AutoCAD Mechanical 2000
  0
IDBUFFER
  5
26D3
330
0
100
AcDbIdBuffer
  0
IDBUFFER
  5
26D4
330
0
100
AcDbIdBuffer
330
2652
330
2653
330
2654
330
2659
330
265A
330
265B
330
265C
330
265D
330
265E
330
265F
330
2660
330
2661
330
2662
330
2663
330
2664
330
2665
330
2666
330
2667
330
2668
330
2669
330
266A
330
2670
330
2671
330
2672
330
2673
330
2674
330
2676
330
2677
330
2678
330
2679
330
C25
330
C2B
330
C2E
330
C2F
330
C30
330
1CEA
330
22AD
330
22AE
330
22AF
330
22B1
330
22B2
330
22B3
330
264E
330
264F
330
2650
330
2651
  0
IDBUFFER
  5
26D5
330
0
100
AcDbIdBuffer
330
C9F
  0
IDBUFFER
  5
26D6
330
0
100
AcDbIdBuffer
330
266F
330
2675
330
267A
330
267B
330
267C
330
144A
330
144B
330
1BDA
330
1BDB
330
1BDC
330
1BDD
330
1BDE
330
1BDF
330
2655
330
2656
330
2657
330
2658
330
266B
330
266C
330
266D
330
266E
  0
IDBUFFER
  5
26D7
330
0
100
AcDbIdBuffer
330
CC6
330
DF5
330
20B5
330
22C8
330
2641
  0
IDBUFFER
  5
26D8
330
0
100
AcDbIdBuffer
  0
IDBUFFER
  5
26D9
330
0
100
AcDbIdBuffer
330
19BD
  0
ENDSEC
  0
EOF
