  0
SECTION
  2
HEADER
  9
$ACADVER
  1
AC1014
  9
$ACADMAINTVER
 70
     9
  9
$DWGCODEPAGE
  3
ANSI_932
  9
$INSBASE
 10
0.0
 20
0.0
 30
0.0
  9
$EXTMIN
 10
-113.6500009999999
 20
-27.75000236965381
 30
-0.00000001
  9
$EXTMAX
 10
12.90545646716395
 20
12.59699751422016
 30
0.00000001
  9
$LIMMIN
 10
-138.8290064717842
 20
-45.22474571374511
  9
$LIMMAX
 10
23.05023987897198
 20
30.30997914579825
  9
$ORTHOMODE
 70
     0
  9
$REGENMODE
 70
     1
  9
$FILLMODE
 70
     1
  9
$QTEXTMODE
 70
     0
  9
$MIRRTEXT
 70
     0
  9
$DRAGMODE
 70
     2
  9
$LTSCALE
 40
1.0
  9
$OSMODE
 70
    55
  9
$ATTMODE
 70
     1
  9
$TEXTSIZE
 40
2.5
  9
$TRACEWID
 40
1.0
  9
$TEXTSTYLE
  7
STANDARD
  9
$CLAYER
  8
AM_0
  9
$CELTYPE
  6
BYLAYER
  9
$CECOLOR
 62
   256
  9
$CELTSCALE
 40
1.0
  9
$DELOBJ
 70
     1
  9
$DISPSILH
 70
     0
  9
$DIMSCALE
 40
0.5
  9
$DIMASZ
 40
2.5
  9
$DIMEXO
 40
1.0
  9
$DIMDLI
 40
12.0
  9
$DIMRND
 40
0.0
  9
$DIMDLE
 40
0.0
  9
$DIMEXE
 40
1.0
  9
$DIMTP
 40
0.1
  9
$DIMTM
 40
0.1
  9
$DIMTXT
 40
3.2
  9
$DIMCEN
 40
0.0
  9
$DIMTSZ
 40
0.0
  9
$DIMTOL
 70
     0
  9
$DIMLIM
 70
     0
  9
$DIMTIH
 70
     0
  9
$DIMTOH
 70
     0
  9
$DIMSE1
 70
     0
  9
$DIMSE2
 70
     0
  9
$DIMTAD
 70
     3
  9
$DIMZIN
 70
     8
  9
$DIMBLK
  1
OPEN30
  9
$DIMASO
 70
     1
  9
$DIMSHO
 70
     1
  9
$DIMPOST
  1

  9
$DIMAPOST
  1
"
  9
$DIMALT
 70
     0
  9
$DIMALTD
 70
     2
  9
$DIMALTF
 40
0.0393701
  9
$DIMLFAC
 40
1.0
  9
$DIMTOFL
 70
     1
  9
$DIMTVP
 40
0.0
  9
$DIMTIX
 70
     0
  9
$DIMSOXD
 70
     0
  9
$DIMSAH
 70
     0
  9
$DIMBLK1
  1

  9
$DIMBLK2
  1

  9
$DIMSTYLE
  2
AM_JIS
  9
$DIMCLRD
 70
   256
  9
$DIMCLRE
 70
   256
  9
$DIMCLRT
 70
     2
  9
$DIMTFAC
 40
0.71
  9
$DIMGAP
 40
1.5
  9
$DIMJUST
 70
     0
  9
$DIMSD1
 70
     0
  9
$DIMSD2
 70
     0
  9
$DIMTOLJ
 70
     0
  9
$DIMTZIN
 70
     0
  9
$DIMALTZ
 70
     0
  9
$DIMALTTZ
 70
     0
  9
$DIMFIT
 70
     3
  9
$DIMUPT
 70
     0
  9
$DIMUNIT
 70
     2
  9
$DIMDEC
 70
     3
  9
$DIMTDEC
 70
     3
  9
$DIMALTU
 70
     2
  9
$DIMALTTD
 70
     2
  9
$DIMTXSTY
  7
ASAMI
  9
$DIMAUNIT
 70
     0
  9
$LUNITS
 70
     2
  9
$LUPREC
 70
     2
  9
$SKETCHINC
 40
1.0
  9
$FILLETRAD
 40
2.5
  9
$AUNITS
 70
     0
  9
$AUPREC
 70
     0
  9
$MENU
  1
.
  9
$ELEVATION
 40
0.0
  9
$PELEVATION
 40
0.0
  9
$THICKNESS
 40
0.0
  9
$LIMCHECK
 70
     0
  9
$BLIPMODE
 70
     0
  9
$CHAMFERA
 40
0.5
  9
$CHAMFERB
 40
0.5
  9
$CHAMFERC
 40
20.0
  9
$CHAMFERD
 40
0.0
  9
$SKPOLY
 70
     0
  9
$TDCREATE
 40
2452800.443498622
  9
$TDUPDATE
 40
2453151.570787928
  9
$TDINDWG
 40
0.0513964699
  9
$TDUSRTIMER
 40
0.0513964699
  9
$USRTIMER
 70
     1
  9
$ANGBASE
 50
0.0
  9
$ANGDIR
 70
     0
  9
$PDMODE
 70
     3
  9
$PDSIZE
 40
0.0
  9
$PLINEWID
 40
0.0
  9
$COORDS
 70
     1
  9
$SPLFRAME
 70
     0
  9
$SPLINETYPE
 70
     6
  9
$SPLINESEGS
 70
     8
  9
$ATTDIA
 70
     1
  9
$ATTREQ
 70
     1
  9
$HANDLING
 70
 12289
  9
$HANDSEED
  5
2E85
  9
$SURFTAB1
 70
     6
  9
$SURFTAB2
 70
     6
  9
$SURFTYPE
 70
     6
  9
$SURFU
 70
     6
  9
$SURFV
 70
     6
  9
$UCSNAME
  2

  9
$UCSORG
 10
0.0
 20
0.0
 30
0.0
  9
$UCSXDIR
 10
1.0
 20
0.0000000000000027
 30
0.0
  9
$UCSYDIR
 10
-0.0000000000000027
 20
1.0
 30
0.0
  9
$PUCSNAME
  2

  9
$PUCSORG
 10
0.0
 20
0.0
 30
0.0
  9
$PUCSXDIR
 10
1.0
 20
0.0
 30
0.0
  9
$PUCSYDIR
 10
0.0
 20
1.0
 30
0.0
  9
$USERI1
 70
     0
  9
$USERI2
 70
     0
  9
$USERI3
 70
     0
  9
$USERI4
 70
     0
  9
$USERI5
 70
     0
  9
$USERR1
 40
0.0
  9
$USERR2
 40
0.0
  9
$USERR3
 40
0.0
  9
$USERR4
 40
0.0
  9
$USERR5
 40
0.0
  9
$WORLDVIEW
 70
     1
  9
$SHADEDGE
 70
     3
  9
$SHADEDIF
 70
    70
  9
$TILEMODE
 70
     1
  9
$MAXACTVP
 70
    64
  9
$PINSBASE
 10
0.0
 20
0.0
 30
0.0
  9
$PLIMCHECK
 70
     0
  9
$PEXTMIN
 10
1.000000000000000E+20
 20
1.000000000000000E+20
 30
1.000000000000000E+20
  9
$PEXTMAX
 10
-1.000000000000000E+20
 20
-1.000000000000000E+20
 30
-1.000000000000000E+20
  9
$PLIMMIN
 10
0.0
 20
0.0
  9
$PLIMMAX
 10
841.0
 20
594.0
  9
$UNITMODE
 70
     0
  9
$VISRETAIN
 70
     1
  9
$PLINEGEN
 70
     0
  9
$PSLTSCALE
 70
     0
  9
$TREEDEPTH
 70
  3020
  9
$PICKSTYLE
 70
     0
  9
$CMLSTYLE
  2
STANDARD
  9
$CMLJUST
 70
     0
  9
$CMLSCALE
 40
20.0
  9
$PROXYGRAPHICS
 70
     1
  9
$MEASUREMENT
 70
     1
  0
ENDSEC
  0
SECTION
  2
CLASSES
  0
CLASS
  1
ACDBDICTIONARYWDFLT
  2
AcDbDictionaryWithDefault
  3
AutoCAD 2000
 90
        0
280
     0
281
     0
  0
CLASS
  1
ACDBPLACEHOLDER
  2
AcDbPlaceHolder
  3
AutoCAD 2000
 90
        0
280
     0
281
     0
  0
CLASS
  1
LAYOUT
  2
AcDbLayout
  3
AutoCAD 2000
 90
        0
280
     0
281
     0
  0
CLASS
  1
AMGSETTINGSOBJ
  2
AmgSettingsObj
  3
"AcadM|Product Description: AutoCAD Mechanical 2000|Company: Autodesk"
 90
        0
280
     0
281
     0
  0
CLASS
  1
ACME_DOCUMENT
  2
AcMeDbDoc
  3
AcMeServices
 90
        0
280
     0
281
     0
  0
CLASS
  1
ACMESCOPE
  2
AcMeScope
  3
AcMeServices
 90
        0
280
     0
281
     0
  0
CLASS
  1
ACMECOMMANDHISTORY
  2
AcMeCommandHistory
  3
AcMeServices
 90
        0
280
     0
281
     0
  0
CLASS
  1
DICTIONARYVAR
  2
AcDbDictionaryVar
  3
AutoCAD 2000
 90
        0
280
     0
281
     0
  0
CLASS
  1
ACIMSYSVARMAN
  2
AcImSysVarManager
  3
AcMeServices
 90
        0
280
     0
281
     0
  0
CLASS
  1
ACIMREALSYSVAR
  2
AcImRealSysVar
  3
AcMeServices
 90
        0
280
     0
281
     0
  0
CLASS
  1
ACIMINTSYSVAR
  2
AcImIntSysVar
  3
AcMeServices
 90
        0
280
     0
281
     0
  0
CLASS
  1
ACMEDRAWINGMAN
  2
AcMeDrawingMan
  3
AcMeServices
 90
        0
280
     0
281
     0
  0
CLASS
  1
ACMEVIEW
  2
AcMeView
  3
AcMeServices
 90
        0
280
     0
281
     0
  0
CLASS
  1
ACDBENTITYCACHE
  2
AcMeEntityCache
  3
AcMeServices
 90
        0
280
     0
281
     0
  0
CLASS
  1
GSMANAGER
  2
AcMeGSManager
  3
AcMeServices
 90
        0
280
     0
281
     0
  0
CLASS
  1
AmdtInternalReactor
  2
AmdtInternalReactor
  3
AcMeServices
 90
        0
280
     0
281
     0
  0
CLASS
  1
ACMESTATEMGR
  2
AcMeStateMgr
  3
AcMeServices
 90
        0
280
     0
281
     0
  0
CLASS
  1
ACME_DATABASE
  2
AcMeDbDatabase
  3
AcMeServices
 90
        0
280
     0
281
     0
  0
CLASS
  1
ACRFINSADJUSTERMGR
  2
AcRfInsAdjusterMgr
  3
AcMeServices
 90
        0
280
     0
281
     0
  0
CLASS
  1
ACMDATADICTIONARY
  2
AcmDataDictionary
  3
"AcmSymBB|Product Description: AutoCAD Mechanical 2000|Company: Autodesk"
 90
        0
280
     0
281
     0
  0
CLASS
  1
ACMDATAENTRYBLOCK
  2
AcmDataEntryBlock
  3
"AcmSymBB|Product Description: AutoCAD Mechanical 2000|Company: Autodesk"
 90
        0
280
     0
281
     0
  0
CLASS
  1
AMGOBJPROPCFG
  2
AmgObjPropCfg
  3
"AmgLay|Product Description: AutoCAD Mechanical 2000|Company: Autodesk"
 90
        1
280
     0
281
     0
  0
CLASS
  1
ACAMGFILTERDAT
  2
AcAmgFilterDat
  3
"AcadM|Product Description: AutoCAD Mechanical 2000|Company: Autodesk"
 90
        0
280
     0
281
     0
  0
CLASS
  1
LAYER_INDEX
  2
AcDbLayerIndex
  3
AutoCAD 2000
 90
        0
280
     0
281
     0
  0
CLASS
  1
IDBUFFER
  2
AcDbIdBuffer
  3
AutoCAD 2000
 90
        0
280
     0
281
     0
  0
CLASS
  1
ACIMSTRSYSVAR
  2
AcImStrSysVar
  3
AcMeServices
 90
        0
280
     0
281
     0
  0
CLASS
  1
ACMSTANDARDJIS
  2
AcmStandardJIS
  3
"AcmSymBB|Product Description: AutoCAD Mechanical 2000|Company: Autodesk"
 90
        0
280
     0
281
     0
  0
CLASS
  1
ACMSURFSTANDARDJIS
  2
AcmSurfTextStdJIS
  3
"AcmSymBB|Product Description: AutoCAD Mechanical 2000|Company: Autodesk"
 90
        0
280
     0
281
     0
  0
CLASS
  1
ACMFCFSTANDARDJIS
  2
AcmFCFStdJIS
  3
"AcmSymBB|Product Description: AutoCAD Mechanical 2000|Company: Autodesk"
 90
        0
280
     0
281
     0
  0
CLASS
  1
ACMWELDSTANDARDJIS
  2
AcmWeldingStdJIS
  3
"AcmSymBB|Product Description: AutoCAD Mechanical 2000|Company: Autodesk"
 90
        0
280
     0
281
     0
  0
CLASS
  1
ACMIDSTANDARDJIS
  2
AcmIdStdJIS
  3
"AcmSymBB|Product Description: AutoCAD Mechanical 2000|Company: Autodesk"
 90
        0
280
     0
281
     0
  0
CLASS
  1
ACMDATUMSTANDARDJIS
  2
AcmDatumStdJIS
  3
"AcmSymBB|Product Description: AutoCAD Mechanical 2000|Company: Autodesk"
 90
        0
280
     0
281
     0
  0
CLASS
  1
ACMBOMSTANDARDJIS
  2
AcmBOMStdJIS
  3
"AcmSymBB|Product Description: AutoCAD Mechanical 2000|Company: Autodesk"
 90
        0
280
     0
281
     0
  0
CLASS
  1
ACMSTANDARDANSI
  2
AcmStandardANSI
  3
"AcmSymBB|Product Description: AutoCAD Mechanical 2000|Company: Autodesk"
 90
        0
280
     0
281
     0
  0
CLASS
  1
ACMSURFSTANDARDANSI
  2
AcmSurfTextStdANSI
  3
"AcmSymBB|Product Description: AutoCAD Mechanical 2000|Company: Autodesk"
 90
        0
280
     0
281
     0
  0
CLASS
  1
ACMFCFSTANDARDANSI
  2
AcmFCFStdANSI
  3
"AcmSymBB|Product Description: AutoCAD Mechanical 2000|Company: Autodesk"
 90
        0
280
     0
281
     0
  0
CLASS
  1
ACMWELDSTANDARDANSI
  2
AcmWeldingStdANSI
  3
"AcmSymBB|Product Description: AutoCAD Mechanical 2000|Company: Autodesk"
 90
        0
280
     0
281
     0
  0
CLASS
  1
ACMIDSTANDARDANSI
  2
AcmIdStdANSI
  3
"AcmSymBB|Product Description: AutoCAD Mechanical 2000|Company: Autodesk"
 90
        0
280
     0
281
     0
  0
CLASS
  1
ACMDATUMSTANDARDANSI
  2
AcmDatumStdANSI
  3
"AcmSymBB|Product Description: AutoCAD Mechanical 2000|Company: Autodesk"
 90
        0
280
     0
281
     0
  0
CLASS
  1
ACMBOMSTANDARDANSI
  2
AcmBOMStdANSI
  3
"AcmSymBB|Product Description: AutoCAD Mechanical 2000|Company: Autodesk"
 90
        0
280
     0
281
     0
  0
CLASS
  1
ACMSTANDARDBSI
  2
AcmStandardBSI
  3
"AcmSymBB|Product Description: AutoCAD Mechanical 2000|Company: Autodesk"
 90
        0
280
     0
281
     0
  0
CLASS
  1
ACMSURFSTANDARDBSI
  2
AcmSurfTextStdBSI
  3
"AcmSymBB|Product Description: AutoCAD Mechanical 2000|Company: Autodesk"
 90
        0
280
     0
281
     0
  0
CLASS
  1
ACMFCFSTANDARDBSI
  2
AcmFCFStdBSI
  3
"AcmSymBB|Product Description: AutoCAD Mechanical 2000|Company: Autodesk"
 90
        0
280
     0
281
     0
  0
CLASS
  1
ACMWELDSTANDARDBSI
  2
AcmWeldingStdBSI
  3
"AcmSymBB|Product Description: AutoCAD Mechanical 2000|Company: Autodesk"
 90
        0
280
     0
281
     0
  0
CLASS
  1
ACMIDSTANDARDBSI
  2
AcmIdStdBSI
  3
"AcmSymBB|Product Description: AutoCAD Mechanical 2000|Company: Autodesk"
 90
        0
280
     0
281
     0
  0
CLASS
  1
ACMDATUMSTANDARDBSI
  2
AcmDatumStdBSI
  3
"AcmSymBB|Product Description: AutoCAD Mechanical 2000|Company: Autodesk"
 90
        0
280
     0
281
     0
  0
CLASS
  1
ACMBOMSTANDARDBSI
  2
AcmBOMStdBSI
  3
"AcmSymBB|Product Description: AutoCAD Mechanical 2000|Company: Autodesk"
 90
        0
280
     0
281
     0
  0
CLASS
  1
LONG_TRANSACTION
  2
AcDbLongTransaction
  3
AutoCAD 2000
 90
        0
280
     0
281
     0
  0
CLASS
  1
LWPOLYLINE
  2
AcDbPolyline
  3
AutoCAD 2000
 90
        0
280
     0
281
     1
  0
CLASS
  1
HATCH
  2
AcDbHatch
  3
AutoCAD 2000
 90
        0
280
     0
281
     1
  0
CLASS
  1
XRECORD
  2
AcDbXrecord
  3
AutoCAD 2000
 90
        0
280
     0
281
     0
  0
ENDSEC
  0
SECTION
  2
TABLES
  0
TABLE
  2
VPORT
  5
8
330
0
100
AcDbSymbolTable
 70
     3
  0
VPORT
  5
2E4F
330
8
100
AcDbSymbolTableRecord
100
AcDbViewportTableRecord
  2
*ACTIVE
 70
     0
 10
0.0
 20
0.0
 11
1.0
 21
1.0
 12
-48.02713892478682
 22
-7.577356301661282
 13
0.0
 23
0.0
 14
2.5
 24
2.5
 15
10.0
 25
10.0
 16
0.0
 26
0.0
 36
1.0
 17
0.0
 27
0.0
 37
0.0
 40
84.26343477394931
 41
1.56570841889117
 42
50.0
 43
0.0
 44
0.0
 50
0.0
 51
0.0
 71
     0
 72
   100
 73
     1
 74
     1
 75
     0
 76
     0
 77
     0
 78
     0
  0
ENDTAB
  0
TABLE
  2
LTYPE
  5
5
330
0
100
AcDbSymbolTable
 70
    10
  0
LTYPE
  5
14
330
5
100
AcDbSymbolTableRecord
100
AcDbLinetypeTableRecord
  2
BYBLOCK
 70
     0
  3

 72
    65
 73
     0
 40
0.0
  0
LTYPE
  5
15
330
5
100
AcDbSymbolTableRecord
100
AcDbLinetypeTableRecord
  2
BYLAYER
 70
     0
  3

 72
    65
 73
     0
 40
0.0
  0
LTYPE
  5
16
330
5
100
AcDbSymbolTableRecord
100
AcDbLinetypeTableRecord
  2
CONTINUOUS
 70
     0
  3
Solid line
 72
    65
 73
     0
 40
0.0
  0
LTYPE
  5
4B
330
5
100
AcDbSymbolTableRecord
100
AcDbLinetypeTableRecord
  2
AM_ISO02W050
 70
     0
  3
__ __ __ __ __ __ __ __ __ __ __ __ __ __ __
 72
    65
 73
     2
 40
7.5
 49
6.0
 74
     0
 49
-1.5
 74
     0
  0
LTYPE
  5
4C
330
5
100
AcDbSymbolTableRecord
100
AcDbLinetypeTableRecord
  2
AM_ISO08W050
 70
     0
  3
____ . ____ . ____ . ____ . ____ . ____ . ____
 72
    65
 73
     4
 40
18.0
 49
12.0
 74
     0
 49
-1.5
 74
     0
 49
3.0
 74
     0
 49
-1.5
 74
     0
  0
LTYPE
  5
4D
330
5
100
AcDbSymbolTableRecord
100
AcDbLinetypeTableRecord
  2
AM_ISO09W050
 70
     0
  3
_____ . . _____ . . _____ . . ____ .. ____
 72
    65
 73
     6
 40
22.5
 49
12.0
 74
     0
 49
-1.5
 74
     0
 49
3.0
 74
     0
 49
-1.5
 74
     0
 49
3.0
 74
     0
 49
-1.5
 74
     0
  0
LTYPE
  5
4E
330
5
100
AcDbSymbolTableRecord
100
AcDbLinetypeTableRecord
  2
AMCONSTR
 70
     0
  3
_______________________
 72
    65
 73
     2
 40
9999.0
 49
9999.0
 74
     0
 49
0.0
 74
     0
  0
LTYPE
  5
4F
330
5
100
AcDbSymbolTableRecord
100
AcDbLinetypeTableRecord
  2
AM_ISO02W050X2
 70
     0
  3
 _ _ _ _ _ _ _ _ _ _ _ _
 72
    65
 73
     2
 40
3.75
 49
3.0
 74
     0
 49
-0.75
 74
     0
  0
LTYPE
  5
50
330
5
100
AcDbSymbolTableRecord
100
AcDbLinetypeTableRecord
  2
AM_ISO08W050X2
 70
     0
  3
__ . __ . __ . __ . __ . __
 72
    65
 73
     4
 40
9.0
 49
6.0
 74
     0
 49
-0.75
 74
     0
 49
1.5
 74
     0
 49
-0.75
 74
     0
  0
LTYPE
  5
53
330
5
100
AcDbSymbolTableRecord
100
AcDbLinetypeTableRecord
  2
AMZIGZAG
 70
     0
  3
/\/-/\/-/\/-/\/-/\/-/\/
 72
    65
 73
     2
 40
11.00009999999999
 49
0.0001
 74
     4
 75
   135
340
52
 46
0.04
 50
0.0
 44
0.0
 45
0.0
 49
-11.0
 74
     0
  0
LTYPE
  5
166
330
5
100
AcDbSymbolTableRecord
100
AcDbLinetypeTableRecord
  2
ACJISTGL
 70
     0
  3
_ _ _ _ _
 72
    65
 73
     2
 40
3.0
 49
2.0
 74
     0
 49
-1.0
 74
     0
  0
LTYPE
  5
26A
330
5
100
AcDbSymbolTableRecord
100
AcDbLinetypeTableRecord
  2
ACJISTGB
 70
     0
  3
__ . . __ . .
 72
    65
 73
     6
 40
9.0
 49
4.0
 74
     0
 49
-1.0
 74
     0
 49
1.0
 74
     0
 49
-1.0
 74
     0
 49
1.0
 74
     0
 49
-1.0
 74
     0
  0
ENDTAB
  0
TABLE
  2
LAYER
  5
2
330
0
100
AcDbSymbolTable
 70
     7
  0
LAYER
  5
10
330
2
100
AcDbSymbolTableRecord
100
AcDbLayerTableRecord
  2
0
 70
     0
 62
     7
  6
CONTINUOUS
  0
LAYER
  5
3F9
330
2
100
AcDbSymbolTableRecord
100
AcDbLayerTableRecord
  2
AM_0
 70
     0
 62
     7
  6
CONTINUOUS
  0
LAYER
  5
C7C
330
2
100
AcDbSymbolTableRecord
100
AcDbLayerTableRecord
  2
AM_7
 70
     0
 62
     4
  6
AM_ISO08W050
  0
LAYER
  5
C97
330
2
100
AcDbSymbolTableRecord
100
AcDbLayerTableRecord
  2
AM_11
 70
     0
 62
     3
  6
AM_ISO09W050
  0
LAYER
  5
CC5
330
2
100
AcDbSymbolTableRecord
100
AcDbLayerTableRecord
  2
AM_5
 70
     0
 62
     3
  6
CONTINUOUS
  0
LAYER
  5
CC7
330
2
100
AcDbSymbolTableRecord
100
AcDbLayerTableRecord
  2
DEFPOINTS
 70
     0
 62
     7
  6
CONTINUOUS
  0
LAYER
  5
19BC
330
2
100
AcDbSymbolTableRecord
100
AcDbLayerTableRecord
  2
AM_6
 70
     0
 62
     2
  6
CONTINUOUS
  0
ENDTAB
  0
TABLE
  2
STYLE
  5
3
330
0
100
AcDbSymbolTable
 70
     5
  0
STYLE
  5
11
330
3
100
AcDbSymbolTableRecord
100
AcDbTextStyleTableRecord
  2
STANDARD
 70
     0
 40
0.0
 41
1.0
 50
0.0
 71
     0
 42
2.5
  3
simplex.shx
  4
EXTFONT.SHX
  0
STYLE
  5
52
330
3
100
AcDbSymbolTableRecord
100
AcDbTextStyleTableRecord
  2

 70
     1
 40
0.0
 41
1.0
 50
0.0
 71
     0
 42
2.5
  3
ltypeshp.shx
  4

  0
STYLE
  5
6B
330
3
100
AcDbSymbolTableRecord
100
AcDbTextStyleTableRecord
  2
ASAMI
 70
     0
 40
0.0
 41
1.0
 50
0.0
 71
     0
 42
2.5
  3
simplex.shx
  4
EXTFONT.SHX
  0
STYLE
  5
262
330
3
100
AcDbSymbolTableRecord
100
AcDbTextStyleTableRecord
  2
ACJISTS
 70
     0
 40
1.0
 41
1.0
 50
0.0
 71
     0
 42
2.5
  3
simplex.shx
  4
bigfont.shx
  0
STYLE
  5
269
330
3
100
AcDbSymbolTableRecord
100
AcDbTextStyleTableRecord
  2
ACJISGDT
 70
     0
 40
0.0
 41
1.0
 50
0.0
 71
     0
 42
2.5
  3
amgdtans.shx
  4

  0
ENDTAB
  0
TABLE
  2
VIEW
  5
6
330
0
100
AcDbSymbolTable
 70
     0
  0
ENDTAB
  0
TABLE
  2
UCS
  5
7
330
0
100
AcDbSymbolTable
 70
     0
  0
ENDTAB
  0
TABLE
  2
APPID
  5
9
330
0
100
AcDbSymbolTable
 70
    16
  0
APPID
  5
12
330
9
100
AcDbSymbolTableRecord
100
AcDbRegAppTableRecord
  2
ACAD
 70
     0
  0
APPID
  5
30
330
9
100
AcDbSymbolTableRecord
100
AcDbRegAppTableRecord
  2
MCAD_NO_VIS
 70
     0
  0
APPID
  5
31
330
9
100
AcDbSymbolTableRecord
100
AcDbRegAppTableRecord
  2
ACAD_TEMP_GRAPHIC
 70
     0
  0
APPID
  5
2C2
330
9
100
AcDbSymbolTableRecord
100
AcDbRegAppTableRecord
  2
GENIUS_GENDTOL_13
 70
     0
  0
APPID
  5
339
330
9
100
AcDbSymbolTableRecord
100
AcDbRegAppTableRecord
  2
GENIUS_GENODEF_13
 70
     0
  0
APPID
  5
33A
330
9
100
AcDbSymbolTableRecord
100
AcDbRegAppTableRecord
  2
GENIUS_GENOBJ-N-RSBK_13
 70
     0
  0
APPID
  5
33B
330
9
100
AcDbSymbolTableRecord
100
AcDbRegAppTableRecord
  2
GENIUS_GENOBJ-N-LIB_13
 70
     0
  0
APPID
  5
33C
330
9
100
AcDbSymbolTableRecord
100
AcDbRegAppTableRecord
  2
GENIUS_GENSCALE_13
 70
     0
  0
APPID
  5
378
330
9
100
AcDbSymbolTableRecord
100
AcDbRegAppTableRecord
  2
GENIUS_GENDIMSH_14
 70
     0
  0
APPID
  5
C82
330
9
100
AcDbSymbolTableRecord
100
AcDbRegAppTableRecord
  2
GENIUS_GENOBJ-N-CRS_13
 70
     0
  0
APPID
  5
C83
330
9
100
AcDbSymbolTableRecord
100
AcDbRegAppTableRecord
  2
GENIUS_GENOENT_13
 70
     0
  0
APPID
  5
C84
330
9
100
AcDbSymbolTableRecord
100
AcDbRegAppTableRecord
  2
GENIUS_GENOREF_13
 70
     0
  0
APPID
  5
C85
330
9
100
AcDbSymbolTableRecord
100
AcDbRegAppTableRecord
  2
GENIUS_GENOLIS_13
 70
     0
  0
APPID
  5
CA0
330
9
100
AcDbSymbolTableRecord
100
AcDbRegAppTableRecord
  2
GENIUS_GENOBJ-N-CEN_13
 70
     0
  0
APPID
  5
1E1E
330
9
100
AcDbSymbolTableRecord
100
AcDbRegAppTableRecord
  2
GENIUS_GENFIL_13
 70
     0
  0
APPID
  5
1E1F
330
9
100
AcDbSymbolTableRecord
100
AcDbRegAppTableRecord
  2
GENIUS_GENOBJ-N-CHA_13
 70
     0
  0
ENDTAB
  0
TABLE
  2
DIMSTYLE
  5
A
330
0
100
AcDbSymbolTable
 70
     9
  0
DIMSTYLE
105
58
330
A
100
AcDbSymbolTableRecord
100
AcDbDimStyleTableRecord
  2
AM_JIS
 70
     0
  3

  4
"
  5
OPEN30
  6

  7

 40
0.5
 41
2.5
 42
1.0
 43
12.0
 44
1.0
 45
0.0
 46
0.0
 47
0.1
 48
0.1
140
3.2
141
0.0
142
0.0
143
0.0393701
144
1.0
145
0.0
146
0.71
147
1.5
 71
     0
 72
     0
 73
     0
 74
     0
 75
     0
 76
     0
 77
     3
 78
     8
170
     0
171
     2
172
     1
173
     0
174
     0
175
     0
176
   256
177
   256
178
     2
270
     2
271
     3
272
     3
273
     2
274
     2
340
6B
275
     0
280
     0
281
     0
282
     0
283
     0
284
     0
285
     0
286
     0
287
     3
288
     0
  0
DIMSTYLE
105
5F
330
A
100
AcDbSymbolTableRecord
100
AcDbDimStyleTableRecord
  2
AM_JIS$3
 70
     0
  3

  4
"
  5
OPEN30
  6

  7

 40
0.5
 41
2.5
 42
1.0
 43
10.0
 44
1.0
 45
0.0
 46
0.0
 47
0.1
 48
0.1
140
3.2
141
0.0
142
0.0
143
0.0393701
144
1.0
145
0.0
146
0.71
147
1.5
 71
     0
 72
     0
 73
     0
 74
     1
 75
     0
 76
     0
 77
     3
 78
     8
170
     0
171
     2
172
     0
173
     0
174
     0
175
     0
176
   256
177
   256
178
     2
270
     2
271
     2
272
     3
273
     2
274
     2
340
6B
275
     0
280
     0
281
     0
282
     0
283
     0
284
     0
285
     0
286
     0
287
     0
288
     1
  0
DIMSTYLE
105
60
330
A
100
AcDbSymbolTableRecord
100
AcDbDimStyleTableRecord
  2
AM_JIS$4
 70
     0
  3

  4
"
  5
OPEN30
  6

  7

 40
0.5
 41
2.5
 42
1.0
 43
10.0
 44
1.0
 45
0.0
 46
0.0
 47
0.1
 48
0.1
140
3.2
141
0.0
142
0.0
143
0.0393701
144
1.0
145
0.0
146
0.71
147
1.5
 71
     0
 72
     0
 73
     0
 74
     1
 75
     0
 76
     0
 77
     3
 78
     8
170
     0
171
     2
172
     0
173
     0
174
     0
175
     0
176
   256
177
   256
178
     2
270
     2
271
     2
272
     3
273
     2
274
     2
340
6B
275
     0
280
     0
281
     0
282
     0
283
     0
284
     0
285
     0
286
     0
287
     0
288
     1
  0
DIMSTYLE
105
61
330
A
100
AcDbSymbolTableRecord
100
AcDbDimStyleTableRecord
  2
AM_JIS$6
 70
     0
  3

  4
"
  5
OPEN30
  6

  7

 40
0.5
 41
2.5
 42
1.0
 43
10.0
 44
1.0
 45
0.0
 46
0.0
 47
0.1
 48
0.1
140
3.2
141
0.0
142
0.0
143
0.0393701
144
1.0
145
0.0
146
0.71
147
1.5
 71
     0
 72
     0
 73
     0
 74
     0
 75
     0
 76
     0
 77
     0
 78
     8
170
     0
171
     2
172
     1
173
     0
174
     0
175
     0
176
   256
177
   256
178
     2
270
     2
271
     2
272
     2
273
     2
274
     2
340
6B
275
     0
280
     0
281
     0
282
     0
283
     0
284
     0
285
     0
286
     0
287
     3
288
     0
  0
DIMSTYLE
105
62
330
A
100
AcDbSymbolTableRecord
100
AcDbDimStyleTableRecord
  2
AM_JIS$7
 70
     0
  3

  4
"
  5
OPEN30
  6

  7

 40
0.5
 41
2.5
 42
1.0
 43
10.0
 44
1.0
 45
0.0
 46
0.0
 47
0.1
 48
0.1
140
3.2
141
0.0
142
0.0
143
0.0393701
144
1.0
145
0.0
146
0.71
147
1.5
 71
     0
 72
     0
 73
     0
 74
     0
 75
     0
 76
     0
 77
     3
 78
     8
170
     0
171
     2
172
     1
173
     0
174
     0
175
     0
176
   256
177
   256
178
     2
270
     2
271
     2
272
     3
273
     2
274
     2
340
6B
275
     0
280
     0
281
     0
282
     0
283
     0
284
     0
285
     0
286
     0
287
     3
288
     0
  0
DIMSTYLE
105
63
330
A
100
AcDbSymbolTableRecord
100
AcDbDimStyleTableRecord
  2
AM_JIS$SF
 70
     0
  3

  4
"
  5
OPEN30
  6

  7

 40
0.5
 41
2.5
 42
1.0
 43
10.0
 44
1.0
 45
0.0
 46
0.0
 47
0.1
 48
0.1
140
3.2
141
0.0
142
0.0
143
0.0393701
144
1.0
145
0.0
146
0.71
147
1.5
 71
     0
 72
     0
 73
     0
 74
     0
 75
     1
 76
     1
 77
     3
 78
     8
170
     0
171
     2
172
     1
173
     0
174
     0
175
     0
176
   256
177
   256
178
     2
270
     2
271
     2
272
     2
273
     2
274
     2
340
6B
275
     0
280
     0
281
     0
282
     0
283
     0
284
     0
285
     0
286
     0
287
     3
288
     0
  0
DIMSTYLE
105
68
330
A
100
AcDbSymbolTableRecord
100
AcDbDimStyleTableRecord
  2
AM_JIS$SH
 70
     0
  3

  4
"
  5

  6
GENAXEH
  7
OPEN30
 40
0.5
 41
2.5
 42
1.0
 43
10.0
 44
1.0
 45
0.0
 46
0.0
 47
0.1
 48
0.1
140
3.2
141
0.0
142
0.0
143
0.0393701
144
2.0
145
0.0
146
0.71
147
1.5
 71
     0
 72
     0
 73
     0
 74
     0
 75
     1
 76
     1
 77
     3
 78
     8
170
     0
171
     2
172
     1
173
     1
174
     0
175
     0
176
   256
177
   256
178
     2
270
     2
271
     2
272
     2
273
     2
274
     2
340
6B
275
     0
280
     0
281
     0
282
     0
283
     0
284
     0
285
     0
286
     0
287
     3
288
     0
  0
DIMSTYLE
105
B34
102
{ACAD_REACTORS
330
2BA8
102
}
330
A
100
AcDbSymbolTableRecord
100
AcDbDimStyleTableRecord
  2
AM_JIS$2
 70
     0
  3

  4
"
  5
OPEN30
  6

  7

 40
0.5
 41
2.5
 42
1.0
 43
12.0
 44
1.0
 45
0.0
 46
0.0
 47
0.1
 48
0.1
140
3.2
141
0.0
142
0.0
143
0.0393701
144
1.0
145
0.0
146
0.71
147
1.5
 71
     0
 72
     0
 73
     0
 74
     0
 75
     0
 76
     0
 77
     3
 78
     8
170
     0
171
     2
172
     1
173
     0
174
     0
175
     0
176
   256
177
   256
178
     2
270
     2
271
     3
272
     3
273
     2
274
     2
340
6B
275
     0
280
     0
281
     0
282
     0
283
     0
284
     0
285
     0
286
     0
287
     3
288
     0
  0
DIMSTYLE
105
BA5
102
{ACAD_REACTORS
330
CC6
330
DF5
330
228A
330
2D88
102
}
330
A
100
AcDbSymbolTableRecord
100
AcDbDimStyleTableRecord
  2
AM_JIS$0
 70
     0
  3

  4
"
  5
OPEN30
  6

  7

 40
0.5
 41
2.5
 42
0.0
 43
10.0
 44
1.0
 45
0.0
 46
0.0
 47
0.1
 48
0.1000000001
140
3.799999999999999
141
0.0
142
0.0
143
0.0393701
144
1.0
145
0.0
146
0.71
147
1.5
 71
     0
 72
     0
 73
     0
 74
     0
 75
     0
 76
     0
 77
     3
 78
     1
170
     0
171
     2
172
     1
173
     0
174
     0
175
     0
176
     3
177
     3
178
     2
270
     2
271
     2
272
     2
273
     2
274
     2
340
11
275
     1
280
     0
281
     0
282
     0
283
     0
284
     8
285
     0
286
     0
287
     0
288
     0
  0
ENDTAB
  0
TABLE
  2
BLOCK_RECORD
  5
1
330
0
100
AcDbSymbolTable
 70
    10
  0
BLOCK_RECORD
  5
1F
102
{ACAD_XDICTIONARY
360
74
102
}
330
1
100
AcDbSymbolTableRecord
100
AcDbBlockTableRecord
  2
*MODEL_SPACE
  0
BLOCK_RECORD
  5
101
102
{ACAD_XDICTIONARY
360
2E78
102
}
330
1
100
AcDbSymbolTableRecord
100
AcDbBlockTableRecord
  2
*PAPER_SPACE
  0
BLOCK_RECORD
  5
59
330
1
100
AcDbSymbolTableRecord
100
AcDbBlockTableRecord
  2
_OPEN30
  0
BLOCK_RECORD
  5
64
330
1
100
AcDbSymbolTableRecord
100
AcDbBlockTableRecord
  2
GENAXEH
  0
BLOCK_RECORD
  5
CC8
330
1
100
AcDbSymbolTableRecord
100
AcDbBlockTableRecord
  2
*D5
  0
BLOCK_RECORD
  5
DF6
330
1
100
AcDbSymbolTableRecord
100
AcDbBlockTableRecord
  2
*D6
  0
BLOCK_RECORD
  5
228B
330
1
100
AcDbSymbolTableRecord
100
AcDbBlockTableRecord
  2
*D7
  0
BLOCK_RECORD
  5
2BA9
330
1
100
AcDbSymbolTableRecord
100
AcDbBlockTableRecord
  2
*D8
  0
BLOCK_RECORD
  5
2D89
330
1
100
AcDbSymbolTableRecord
100
AcDbBlockTableRecord
  2
*D9
  0
ENDTAB
  0
ENDSEC
  0
SECTION
  2
BLOCKS
  0
BLOCK
  5
20
330
1F
100
AcDbEntity
  8
0
100
AcDbBlockBegin
  2
*MODEL_SPACE
 70
     0
 10
0.0
 20
0.0
 30
0.0
  3
*MODEL_SPACE
  1

  0
ENDBLK
  5
21
330
1F
100
AcDbEntity
  8
0
100
AcDbBlockEnd
  0
BLOCK
  5
103
330
101
100
AcDbEntity
 67
     1
  8
0
100
AcDbBlockBegin
  2
*PAPER_SPACE
 70
     0
 10
0.0
 20
0.0
 30
0.0
  3
*PAPER_SPACE
  1

  0
ENDBLK
  5
104
330
101
100
AcDbEntity
 67
     1
  8
0
100
AcDbBlockEnd
  0
BLOCK
  5
5D
330
59
100
AcDbEntity
  8
0
100
AcDbBlockBegin
  2
_OPEN30
 70
     0
 10
0.0
 20
0.0
 30
0.0
  3
_OPEN30
  1

  0
LINE
  5
5A
330
59
100
AcDbEntity
  8
0
 62
     0
100
AcDbLine
 10
-1.0
 20
0.26794919
 30
0.0
 11
0.0
 21
0.0
 31
0.0
  0
LINE
  5
5B
330
59
100
AcDbEntity
  8
0
 62
     0
100
AcDbLine
 10
0.0
 20
0.0
 30
0.0
 11
-1.0
 21
-0.26794919
 31
0.0
  0
LINE
  5
5C
330
59
100
AcDbEntity
  8
0
 62
     0
100
AcDbLine
 10
0.0
 20
0.0
 30
0.0
 11
-1.0
 21
0.0
 31
0.0
  0
ENDBLK
  5
5E
330
59
100
AcDbEntity
  8
0
100
AcDbBlockEnd
  0
BLOCK
  5
66
330
64
100
AcDbEntity
  8
0
100
AcDbBlockBegin
  2
GENAXEH
 70
     0
 10
0.0
 20
0.0
 30
0.0
  3
GENAXEH
  1

  0
LINE
  5
65
330
64
100
AcDbEntity
  8
0
100
AcDbLine
 10
-1.0
 20
0.0
 30
0.0
 11
1.0
 21
0.0
 31
0.0
  0
ENDBLK
  5
67
330
64
100
AcDbEntity
  8
0
100
AcDbBlockEnd
  0
BLOCK
  5
CD2
330
CC8
100
AcDbEntity
  8
0
100
AcDbBlockBegin
  2
*D5
 70
     1
 10
0.0
 20
0.0
 30
0.0
  3
*D5
  1

  0
LINE
  5
2DFD
330
CC8
100
AcDbEntity
  8
AM_5
 62
     3
100
AcDbLine
 10
-101.9999999999999
 20
-4.000000000000009
 30
0.0
 11
-101.9999999999999
 21
-17.00000236965379
 31
0.0
  0
LINE
  5
2DFE
330
CC8
100
AcDbEntity
  8
AM_5
 62
     3
100
AcDbLine
 10
-1.999998253225018
 20
-4.099999488437607
 30
0.0
 11
-1.999998253225019
 21
-17.00000236965379
 31
0.0
  0
LINE
  5
2DFF
330
CC8
100
AcDbEntity
  8
AM_5
 62
     3
100
AcDbLine
 10
-100.7499999999999
 20
-16.50000236965379
 30
0.0
 11
-3.249998253225019
 21
-16.50000236965379
 31
0.0
  0
INSERT
  5
2E00
330
CC8
100
AcDbEntity
  8
AM_5
 62
     3
100
AcDbBlockReference
  2
_OPEN30
 10
-101.9999999999999
 20
-16.50000236965379
 30
0.0
 41
1.25
 42
1.25
 43
1.25
 50
180.0
  0
INSERT
  5
2E01
330
CC8
100
AcDbEntity
  8
AM_5
 62
     3
100
AcDbBlockReference
  2
_OPEN30
 10
-1.999998253225019
 20
-16.50000236965379
 30
0.0
 41
1.25
 42
1.25
 43
1.25
  0
MTEXT
  5
2E02
330
CC8
100
AcDbEntity
  8
AM_5
 62
     2
100
AcDbMText
 10
-51.9999991266125
 20
-14.80000236965379
 30
0.0
 40
1.9
 41
0.0
 71
     5
 72
     1
  1
100
1001
ACAD
1000
MTEXTBEGIN
1070
    73
1070
     1
1070
    44
1040
1.0
1070
    74
1070
     0
1000
MTEXTEND
  0
POINT
  5
2E03
330
CC8
100
AcDbEntity
  8
DEFPOINTS
 62
     0
100
AcDbPoint
 10
-101.9999999999999
 20
-4.000000000000009
 30
0.0
  0
POINT
  5
2E04
330
CC8
100
AcDbEntity
  8
DEFPOINTS
 62
     0
100
AcDbPoint
 10
-1.999998253225018
 20
-4.099999488437607
 30
0.0
  0
POINT
  5
2E05
330
CC8
100
AcDbEntity
  8
DEFPOINTS
 62
     0
100
AcDbPoint
 10
-1.999998253225019
 20
-16.50000236965379
 30
0.0
  0
ENDBLK
  5
CD3
330
CC8
100
AcDbEntity
  8
0
100
AcDbBlockEnd
  0
BLOCK
  5
E00
330
DF6
100
AcDbEntity
  8
0
100
AcDbBlockBegin
  2
*D6
 70
     1
 10
0.0
 20
0.0
 30
0.0
  3
*D6
  1

  0
LINE
  5
2E23
330
DF6
100
AcDbEntity
  8
AM_5
 62
     3
100
AcDbLine
 10
-47.0
 20
-4.50000136965388
 30
0.0
 11
-47.0
 21
-12.00000236965376
 31
0.0
  0
LINE
  5
2E24
330
DF6
100
AcDbEntity
  8
AM_5
 62
     3
100
AcDbLine
 10
-1.999998253225018
 20
-4.099999488437607
 30
0.0
 11
-1.999998253225018
 21
-12.00000236965376
 31
0.0
  0
LINE
  5
2E25
330
DF6
100
AcDbEntity
  8
AM_5
 62
     3
100
AcDbLine
 10
-45.75
 20
-11.50000236965376
 30
0.0
 11
-3.249998253225018
 21
-11.50000236965376
 31
0.0
  0
INSERT
  5
2E26
330
DF6
100
AcDbEntity
  8
AM_5
 62
     3
100
AcDbBlockReference
  2
_OPEN30
 10
-47.0
 20
-11.50000236965376
 30
0.0
 41
1.25
 42
1.25
 43
1.25
 50
180.0
  0
INSERT
  5
2E27
330
DF6
100
AcDbEntity
  8
AM_5
 62
     3
100
AcDbBlockReference
  2
_OPEN30
 10
-1.999998253225018
 20
-11.50000236965376
 30
0.0
 41
1.25
 42
1.25
 43
1.25
  0
MTEXT
  5
2E28
330
DF6
100
AcDbEntity
  8
AM_5
 62
     2
100
AcDbMText
 10
-24.49999912661251
 20
-9.800002369653761
 30
0.0
 40
1.9
 41
0.0
 71
     5
 72
     1
  1
45
1001
ACAD
1000
MTEXTBEGIN
1070
    73
1070
     1
1070
    44
1040
1.0
1070
    74
1070
     0
1000
MTEXTEND
  0
POINT
  5
2E29
330
DF6
100
AcDbEntity
  8
DEFPOINTS
 62
     0
100
AcDbPoint
 10
-47.0
 20
-4.50000136965388
 30
0.0
  0
POINT
  5
2E2A
330
DF6
100
AcDbEntity
  8
DEFPOINTS
 62
     0
100
AcDbPoint
 10
-1.999998253225018
 20
-4.099999488437607
 30
0.0
  0
POINT
  5
2E2B
330
DF6
100
AcDbEntity
  8
DEFPOINTS
 62
     0
100
AcDbPoint
 10
-1.999998253225018
 20
-11.50000236965376
 30
0.0
  0
ENDBLK
  5
E01
330
DF6
100
AcDbEntity
  8
0
100
AcDbBlockEnd
  0
BLOCK
  5
2297
330
228B
100
AcDbEntity
  8
0
100
AcDbBlockBegin
  2
*D7
 70
     1
 10
0.0
 20
0.0
 30
0.0
  3
*D7
  1

  0
LINE
  5
2E06
330
228B
100
AcDbEntity
  8
AM_5
 62
     3
100
AcDbLine
 10
-101.4999999999999
 20
-4.500000000000317
 30
0.0
 11
-111.5000009999999
 21
-4.500000000000345
 31
0.0
  0
LINE
  5
2E07
330
228B
100
AcDbEntity
  8
AM_5
 62
     3
100
AcDbLine
 10
-101.5
 20
4.499999999999705
 30
0.0
 11
-111.5000009999999
 21
4.499999999999677
 31
0.0
  0
LINE
  5
2E08
330
228B
100
AcDbEntity
  8
AM_5
 62
     3
100
AcDbLine
 10
-111.0000009999999
 20
-3.250000000000344
 30
0.0
 11
-111.0000009999999
 21
3.249999999999678
 31
0.0
  0
INSERT
  5
2E09
330
228B
100
AcDbEntity
  8
AM_5
 62
     3
100
AcDbBlockReference
  2
_OPEN30
 10
-111.0000009999999
 20
-4.500000000000344
 30
0.0
 41
1.25
 42
1.25
 43
1.25
 50
270.0000000000001
  0
INSERT
  5
2E0A
330
228B
100
AcDbEntity
  8
AM_5
 62
     3
100
AcDbBlockReference
  2
_OPEN30
 10
-111.0000009999999
 20
4.499999999999678
 30
0.0
 41
1.25
 42
1.25
 43
1.25
 50
90.00000000000015
  0
MTEXT
  5
2E0B
330
228B
100
AcDbEntity
  8
AM_5
 62
     2
100
AcDbMText
 10
-112.7000009999999
 20
-0.0000000000003315
 30
0.0
 40
1.9
 41
0.0
 71
     5
 72
     1
  1
%%c9
 11
-0.0000000000000028
 21
1.0
 31
0.0
1001
ACAD
1000
MTEXTBEGIN
1070
    73
1070
     1
1070
    44
1040
1.0
1070
    74
1070
     0
1000
MTEXTEND
  0
POINT
  5
2E0C
330
228B
100
AcDbEntity
  8
DEFPOINTS
 62
     0
100
AcDbPoint
 10
-101.5
 20
-4.500000000000002
 30
0.0
  0
POINT
  5
2E0D
330
228B
100
AcDbEntity
  8
DEFPOINTS
 62
     0
100
AcDbPoint
 10
-101.4999999999999
 20
4.50000000000002
 30
0.0
  0
POINT
  5
2E0E
330
228B
100
AcDbEntity
  8
DEFPOINTS
 62
     0
100
AcDbPoint
 10
-111.0000009999999
 20
4.500000000000023
 30
0.0
  0
ENDBLK
  5
2298
330
228B
100
AcDbEntity
  8
0
100
AcDbBlockEnd
  0
BLOCK
  5
2BB7
330
2BA9
100
AcDbEntity
  8
0
100
AcDbBlockBegin
  2
*D8
 70
     1
 10
0.0
 20
0.0
 30
0.0
  3
*D8
  1

  0
LINE
  5
2E7A
330
2BA9
100
AcDbEntity
  8
AM_5
100
AcDbLine
 10
0.1710101364597397
 20
-0.4698462868087994
 30
0.0
 11
4.584937879512476
 21
-12.59700788815583
 31
0.0
  0
LINE
  5
2E7B
330
2BA9
100
AcDbEntity
  8
AM_5
100
AcDbLine
 10
0.1710111995358663
 20
0.4698458998792133
 30
0.0
 11
4.584966381553948
 21
12.59699751422016
 31
0.0
  0
ARC
  5
2E7C
330
2BA9
100
AcDbEntity
  8
AM_5
100
AcDbCircle
 10
-0.0000000000000016
 20
0.0000000000000044
 30
0.0
 40
12.90545646717219
100
AcDbArc
 50
295.5517487548053
 51
64.44812160747662
  0
INSERT
  5
2E7D
330
2BA9
100
AcDbEntity
  8
AM_5
100
AcDbBlockReference
  2
_OPEN30
 10
4.413927743052734
 20
-12.12716160134702
 30
0.0
 41
1.25
 42
1.25
 43
1.25
 50
202.7758783282578
  0
INSERT
  5
2E7E
330
2BA9
100
AcDbEntity
  8
AM_5
100
AcDbBlockReference
  2
_OPEN30
 10
4.41395518201808
 20
12.12715161434095
 30
0.0
 41
1.25
 42
1.25
 43
1.25
 50
157.2239920340242
  0
MTEXT
  5
2E7F
330
2BA9
100
AcDbEntity
  8
AM_5
 62
     2
100
AcDbMText
 10
11.35545646716492
 20
-0.0000128464563564
 30
0.0
 40
1.6
 41
0.0
 71
     5
 72
     1
  1
140°
  7
ASAMI
 11
0.0000011313025075
 21
0.9999999999993601
 31
0.0
  0
POINT
  5
2E80
330
2BA9
100
AcDbEntity
  8
DEFPOINTS
 62
     0
100
AcDbPoint
 10
11.84999437460812
 20
-5.111598570685313
 30
0.0
  0
POINT
  5
2E81
330
2BA9
100
AcDbEntity
  8
DEFPOINTS
 62
     0
100
AcDbPoint
 10
-0.0000000000000016
 20
0.0000000000000044
 30
0.0
  0
POINT
  5
2E82
330
2BA9
100
AcDbEntity
  8
DEFPOINTS
 62
     0
100
AcDbPoint
 10
-0.0000000000000016
 20
0.0000000000000044
 30
0.0
  0
POINT
  5
2E83
330
2BA9
100
AcDbEntity
  8
DEFPOINTS
 62
     0
100
AcDbPoint
 10
-0.5059335634320963
 20
1.390040444804156
 30
0.0
  0
POINT
  5
2E84
330
2BA9
100
AcDbEntity
  8
DEFPOINTS
 62
     0
100
AcDbPoint
 10
-0.5059401244912117
 20
-1.390048685242458
 30
0.0
  0
ENDBLK
  5
2BB8
330
2BA9
100
AcDbEntity
  8
0
100
AcDbBlockEnd
  0
BLOCK
  5
2D93
330
2D89
100
AcDbEntity
  8
0
100
AcDbBlockBegin
  2
*D9
 70
     1
 10
0.0
 20
0.0
 30
0.0
  3
*D9
  1

  0
LINE
  5
2E0F
330
2D89
100
AcDbEntity
  8
AM_5
 62
     3
100
AcDbLine
 10
-1.999998253225049
 20
4.100002928612185
 30
0.0
 11
9.05592102485804
 21
4.100002928612215
 31
0.0
  0
LINE
  5
2E10
330
2D89
100
AcDbEntity
  8
AM_5
 62
     3
100
AcDbLine
 10
-1.999998253225018
 20
-4.099999488437608
 30
0.0
 11
9.055921024858065
 21
-4.099999488437577
 31
0.0
  0
LINE
  5
2E11
330
2D89
100
AcDbEntity
  8
AM_5
 62
     3
100
AcDbLine
 10
8.555921024858044
 20
2.850002928612214
 30
0.0
 11
8.555921024858061
 21
-2.849999488437578
 31
0.0
  0
INSERT
  5
2E12
330
2D89
100
AcDbEntity
  8
AM_5
 62
     3
100
AcDbBlockReference
  2
_OPEN30
 10
8.55592102485804
 20
4.100002928612214
 30
0.0
 41
1.25
 42
1.25
 43
1.25
 50
90.00000000000017
  0
INSERT
  5
2E13
330
2D89
100
AcDbEntity
  8
AM_5
 62
     3
100
AcDbBlockReference
  2
_OPEN30
 10
8.555921024858065
 20
-4.099999488437578
 30
0.0
 41
1.25
 42
1.25
 43
1.25
 50
270.0000000000001
  0
MTEXT
  5
2E14
330
2D89
100
AcDbEntity
  8
AM_5
 62
     2
100
AcDbMText
 10
6.855921024858052
 20
0.0000017200873127
 30
0.0
 40
1.9
 41
0.0
 71
     5
 72
     1
  1
%%c8.2
 11
-0.0000000000000028
 21
1.0
 31
0.0
1001
ACAD
1000
MTEXTBEGIN
1070
    73
1070
     1
1070
    44
1040
1.0
1070
    74
1070
     0
1000
MTEXTEND
  0
POINT
  5
2E15
330
2D89
100
AcDbEntity
  8
DEFPOINTS
 62
     0
100
AcDbPoint
 10
-1.999998253225036
 20
4.10000292861219
 30
0.0
  0
POINT
  5
2E16
330
2D89
100
AcDbEntity
  8
DEFPOINTS
 62
     0
100
AcDbPoint
 10
-1.999998253225031
 20
-4.099999488437602
 30
0.0
  0
POINT
  5
2E17
330
2D89
100
AcDbEntity
  8
DEFPOINTS
 62
     0
100
AcDbPoint
 10
8.555921024858051
 20
-4.099999488437605
 30
0.0
  0
ENDBLK
  5
2D94
330
2D89
100
AcDbEntity
  8
0
100
AcDbBlockEnd
  0
ENDSEC
  0
SECTION
  2
ENTITIES
  0
LINE
  5
C1D
330
1F
100
AcDbEntity
  8
AM_0
 48
0.5
100
AcDbLine
 10
-0.0000000000000016
 20
0.0000000000000044
 30
0.0
 11
-0.5059335634320964
 21
1.390040444804156
 31
0.0
  0
LINE
  5
C20
330
1F
100
AcDbEntity
  8
AM_0
 48
0.5
100
AcDbLine
 10
-0.0000000000000016
 20
0.0000000000000044
 30
0.0
 11
-0.5059401244912118
 21
-1.390048685242458
 31
0.0
  0
LINE
  5
C30
330
1F
100
AcDbEntity
  8
AM_0
 48
0.5
100
AcDbLine
 10
-101.9999999999999
 20
-4.000000000000009
 30
0.0
 11
-102.0
 21
3.999999999999994
 31
0.0
  0
LINE
  5
C9F
330
1F
100
AcDbEntity
  8
AM_7
100
AcDbLine
 10
-103.9999999999999
 20
-0.0000000000000045
 30
0.0
 11
1.555920024858059
 21
0.0000000000000077
 31
0.0
1001
GENIUS_GENODEF_13
1002
{
1000
HIER
1070
     0
1002
}
1002
{
1000
MANEDIT
1070
     0
1002
}
1002
{
1000
NOSEL
1070
     0
1002
}
1002
{
1000
BEHIND
1070
     0
1002
}
1002
{
1000
REACTOR
1002
}
1001
GENIUS_GENOBJ-N-CEN_13
1002
{
1000
OWNER
1000
GEN
1002
}
  0
DIMENSION
  5
CC6
330
1F
100
AcDbEntity
  8
AM_5
100
AcDbDimension
  2
*D5
 10
-1.999998253225019
 20
-16.50000236965379
 30
0.0
 11
-51.9999991266125
 21
-14.80000236965379
 31
0.0
 70
    32
  1
<>
  3
AM_JIS$0
100
AcDbAlignedDimension
 13
-101.9999999999999
 23
-4.000000000000009
 33
0.0
 14
-1.999998253225018
 24
-4.099999488437607
 34
0.0
 50
0.0000000000001132
100
AcDbRotatedDimension
1001
GENIUS_GENDTOL_13
1000

1000
h7
1000

1040
0.0
1001
ACAD
1000
DSTYLE
1002
{
1070
   271
1070
     0
1002
}
  0
DIMENSION
  5
DF5
330
1F
100
AcDbEntity
  8
AM_5
100
AcDbDimension
  2
*D6
 10
-1.999998253225018
 20
-11.50000236965376
 30
0.0
 11
-24.49999912661251
 21
-9.800002369653761
 31
0.0
 70
    32
  1
<>
  3
AM_JIS$0
100
AcDbAlignedDimension
 13
-47.0
 23
-4.50000136965388
 33
0.0
 14
-1.999998253225018
 24
-4.099999488437607
 34
0.0
 50
0.0000000000001527
100
AcDbRotatedDimension
1001
GENIUS_GENDTOL_13
1000

1000
h7
1000

1040
0.0
1001
ACAD
1000
DSTYLE
1002
{
1070
   271
1070
     0
1002
}
  0
TEXT
  5
19BD
330
1F
100
AcDbEntity
  8
AM_6
100
AcDbText
 10
-63.24999999999996
 20
-27.75000236965381
 30
0.0
 40
2.5
  1
MDW082MHK
 50
0.0000000000001527
 72
     4
 11
-51.99999999999997
 21
-26.50000236965379
 31
0.0
100
AcDbText
  0
ARC
  5
1BE8
330
1F
100
AcDbEntity
  8
AM_11
 48
0.5
100
AcDbCircle
 10
-65.18578898111988
 20
17.66787048062785
 30
0.0
 40
19.53452809651666
100
AcDbArc
 50
244.7482808787518
 51
295.2516148471758
  0
ARC
  5
1BE9
330
1F
100
AcDbEntity
  8
AM_11
 48
0.5
100
AcDbCircle
 10
-65.18578898111991
 20
-17.66785848258814
 30
0.0
 40
19.53452809651666
100
AcDbArc
 50
64.74833051131179
 51
115.2516644797366
  0
LINE
  5
1CA9
330
1F
100
AcDbEntity
  8
AM_0
 48
0.5
100
AcDbLine
 10
-47.0
 20
-4.50000000000009
 30
0.0
 11
-47.0
 21
4.499999999999909
 31
0.0
  0
LINE
  5
1E12
330
1F
100
AcDbEntity
  8
AM_0
 48
0.5
100
AcDbLine
 10
-101.5
 20
4.499999999999996
 30
0.0
 11
-47.0
 21
4.499999999999909
 31
0.0
1001
GENIUS_GENODEF_13
1002
{
1000
HIER
1070
     0
1002
}
1002
{
1000
MANEDIT
1070
     0
1002
}
1002
{
1000
NOSEL
1070
     0
1002
}
1002
{
1000
BEHIND
1070
     0
1002
}
1002
{
1000
REACTOR
1002
}
1001
GENIUS_GENOBJ-N-CEN_13
1002
{
1000
OWNER
1000
GEN
1002
}
  0
LINE
  5
1E16
330
1F
100
AcDbEntity
  8
AM_0
 48
0.5
100
AcDbLine
 10
-101.4999999999999
 20
-4.500000000000002
 30
0.0
 11
-47.0
 21
-4.50000000000009
 31
0.0
1001
GENIUS_GENODEF_13
1002
{
1000
HIER
1070
     0
1002
}
1002
{
1000
MANEDIT
1070
     0
1002
}
1002
{
1000
NOSEL
1070
     0
1002
}
1002
{
1000
BEHIND
1070
     0
1002
}
1002
{
1000
REACTOR
1002
}
1001
GENIUS_GENOBJ-N-CEN_13
1002
{
1000
OWNER
1000
GEN
1002
}
  0
LINE
  5
1E22
330
1F
100
AcDbEntity
  8
AM_0
100
AcDbLine
 10
-101.5
 20
-4.499999999999993
 30
0.0
 11
-101.4999999999999
 21
4.50000000000002
 31
0.0
  0
LINE
  5
1E25
330
1F
100
AcDbEntity
  8
AM_0
100
AcDbLine
 10
-47.0
 20
-4.50000136965388
 30
0.0
 11
-46.30717580732871
 21
-4.099999135514029
 31
0.0
  0
LINE
  5
1E26
330
1F
100
AcDbEntity
  8
AM_0
100
AcDbLine
 10
-47.0
 20
4.499999999999952
 30
0.0
 11
-46.30717580732842
 21
4.09999776585995
 31
0.0
  0
ARC
  5
1F66
330
1F
100
AcDbEntity
  8
AM_11
 48
0.5
100
AcDbCircle
 10
-81.85241919041599
 20
17.66787048062779
 30
0.0
 40
19.53452809651666
100
AcDbArc
 50
244.7482808787518
 51
295.2516148471758
  0
ARC
  5
1F67
330
1F
100
AcDbEntity
  8
AM_11
 48
0.5
100
AcDbCircle
 10
-81.85241919041601
 20
-17.6678584825882
 30
0.0
 40
19.53452809651666
100
AcDbArc
 50
64.74833051131179
 51
115.2516644797366
  0
LINE
  5
220F
330
1F
100
AcDbEntity
  8
AM_0
100
AcDbLine
 10
-46.30717580732871
 20
-4.099999135514035
 30
0.0
 11
-46.30717580732842
 21
4.100000864485952
 31
0.0
  0
ELLIPSE
  5
222E
330
1F
100
AcDbEntity
  8
AM_11
 48
0.5
100
AcDbEllipse
 10
-15.18578898112439
 20
16.72558433296426
 30
0.0
 11
-19.53452809651665
 21
0.000000000000166
 31
0.0
210
0.0
220
0.0
230
1.0
 40
0.9466666666666663
 41
1.130070686340305
 42
2.011520147323594
  0
ELLIPSE
  5
222F
330
1F
100
AcDbEntity
  8
AM_11
 48
0.5
100
AcDbEllipse
 10
-15.18578898112476
 20
-16.72557241888021
 30
0.0
 11
-19.53452809651663
 21
0.0000000000000489
 31
0.0
210
0.0
220
0.0
230
1.0
 40
0.9466666666666668
 41
4.271664206181679
 42
5.153113667164986
  0
ELLIPSE
  5
2230
330
1F
100
AcDbEntity
  8
AM_11
 48
0.5
100
AcDbEllipse
 10
-48.51912231445306
 20
16.7255843329646
 30
0.0
 11
-19.53452809651663
 21
0.000000000000114
 31
0.0
210
0.0
220
0.0
230
1.0
 40
0.946666666666667
 41
1.130070686340299
 42
2.011520147323592
  0
ELLIPSE
  5
2231
330
1F
100
AcDbEntity
  8
AM_11
 48
0.5
100
AcDbEllipse
 10
-48.51912231445343
 20
-16.72557241887986
 30
0.0
 11
-19.53452809651663
 21
0.0000000000000055
 31
0.0
210
0.0
220
0.0
230
1.0
 40
0.946666666666667
 41
4.271664206181676
 42
5.153113667164983
  0
ELLIPSE
  5
2232
330
1F
100
AcDbEntity
  8
AM_11
 48
0.5
100
AcDbEllipse
 10
-31.85245564779143
 20
-16.72557241888003
 30
0.0
 11
-19.53452809651665
 21
0.0000000000000576
 31
0.0
210
0.0
220
0.0
230
1.0
 40
0.9466666666666657
 41
4.271664206181679
 42
5.153113667164985
  0
ELLIPSE
  5
2233
330
1F
100
AcDbEntity
  8
AM_11
 48
0.5
100
AcDbEllipse
 10
-31.85245564779106
 20
16.72558433296444
 30
0.0
 11
19.53452809651663
 21
0.0000000000000446
 31
0.0
210
0.0
220
0.0
230
1.0
 40
0.9466666666666672
 41
4.271663339930084
 42
5.153112800913377
  0
ELLIPSE
  5
2234
330
1F
100
AcDbEntity
  8
AM_11
 48
0.5
100
AcDbEllipse
 10
1.480877685542292
 20
16.7255843329641
 30
0.0
 11
-19.53452809651675
 21
0.0000000000005521
 31
0.0
210
0.0
220
0.0
230
1.0
 40
0.946666666666662
 41
1.130070686340324
 42
1.291800737381015
  0
DIMENSION
  5
228A
330
1F
100
AcDbEntity
  8
AM_5
100
AcDbDimension
  2
*D7
 10
-111.0000009999999
 20
4.500000000000023
 30
0.0
 11
-111.0000009999999
 21
-0.0000000000000038
 31
0.0
 70
   160
  1
%%c<>
 51
359.9999999999998
  3
AM_JIS$0
100
AcDbAlignedDimension
 13
-101.5
 23
-4.500000000000002
 33
0.0
 14
-101.4999999999999
 24
4.50000000000002
 34
0.0
 50
270.0000000000002
100
AcDbRotatedDimension
1001
ACAD
1000
DSTYLE
1002
{
1070
   271
1070
     0
1002
}
1001
GENIUS_GENDTOL_13
1000

1000
h7
1000

1040
0.0
  0
LINE
  5
24F9
330
1F
100
AcDbEntity
  8
AM_0
 48
0.5
100
AcDbLine
 10
-101.5
 20
4.499999999999996
 30
0.0
 11
-102.0
 21
3.999999999999997
 31
0.0
1001
GENIUS_GENFIL_13
1070
     0
1040
0.5
1040
0.5
1040
20.0
1040
0.0
1002
{
1002
}
1001
GENIUS_GENODEF_13
1002
{
1000
HIER
1070
     0
1002
}
1002
{
1000
MANEDIT
1070
     0
1002
}
1002
{
1000
NOSEL
1070
     0
1002
}
1002
{
1000
BEHIND
1070
     0
1002
}
1002
{
1000
REACTOR
1002
}
1001
GENIUS_GENOBJ-N-CHA_13
1002
{
1000
OWNER
1000
GEN
1002
}
  0
LINE
  5
24FC
330
1F
100
AcDbEntity
  8
AM_0
 48
0.5
100
AcDbLine
 10
-101.9999999999999
 20
-4.000000000000001
 30
0.0
 11
-101.4999999999999
 21
-4.500000000000002
 31
0.0
1001
GENIUS_GENFIL_13
1070
     0
1040
0.5
1040
0.5
1040
20.0
1040
0.0
1002
{
1002
}
1001
GENIUS_GENODEF_13
1002
{
1000
HIER
1070
     0
1002
}
1002
{
1000
MANEDIT
1070
     0
1002
}
1002
{
1000
NOSEL
1070
     0
1002
}
1002
{
1000
BEHIND
1070
     0
1002
}
1002
{
1000
REACTOR
1002
}
1001
GENIUS_GENOBJ-N-CHA_13
1002
{
1000
OWNER
1000
GEN
1002
}
  0
ELLIPSE
  5
2541
330
1F
100
AcDbEntity
  8
AM_0
 48
0.5
100
AcDbEllipse
 10
6.103455813051644
 20
-5.995169608223516
 30
0.0
 11
-7.397222288058633
 21
3.406917701414937
 31
0.0
210
0.0
220
0.0
230
-1.0
 40
0.7639059874992274
 41
-0.1617760152509138
 42
0.2299315428291684
  0
LINE
  5
2542
330
1F
100
AcDbEntity
  8
AM_0
 48
0.5
100
AcDbLine
 10
-1.616377741131771
 20
-3.542915580519078
 30
0.0
 11
-1.999998253225018
 21
-4.099999488437607
 31
0.0
  0
ARC
  5
290C
330
1F
100
AcDbEntity
  8
AM_11
 48
0.5
100
AcDbCircle
 10
-98.51907483729785
 20
-17.66785848258826
 30
0.0
 40
19.53452809651666
100
AcDbArc
 50
64.74833051131179
 51
100.2645516450266
  0
ARC
  5
290D
330
1F
100
AcDbEntity
  8
AM_11
 48
0.5
100
AcDbCircle
 10
-98.51907483729782
 20
17.66787048062773
 30
0.0
 40
19.53452809651666
100
AcDbArc
 50
259.7354483549732
 51
295.2516148471758
  0
ELLIPSE
  5
2B8E
330
1F
100
AcDbEntity
  8
AM_0
 48
0.5
100
AcDbEllipse
 10
6.103455813051643
 20
5.995169608223532
 30
0.0
 11
-7.397222288058633
 21
-3.406917701414938
 31
0.0
210
0.0
220
0.0
230
1.0
 40
0.7639059874992274
 41
-0.1617760152509138
 42
0.2299315428291684
  0
LINE
  5
2B8F
330
1F
100
AcDbEntity
  8
AM_0
 48
0.5
100
AcDbLine
 10
-1.616377741131771
 20
3.542915580519093
 30
0.0
 11
-1.999998253762906
 21
4.100002928612186
 31
0.0
  0
DIMENSION
  5
2BA8
330
1F
100
AcDbEntity
  8
AM_5
100
AcDbDimension
  2
*D8
 10
-0.5059401244912117
 20
-1.390048685242458
 30
0.0
 11
11.35545646716492
 21
-0.00001284645639
 31
0.0
 70
    34
  1
<>
 51
359.9999999999998
  3
AM_JIS$2
100
AcDb2LineAngularDimension
 13
-0.0000000000000016
 23
0.0000000000000044
 33
0.0
 14
-0.5059335634320963
 24
1.390040444804156
 34
0.0
 15
-0.0000000000000016
 25
0.0000000000000044
 35
0.0
 16
11.84999437460812
 26
-5.111598570685313
 36
0.0
1001
GENIUS_GENDTOL_13
1000

1000
h7
1000

1040
0.0
1001
ACAD
1000
DSTYLE
1002
{
1070
   271
1070
     1
1070
   179
1070
     1
1002
}
  0
LINE
  5
2D83
330
1F
100
AcDbEntity
  8
AM_0
100
AcDbLine
 10
-43.09937216590337
 20
-4.099999135514075
 30
0.0
 11
-46.30717580732871
 21
-4.099999135514035
 31
0.0
  0
LINE
  5
2D84
330
1F
100
AcDbEntity
  8
AM_0
100
AcDbLine
 10
-41.46328924286591
 20
4.100000864485887
 30
0.0
 11
-46.3071811743061
 21
4.100000864485953
 31
0.0
  0
LINE
  5
2D85
330
1F
100
AcDbEntity
  8
AM_0
 48
0.5
100
AcDbLine
 10
-4.539400129482621
 20
4.099981962162089
 30
0.0
 11
-1.999998253225036
 21
4.10000292861219
 31
0.0
  0
LINE
  5
2D86
330
1F
100
AcDbEntity
  8
AM_0
 48
0.5
100
AcDbLine
 10
-0.0000000000000052
 20
0.0000000000000034
 30
0.0
 11
-2.389738150086992
 21
1.574276326317127
 31
0.0
  0
LINE
  5
2D87
330
1F
100
AcDbEntity
  8
AM_0
 48
0.5
100
AcDbLine
 10
-4.896485833696591
 20
-4.100015431139963
 30
0.0
 11
-1.999998253225036
 21
-4.099999488437602
 31
0.0
  0
DIMENSION
  5
2D88
330
1F
100
AcDbEntity
  8
AM_5
100
AcDbDimension
  2
*D9
 10
8.555921024858051
 20
-4.099999488437605
 30
0.0
 11
6.855921024858052
 21
0.0000017200872927
 31
0.0
 70
    32
  1
%%c<>
 51
359.9999999999998
  3
AM_JIS$0
100
AcDbAlignedDimension
 13
-1.999998253225036
 23
4.10000292861219
 33
0.0
 14
-1.999998253225031
 24
-4.099999488437602
 34
0.0
 50
90.0
100
AcDbRotatedDimension
1001
ACAD
1000
DSTYLE
1002
{
1070
   271
1070
     1
1002
}
1001
GENIUS_GENDTOL_13
1000

1000
h7
1000

1040
0.0
  0
LINE
  5
2D95
330
1F
100
AcDbEntity
  8
AM_0
 48
0.5
100
AcDbLine
 10
-33.03348220963671
 20
-4.100015431139947
 30
0.0
 11
-18.23519367165462
 21
-4.100015431139964
 31
0.0
  0
LINE
  5
2D96
330
1F
100
AcDbEntity
  8
AM_11
 48
0.5
100
AcDbLine
 10
-41.71125556344268
 20
4.099984568860054
 30
0.0
 11
-33.20205027367838
 21
4.099984568860044
 31
0.0
  0
LINE
  5
2D97
330
1F
100
AcDbEntity
  8
AM_0
 48
0.5
100
AcDbLine
 10
-35.03757012231511
 20
1.906457493468856
 30
0.0
 11
-44.49999825322503
 21
-0.3318154995146112
 31
0.0
  0
LINE
  5
2D98
330
1F
100
AcDbEntity
  8
AM_0
100
AcDbLine
 10
-33.20205027367838
 20
4.099984568860044
 30
0.0
 11
-18.00586788794031
 21
4.099984568860278
 31
0.0
  0
LINE
  5
2D99
330
1F
100
AcDbEntity
  8
AM_11
 48
0.5
100
AcDbLine
 10
-43.09961856989729
 20
-4.100015431139928
 30
0.0
 11
-33.03348220963671
 21
-4.100015431139947
 31
0.0
  0
LINE
  5
2D9A
330
1F
100
AcDbEntity
  8
AM_11
 48
0.5
100
AcDbLine
 10
-18.23519367165462
 20
-4.100015431139964
 30
0.0
 11
-4.896485833696591
 21
-4.100015431139976
 31
0.0
  0
LINE
  5
2D9B
330
1F
100
AcDbEntity
  8
AM_11
 48
0.5
100
AcDbLine
 10
-18.00561316218233
 20
4.099981962162567
 30
0.0
 11
-4.539400129482621
 21
4.099981962162089
 31
0.0
  0
SPLINE
  5
2D9C
330
1F
100
AcDbEntity
  8
AM_0
100
AcDbSpline
210
0.0
220
0.0
230
1.0
 70
     8
 71
     3
 72
    11
 73
     7
 74
     0
 42
0.0000000001
 43
0.0000000001
 40
11.27226913003534
 40
11.27226913003534
 40
11.27226913003534
 40
11.2722691300354
 40
12.28301561507924
 40
13.29510212255852
 40
14.30984805882082
 40
15.18258238371378
 40
15.18258238371378
 40
15.18258238371378
 40
15.18258238371378
 10
-18.23519367165463
 20
-4.100015431139964
 30
0.0
 10
-18.47022874329979
 20
-4.079951446385248
 30
0.0
 10
-18.93985556575156
 20
-4.031371101813135
 30
0.0
 10
-19.6418707340691
 20
-3.933372530491435
 30
0.0
 10
-20.3080955072574
 20
-3.816323982171961
 30
0.0
 10
-20.73897058394599
 20
-3.72634527949049
 30
0.0
 10
-20.93753008844069
 20
-3.681898285667168
 30
0.0
  0
SPLINE
  5
2D9D
330
1F
100
AcDbEntity
  8
AM_0
100
AcDbSpline
210
0.0
220
0.0
230
1.0
 70
     8
 71
     3
 72
    22
 73
    18
 74
     0
 42
0.0000000001
 43
0.0000000001
 40
17.17441611292
 40
17.17441611292
 40
17.17441611292
 40
17.17441611292
 40
17.38177636558528
 40
18.41823744757437
 40
19.46215659509824
 40
20.51397914882054
 40
21.57394542641293
 40
22.64209583141747
 40
23.71826625065247
 40
24.80210429862395
 40
25.8930771157021
 40
26.99048705697709
 40
28.09349309193389
 40
29.20112995599786
 40
30.31233024745139
 40
31.42594771747373
 40
32.5407895042663
 40
32.54078950426994
 40
32.54078950426994
 40
32.54078950426994
 10
-20.93783976328778
 20
-3.681847712198524
 30
0.0
 10
-20.98525488907731
 20
-3.672356614333775
 30
0.0
 10
-21.2694826732772
 20
-3.614545299837055
 30
0.0
 10
-21.79017195775951
 20
-3.498626089960999
 30
0.0
 10
-22.49794257807895
 20
-3.319477346147008
 30
0.0
 10
-23.2056410780579
 20
-3.119870953973508
 30
0.0
 10
-23.91327245400805
 20
-2.901052906033453
 30
0.0
 10
-24.62083577119759
 20
-2.6643648804873
 30
0.0
 10
-25.32833973891042
 20
-2.411279896290243
 30
0.0
 10
-26.03578763308886
 20
-2.143353332324916
 30
0.0
 10
-26.74318599930821
 20
-1.862237477030596
 30
0.0
 10
-27.45054270338976
 20
-1.569666637172697
 30
0.0
 10
-28.15786388476288
 20
-1.267439839693076
 30
0.0
 10
-28.86515666375895
 20
-0.9574164349200305
 30
0.0
 10
-29.57242730991276
 20
-0.6415027158665645
 30
0.0
 10
-30.27968630082391
 20
-0.3216480409331631
 30
0.0
 10
-30.75109974378452
 20
-0.1071282952532305
 30
0.0
 10
-30.9869359659316
 20
0.0001904989473315
 30
0.0
  0
SPLINE
  5
2D9E
330
1F
100
AcDbEntity
  8
AM_0
100
AcDbSpline
210
0.0
220
0.0
230
1.0
 70
     8
 71
     3
 72
    17
 73
    13
 74
     0
 42
0.0000000001
 43
0.0000000001
 40
1.580019955310467
 40
1.580019955310467
 40
1.580019955310467
 40
1.580019955310467
 40
2.030549285115227
 40
3.082371838836284
 40
4.126290986361125
 40
5.162752068350215
 40
6.192395305374981
 40
7.216039564037012
 40
8.234688489606833
 40
9.249433870634691
 40
10.26152376260694
 40
11.27226744710342
 40
11.27226744710342
 40
11.27226744710342
 40
11.27226744710352
 10
-11.56531941367928
 20
-3.025938768858191
 30
0.0
 10
-11.66550319787405
 20
-3.057103238640667
 30
0.0
 10
-12.00015069504874
 20
-3.159248950962724
 30
0.0
 10
-12.57147696183225
 20
-3.319468155576856
 30
0.0
 10
-13.27914906210071
 20
-3.498892410213302
 30
0.0
 10
-13.98701598383579
 20
-3.656403083330616
 30
0.0
 10
-14.6949153397862
 20
-3.791471218687453
 30
0.0
 10
-15.40289182010263
 20
-3.903114324144386
 30
0.0
 10
-16.1109172124826
 20
-3.990695301726378
 30
0.0
 10
-16.81898669219118
 20
-4.053646597393757
 30
0.0
 10
-17.52708281423002
 20
-4.091562986345636
 30
0.0
 10
-17.99926146962527
 20
-4.100018061297904
 30
0.0
 10
-18.23519367165457
 20
-4.100015431139964
 30
0.0
  0
SPLINE
  5
2D9F
330
1F
100
AcDbEntity
  8
AM_0
100
AcDbSpline
210
0.0
220
0.0
230
1.0
 70
     8
 71
     3
 72
    55
 73
    51
 74
     0
 42
0.0000000001
 43
0.0000000001
 40
0.0
 40
0.0
 40
0.0
 40
0.0
 40
1.010743684496582
 40
2.022833576467832
 40
3.037578957496688
 40
4.056212745003489
 40
5.079857003664532
 40
6.109500240690281
 40
7.145961322679372
 40
8.189895241603872
 40
9.241717795325891
 40
10.30168407291828
 40
11.36983447792315
 40
12.44600489715814
 40
13.52984294512926
 40
14.62081576220742
 40
15.7182257034828
 40
16.82123173843959
 40
17.92886860250316
 40
19.0400688939571
 40
20.15368796660465
 40
21.26852814259644
 40
22.38336992938901
 40
23.49698739941135
 40
24.6081876908653
 40
25.71582455492886
 40
26.81883757994213
 40
27.91624752121713
 40
29.00722033829659
 40
30.09105838626677
 40
31.16722880550176
 40
32.23537921050758
 40
33.29534548809967
 40
34.347168041821
 40
35.39108718934584
 40
36.42754827133493
 40
37.45720575381954
 40
38.48085062012849
 40
39.49948440763516
 40
40.51422944315121
 40
41.52631975251916
 40
42.53706336719636
 40
43.54780698187354
 40
44.55989729124051
 40
45.57464232675757
 40
46.59327611426424
 40
47.6169209805722
 40
48.64656348684535
 40
49.68302456883444
 40
50.58557219878025
 40
50.58557219878025
 40
50.58557219878025
 40
50.58557219878025
 10
-4.896485833696591
 20
-4.100015431139963
 30
0.0
 10
-5.132418038838525
 20
-4.097578637166503
 30
0.0
 10
-5.604596686750592
 20
-4.09269658679081
 30
0.0
 10
-6.31269282380856
 20
-4.053341779973324
 30
0.0
 10
-7.020758734912316
 20
-3.990777917756037
 30
0.0
 10
-7.728780823687703
 20
-3.903092285375695
 30
0.0
 10
-8.436752025188933
 20
-3.791473191267077
 30
0.0
 10
-9.144658372727045
 20
-3.656416987753979
 30
0.0
 10
-9.852502234217411
 20
-3.498833461561401
 30
0.0
 10
-10.56027733251542
 20
-3.319687578805789
 30
0.0
 10
-11.26797884638286
 20
-3.120079284339552
 30
0.0
 10
-11.97561030332046
 20
-2.901261498793315
 30
0.0
 10
-12.6831735985064
 20
-2.664573402015777
 30
0.0
 10
-13.3906775723773
 20
-2.411488437532236
 30
0.0
 10
-14.09812546414987
 20
-2.143561866674506
 30
0.0
 10
-14.80552383380302
 20
-1.862446019103507
 30
0.0
 10
-15.51288052648035
 20
-1.569875155103825
 30
0.0
 10
-16.22020175032186
 20
-1.267648447063583
 30
0.0
 10
-16.9274943699607
 20
-0.9576247068063198
 30
0.0
 10
-17.6347659537283
 20
-0.6417120936206631
 30
0.0
 10
-18.34202270506989
 20
-0.3218527084237901
 30
0.0
 10
-19.0492746115462
 20
-0.0000188743863951
 30
0.0
 10
-19.75652334305324
 20
0.3218207528605652
 30
0.0
 10
-20.46378246496526
 20
0.6416751570008035
 30
0.0
 10
-21.17105317559667
 20
0.9575887264359376
 30
0.0
 10
-21.87834705633038
 20
1.267613647745461
 30
0.0
 10
-22.58567121447963
 20
1.569837776529909
 30
0.0
 10
-23.29302902355274
 20
1.862410124270965
 30
0.0
 10
-24.00042749533065
 20
2.143525743885972
 30
0.0
 10
-24.70787536136146
 20
2.411452371087651
 30
0.0
 10
-25.41537933704399
 20
2.664537335941417
 30
0.0
 10
-26.12294265025215
 20
2.901225376123278
 30
0.0
 10
-26.83057403415447
 20
3.120043385102615
 30
0.0
 10
-27.53827250658074
 20
3.319649917030143
 30
0.0
 10
-28.24604322810733
 20
3.498798146149863
 30
0.0
 10
-28.95388682702435
 20
3.656384841148919
 30
0.0
 10
-29.66179822925101
 20
3.791425619368783
 30
0.0
 10
-30.369771769689
 20
3.90307926194661
 30
0.0
 10
-31.07779406835387
 20
3.990660954327593
 30
0.0
 10
-31.78586047144328
 20
4.053604744089156
 30
0.0
 10
-32.49395600812011
 20
4.091533030280298
 30
0.0
 10
-33.20206710476695
 20
4.104203615685752
 30
0.0
 10
-33.91017820037189
 20
4.09153303026047
 30
0.0
 10
-34.61827374018044
 20
4.053604744168954
 30
0.0
 10
-35.32634013173976
 20
3.990660954027366
 30
0.0
 10
-36.03436247363386
 20
3.903079263075429
 30
0.0
 10
-36.74233240005079
 20
3.791426159454483
 30
0.0
 10
-37.45024101337603
 20
3.656386221868158
 30
0.0
 10
-38.12590049999281
 20
3.505951584415654
 30
0.0
 10
-38.56427606953872
 20
3.395937311886711
 30
0.0
 10
-38.76765678343192
 20
3.342321990063927
 30
0.0
  0
SPLINE
  5
2DA0
330
1F
100
AcDbEntity
  8
AM_0
 48
0.5
100
AcDbSpline
210
0.0
220
0.0
230
1.0
 70
     8
 71
     3
 72
    25
 73
    21
 74
     0
 42
0.0000000001
 43
0.0000000001
 40
6.846175049578289
 40
6.846175049578289
 40
6.846175049578289
 40
6.846175049578289
 40
7.604337694224321
 40
8.711974558287883
 40
9.814980593243754
 40
10.91239053451967
 40
12.0033633515982
 40
13.08720139956839
 40
14.16337181880432
 40
15.23152222380919
 40
16.29148850140128
 40
17.34331105512262
 40
18.38723020264746
 40
19.42369128463655
 40
20.45333379090873
 40
21.47697865721768
 40
22.49561244472435
 40
23.5103574802404
 40
24.52244778960836
 40
25.53320666051913
 40
25.53320666051913
 40
25.53320666051913
 40
25.53320666051913
 10
-5.372889300829746
 20
0.7421114109485901
 30
0.0
 10
-5.535288268507519
 20
0.8141001191254364
 30
0.0
 10
-5.935285601667865
 20
0.9905402769117168
 30
0.0
 10
-6.573475738884839
 20
1.267614840048629
 30
0.0
 10
-7.287585204730511
 20
1.569841722929077
 30
0.0
 10
-8.001730583605038
 20
1.862412540046103
 30
0.0
 10
-8.715918011348126
 20
2.14352840148462
 30
0.0
 10
-9.430155445770191
 20
2.411454963440378
 30
0.0
 10
-10.14444949132406
 20
2.66453994956809
 30
0.0
 10
-10.85880345481495
 20
2.90122796944253
 30
0.0
 10
-11.57322613525113
 20
3.120046037926544
 30
0.0
 10
-12.28771656521897
 20
3.319652354402865
 30
0.0
 10
-13.00227987675337
 20
3.498801377546598
 30
0.0
 10
-13.7169135481275
 20
3.656384381984995
 30
0.0
 10
-14.43161478762103
 20
3.791435496646168
 30
0.0
 10
-15.14637961825757
 20
3.903059540100423
 30
0.0
 10
-15.86119691858329
 20
3.990745638942973
 30
0.0
 10
-16.5760588105861
 20
4.053302798397977
 30
0.0
 10
-17.29095368990335
 20
4.092668602673483
 30
0.0
 10
-17.76766774625671
 20
4.097546983780803
 30
0.0
 10
-18.00586788794029
 20
4.099984568860281
 30
0.0
  0
SPLINE
  5
2DA1
330
1F
100
AcDbEntity
  8
AM_0
100
AcDbSpline
210
0.0
220
0.0
230
1.0
 70
     8
 71
     3
 72
    23
 73
    19
 74
     0
 42
0.0000000001
 43
0.0000000001
 40
16.03460024169435
 40
16.03460024169435
 40
16.03460024169435
 40
16.03460024169435
 40
16.35212704903564
 40
17.38177054169784
 40
18.41822485651776
 40
19.46214173629503
 40
20.51396345435107
 40
21.57393551351153
 40
22.64208202342361
 40
23.7182574881101
 40
24.80209208578934
 40
25.89306333925047
 40
26.99048218457928
 40
28.09348763352352
 40
29.20111863782268
 40
30.31232390128032
 40
31.42594612798585
 40
32.5407912310448
 40
32.5407912310486
 40
32.5407912310486
 40
32.5407912310486
 10
-41.71125556351724
 20
4.099984568860057
 30
0.0
 10
-41.64155405472047
 20
4.086723563579034
 30
0.0
 10
-41.33321531845742
 20
4.026450435526112
 30
0.0
 10
-40.79007331394942
 20
3.908354439945404
 30
0.0
 10
-40.08670299624855
 20
3.732746986002125
 30
0.0
 10
-39.38398600198313
 20
3.535569086022942
 30
0.0
 10
-38.68188080704548
 20
3.317961905121796
 30
0.0
 10
-37.98036249247793
 20
3.081138608203708
 30
0.0
 10
-37.27939051220327
 20
2.826452977105396
 30
0.0
 10
-36.5789160531971
 20
2.555387218315582
 30
0.0
 10
-35.87889931198475
 20
2.269476361422177
 30
0.0
 10
-35.17928416568582
 20
1.970384055082686
 30
0.0
 10
-34.48001391831617
 20
1.659848753003916
 30
0.0
 10
-33.78104197949375
 20
1.339655902988048
 30
0.0
 10
-33.08230986708528
 20
1.011667382609324
 30
0.0
 10
-32.38375286369894
 20
0.6777984041956642
 30
0.0
 10
-31.68531408707552
 20
0.3399836480684062
 30
0.0
 10
-31.21981330293438
 20
0.1134973256050217
 30
0.0
 10
-30.98693596592846
 20
0.0001904989458708
 30
0.0
  0
SPLINE
  5
2DA2
330
1F
100
AcDbEntity
  8
AM_0
100
AcDbSpline
210
0.0
220
0.0
230
1.0
 70
     8
 71
     3
 72
    46
 73
    42
 74
     0
 42
0.0000000001
 43
0.0000000001
 40
0.0
 40
0.0
 40
0.0
 40
0.0
 40
0.5056245176053715
 40
0.759310862862336
 40
1.013969309739036
 40
1.269880374404297
 40
1.527291183660732
 40
1.786406454158005
 40
2.047386241038974
 40
2.310345544571907
 40
2.575337113970003
 40
2.842374715221223
 40
3.111417320030211
 40
3.382376832022752
 40
3.655120036292296
 40
3.929472521611371
 40
4.205224030350333
 40
4.482133246366229
 40
4.759933319229942
 40
5.038338087391601
 40
5.317048131389549
 40
5.595758175387723
 40
5.874162943549383
 40
6.151963016412869
 40
6.428872232428759
 40
6.704623741167955
 40
6.978976226486705
 40
7.251719430756336
 40
7.522680721168327
 40
7.791723325977311
 40
8.058760927228529
 40
8.32375249662655
 40
8.586708135057122
 40
8.84768792193809
 40
9.106803192435362
 40
9.364213819003406
 40
9.620125035580644
 40
9.87478726697307
 40
10.12847352585208
 40
10.38149610319407
 40
10.63418200686337
 40
10.63418200686337
 40
10.63418200686337
 40
10.63418200686337
 10
-2.91429779689169
 20
-4.100018037838013
 30
0.0
 10
-3.386499514699966
 20
-4.090677920904248
 30
0.0
 10
-4.095618398990195
 20
-4.076651598996845
 30
0.0
 10
-5.038564702855195
 20
-3.990294111785431
 30
0.0
 10
-5.746594398593354
 20
-3.903222792566426
 30
0.0
 10
-6.454563574647475
 20
-3.791438009135787
 30
0.0
 10
-7.162470365984367
 20
-3.65642620424824
 30
0.0
 10
-7.870311135947948
 20
-3.498832849350472
 30
0.0
 10
-8.578084699011343
 20
-3.319684565109986
 30
0.0
 10
-9.285787905332151
 20
-3.120081348511667
 30
0.0
 10
-9.993422169439391
 20
-2.901261212726394
 30
0.0
 10
-10.70098558801209
 20
-2.664573479545582
 30
0.0
 10
-11.40848952843509
 20
-2.411488416509198
 30
0.0
 10
-12.11593742931891
 20
-2.143561872452468
 30
0.0
 10
-12.82333579630687
 20
-1.862446017210365
 30
0.0
 10
-13.53069249045596
 20
-1.56987515686001
 30
0.0
 10
-14.23801371107603
 20
-1.267648441911797
 30
0.0
 10
-14.9453063421872
 20
-0.9576247257548665
 30
0.0
 10
-15.65257788310759
 20
-0.6417120227008731
 30
0.0
 10
-16.35983479480901
 20
-0.3218529738064072
 30
0.0
 10
-17.06708576118395
 20
-0.0000180379026368
 30
0.0
 10
-17.77433672740353
 20
0.321816898392195
 30
0.0
 10
-18.48159363957101
 20
0.6416759461139768
 30
0.0
 10
-19.18886517878792
 20
0.9575886534537104
 30
0.0
 10
-19.89615781621562
 20
1.267612353716371
 30
0.0
 10
-20.60347901341461
 20
1.569839127598843
 30
0.0
 10
-21.31083579430001
 20
1.862409769694944
 30
0.0
 10
-22.01823537830551
 20
2.143527043395358
 30
0.0
 10
-22.7256860279906
 20
2.411451153203615
 30
0.0
 10
-23.43319123049214
 20
2.664537513973523
 30
0.0
 10
-24.14075463259077
 20
2.901225317581547
 30
0.0
 10
-24.84838598981685
 20
3.120043442596769
 30
0.0
 10
-25.55608448085674
 20
3.319649746887767
 30
0.0
 10
-26.26385515483593
 20
3.498798762968603
 30
0.0
 10
-26.97169551513848
 20
3.656381807281734
 30
0.0
 10
-27.67960282546927
 20
3.791432770912997
 30
0.0
 10
-28.3875765198373
 20
3.903057924239517
 30
0.0
 10
-29.09560256727793
 20
3.990742209325181
 30
0.0
 10
-29.80367241994558
 20
4.053300329619569
 30
0.0
 10
-30.51176797502218
 20
4.092665756370733
 30
0.0
 10
-30.9839468206777
 20
4.097544309525529
 30
0.0
 10
-31.2198790677885
 20
4.09998196216297
 30
0.0
  0
SPLINE
  5
2DA3
330
1F
100
AcDbEntity
  8
AM_0
 48
0.5
100
AcDbSpline
210
0.0
220
0.0
230
1.0
 70
     8
 71
     3
 72
    17
 73
    13
 74
     0
 42
0.0000000001
 43
0.0000000001
 40
0.0
 40
0.0
 40
0.0
 40
0.0
 40
1.010743614677189
 40
2.022833924044153
 40
3.037578959561199
 40
4.056212747067873
 40
5.079857613375832
 40
6.109500119648989
 40
7.14596120163808
 40
8.18989512056258
 40
9.241717674284874
 40
9.693948937866434
 40
9.693948937866434
 40
9.693948937866434
 40
9.693948937866434
 10
-4.539145413561883
 20
4.099984568860143
 30
0.0
 10
-4.777341957502354
 20
4.09754692613947
 30
0.0
 10
-5.254052413721038
 20
4.092668392831447
 30
0.0
 10
-5.968943709442012
 20
4.053302816947517
 30
0.0
 10
-6.683805573503319
 20
3.990745576630053
 30
0.0
 10
-7.398622979240323
 20
3.903059772162034
 30
0.0
 10
-8.113387413384906
 20
3.791434624322489
 30
0.0
 10
-8.828090145795997
 20
3.656387667245795
 30
0.0
 10
-9.542721583961798
 20
3.498788242856265
 30
0.0
 10
-10.25730945845068
 20
3.319697351067053
 30
0.0
 10
-10.83414342452978
 20
3.158363529220612
 30
0.0
 10
-11.17289414980968
 20
3.057506689747852
 30
0.0
 10
-11.27456894333761
 20
3.026635086350553
 30
0.0
  0
SPLINE
  5
2DA4
330
1F
100
AcDbEntity
  8
AM_0
 48
0.5
100
AcDbSpline
210
0.0
220
0.0
230
1.0
 70
     8
 71
     3
 72
    10
 73
     6
 74
     0
 42
0.0000000001
 43
0.0000000001
 40
0.0
 40
0.0
 40
0.0
 40
0.0
 40
2.69986029516136
 40
4.147722969032201
 40
6.285750005020438
 40
6.285750005020438
 40
6.285750005020438
 40
6.285750005020438
 10
-5.457445310769337
 20
0.7420790098297662
 30
0.0
 10
-4.451689271741265
 20
0.3611606775528251
 30
0.0
 10
-3.674263218616703
 20
-0.2240339411991372
 30
0.0
 10
-1.835755036498441
 20
0.0592690254834969
 30
0.0
 10
-2.1819996034988
 20
1.013470903832904
 30
0.0
 10
-2.410775890900682
 20
1.59508633731371
 30
0.0
  0
SPLINE
  5
2DA5
330
1F
100
AcDbEntity
  8
AM_0
 48
0.5
100
AcDbSpline
210
0.0
220
0.0
230
1.0
 70
     8
 71
     3
 72
    26
 73
    22
 74
     0
 42
0.0000000001
 43
0.0000000001
 40
0.0
 40
0.0
 40
0.0
 40
0.0
 40
0.2526859211241313
 40
0.5057083941171959
 40
0.7593947393741639
 40
1.01405318625086
 40
1.26996425091637
 40
1.527375060172565
 40
1.786490330669834
 40
2.047470117551047
 40
2.310425755981314
 40
2.575417325379407
 40
2.842456731169063
 40
3.111495753801943
 40
3.382458822635121
 40
3.655202026904655
 40
3.929554512223505
 40
4.205306020962704
 40
4.482215236978595
 40
4.76001530984208
 40
5.029821427366006
 40
5.029821427366006
 40
5.029821427366006
 40
5.029821427366006
 10
-31.07643231006005
 20
-4.100228979637854
 30
0.0
 10
-31.3123645152304
 20
-4.097789579072724
 30
0.0
 10
-31.7845431631995
 20
-4.092907528909755
 30
0.0
 10
-32.49263929983058
 20
-4.053552720493763
 30
0.0
 10
-33.20070521256301
 20
-3.990988864375955
 30
0.0
 10
-33.90872729521642
 20
-3.903303209068014
 30
0.0
 10
-34.61669851973872
 20
-3.791684201176394
 30
0.0
 10
-35.32460478059682
 20
-3.656627673035398
 30
0.0
 10
-36.03244560685199
 20
-3.499046118951393
 30
0.0
 10
-36.74021617104556
 20
-3.319896609919483
 30
0.0
 10
-37.44791479993927
 20
-3.120290738710648
 30
0.0
 10
-38.15554731791936
 20
-2.901470868869929
 30
0.0
 10
-38.8631107927878
 20
-2.664788142560407
 30
0.0
 10
-39.57061324143788
 20
-2.411694430316418
 30
0.0
 10
-40.27806412366511
 20
-2.143775588177025
 30
0.0
 10
-40.98546496800493
 20
-1.862656880882257
 30
0.0
 10
-41.69282104775896
 20
-1.57008483461134
 30
0.0
 10
-42.40014535268932
 20
-1.26786455572308
 30
0.0
 10
-43.10742619347677
 20
-0.9578161391006554
 30
0.0
 10
-43.80744172337643
 20
-0.6452558014676784
 30
0.0
 10
-44.27122834925847
 20
-0.4352755741639642
 30
0.0
 10
-44.49999825322507
 20
-0.3318154995146071
 30
0.0
  0
SPLINE
  5
2DA6
330
1F
100
AcDbEntity
  8
AM_0
 48
0.5
100
AcDbSpline
210
0.0
220
0.0
230
1.0
 70
     8
 71
     3
 72
    22
 73
    18
 74
     0
 42
0.0000000001
 43
0.0000000001
 40
0.0
 40
0.0
 40
0.0
 40
0.0
 40
1.010743684496582
 40
2.022833993863546
 40
3.037578683882831
 40
4.056212471389632
 40
5.079857945358201
 40
6.109499720892564
 40
7.145961650132166
 40
8.189873411961459
 40
9.241710626092514
 40
10.30166235592959
 40
11.36982472628033
 40
12.44598212828784
 40
13.52983440361964
 40
14.62080578343036
 40
14.90544694398022
 40
14.90544694398022
 40
14.90544694398022
 40
14.90544694398022
 10
-33.03348220963651
 20
-4.100015431139948
 30
0.0
 10
-33.29455259708955
 20
-4.097790307742243
 30
0.0
 10
-33.76673143265722
 20
-4.092909714881931
 30
0.0
 10
-34.47482682776342
 20
-4.05354394533002
 30
0.0
 10
-35.18289350506936
 20
-3.99099061596169
 30
0.0
 10
-35.89091597032489
 20
-3.903304902747876
 30
0.0
 10
-36.59888524354808
 20
-3.791675395063393
 30
0.0
 10
-37.30679393899162
 20
-3.656630544177678
 30
0.0
 10
-38.0146316832805
 20
-3.499043263741987
 30
0.0
 10
-38.72240334375408
 20
-3.319891160992451
 30
0.0
 10
-39.43010254588695
 20
-3.120292831708489
 30
0.0
 10
-40.13773298804554
 20
-2.901463053805547
 30
0.0
 10
-40.8452992318462
 20
-2.66479434121063
 30
0.0
 10
-41.55280074582363
 20
-2.411693679401144
 30
0.0
 10
-42.26025078418532
 20
-2.143773434185008
 30
0.0
 10
-42.79194892775483
 20
-1.932489332933694
 30
0.0
 10
-43.08822968768743
 20
-1.811726132203169
 30
0.0
 10
-43.04545873657715
 20
-1.829272533883771
 30
0.0
  0
SPLINE
  5
2DA7
330
1F
100
AcDbEntity
  8
AM_0
100
AcDbSpline
210
0.0
220
0.0
230
1.0
 70
     8
 71
     3
 72
    13
 73
     9
 74
     0
 42
0.0000000001
 43
0.0000000001
 40
16.03460056234195
 40
16.03460056234195
 40
16.03460056234195
 40
16.03460056234195
 40
16.35212717791071
 40
17.38177067057215
 40
18.41822498539278
 40
19.46214186516937
 40
20.5139635832251
 40
21.34083983469381
 40
21.34083983469381
 40
21.34083983469381
 40
21.34083983469381
 10
-43.0996185698974
 20
-4.100015431139935
 30
0.0
 10
-42.89914765334255
 20
-4.086761386202669
 30
0.0
 10
-42.59080866193551
 20
-4.026489911850069
 30
0.0
 10
-42.04766695350257
 20
-3.908392537470916
 30
0.0
 10
-41.34429654728577
 20
-3.732785570445068
 30
0.0
 10
-40.64157957699222
 20
-3.535607538600477
 30
0.0
 10
-39.99133520717525
 20
-3.334073892803912
 30
0.0
 10
-39.57649074997337
 20
-3.195303635267796
 30
0.0
 10
-39.39450097293612
 20
-3.132578214386656
 30
0.0
  0
ELLIPSE
  5
2DA8
330
1F
100
AcDbEntity
  8
AM_0
 48
0.5
100
AcDbEllipse
 10
-43.09961813026711
 20
-2.733562312970773
 30
0.0
 11
1.400459185150897
 21
0.0045503585970513
 31
0.0
210
0.0
220
0.0
230
1.0
 40
0.9757125188296997
 41
3.149511128819217
 42
4.709218401299547
  0
ELLIPSE
  5
2DA9
330
1F
100
AcDbEntity
  8
AM_0
 48
0.5
100
AcDbEllipse
 10
-43.44999173741061
 20
-2.775201895286801
 30
0.0
 11
-1.050351521001185
 21
0.0000000000008364
 31
0.0
210
0.0
220
0.0
230
1.0
 40
0.9758637746561099
 41
4.317028824483854
 42
6.257553905070146
  0
ELLIPSE
  5
2DAA
330
1F
100
AcDbEntity
  8
AM_0
 48
0.5
100
AcDbEllipse
 10
-8.771835545868199
 20
11.15109263045229
 30
0.0
 11
14.44317042005372
 21
0.0046450602642228
 31
0.0
210
0.0
220
0.0
230
0.9999999999999998
 40
0.9718437402633535
 41
-1.025586953541236
 42
-0.918407827122736
  0
ELLIPSE
  5
2DAB
330
1F
100
AcDbEntity
  8
AM_0
 48
0.5
100
AcDbEllipse
 10
1.908137783126992
 20
-2.145284796419561
 30
0.0
 11
-0.000000000000212
 21
4.695020002618454
 31
0.0
210
0.0
220
0.0
230
1.0
 40
0.9740853658536535
 41
1.485102427261173
 42
2.000210031613641
  0
ELLIPSE
  5
2DAC
330
1F
100
AcDbEntity
  8
AM_0
 48
0.5
100
AcDbEllipse
 10
-1.57334614559719
 20
-1.068518155596118
 30
0.0
 11
-0.1244498828835572
 21
0.6725310341196731
 31
0.0
210
0.0
220
0.0
230
1.0
 40
0.513552209489795
 41
1.799049878782176
 42
4.93439176849415
  0
ELLIPSE
  5
2DAD
330
1F
100
AcDbEntity
  8
AM_0
 48
0.5
100
AcDbEllipse
 10
-1.57334614559719
 20
-1.068518155596118
 30
0.0
 11
-0.6116754790425555
 21
0.3368612821763284
 31
0.0
210
0.0
220
0.0
230
1.0
 40
0.4926668638283877
 41
4.467745041616733
 42
7.611185382946244
  0
ELLIPSE
  5
2DAE
330
1F
100
AcDbEntity
  8
AM_0
 48
0.5
100
AcDbEllipse
 10
2.376710884127251
 20
4.922303110578368
 30
0.0
 11
-12.41803066902825
 21
10.67855735233646
 31
0.0
210
0.0
220
0.0
230
1.0
 40
0.508910593496699
 41
1.380009292784258
 42
1.603527301683707
  0
ELLIPSE
  5
2DAF
330
1F
100
AcDbEntity
  8
AM_0
 48
0.5
100
AcDbEllipse
 10
-7.619270570722091
 20
6.881287231265136
 30
0.0
 11
10.1718532294039
 21
0.0000000000189232
 31
0.0
210
0.0
220
0.0
230
1.0
 40
0.9718518518518147
 41
-1.060213001568366
 42
-0.971718223888881
  0
VIEWPORT
  5
110
330
101
100
AcDbEntity
 67
     1
  8
0
100
AcDbViewport
 10
420.5
 20
297.0
 30
0.0
 40
948.9782706766916
 41
628.452
 68
     1
 69
     1
1001
ACAD
1000
MVIEW
1002
{
1070
    16
1010
0.0
1020
0.0
1030
0.0
1010
0.0
1020
0.0
1030
1.0
1040
0.0
1040
628.452
1040
420.5
1040
297.0
1040
50.0
1040
0.0
1040
0.0
1070
     0
1070
   100
1070
     1
1070
     1
1070
     0
1070
     0
1070
     0
1070
     0
1040
0.0
1040
0.0
1040
0.0
1040
10.0
1040
10.0
1040
10.0
1040
10.0
1070
     0
1002
{
1002
}
1002
}
  0
ENDSEC
  0
SECTION
  2
OBJECTS
  0
DICTIONARY
  5
C
330
0
100
AcDbDictionary
  3
ACAD_GROUP
350
D
  3
ACAD_LAYOUT
350
1A
  3
ACAD_MLINESTYLE
350
17
  3
ACAD_PLOTSETTINGS
350
19
  3
ACAD_PLOTSTYLENAME
350
E
  3
ACDBVARIABLEDICTIONARY
350
34
  3
ACMDICTIONARY
350
43
  3
AMG
350
2B
  3
AMGSNAPSETTINGS
350
6E
  3
DWGPROPS
350
2E44
  3
ACDBHEADERROUNDTRIPXREC
350
2E50
  0
DICTIONARY
  5
74
330
1F
100
AcDbDictionary
280
     1
  3
ACAD_INDEX
360
2E46
  3
ACAD_LAYOUTSELFREF
360
2E73
  0
DICTIONARY
  5
2E78
330
101
100
AcDbDictionary
280
     1
  3
ACAD_LAYOUTSELFREF
360
2E79
  0
DICTIONARY
  5
D
102
{ACAD_REACTORS
330
C
102
}
330
C
100
AcDbDictionary
  0
DICTIONARY
  5
1A
102
{ACAD_REACTORS
330
C
102
}
330
C
100
AcDbDictionary
  0
DICTIONARY
  5
17
102
{ACAD_REACTORS
330
C
102
}
330
C
100
AcDbDictionary
  3
STANDARD
350
18
  0
DICTIONARY
  5
19
102
{ACAD_REACTORS
330
C
102
}
330
C
100
AcDbDictionary
  0
ACDBDICTIONARYWDFLT
  5
E
102
{ACAD_REACTORS
330
C
102
}
330
C
100
AcDbDictionary
281
     1
  3
Normal
350
F
100
AcDbDictionaryWithDefault
340
F
  0
DICTIONARY
  5
34
102
{ACAD_REACTORS
330
C
102
}
330
C
100
AcDbDictionary
  3
INDEXCTL
350
35
  3
SORTENTS
350
B5E
  0
DICTIONARY
  5
43
102
{ACAD_REACTORS
330
C
102
}
330
C
100
AcDbDictionary
  3
ACMSTDDICTIONARY
350
260
  0
DICTIONARY
  5
2B
102
{ACAD_REACTORS
330
C
102
}
330
C
100
AcDbDictionary
  3
ACMGSETTINGS
350
2C
  0
DICTIONARY
  5
6E
102
{ACAD_REACTORS
330
C
102
}
330
C
100
AcDbDictionary
  0
XRECORD
  5
2E44
102
{ACAD_REACTORS
330
C
102
}
330
C
100
AcDbXrecord
  1
DWGPROPS COOKIE
  2

  3

  4

  6

  7

  8

  9

300
AmdtFileType=82
301
=
302
=
303
=
304
=
305
=
306
=
307
=
308
=
309
=
 40
0.0513147222222222
 41
2452800.443498622
 42
2452946.616353981
  1

 90
        1
  0
DICTIONARY
  5
2E50
102
{ACAD_REACTORS
330
C
102
}
330
C
100
AcDbDictionary
  3
TSTACKALIGN
350
2E51
  3
TSTACKSIZE
350
2E52
  3
HYPERLINKBASE
350
2E53
  3
STYLESHEET
350
2E54
  3
LAYOUTDICT
350
2E55
  3
PLOTSETDICT
350
2E56
  3
PLOTSTYLNAMDICT
350
2E57
  3
LWETCUNION
350
2E58
  3
INSUNITS
350
2E59
  3
CEPSNTYPE
350
2E5A
  3
FINGERPRINTGUID
350
2E5B
  3
VERSIONGUID
350
2E5C
  3
PSVPSCALE
350
2E5D
  3
DIMSTYLEDATA
350
2E5E
  3
PUCSORTHOREF
350
2E5F
  3
PUCSORTHOVIEW
350
2E60
  3
PUCSBASE
350
2E61
  3
PUCSORGTOP
350
2E62
  3
PUCSORGBOTTOM
350
2E63
  3
PUCSORGLEFT
350
2E64
  3
PUCSORGRIGHT
350
2E65
  3
PUCSORGFRONT
350
2E66
  3
PUCSORGBACK
350
2E67
  3
UCSORTHOREF
350
2E68
  3
UCSORTHOVIEW
350
2E69
  3
UCSBASE
350
2E6A
  3
UCSORGTOP
350
2E6B
  3
UCSORGBOTTOM
350
2E6C
  3
UCSORGLEFT
350
2E6D
  3
UCSORGRIGHT
350
2E6E
  3
UCSORGFRONT
350
2E6F
  3
UCSORGBACK
350
2E70
  0
DICTIONARY
  5
2E46
102
{ACAD_REACTORS
330
74
102
}
330
74
100
AcDbDictionary
  3
*A1
350
2E47
  0
XRECORD
  5
2E73
102
{ACAD_REACTORS
330
74
102
}
330
74
100
AcDbXrecord
340
1F
  0
XRECORD
  5
2E79
102
{ACAD_REACTORS
330
2E78
102
}
330
2E78
100
AcDbXrecord
340
101
  0
MLINESTYLE
  5
18
102
{ACAD_REACTORS
330
17
102
}
330
17
100
AcDbMlineStyle
  2
STANDARD
 70
     0
  3

 62
   256
 51
90.0
 52
90.0
 71
     2
 49
0.5
 62
   256
  6
BYLAYER
 49
-0.5
 62
   256
  6
BYLAYER
  0
ACDBPLACEHOLDER
  5
F
102
{ACAD_REACTORS
330
E
102
}
330
E
100
AcDbPlaceHolder
280
     0
  0
DICTIONARYVAR
  5
35
102
{ACAD_REACTORS
330
34
102
}
330
34
100
DictionaryVariables
280
     0
  1
1
  0
DICTIONARYVAR
  5
B5E
102
{ACAD_REACTORS
330
34
102
}
330
34
100
DictionaryVariables
280
     0
  1
96
  0
DICTIONARY
  5
260
102
{ACAD_REACTORS
330
43
102
}
330
43
100
AcDbDictionary
  0
DICTIONARY
  5
2C
102
{ACAD_REACTORS
330
2B
102
}
330
2B
100
AcDbDictionary
  3
DWGSETTINGS
350
2D
  0
XRECORD
  5
2E51
102
{ACAD_REACTORS
330
2E50
102
}
330
2E50
100
AcDbXrecord
 90
        1
  0
XRECORD
  5
2E52
102
{ACAD_REACTORS
330
2E50
102
}
330
2E50
100
AcDbXrecord
 90
       70
  0
XRECORD
  5
2E53
102
{ACAD_REACTORS
330
2E50
102
}
330
2E50
100
AcDbXrecord
  1

  0
XRECORD
  5
2E54
102
{ACAD_REACTORS
330
2E50
102
}
330
2E50
100
AcDbXrecord
  1
ASAMI.ctb
  0
XRECORD
  5
2E55
102
{ACAD_REACTORS
330
2E50
102
}
330
2E50
100
AcDbXrecord
340
1A
  0
XRECORD
  5
2E56
102
{ACAD_REACTORS
330
2E50
102
}
330
2E50
100
AcDbXrecord
340
19
  0
XRECORD
  5
2E57
102
{ACAD_REACTORS
330
2E50
102
}
330
2E50
100
AcDbXrecord
340
E
  0
XRECORD
  5
2E58
102
{ACAD_REACTORS
330
2E50
102
}
330
2E50
100
AcDbXrecord
 90
    10781
  0
XRECORD
  5
2E59
102
{ACAD_REACTORS
330
2E50
102
}
330
2E50
100
AcDbXrecord
 90
        4
  0
XRECORD
  5
2E5A
102
{ACAD_REACTORS
330
2E50
102
}
330
2E50
100
AcDbXrecord
 90
        0
  0
XRECORD
  5
2E5B
102
{ACAD_REACTORS
330
2E50
102
}
330
2E50
100
AcDbXrecord
  1
{AFB28963-8C59-40AE-9337-C84526B81ACE}
  0
XRECORD
  5
2E5C
102
{ACAD_REACTORS
330
2E50
102
}
330
2E50
100
AcDbXrecord
  1
{1E7F7928-ED20-4B72-995E-87CA6A9F7792}
  0
XRECORD
  5
2E5D
102
{ACAD_REACTORS
330
2E50
102
}
330
2E50
100
AcDbXrecord
 40
0.0
  0
XRECORD
  5
2E5E
102
{ACAD_REACTORS
330
2E50
102
}
330
2E50
100
AcDbXrecord
1000
DSTYLE
1002
{
1070
    79
 70
     2
1070
   341
340
59
1070
   342
340
59
1070
   371
 70
    -1
1070
   372
 70
    -1
1002
}
  0
XRECORD
  5
2E5F
102
{ACAD_REACTORS
330
2E50
102
}
330
2E50
100
AcDbXrecord
340
0
  0
XRECORD
  5
2E60
102
{ACAD_REACTORS
330
2E50
102
}
330
2E50
100
AcDbXrecord
 70
     0
  0
XRECORD
  5
2E61
102
{ACAD_REACTORS
330
2E50
102
}
330
2E50
100
AcDbXrecord
340
0
  0
XRECORD
  5
2E62
102
{ACAD_REACTORS
330
2E50
102
}
330
2E50
100
AcDbXrecord
 10
0.0
 20
0.0
 30
0.0
  0
XRECORD
  5
2E63
102
{ACAD_REACTORS
330
2E50
102
}
330
2E50
100
AcDbXrecord
 10
0.0
 20
0.0
 30
0.0
  0
XRECORD
  5
2E64
102
{ACAD_REACTORS
330
2E50
102
}
330
2E50
100
AcDbXrecord
 10
0.0
 20
0.0
 30
0.0
  0
XRECORD
  5
2E65
102
{ACAD_REACTORS
330
2E50
102
}
330
2E50
100
AcDbXrecord
 10
0.0
 20
0.0
 30
0.0
  0
XRECORD
  5
2E66
102
{ACAD_REACTORS
330
2E50
102
}
330
2E50
100
AcDbXrecord
 10
0.0
 20
0.0
 30
0.0
  0
XRECORD
  5
2E67
102
{ACAD_REACTORS
330
2E50
102
}
330
2E50
100
AcDbXrecord
 10
0.0
 20
0.0
 30
0.0
  0
XRECORD
  5
2E68
102
{ACAD_REACTORS
330
2E50
102
}
330
2E50
100
AcDbXrecord
340
0
  0
XRECORD
  5
2E69
102
{ACAD_REACTORS
330
2E50
102
}
330
2E50
100
AcDbXrecord
 70
     0
  0
XRECORD
  5
2E6A
102
{ACAD_REACTORS
330
2E50
102
}
330
2E50
100
AcDbXrecord
340
0
  0
XRECORD
  5
2E6B
102
{ACAD_REACTORS
330
2E50
102
}
330
2E50
100
AcDbXrecord
 10
0.0
 20
0.0
 30
0.0
  0
XRECORD
  5
2E6C
102
{ACAD_REACTORS
330
2E50
102
}
330
2E50
100
AcDbXrecord
 10
0.0
 20
0.0
 30
0.0
  0
XRECORD
  5
2E6D
102
{ACAD_REACTORS
330
2E50
102
}
330
2E50
100
AcDbXrecord
 10
0.0
 20
0.0
 30
0.0
  0
XRECORD
  5
2E6E
102
{ACAD_REACTORS
330
2E50
102
}
330
2E50
100
AcDbXrecord
 10
0.0
 20
0.0
 30
0.0
  0
XRECORD
  5
2E6F
102
{ACAD_REACTORS
330
2E50
102
}
330
2E50
100
AcDbXrecord
 10
0.0
 20
0.0
 30
0.0
  0
XRECORD
  5
2E70
102
{ACAD_REACTORS
330
2E50
102
}
330
2E50
100
AcDbXrecord
 10
0.0
 20
0.0
 30
0.0
  0
LAYER_INDEX
  5
2E47
102
{ACAD_REACTORS
330
2E46
102
}
330
2E46
100
AcDbIndex
 40
2453151.570787928
100
AcDbLayerIndex
  8
0
360
2E48
 90
        0
  8
AM_0
360
2E49
 90
       44
  8
AM_7
360
2E4A
 90
        1
  8
AM_11
360
2E4B
 90
       17
  8
AM_5
360
2E4C
 90
        5
  8
Defpoints
360
2E4D
 90
        0
  8
AM_6
360
2E4E
 90
        1
  0
XRECORD
  5
2D
102
{ACAD_REACTORS
330
2C
102
}
330
2C
100
AcDbXrecord
  1
VERSION
140
15.0
  1
PRODUCT
  2
AutoCAD Mechanical 2000
  0
IDBUFFER
  5
2E48
330
0
100
AcDbIdBuffer
  0
IDBUFFER
  5
2E49
330
0
100
AcDbIdBuffer
330
2D83
330
2D84
330
2D85
330
2D86
330
2D87
330
2D95
330
2D97
330
2D98
330
2D9C
330
2D9D
330
2D9E
330
2D9F
330
2DA0
330
2DA1
330
2DA2
330
2DA3
330
2DA4
330
2DA5
330
2DA6
330
2DA7
330
2DA8
330
2DA9
330
2DAA
330
2DAB
330
2DAC
330
2DAD
330
2DAE
330
2DAF
330
C1D
330
C20
330
C30
330
1CA9
330
1E12
330
1E16
330
1E22
330
1E25
330
1E26
330
220F
330
24F9
330
24FC
330
2541
330
2542
330
2B8E
330
2B8F
  0
IDBUFFER
  5
2E4A
330
0
100
AcDbIdBuffer
330
C9F
  0
IDBUFFER
  5
2E4B
330
0
100
AcDbIdBuffer
330
2D9B
330
1BE8
330
1BE9
330
1F66
330
1F67
330
222E
330
222F
330
2230
330
2231
330
2232
330
2233
330
2234
330
290C
330
290D
330
2D96
330
2D99
330
2D9A
  0
IDBUFFER
  5
2E4C
330
0
100
AcDbIdBuffer
330
CC6
330
DF5
330
228A
330
2BA8
330
2D88
  0
IDBUFFER
  5
2E4D
330
0
100
AcDbIdBuffer
  0
IDBUFFER
  5
2E4E
330
0
100
AcDbIdBuffer
330
19BD
  0
ENDSEC
  0
EOF
