  0
SECTION
  2
HEADER
  9
$ACADVER
  1
AC1014
  9
$ACADMAINTVER
 70
     9
  9
$DWGCODEPAGE
  3
ANSI_932
  9
$INSBASE
 10
0.0
 20
0.0
 30
0.0
  9
$EXTMIN
 10
-113.6500009999999
 20
-27.75000236965382
 30
-0.00000001
  9
$EXTMAX
 10
12.90545646716395
 20
12.59699751422015
 30
0.00000001
  9
$LIMMIN
 10
-138.8290064717842
 20
-45.22474571374511
  9
$LIMMAX
 10
23.05023987897198
 20
30.30997914579825
  9
$ORTHOMODE
 70
     0
  9
$REGENMODE
 70
     1
  9
$FILLMODE
 70
     1
  9
$QTEXTMODE
 70
     0
  9
$MIRRTEXT
 70
     0
  9
$DRAGMODE
 70
     2
  9
$LTSCALE
 40
1.0
  9
$OSMODE
 70
    55
  9
$ATTMODE
 70
     1
  9
$TEXTSIZE
 40
2.5
  9
$TRACEWID
 40
1.0
  9
$TEXTSTYLE
  7
STANDARD
  9
$CLAYER
  8
AM_0
  9
$CELTYPE
  6
BYLAYER
  9
$CECOLOR
 62
   256
  9
$CELTSCALE
 40
1.0
  9
$DELOBJ
 70
     1
  9
$DISPSILH
 70
     0
  9
$DIMSCALE
 40
0.5
  9
$DIMASZ
 40
2.5
  9
$DIMEXO
 40
1.0
  9
$DIMDLI
 40
12.0
  9
$DIMRND
 40
0.0
  9
$DIMDLE
 40
0.0
  9
$DIMEXE
 40
1.0
  9
$DIMTP
 40
0.1
  9
$DIMTM
 40
0.1
  9
$DIMTXT
 40
3.2
  9
$DIMCEN
 40
0.0
  9
$DIMTSZ
 40
0.0
  9
$DIMTOL
 70
     0
  9
$DIMLIM
 70
     0
  9
$DIMTIH
 70
     0
  9
$DIMTOH
 70
     0
  9
$DIMSE1
 70
     0
  9
$DIMSE2
 70
     0
  9
$DIMTAD
 70
     3
  9
$DIMZIN
 70
     8
  9
$DIMBLK
  1
OPEN30
  9
$DIMASO
 70
     1
  9
$DIMSHO
 70
     1
  9
$DIMPOST
  1

  9
$DIMAPOST
  1
"
  9
$DIMALT
 70
     0
  9
$DIMALTD
 70
     2
  9
$DIMALTF
 40
0.0393701
  9
$DIMLFAC
 40
1.0
  9
$DIMTOFL
 70
     1
  9
$DIMTVP
 40
0.0
  9
$DIMTIX
 70
     0
  9
$DIMSOXD
 70
     0
  9
$DIMSAH
 70
     0
  9
$DIMBLK1
  1

  9
$DIMBLK2
  1

  9
$DIMSTYLE
  2
AM_JIS
  9
$DIMCLRD
 70
   256
  9
$DIMCLRE
 70
   256
  9
$DIMCLRT
 70
     2
  9
$DIMTFAC
 40
0.71
  9
$DIMGAP
 40
1.5
  9
$DIMJUST
 70
     0
  9
$DIMSD1
 70
     0
  9
$DIMSD2
 70
     0
  9
$DIMTOLJ
 70
     0
  9
$DIMTZIN
 70
     0
  9
$DIMALTZ
 70
     0
  9
$DIMALTTZ
 70
     0
  9
$DIMFIT
 70
     3
  9
$DIMUPT
 70
     0
  9
$DIMUNIT
 70
     2
  9
$DIMDEC
 70
     3
  9
$DIMTDEC
 70
     3
  9
$DIMALTU
 70
     2
  9
$DIMALTTD
 70
     2
  9
$DIMTXSTY
  7
ASAMI
  9
$DIMAUNIT
 70
     0
  9
$LUNITS
 70
     2
  9
$LUPREC
 70
     2
  9
$SKETCHINC
 40
1.0
  9
$FILLETRAD
 40
2.5
  9
$AUNITS
 70
     0
  9
$AUPREC
 70
     0
  9
$MENU
  1
.
  9
$ELEVATION
 40
0.0
  9
$PELEVATION
 40
0.0
  9
$THICKNESS
 40
0.0
  9
$LIMCHECK
 70
     0
  9
$BLIPMODE
 70
     0
  9
$CHAMFERA
 40
0.5
  9
$CHAMFERB
 40
0.5
  9
$CHAMFERC
 40
20.0
  9
$CHAMFERD
 40
0.0
  9
$SKPOLY
 70
     0
  9
$TDCREATE
 40
2452800.443498622
  9
$TDUPDATE
 40
2453151.571013264
  9
$TDINDWG
 40
0.0508946065
  9
$TDUSRTIMER
 40
0.0508946065
  9
$USRTIMER
 70
     1
  9
$ANGBASE
 50
0.0
  9
$ANGDIR
 70
     0
  9
$PDMODE
 70
     3
  9
$PDSIZE
 40
0.0
  9
$PLINEWID
 40
0.0
  9
$COORDS
 70
     1
  9
$SPLFRAME
 70
     0
  9
$SPLINETYPE
 70
     6
  9
$SPLINESEGS
 70
     8
  9
$ATTDIA
 70
     1
  9
$ATTREQ
 70
     1
  9
$HANDLING
 70
 12289
  9
$HANDSEED
  5
2F6F
  9
$SURFTAB1
 70
     6
  9
$SURFTAB2
 70
     6
  9
$SURFTYPE
 70
     6
  9
$SURFU
 70
     6
  9
$SURFV
 70
     6
  9
$UCSNAME
  2

  9
$UCSORG
 10
0.0
 20
0.0
 30
0.0
  9
$UCSXDIR
 10
1.0
 20
0.0000000000000027
 30
0.0
  9
$UCSYDIR
 10
-0.0000000000000027
 20
1.0
 30
0.0
  9
$PUCSNAME
  2

  9
$PUCSORG
 10
0.0
 20
0.0
 30
0.0
  9
$PUCSXDIR
 10
1.0
 20
0.0
 30
0.0
  9
$PUCSYDIR
 10
0.0
 20
1.0
 30
0.0
  9
$USERI1
 70
     0
  9
$USERI2
 70
     0
  9
$USERI3
 70
     0
  9
$USERI4
 70
     0
  9
$USERI5
 70
     0
  9
$USERR1
 40
0.0
  9
$USERR2
 40
0.0
  9
$USERR3
 40
0.0
  9
$USERR4
 40
0.0
  9
$USERR5
 40
0.0
  9
$WORLDVIEW
 70
     1
  9
$SHADEDGE
 70
     3
  9
$SHADEDIF
 70
    70
  9
$TILEMODE
 70
     1
  9
$MAXACTVP
 70
    64
  9
$PINSBASE
 10
0.0
 20
0.0
 30
0.0
  9
$PLIMCHECK
 70
     0
  9
$PEXTMIN
 10
1.000000000000000E+20
 20
1.000000000000000E+20
 30
1.000000000000000E+20
  9
$PEXTMAX
 10
-1.000000000000000E+20
 20
-1.000000000000000E+20
 30
-1.000000000000000E+20
  9
$PLIMMIN
 10
0.0
 20
0.0
  9
$PLIMMAX
 10
841.0
 20
594.0
  9
$UNITMODE
 70
     0
  9
$VISRETAIN
 70
     1
  9
$PLINEGEN
 70
     0
  9
$PSLTSCALE
 70
     0
  9
$TREEDEPTH
 70
  3020
  9
$PICKSTYLE
 70
     0
  9
$CMLSTYLE
  2
STANDARD
  9
$CMLJUST
 70
     0
  9
$CMLSCALE
 40
20.0
  9
$PROXYGRAPHICS
 70
     1
  9
$MEASUREMENT
 70
     1
  0
ENDSEC
  0
SECTION
  2
CLASSES
  0
CLASS
  1
ACDBDICTIONARYWDFLT
  2
AcDbDictionaryWithDefault
  3
AutoCAD 2000
 90
        0
280
     0
281
     0
  0
CLASS
  1
ACDBPLACEHOLDER
  2
AcDbPlaceHolder
  3
AutoCAD 2000
 90
        0
280
     0
281
     0
  0
CLASS
  1
LAYOUT
  2
AcDbLayout
  3
AutoCAD 2000
 90
        0
280
     0
281
     0
  0
CLASS
  1
AMGSETTINGSOBJ
  2
AmgSettingsObj
  3
"AcadM|Product Description: AutoCAD Mechanical 2000|Company: Autodesk"
 90
        0
280
     0
281
     0
  0
CLASS
  1
ACME_DOCUMENT
  2
AcMeDbDoc
  3
AcMeServices
 90
        0
280
     0
281
     0
  0
CLASS
  1
ACMESCOPE
  2
AcMeScope
  3
AcMeServices
 90
        0
280
     0
281
     0
  0
CLASS
  1
ACMECOMMANDHISTORY
  2
AcMeCommandHistory
  3
AcMeServices
 90
        0
280
     0
281
     0
  0
CLASS
  1
DICTIONARYVAR
  2
AcDbDictionaryVar
  3
AutoCAD 2000
 90
        0
280
     0
281
     0
  0
CLASS
  1
ACIMSYSVARMAN
  2
AcImSysVarManager
  3
AcMeServices
 90
        0
280
     0
281
     0
  0
CLASS
  1
ACIMREALSYSVAR
  2
AcImRealSysVar
  3
AcMeServices
 90
        0
280
     0
281
     0
  0
CLASS
  1
ACIMINTSYSVAR
  2
AcImIntSysVar
  3
AcMeServices
 90
        0
280
     0
281
     0
  0
CLASS
  1
ACMEDRAWINGMAN
  2
AcMeDrawingMan
  3
AcMeServices
 90
        0
280
     0
281
     0
  0
CLASS
  1
ACMEVIEW
  2
AcMeView
  3
AcMeServices
 90
        0
280
     0
281
     0
  0
CLASS
  1
ACDBENTITYCACHE
  2
AcMeEntityCache
  3
AcMeServices
 90
        0
280
     0
281
     0
  0
CLASS
  1
GSMANAGER
  2
AcMeGSManager
  3
AcMeServices
 90
        0
280
     0
281
     0
  0
CLASS
  1
AmdtInternalReactor
  2
AmdtInternalReactor
  3
AcMeServices
 90
        0
280
     0
281
     0
  0
CLASS
  1
ACMESTATEMGR
  2
AcMeStateMgr
  3
AcMeServices
 90
        0
280
     0
281
     0
  0
CLASS
  1
ACME_DATABASE
  2
AcMeDbDatabase
  3
AcMeServices
 90
        0
280
     0
281
     0
  0
CLASS
  1
ACRFINSADJUSTERMGR
  2
AcRfInsAdjusterMgr
  3
AcMeServices
 90
        0
280
     0
281
     0
  0
CLASS
  1
ACMDATADICTIONARY
  2
AcmDataDictionary
  3
"AcmSymBB|Product Description: AutoCAD Mechanical 2000|Company: Autodesk"
 90
        0
280
     0
281
     0
  0
CLASS
  1
ACMDATAENTRYBLOCK
  2
AcmDataEntryBlock
  3
"AcmSymBB|Product Description: AutoCAD Mechanical 2000|Company: Autodesk"
 90
        0
280
     0
281
     0
  0
CLASS
  1
AMGOBJPROPCFG
  2
AmgObjPropCfg
  3
"AmgLay|Product Description: AutoCAD Mechanical 2000|Company: Autodesk"
 90
        1
280
     0
281
     0
  0
CLASS
  1
ACAMGFILTERDAT
  2
AcAmgFilterDat
  3
"AcadM|Product Description: AutoCAD Mechanical 2000|Company: Autodesk"
 90
        0
280
     0
281
     0
  0
CLASS
  1
LAYER_INDEX
  2
AcDbLayerIndex
  3
AutoCAD 2000
 90
        0
280
     0
281
     0
  0
CLASS
  1
IDBUFFER
  2
AcDbIdBuffer
  3
AutoCAD 2000
 90
        0
280
     0
281
     0
  0
CLASS
  1
ACIMSTRSYSVAR
  2
AcImStrSysVar
  3
AcMeServices
 90
        0
280
     0
281
     0
  0
CLASS
  1
ACMSTANDARDJIS
  2
AcmStandardJIS
  3
"AcmSymBB|Product Description: AutoCAD Mechanical 2000|Company: Autodesk"
 90
        0
280
     0
281
     0
  0
CLASS
  1
ACMSURFSTANDARDJIS
  2
AcmSurfTextStdJIS
  3
"AcmSymBB|Product Description: AutoCAD Mechanical 2000|Company: Autodesk"
 90
        0
280
     0
281
     0
  0
CLASS
  1
ACMFCFSTANDARDJIS
  2
AcmFCFStdJIS
  3
"AcmSymBB|Product Description: AutoCAD Mechanical 2000|Company: Autodesk"
 90
        0
280
     0
281
     0
  0
CLASS
  1
ACMWELDSTANDARDJIS
  2
AcmWeldingStdJIS
  3
"AcmSymBB|Product Description: AutoCAD Mechanical 2000|Company: Autodesk"
 90
        0
280
     0
281
     0
  0
CLASS
  1
ACMIDSTANDARDJIS
  2
AcmIdStdJIS
  3
"AcmSymBB|Product Description: AutoCAD Mechanical 2000|Company: Autodesk"
 90
        0
280
     0
281
     0
  0
CLASS
  1
ACMDATUMSTANDARDJIS
  2
AcmDatumStdJIS
  3
"AcmSymBB|Product Description: AutoCAD Mechanical 2000|Company: Autodesk"
 90
        0
280
     0
281
     0
  0
CLASS
  1
ACMBOMSTANDARDJIS
  2
AcmBOMStdJIS
  3
"AcmSymBB|Product Description: AutoCAD Mechanical 2000|Company: Autodesk"
 90
        0
280
     0
281
     0
  0
CLASS
  1
ACMSTANDARDANSI
  2
AcmStandardANSI
  3
"AcmSymBB|Product Description: AutoCAD Mechanical 2000|Company: Autodesk"
 90
        0
280
     0
281
     0
  0
CLASS
  1
ACMSURFSTANDARDANSI
  2
AcmSurfTextStdANSI
  3
"AcmSymBB|Product Description: AutoCAD Mechanical 2000|Company: Autodesk"
 90
        0
280
     0
281
     0
  0
CLASS
  1
ACMFCFSTANDARDANSI
  2
AcmFCFStdANSI
  3
"AcmSymBB|Product Description: AutoCAD Mechanical 2000|Company: Autodesk"
 90
        0
280
     0
281
     0
  0
CLASS
  1
ACMWELDSTANDARDANSI
  2
AcmWeldingStdANSI
  3
"AcmSymBB|Product Description: AutoCAD Mechanical 2000|Company: Autodesk"
 90
        0
280
     0
281
     0
  0
CLASS
  1
ACMIDSTANDARDANSI
  2
AcmIdStdANSI
  3
"AcmSymBB|Product Description: AutoCAD Mechanical 2000|Company: Autodesk"
 90
        0
280
     0
281
     0
  0
CLASS
  1
ACMDATUMSTANDARDANSI
  2
AcmDatumStdANSI
  3
"AcmSymBB|Product Description: AutoCAD Mechanical 2000|Company: Autodesk"
 90
        0
280
     0
281
     0
  0
CLASS
  1
ACMBOMSTANDARDANSI
  2
AcmBOMStdANSI
  3
"AcmSymBB|Product Description: AutoCAD Mechanical 2000|Company: Autodesk"
 90
        0
280
     0
281
     0
  0
CLASS
  1
ACMSTANDARDBSI
  2
AcmStandardBSI
  3
"AcmSymBB|Product Description: AutoCAD Mechanical 2000|Company: Autodesk"
 90
        0
280
     0
281
     0
  0
CLASS
  1
ACMSURFSTANDARDBSI
  2
AcmSurfTextStdBSI
  3
"AcmSymBB|Product Description: AutoCAD Mechanical 2000|Company: Autodesk"
 90
        0
280
     0
281
     0
  0
CLASS
  1
ACMFCFSTANDARDBSI
  2
AcmFCFStdBSI
  3
"AcmSymBB|Product Description: AutoCAD Mechanical 2000|Company: Autodesk"
 90
        0
280
     0
281
     0
  0
CLASS
  1
ACMWELDSTANDARDBSI
  2
AcmWeldingStdBSI
  3
"AcmSymBB|Product Description: AutoCAD Mechanical 2000|Company: Autodesk"
 90
        0
280
     0
281
     0
  0
CLASS
  1
ACMIDSTANDARDBSI
  2
AcmIdStdBSI
  3
"AcmSymBB|Product Description: AutoCAD Mechanical 2000|Company: Autodesk"
 90
        0
280
     0
281
     0
  0
CLASS
  1
ACMDATUMSTANDARDBSI
  2
AcmDatumStdBSI
  3
"AcmSymBB|Product Description: AutoCAD Mechanical 2000|Company: Autodesk"
 90
        0
280
     0
281
     0
  0
CLASS
  1
ACMBOMSTANDARDBSI
  2
AcmBOMStdBSI
  3
"AcmSymBB|Product Description: AutoCAD Mechanical 2000|Company: Autodesk"
 90
        0
280
     0
281
     0
  0
CLASS
  1
LONG_TRANSACTION
  2
AcDbLongTransaction
  3
AutoCAD 2000
 90
        0
280
     0
281
     0
  0
CLASS
  1
LWPOLYLINE
  2
AcDbPolyline
  3
AutoCAD 2000
 90
        0
280
     0
281
     1
  0
CLASS
  1
HATCH
  2
AcDbHatch
  3
AutoCAD 2000
 90
        0
280
     0
281
     1
  0
CLASS
  1
XRECORD
  2
AcDbXrecord
  3
AutoCAD 2000
 90
        0
280
     0
281
     0
  0
ENDSEC
  0
SECTION
  2
TABLES
  0
TABLE
  2
VPORT
  5
8
330
0
100
AcDbSymbolTable
 70
     3
  0
VPORT
  5
2F39
330
8
100
AcDbSymbolTableRecord
100
AcDbViewportTableRecord
  2
*ACTIVE
 70
     0
 10
0.0
 20
0.0
 11
1.0
 21
1.0
 12
-48.0276359356546
 22
-7.577356301661282
 13
0.0
 23
0.0
 14
2.5
 24
2.5
 15
10.0
 25
10.0
 16
0.0
 26
0.0
 36
1.0
 17
0.0
 27
0.0
 37
0.0
 40
84.24558344811764
 41
1.56570841889117
 42
50.0
 43
0.0
 44
0.0
 50
0.0
 51
0.0
 71
     0
 72
   100
 73
     1
 74
     1
 75
     0
 76
     0
 77
     0
 78
     0
  0
ENDTAB
  0
TABLE
  2
LTYPE
  5
5
330
0
100
AcDbSymbolTable
 70
    10
  0
LTYPE
  5
14
330
5
100
AcDbSymbolTableRecord
100
AcDbLinetypeTableRecord
  2
BYBLOCK
 70
     0
  3

 72
    65
 73
     0
 40
0.0
  0
LTYPE
  5
15
330
5
100
AcDbSymbolTableRecord
100
AcDbLinetypeTableRecord
  2
BYLAYER
 70
     0
  3

 72
    65
 73
     0
 40
0.0
  0
LTYPE
  5
16
330
5
100
AcDbSymbolTableRecord
100
AcDbLinetypeTableRecord
  2
CONTINUOUS
 70
     0
  3
Solid line
 72
    65
 73
     0
 40
0.0
  0
LTYPE
  5
4B
330
5
100
AcDbSymbolTableRecord
100
AcDbLinetypeTableRecord
  2
AM_ISO02W050
 70
     0
  3
__ __ __ __ __ __ __ __ __ __ __ __ __ __ __
 72
    65
 73
     2
 40
7.5
 49
6.0
 74
     0
 49
-1.5
 74
     0
  0
LTYPE
  5
4C
330
5
100
AcDbSymbolTableRecord
100
AcDbLinetypeTableRecord
  2
AM_ISO08W050
 70
     0
  3
____ . ____ . ____ . ____ . ____ . ____ . ____
 72
    65
 73
     4
 40
18.0
 49
12.0
 74
     0
 49
-1.5
 74
     0
 49
3.0
 74
     0
 49
-1.5
 74
     0
  0
LTYPE
  5
4D
330
5
100
AcDbSymbolTableRecord
100
AcDbLinetypeTableRecord
  2
AM_ISO09W050
 70
     0
  3
_____ . . _____ . . _____ . . ____ .. ____
 72
    65
 73
     6
 40
22.5
 49
12.0
 74
     0
 49
-1.5
 74
     0
 49
3.0
 74
     0
 49
-1.5
 74
     0
 49
3.0
 74
     0
 49
-1.5
 74
     0
  0
LTYPE
  5
4E
330
5
100
AcDbSymbolTableRecord
100
AcDbLinetypeTableRecord
  2
AMCONSTR
 70
     0
  3
_______________________
 72
    65
 73
     2
 40
9999.0
 49
9999.0
 74
     0
 49
0.0
 74
     0
  0
LTYPE
  5
4F
330
5
100
AcDbSymbolTableRecord
100
AcDbLinetypeTableRecord
  2
AM_ISO02W050X2
 70
     0
  3
 _ _ _ _ _ _ _ _ _ _ _ _
 72
    65
 73
     2
 40
3.75
 49
3.0
 74
     0
 49
-0.75
 74
     0
  0
LTYPE
  5
50
330
5
100
AcDbSymbolTableRecord
100
AcDbLinetypeTableRecord
  2
AM_ISO08W050X2
 70
     0
  3
__ . __ . __ . __ . __ . __
 72
    65
 73
     4
 40
9.0
 49
6.0
 74
     0
 49
-0.75
 74
     0
 49
1.5
 74
     0
 49
-0.75
 74
     0
  0
LTYPE
  5
53
330
5
100
AcDbSymbolTableRecord
100
AcDbLinetypeTableRecord
  2
AMZIGZAG
 70
     0
  3
/\/-/\/-/\/-/\/-/\/-/\/
 72
    65
 73
     2
 40
11.00009999999999
 49
0.0001
 74
     4
 75
   135
340
52
 46
0.04
 50
0.0
 44
0.0
 45
0.0
 49
-11.0
 74
     0
  0
LTYPE
  5
166
330
5
100
AcDbSymbolTableRecord
100
AcDbLinetypeTableRecord
  2
ACJISTGL
 70
     0
  3
_ _ _ _ _
 72
    65
 73
     2
 40
3.0
 49
2.0
 74
     0
 49
-1.0
 74
     0
  0
LTYPE
  5
26A
330
5
100
AcDbSymbolTableRecord
100
AcDbLinetypeTableRecord
  2
ACJISTGB
 70
     0
  3
__ . . __ . .
 72
    65
 73
     6
 40
9.0
 49
4.0
 74
     0
 49
-1.0
 74
     0
 49
1.0
 74
     0
 49
-1.0
 74
     0
 49
1.0
 74
     0
 49
-1.0
 74
     0
  0
ENDTAB
  0
TABLE
  2
LAYER
  5
2
330
0
100
AcDbSymbolTable
 70
     7
  0
LAYER
  5
10
330
2
100
AcDbSymbolTableRecord
100
AcDbLayerTableRecord
  2
0
 70
     0
 62
     7
  6
CONTINUOUS
  0
LAYER
  5
3F9
330
2
100
AcDbSymbolTableRecord
100
AcDbLayerTableRecord
  2
AM_0
 70
     0
 62
     7
  6
CONTINUOUS
  0
LAYER
  5
C7C
330
2
100
AcDbSymbolTableRecord
100
AcDbLayerTableRecord
  2
AM_7
 70
     0
 62
     4
  6
AM_ISO08W050
  0
LAYER
  5
C97
330
2
100
AcDbSymbolTableRecord
100
AcDbLayerTableRecord
  2
AM_11
 70
     0
 62
     3
  6
AM_ISO09W050
  0
LAYER
  5
CC5
330
2
100
AcDbSymbolTableRecord
100
AcDbLayerTableRecord
  2
AM_5
 70
     0
 62
     3
  6
CONTINUOUS
  0
LAYER
  5
CC7
330
2
100
AcDbSymbolTableRecord
100
AcDbLayerTableRecord
  2
DEFPOINTS
 70
     0
 62
     7
  6
CONTINUOUS
  0
LAYER
  5
19BC
330
2
100
AcDbSymbolTableRecord
100
AcDbLayerTableRecord
  2
AM_6
 70
     0
 62
     2
  6
CONTINUOUS
  0
ENDTAB
  0
TABLE
  2
STYLE
  5
3
330
0
100
AcDbSymbolTable
 70
     5
  0
STYLE
  5
11
330
3
100
AcDbSymbolTableRecord
100
AcDbTextStyleTableRecord
  2
STANDARD
 70
     0
 40
0.0
 41
1.0
 50
0.0
 71
     0
 42
2.5
  3
simplex.shx
  4
EXTFONT.SHX
  0
STYLE
  5
52
330
3
100
AcDbSymbolTableRecord
100
AcDbTextStyleTableRecord
  2

 70
     1
 40
0.0
 41
1.0
 50
0.0
 71
     0
 42
2.5
  3
ltypeshp.shx
  4

  0
STYLE
  5
6B
330
3
100
AcDbSymbolTableRecord
100
AcDbTextStyleTableRecord
  2
ASAMI
 70
     0
 40
0.0
 41
1.0
 50
0.0
 71
     0
 42
2.5
  3
simplex.shx
  4
EXTFONT.SHX
  0
STYLE
  5
262
330
3
100
AcDbSymbolTableRecord
100
AcDbTextStyleTableRecord
  2
ACJISTS
 70
     0
 40
1.0
 41
1.0
 50
0.0
 71
     0
 42
2.5
  3
simplex.shx
  4
bigfont.shx
  0
STYLE
  5
269
330
3
100
AcDbSymbolTableRecord
100
AcDbTextStyleTableRecord
  2
ACJISGDT
 70
     0
 40
0.0
 41
1.0
 50
0.0
 71
     0
 42
2.5
  3
amgdtans.shx
  4

  0
ENDTAB
  0
TABLE
  2
VIEW
  5
6
330
0
100
AcDbSymbolTable
 70
     0
  0
ENDTAB
  0
TABLE
  2
UCS
  5
7
330
0
100
AcDbSymbolTable
 70
     0
  0
ENDTAB
  0
TABLE
  2
APPID
  5
9
330
0
100
AcDbSymbolTable
 70
    16
  0
APPID
  5
12
330
9
100
AcDbSymbolTableRecord
100
AcDbRegAppTableRecord
  2
ACAD
 70
     0
  0
APPID
  5
30
330
9
100
AcDbSymbolTableRecord
100
AcDbRegAppTableRecord
  2
MCAD_NO_VIS
 70
     0
  0
APPID
  5
31
330
9
100
AcDbSymbolTableRecord
100
AcDbRegAppTableRecord
  2
ACAD_TEMP_GRAPHIC
 70
     0
  0
APPID
  5
2C2
330
9
100
AcDbSymbolTableRecord
100
AcDbRegAppTableRecord
  2
GENIUS_GENDTOL_13
 70
     0
  0
APPID
  5
339
330
9
100
AcDbSymbolTableRecord
100
AcDbRegAppTableRecord
  2
GENIUS_GENODEF_13
 70
     0
  0
APPID
  5
33A
330
9
100
AcDbSymbolTableRecord
100
AcDbRegAppTableRecord
  2
GENIUS_GENOBJ-N-RSBK_13
 70
     0
  0
APPID
  5
33B
330
9
100
AcDbSymbolTableRecord
100
AcDbRegAppTableRecord
  2
GENIUS_GENOBJ-N-LIB_13
 70
     0
  0
APPID
  5
33C
330
9
100
AcDbSymbolTableRecord
100
AcDbRegAppTableRecord
  2
GENIUS_GENSCALE_13
 70
     0
  0
APPID
  5
378
330
9
100
AcDbSymbolTableRecord
100
AcDbRegAppTableRecord
  2
GENIUS_GENDIMSH_14
 70
     0
  0
APPID
  5
C82
330
9
100
AcDbSymbolTableRecord
100
AcDbRegAppTableRecord
  2
GENIUS_GENOBJ-N-CRS_13
 70
     0
  0
APPID
  5
C83
330
9
100
AcDbSymbolTableRecord
100
AcDbRegAppTableRecord
  2
GENIUS_GENOENT_13
 70
     0
  0
APPID
  5
C84
330
9
100
AcDbSymbolTableRecord
100
AcDbRegAppTableRecord
  2
GENIUS_GENOREF_13
 70
     0
  0
APPID
  5
C85
330
9
100
AcDbSymbolTableRecord
100
AcDbRegAppTableRecord
  2
GENIUS_GENOLIS_13
 70
     0
  0
APPID
  5
CA0
330
9
100
AcDbSymbolTableRecord
100
AcDbRegAppTableRecord
  2
GENIUS_GENOBJ-N-CEN_13
 70
     0
  0
APPID
  5
1E1E
330
9
100
AcDbSymbolTableRecord
100
AcDbRegAppTableRecord
  2
GENIUS_GENFIL_13
 70
     0
  0
APPID
  5
1E1F
330
9
100
AcDbSymbolTableRecord
100
AcDbRegAppTableRecord
  2
GENIUS_GENOBJ-N-CHA_13
 70
     0
  0
ENDTAB
  0
TABLE
  2
DIMSTYLE
  5
A
330
0
100
AcDbSymbolTable
 70
     9
  0
DIMSTYLE
105
58
330
A
100
AcDbSymbolTableRecord
100
AcDbDimStyleTableRecord
  2
AM_JIS
 70
     0
  3

  4
"
  5
OPEN30
  6

  7

 40
0.5
 41
2.5
 42
1.0
 43
12.0
 44
1.0
 45
0.0
 46
0.0
 47
0.1
 48
0.1
140
3.2
141
0.0
142
0.0
143
0.0393701
144
1.0
145
0.0
146
0.71
147
1.5
 71
     0
 72
     0
 73
     0
 74
     0
 75
     0
 76
     0
 77
     3
 78
     8
170
     0
171
     2
172
     1
173
     0
174
     0
175
     0
176
   256
177
   256
178
     2
270
     2
271
     3
272
     3
273
     2
274
     2
340
6B
275
     0
280
     0
281
     0
282
     0
283
     0
284
     0
285
     0
286
     0
287
     3
288
     0
  0
DIMSTYLE
105
5F
330
A
100
AcDbSymbolTableRecord
100
AcDbDimStyleTableRecord
  2
AM_JIS$3
 70
     0
  3

  4
"
  5
OPEN30
  6

  7

 40
0.5
 41
2.5
 42
1.0
 43
10.0
 44
1.0
 45
0.0
 46
0.0
 47
0.1
 48
0.1
140
3.2
141
0.0
142
0.0
143
0.0393701
144
1.0
145
0.0
146
0.71
147
1.5
 71
     0
 72
     0
 73
     0
 74
     1
 75
     0
 76
     0
 77
     3
 78
     8
170
     0
171
     2
172
     0
173
     0
174
     0
175
     0
176
   256
177
   256
178
     2
270
     2
271
     2
272
     3
273
     2
274
     2
340
6B
275
     0
280
     0
281
     0
282
     0
283
     0
284
     0
285
     0
286
     0
287
     0
288
     1
  0
DIMSTYLE
105
60
330
A
100
AcDbSymbolTableRecord
100
AcDbDimStyleTableRecord
  2
AM_JIS$4
 70
     0
  3

  4
"
  5
OPEN30
  6

  7

 40
0.5
 41
2.5
 42
1.0
 43
10.0
 44
1.0
 45
0.0
 46
0.0
 47
0.1
 48
0.1
140
3.2
141
0.0
142
0.0
143
0.0393701
144
1.0
145
0.0
146
0.71
147
1.5
 71
     0
 72
     0
 73
     0
 74
     1
 75
     0
 76
     0
 77
     3
 78
     8
170
     0
171
     2
172
     0
173
     0
174
     0
175
     0
176
   256
177
   256
178
     2
270
     2
271
     2
272
     3
273
     2
274
     2
340
6B
275
     0
280
     0
281
     0
282
     0
283
     0
284
     0
285
     0
286
     0
287
     0
288
     1
  0
DIMSTYLE
105
61
330
A
100
AcDbSymbolTableRecord
100
AcDbDimStyleTableRecord
  2
AM_JIS$6
 70
     0
  3

  4
"
  5
OPEN30
  6

  7

 40
0.5
 41
2.5
 42
1.0
 43
10.0
 44
1.0
 45
0.0
 46
0.0
 47
0.1
 48
0.1
140
3.2
141
0.0
142
0.0
143
0.0393701
144
1.0
145
0.0
146
0.71
147
1.5
 71
     0
 72
     0
 73
     0
 74
     0
 75
     0
 76
     0
 77
     0
 78
     8
170
     0
171
     2
172
     1
173
     0
174
     0
175
     0
176
   256
177
   256
178
     2
270
     2
271
     2
272
     2
273
     2
274
     2
340
6B
275
     0
280
     0
281
     0
282
     0
283
     0
284
     0
285
     0
286
     0
287
     3
288
     0
  0
DIMSTYLE
105
62
330
A
100
AcDbSymbolTableRecord
100
AcDbDimStyleTableRecord
  2
AM_JIS$7
 70
     0
  3

  4
"
  5
OPEN30
  6

  7

 40
0.5
 41
2.5
 42
1.0
 43
10.0
 44
1.0
 45
0.0
 46
0.0
 47
0.1
 48
0.1
140
3.2
141
0.0
142
0.0
143
0.0393701
144
1.0
145
0.0
146
0.71
147
1.5
 71
     0
 72
     0
 73
     0
 74
     0
 75
     0
 76
     0
 77
     3
 78
     8
170
     0
171
     2
172
     1
173
     0
174
     0
175
     0
176
   256
177
   256
178
     2
270
     2
271
     2
272
     3
273
     2
274
     2
340
6B
275
     0
280
     0
281
     0
282
     0
283
     0
284
     0
285
     0
286
     0
287
     3
288
     0
  0
DIMSTYLE
105
63
330
A
100
AcDbSymbolTableRecord
100
AcDbDimStyleTableRecord
  2
AM_JIS$SF
 70
     0
  3

  4
"
  5
OPEN30
  6

  7

 40
0.5
 41
2.5
 42
1.0
 43
10.0
 44
1.0
 45
0.0
 46
0.0
 47
0.1
 48
0.1
140
3.2
141
0.0
142
0.0
143
0.0393701
144
1.0
145
0.0
146
0.71
147
1.5
 71
     0
 72
     0
 73
     0
 74
     0
 75
     1
 76
     1
 77
     3
 78
     8
170
     0
171
     2
172
     1
173
     0
174
     0
175
     0
176
   256
177
   256
178
     2
270
     2
271
     2
272
     2
273
     2
274
     2
340
6B
275
     0
280
     0
281
     0
282
     0
283
     0
284
     0
285
     0
286
     0
287
     3
288
     0
  0
DIMSTYLE
105
68
330
A
100
AcDbSymbolTableRecord
100
AcDbDimStyleTableRecord
  2
AM_JIS$SH
 70
     0
  3

  4
"
  5

  6
GENAXEH
  7
OPEN30
 40
0.5
 41
2.5
 42
1.0
 43
10.0
 44
1.0
 45
0.0
 46
0.0
 47
0.1
 48
0.1
140
3.2
141
0.0
142
0.0
143
0.0393701
144
2.0
145
0.0
146
0.71
147
1.5
 71
     0
 72
     0
 73
     0
 74
     0
 75
     1
 76
     1
 77
     3
 78
     8
170
     0
171
     2
172
     1
173
     1
174
     0
175
     0
176
   256
177
   256
178
     2
270
     2
271
     2
272
     2
273
     2
274
     2
340
6B
275
     0
280
     0
281
     0
282
     0
283
     0
284
     0
285
     0
286
     0
287
     3
288
     0
  0
DIMSTYLE
105
B34
102
{ACAD_REACTORS
330
2BA8
102
}
330
A
100
AcDbSymbolTableRecord
100
AcDbDimStyleTableRecord
  2
AM_JIS$2
 70
     0
  3

  4
"
  5
OPEN30
  6

  7

 40
0.5
 41
2.5
 42
1.0
 43
12.0
 44
1.0
 45
0.0
 46
0.0
 47
0.1
 48
0.1
140
3.2
141
0.0
142
0.0
143
0.0393701
144
1.0
145
0.0
146
0.71
147
1.5
 71
     0
 72
     0
 73
     0
 74
     0
 75
     0
 76
     0
 77
     3
 78
     8
170
     0
171
     2
172
     1
173
     0
174
     0
175
     0
176
   256
177
   256
178
     2
270
     2
271
     3
272
     3
273
     2
274
     2
340
6B
275
     0
280
     0
281
     0
282
     0
283
     0
284
     0
285
     0
286
     0
287
     3
288
     0
  0
DIMSTYLE
105
BA5
102
{ACAD_REACTORS
330
CC6
330
DF5
330
228A
330
2D88
102
}
330
A
100
AcDbSymbolTableRecord
100
AcDbDimStyleTableRecord
  2
AM_JIS$0
 70
     0
  3

  4
"
  5
OPEN30
  6

  7

 40
0.5
 41
2.5
 42
0.0
 43
10.0
 44
1.0
 45
0.0
 46
0.0
 47
0.1
 48
0.1000000001
140
3.799999999999999
141
0.0
142
0.0
143
0.0393701
144
1.0
145
0.0
146
0.71
147
1.5
 71
     0
 72
     0
 73
     0
 74
     0
 75
     0
 76
     0
 77
     3
 78
     1
170
     0
171
     2
172
     1
173
     0
174
     0
175
     0
176
     3
177
     3
178
     2
270
     2
271
     2
272
     2
273
     2
274
     2
340
11
275
     1
280
     0
281
     0
282
     0
283
     0
284
     8
285
     0
286
     0
287
     0
288
     0
  0
ENDTAB
  0
TABLE
  2
BLOCK_RECORD
  5
1
330
0
100
AcDbSymbolTable
 70
    10
  0
BLOCK_RECORD
  5
1F
102
{ACAD_XDICTIONARY
360
74
102
}
330
1
100
AcDbSymbolTableRecord
100
AcDbBlockTableRecord
  2
*MODEL_SPACE
  0
BLOCK_RECORD
  5
101
102
{ACAD_XDICTIONARY
360
2F62
102
}
330
1
100
AcDbSymbolTableRecord
100
AcDbBlockTableRecord
  2
*PAPER_SPACE
  0
BLOCK_RECORD
  5
59
330
1
100
AcDbSymbolTableRecord
100
AcDbBlockTableRecord
  2
_OPEN30
  0
BLOCK_RECORD
  5
64
330
1
100
AcDbSymbolTableRecord
100
AcDbBlockTableRecord
  2
GENAXEH
  0
BLOCK_RECORD
  5
CC8
330
1
100
AcDbSymbolTableRecord
100
AcDbBlockTableRecord
  2
*D5
  0
BLOCK_RECORD
  5
DF6
330
1
100
AcDbSymbolTableRecord
100
AcDbBlockTableRecord
  2
*D6
  0
BLOCK_RECORD
  5
228B
330
1
100
AcDbSymbolTableRecord
100
AcDbBlockTableRecord
  2
*D7
  0
BLOCK_RECORD
  5
2BA9
330
1
100
AcDbSymbolTableRecord
100
AcDbBlockTableRecord
  2
*D8
  0
BLOCK_RECORD
  5
2D89
330
1
100
AcDbSymbolTableRecord
100
AcDbBlockTableRecord
  2
*D9
  0
ENDTAB
  0
ENDSEC
  0
SECTION
  2
BLOCKS
  0
BLOCK
  5
20
330
1F
100
AcDbEntity
  8
0
100
AcDbBlockBegin
  2
*MODEL_SPACE
 70
     0
 10
0.0
 20
0.0
 30
0.0
  3
*MODEL_SPACE
  1

  0
ENDBLK
  5
21
330
1F
100
AcDbEntity
  8
0
100
AcDbBlockEnd
  0
BLOCK
  5
103
330
101
100
AcDbEntity
 67
     1
  8
0
100
AcDbBlockBegin
  2
*PAPER_SPACE
 70
     0
 10
0.0
 20
0.0
 30
0.0
  3
*PAPER_SPACE
  1

  0
ENDBLK
  5
104
330
101
100
AcDbEntity
 67
     1
  8
0
100
AcDbBlockEnd
  0
BLOCK
  5
5D
330
59
100
AcDbEntity
  8
0
100
AcDbBlockBegin
  2
_OPEN30
 70
     0
 10
0.0
 20
0.0
 30
0.0
  3
_OPEN30
  1

  0
LINE
  5
5A
330
59
100
AcDbEntity
  8
0
 62
     0
100
AcDbLine
 10
-1.0
 20
0.26794919
 30
0.0
 11
0.0
 21
0.0
 31
0.0
  0
LINE
  5
5B
330
59
100
AcDbEntity
  8
0
 62
     0
100
AcDbLine
 10
0.0
 20
0.0
 30
0.0
 11
-1.0
 21
-0.26794919
 31
0.0
  0
LINE
  5
5C
330
59
100
AcDbEntity
  8
0
 62
     0
100
AcDbLine
 10
0.0
 20
0.0
 30
0.0
 11
-1.0
 21
0.0
 31
0.0
  0
ENDBLK
  5
5E
330
59
100
AcDbEntity
  8
0
100
AcDbBlockEnd
  0
BLOCK
  5
66
330
64
100
AcDbEntity
  8
0
100
AcDbBlockBegin
  2
GENAXEH
 70
     0
 10
0.0
 20
0.0
 30
0.0
  3
GENAXEH
  1

  0
LINE
  5
65
330
64
100
AcDbEntity
  8
0
100
AcDbLine
 10
-1.0
 20
0.0
 30
0.0
 11
1.0
 21
0.0
 31
0.0
  0
ENDBLK
  5
67
330
64
100
AcDbEntity
  8
0
100
AcDbBlockEnd
  0
BLOCK
  5
CD2
330
CC8
100
AcDbEntity
  8
0
100
AcDbBlockBegin
  2
*D5
 70
     1
 10
0.0
 20
0.0
 30
0.0
  3
*D5
  1

  0
LINE
  5
2EE7
330
CC8
100
AcDbEntity
  8
AM_5
 62
     3
100
AcDbLine
 10
-101.9999999999999
 20
-4.000000000000019
 30
0.0
 11
-101.9999999999999
 21
-17.00000236965379
 31
0.0
  0
LINE
  5
2EE8
330
CC8
100
AcDbEntity
  8
AM_5
 62
     3
100
AcDbLine
 10
-1.999998253224993
 20
-4.199999475960474
 30
0.0
 11
-1.999998253224994
 21
-17.00000236965379
 31
0.0
  0
LINE
  5
2EE9
330
CC8
100
AcDbEntity
  8
AM_5
 62
     3
100
AcDbLine
 10
-100.7499999999999
 20
-16.50000236965379
 30
0.0
 11
-3.249998253224994
 21
-16.50000236965379
 31
0.0
  0
INSERT
  5
2EEA
330
CC8
100
AcDbEntity
  8
AM_5
 62
     3
100
AcDbBlockReference
  2
_OPEN30
 10
-101.9999999999999
 20
-16.50000236965379
 30
0.0
 41
1.25
 42
1.25
 43
1.25
 50
180.0
  0
INSERT
  5
2EEB
330
CC8
100
AcDbEntity
  8
AM_5
 62
     3
100
AcDbBlockReference
  2
_OPEN30
 10
-1.999998253224994
 20
-16.50000236965379
 30
0.0
 41
1.25
 42
1.25
 43
1.25
  0
MTEXT
  5
2EEC
330
CC8
100
AcDbEntity
  8
AM_5
 62
     2
100
AcDbMText
 10
-51.99999912661249
 20
-14.80000236965379
 30
0.0
 40
1.9
 41
0.0
 71
     5
 72
     1
  1
100
1001
ACAD
1000
MTEXTBEGIN
1070
    73
1070
     1
1070
    44
1040
1.0
1070
    74
1070
     0
1000
MTEXTEND
  0
POINT
  5
2EED
330
CC8
100
AcDbEntity
  8
DEFPOINTS
 62
     0
100
AcDbPoint
 10
-101.9999999999999
 20
-4.000000000000019
 30
0.0
  0
POINT
  5
2EEE
330
CC8
100
AcDbEntity
  8
DEFPOINTS
 62
     0
100
AcDbPoint
 10
-1.999998253224993
 20
-4.199999475960474
 30
0.0
  0
POINT
  5
2EEF
330
CC8
100
AcDbEntity
  8
DEFPOINTS
 62
     0
100
AcDbPoint
 10
-1.999998253224994
 20
-16.50000236965379
 30
0.0
  0
ENDBLK
  5
CD3
330
CC8
100
AcDbEntity
  8
0
100
AcDbBlockEnd
  0
BLOCK
  5
E00
330
DF6
100
AcDbEntity
  8
0
100
AcDbBlockBegin
  2
*D6
 70
     1
 10
0.0
 20
0.0
 30
0.0
  3
*D6
  1

  0
LINE
  5
2F0D
330
DF6
100
AcDbEntity
  8
AM_5
 62
     3
100
AcDbLine
 10
-47.0
 20
-4.500001369653889
 30
0.0
 11
-47.0
 21
-12.00000236965377
 31
0.0
  0
LINE
  5
2F0E
330
DF6
100
AcDbEntity
  8
AM_5
 62
     3
100
AcDbLine
 10
-1.999998253224993
 20
-4.199999475960474
 30
0.0
 11
-1.999998253224994
 21
-12.00000236965377
 31
0.0
  0
LINE
  5
2F0F
330
DF6
100
AcDbEntity
  8
AM_5
 62
     3
100
AcDbLine
 10
-45.75
 20
-11.50000236965377
 30
0.0
 11
-3.249998253224994
 21
-11.50000236965377
 31
0.0
  0
INSERT
  5
2F10
330
DF6
100
AcDbEntity
  8
AM_5
 62
     3
100
AcDbBlockReference
  2
_OPEN30
 10
-47.0
 20
-11.50000236965377
 30
0.0
 41
1.25
 42
1.25
 43
1.25
 50
180.0
  0
INSERT
  5
2F11
330
DF6
100
AcDbEntity
  8
AM_5
 62
     3
100
AcDbBlockReference
  2
_OPEN30
 10
-1.999998253224994
 20
-11.50000236965377
 30
0.0
 41
1.25
 42
1.25
 43
1.25
  0
MTEXT
  5
2F12
330
DF6
100
AcDbEntity
  8
AM_5
 62
     2
100
AcDbMText
 10
-24.49999912661249
 20
-9.800002369653771
 30
0.0
 40
1.9
 41
0.0
 71
     5
 72
     1
  1
45
1001
ACAD
1000
MTEXTBEGIN
1070
    73
1070
     1
1070
    44
1040
1.0
1070
    74
1070
     0
1000
MTEXTEND
  0
POINT
  5
2F13
330
DF6
100
AcDbEntity
  8
DEFPOINTS
 62
     0
100
AcDbPoint
 10
-47.0
 20
-4.500001369653889
 30
0.0
  0
POINT
  5
2F14
330
DF6
100
AcDbEntity
  8
DEFPOINTS
 62
     0
100
AcDbPoint
 10
-1.999998253224993
 20
-4.199999475960474
 30
0.0
  0
POINT
  5
2F15
330
DF6
100
AcDbEntity
  8
DEFPOINTS
 62
     0
100
AcDbPoint
 10
-1.999998253224994
 20
-11.50000236965377
 30
0.0
  0
ENDBLK
  5
E01
330
DF6
100
AcDbEntity
  8
0
100
AcDbBlockEnd
  0
BLOCK
  5
2297
330
228B
100
AcDbEntity
  8
0
100
AcDbBlockBegin
  2
*D7
 70
     1
 10
0.0
 20
0.0
 30
0.0
  3
*D7
  1

  0
LINE
  5
2EF0
330
228B
100
AcDbEntity
  8
AM_5
 62
     3
100
AcDbLine
 10
-101.4999999999999
 20
-4.500000000000327
 30
0.0
 11
-111.5000009999999
 21
-4.500000000000355
 31
0.0
  0
LINE
  5
2EF1
330
228B
100
AcDbEntity
  8
AM_5
 62
     3
100
AcDbLine
 10
-101.5
 20
4.499999999999695
 30
0.0
 11
-111.5000009999999
 21
4.499999999999667
 31
0.0
  0
LINE
  5
2EF2
330
228B
100
AcDbEntity
  8
AM_5
 62
     3
100
AcDbLine
 10
-111.0000009999999
 20
-3.250000000000354
 30
0.0
 11
-111.0000009999999
 21
3.249999999999668
 31
0.0
  0
INSERT
  5
2EF3
330
228B
100
AcDbEntity
  8
AM_5
 62
     3
100
AcDbBlockReference
  2
_OPEN30
 10
-111.0000009999999
 20
-4.500000000000354
 30
0.0
 41
1.25
 42
1.25
 43
1.25
 50
270.0000000000001
  0
INSERT
  5
2EF4
330
228B
100
AcDbEntity
  8
AM_5
 62
     3
100
AcDbBlockReference
  2
_OPEN30
 10
-111.0000009999999
 20
4.499999999999668
 30
0.0
 41
1.25
 42
1.25
 43
1.25
 50
90.00000000000015
  0
MTEXT
  5
2EF5
330
228B
100
AcDbEntity
  8
AM_5
 62
     2
100
AcDbMText
 10
-112.7000009999999
 20
-0.0000000000003417
 30
0.0
 40
1.9
 41
0.0
 71
     5
 72
     1
  1
%%c9
 11
-0.0000000000000028
 21
1.0
 31
0.0
1001
ACAD
1000
MTEXTBEGIN
1070
    73
1070
     1
1070
    44
1040
1.0
1070
    74
1070
     0
1000
MTEXTEND
  0
POINT
  5
2EF6
330
228B
100
AcDbEntity
  8
DEFPOINTS
 62
     0
100
AcDbPoint
 10
-101.5
 20
-4.500000000000012
 30
0.0
  0
POINT
  5
2EF7
330
228B
100
AcDbEntity
  8
DEFPOINTS
 62
     0
100
AcDbPoint
 10
-101.4999999999999
 20
4.50000000000001
 30
0.0
  0
POINT
  5
2EF8
330
228B
100
AcDbEntity
  8
DEFPOINTS
 62
     0
100
AcDbPoint
 10
-111.0000009999999
 20
4.500000000000014
 30
0.0
  0
ENDBLK
  5
2298
330
228B
100
AcDbEntity
  8
0
100
AcDbBlockEnd
  0
BLOCK
  5
2BB7
330
2BA9
100
AcDbEntity
  8
0
100
AcDbBlockBegin
  2
*D8
 70
     1
 10
0.0
 20
0.0
 30
0.0
  3
*D8
  1

  0
LINE
  5
2F64
330
2BA9
100
AcDbEntity
  8
AM_5
100
AcDbLine
 10
0.1710101364597394
 20
-0.4698462868088095
 30
0.0
 11
4.584937879512482
 21
-12.59700788815584
 31
0.0
  0
LINE
  5
2F65
330
2BA9
100
AcDbEntity
  8
AM_5
100
AcDbLine
 10
0.1710111995358658
 20
0.4698458998792031
 30
0.0
 11
4.584966381553948
 21
12.59699751422015
 31
0.0
  0
ARC
  5
2F66
330
2BA9
100
AcDbEntity
  8
AM_5
100
AcDbCircle
 10
-0.0000000000000021
 20
-0.0000000000000058
 30
0.0
 40
12.90545646717219
100
AcDbArc
 50
295.5517487548053
 51
64.44812160747662
  0
INSERT
  5
2F67
330
2BA9
100
AcDbEntity
  8
AM_5
100
AcDbBlockReference
  2
_OPEN30
 10
4.41392774305274
 20
-12.12716160134703
 30
0.0
 41
1.25
 42
1.25
 43
1.25
 50
202.7758783282578
  0
INSERT
  5
2F68
330
2BA9
100
AcDbEntity
  8
AM_5
100
AcDbBlockReference
  2
_OPEN30
 10
4.41395518201808
 20
12.12715161434094
 30
0.0
 41
1.25
 42
1.25
 43
1.25
 50
157.2239920340242
  0
MTEXT
  5
2F69
330
2BA9
100
AcDbEntity
  8
AM_5
 62
     2
100
AcDbMText
 10
11.35545646716492
 20
-0.0000128464563666
 30
0.0
 40
1.6
 41
0.0
 71
     5
 72
     1
  1
140°
  7
ASAMI
 11
0.0000011313025075
 21
0.9999999999993601
 31
0.0
  0
POINT
  5
2F6A
330
2BA9
100
AcDbEntity
  8
DEFPOINTS
 62
     0
100
AcDbPoint
 10
11.84999437460812
 20
-5.111598570685324
 30
0.0
  0
POINT
  5
2F6B
330
2BA9
100
AcDbEntity
  8
DEFPOINTS
 62
     0
100
AcDbPoint
 10
-0.0000000000000021
 20
-0.0000000000000058
 30
0.0
  0
POINT
  5
2F6C
330
2BA9
100
AcDbEntity
  8
DEFPOINTS
 62
     0
100
AcDbPoint
 10
-0.0000000000000021
 20
-0.0000000000000058
 30
0.0
  0
POINT
  5
2F6D
330
2BA9
100
AcDbEntity
  8
DEFPOINTS
 62
     0
100
AcDbPoint
 10
-0.5059335634320968
 20
1.390040444804146
 30
0.0
  0
POINT
  5
2F6E
330
2BA9
100
AcDbEntity
  8
DEFPOINTS
 62
     0
100
AcDbPoint
 10
-0.5059401244912122
 20
-1.390048685242468
 30
0.0
  0
ENDBLK
  5
2BB8
330
2BA9
100
AcDbEntity
  8
0
100
AcDbBlockEnd
  0
BLOCK
  5
2D93
330
2D89
100
AcDbEntity
  8
0
100
AcDbBlockBegin
  2
*D9
 70
     1
 10
0.0
 20
0.0
 30
0.0
  3
*D9
  1

  0
LINE
  5
2EF9
330
2D89
100
AcDbEntity
  8
AM_5
 62
     3
100
AcDbLine
 10
-1.999998253225028
 20
4.200003000041752
 30
0.0
 11
9.05592102485804
 21
4.200003000041782
 31
0.0
  0
LINE
  5
2EFA
330
2D89
100
AcDbEntity
  8
AM_5
 62
     3
100
AcDbLine
 10
-1.999998253224993
 20
-4.199999475960475
 30
0.0
 11
9.055921024858065
 21
-4.199999475960445
 31
0.0
  0
LINE
  5
2EFB
330
2D89
100
AcDbEntity
  8
AM_5
 62
     3
100
AcDbLine
 10
8.555921024858044
 20
2.950003000041781
 30
0.0
 11
8.555921024858061
 21
-2.949999475960446
 31
0.0
  0
INSERT
  5
2EFC
330
2D89
100
AcDbEntity
  8
AM_5
 62
     3
100
AcDbBlockReference
  2
_OPEN30
 10
8.55592102485804
 20
4.200003000041781
 30
0.0
 41
1.25
 42
1.25
 43
1.25
 50
90.00000000000017
  0
INSERT
  5
2EFD
330
2D89
100
AcDbEntity
  8
AM_5
 62
     3
100
AcDbBlockReference
  2
_OPEN30
 10
8.555921024858065
 20
-4.199999475960446
 30
0.0
 41
1.25
 42
1.25
 43
1.25
 50
270.0000000000001
  0
MTEXT
  5
2EFE
330
2D89
100
AcDbEntity
  8
AM_5
 62
     2
100
AcDbMText
 10
6.855921024858052
 20
0.0000017620406624
 30
0.0
 40
1.9
 41
0.0
 71
     5
 72
     1
  1
%%c8.4
 11
-0.0000000000000028
 21
1.0
 31
0.0
1001
ACAD
1000
MTEXTBEGIN
1070
    73
1070
     1
1070
    44
1040
1.0
1070
    74
1070
     0
1000
MTEXTEND
  0
POINT
  5
2EFF
330
2D89
100
AcDbEntity
  8
DEFPOINTS
 62
     0
100
AcDbPoint
 10
-1.999998253225015
 20
4.200003000041757
 30
0.0
  0
POINT
  5
2F00
330
2D89
100
AcDbEntity
  8
DEFPOINTS
 62
     0
100
AcDbPoint
 10
-1.999998253225006
 20
-4.19999947596047
 30
0.0
  0
POINT
  5
2F01
330
2D89
100
AcDbEntity
  8
DEFPOINTS
 62
     0
100
AcDbPoint
 10
8.555921024858051
 20
-4.199999475960472
 30
0.0
  0
ENDBLK
  5
2D94
330
2D89
100
AcDbEntity
  8
0
100
AcDbBlockEnd
  0
ENDSEC
  0
SECTION
  2
ENTITIES
  0
LINE
  5
C1D
330
1F
100
AcDbEntity
  8
AM_0
 48
0.5
100
AcDbLine
 10
-0.0000000000000021
 20
-0.0000000000000058
 30
0.0
 11
-0.505933563432097
 21
1.390040444804146
 31
0.0
  0
LINE
  5
C20
330
1F
100
AcDbEntity
  8
AM_0
 48
0.5
100
AcDbLine
 10
-0.0000000000000021
 20
-0.0000000000000058
 30
0.0
 11
-0.5059401244912123
 21
-1.390048685242468
 31
0.0
  0
LINE
  5
C30
330
1F
100
AcDbEntity
  8
AM_0
 48
0.5
100
AcDbLine
 10
-101.9999999999999
 20
-4.000000000000019
 30
0.0
 11
-102.0
 21
3.999999999999984
 31
0.0
  0
LINE
  5
C9F
330
1F
100
AcDbEntity
  8
AM_7
100
AcDbLine
 10
-103.9999999999999
 20
-0.0000000000000147
 30
0.0
 11
1.555920024858058
 21
-0.0000000000000025
 31
0.0
1001
GENIUS_GENODEF_13
1002
{
1000
HIER
1070
     0
1002
}
1002
{
1000
MANEDIT
1070
     0
1002
}
1002
{
1000
NOSEL
1070
     0
1002
}
1002
{
1000
BEHIND
1070
     0
1002
}
1002
{
1000
REACTOR
1002
}
1001
GENIUS_GENOBJ-N-CEN_13
1002
{
1000
OWNER
1000
GEN
1002
}
  0
DIMENSION
  5
CC6
330
1F
100
AcDbEntity
  8
AM_5
100
AcDbDimension
  2
*D5
 10
-1.999998253224994
 20
-16.50000236965379
 30
0.0
 11
-51.99999912661249
 21
-14.80000236965379
 31
0.0
 70
    32
  1
<>
  3
AM_JIS$0
100
AcDbAlignedDimension
 13
-101.9999999999999
 23
-4.000000000000019
 33
0.0
 14
-1.999998253224993
 24
-4.199999475960474
 34
0.0
 50
0.0000000000001132
100
AcDbRotatedDimension
1001
GENIUS_GENDTOL_13
1000

1000
h7
1000

1040
0.0
1001
ACAD
1000
DSTYLE
1002
{
1070
   271
1070
     0
1002
}
  0
DIMENSION
  5
DF5
330
1F
100
AcDbEntity
  8
AM_5
100
AcDbDimension
  2
*D6
 10
-1.999998253224994
 20
-11.50000236965377
 30
0.0
 11
-24.49999912661249
 21
-9.800002369653771
 31
0.0
 70
    32
  1
<>
  3
AM_JIS$0
100
AcDbAlignedDimension
 13
-47.0
 23
-4.500001369653889
 33
0.0
 14
-1.999998253224993
 24
-4.199999475960474
 34
0.0
 50
0.0000000000001527
100
AcDbRotatedDimension
1001
GENIUS_GENDTOL_13
1000

1000
h7
1000

1040
0.0
1001
ACAD
1000
DSTYLE
1002
{
1070
   271
1070
     0
1002
}
  0
TEXT
  5
19BD
330
1F
100
AcDbEntity
  8
AM_6
100
AcDbText
 10
-63.24999999999997
 20
-27.75000236965382
 30
0.0
 40
2.5
  1
MDW084MHK
 50
0.0000000000001527
 72
     4
 11
-51.99999999999997
 21
-26.50000236965379
 31
0.0
100
AcDbText
  0
ARC
  5
1BE8
330
1F
100
AcDbEntity
  8
AM_11
 48
0.5
100
AcDbCircle
 10
-65.18578898111988
 20
17.66787048062784
 30
0.0
 40
19.53452809651666
100
AcDbArc
 50
244.7482808787518
 51
295.2516148471758
  0
ARC
  5
1BE9
330
1F
100
AcDbEntity
  8
AM_11
 48
0.5
100
AcDbCircle
 10
-65.18578898111991
 20
-17.66785848258815
 30
0.0
 40
19.53452809651666
100
AcDbArc
 50
64.74833051131179
 51
115.2516644797366
  0
LINE
  5
1CA9
330
1F
100
AcDbEntity
  8
AM_0
 48
0.5
100
AcDbLine
 10
-47.0
 20
-4.5000000000001
 30
0.0
 11
-47.0
 21
4.499999999999899
 31
0.0
  0
LINE
  5
1E12
330
1F
100
AcDbEntity
  8
AM_0
 48
0.5
100
AcDbLine
 10
-101.5
 20
4.499999999999986
 30
0.0
 11
-47.0
 21
4.499999999999899
 31
0.0
1001
GENIUS_GENODEF_13
1002
{
1000
HIER
1070
     0
1002
}
1002
{
1000
MANEDIT
1070
     0
1002
}
1002
{
1000
NOSEL
1070
     0
1002
}
1002
{
1000
BEHIND
1070
     0
1002
}
1002
{
1000
REACTOR
1002
}
1001
GENIUS_GENOBJ-N-CEN_13
1002
{
1000
OWNER
1000
GEN
1002
}
  0
LINE
  5
1E16
330
1F
100
AcDbEntity
  8
AM_0
 48
0.5
100
AcDbLine
 10
-101.4999999999999
 20
-4.500000000000012
 30
0.0
 11
-47.0
 21
-4.5000000000001
 31
0.0
1001
GENIUS_GENODEF_13
1002
{
1000
HIER
1070
     0
1002
}
1002
{
1000
MANEDIT
1070
     0
1002
}
1002
{
1000
NOSEL
1070
     0
1002
}
1002
{
1000
BEHIND
1070
     0
1002
}
1002
{
1000
REACTOR
1002
}
1001
GENIUS_GENOBJ-N-CEN_13
1002
{
1000
OWNER
1000
GEN
1002
}
  0
LINE
  5
1E22
330
1F
100
AcDbEntity
  8
AM_0
100
AcDbLine
 10
-101.5
 20
-4.500000000000003
 30
0.0
 11
-101.4999999999999
 21
4.50000000000001
 31
0.0
  0
LINE
  5
1E25
330
1F
100
AcDbEntity
  8
AM_0
100
AcDbLine
 10
-47.0
 20
-4.500001369653889
 30
0.0
 11
-46.48038629158405
 21
-4.200002255225331
 31
0.0
  0
LINE
  5
1E26
330
1F
100
AcDbEntity
  8
AM_0
100
AcDbLine
 10
-47.0
 20
4.499999999999942
 30
0.0
 11
-46.48038629158377
 21
4.200000885571229
 31
0.0
  0
ARC
  5
1F66
330
1F
100
AcDbEntity
  8
AM_11
 48
0.5
100
AcDbCircle
 10
-81.85241919041599
 20
17.66787048062778
 30
0.0
 40
19.53452809651666
100
AcDbArc
 50
244.7482808787518
 51
295.2516148471758
  0
ARC
  5
1F67
330
1F
100
AcDbEntity
  8
AM_11
 48
0.5
100
AcDbCircle
 10
-81.85241919041601
 20
-17.66785848258821
 30
0.0
 40
19.53452809651666
100
AcDbArc
 50
64.74833051131179
 51
115.2516644797366
  0
LINE
  5
220F
330
1F
100
AcDbEntity
  8
AM_0
100
AcDbLine
 10
-46.48038629158405
 20
-4.200002255225329
 30
0.0
 11
-46.48038629158377
 21
4.200003984197223
 31
0.0
  0
ELLIPSE
  5
222E
330
1F
100
AcDbEntity
  8
AM_11
 48
0.5
100
AcDbEllipse
 10
-15.18578898112439
 20
16.72558433296425
 30
0.0
 11
-19.53452809651665
 21
0.000000000000166
 31
0.0
210
0.0
220
0.0
230
1.0
 40
0.9466666666666663
 41
1.130070686340305
 42
2.011520147323594
  0
ELLIPSE
  5
222F
330
1F
100
AcDbEntity
  8
AM_11
 48
0.5
100
AcDbEllipse
 10
-15.18578898112476
 20
-16.72557241888021
 30
0.0
 11
-19.53452809651663
 21
0.0000000000000489
 31
0.0
210
0.0
220
0.0
230
1.0
 40
0.9466666666666668
 41
4.271664206181679
 42
5.153113667164986
  0
ELLIPSE
  5
2230
330
1F
100
AcDbEntity
  8
AM_11
 48
0.5
100
AcDbEllipse
 10
-48.51912231445306
 20
16.7255843329646
 30
0.0
 11
-19.53452809651663
 21
0.000000000000114
 31
0.0
210
0.0
220
0.0
230
1.0
 40
0.946666666666667
 41
1.130070686340299
 42
2.011520147323592
  0
ELLIPSE
  5
2231
330
1F
100
AcDbEntity
  8
AM_11
 48
0.5
100
AcDbEllipse
 10
-48.51912231445343
 20
-16.72557241887987
 30
0.0
 11
-19.53452809651663
 21
0.0000000000000055
 31
0.0
210
0.0
220
0.0
230
1.0
 40
0.946666666666667
 41
4.271664206181676
 42
5.153113667164983
  0
ELLIPSE
  5
2232
330
1F
100
AcDbEntity
  8
AM_11
 48
0.5
100
AcDbEllipse
 10
-31.85245564779143
 20
-16.72557241888004
 30
0.0
 11
-19.53452809651665
 21
0.0000000000000576
 31
0.0
210
0.0
220
0.0
230
1.0
 40
0.9466666666666657
 41
4.271664206181679
 42
5.153113667164985
  0
ELLIPSE
  5
2233
330
1F
100
AcDbEntity
  8
AM_11
 48
0.5
100
AcDbEllipse
 10
-31.85245564779106
 20
16.72558433296443
 30
0.0
 11
19.53452809651663
 21
0.0000000000000446
 31
0.0
210
0.0
220
0.0
230
1.0
 40
0.9466666666666672
 41
4.271663339930084
 42
5.153112800913377
  0
DIMENSION
  5
228A
330
1F
100
AcDbEntity
  8
AM_5
100
AcDbDimension
  2
*D7
 10
-111.0000009999999
 20
4.500000000000014
 30
0.0
 11
-111.0000009999999
 21
-0.000000000000014
 31
0.0
 70
   160
  1
%%c<>
 51
359.9999999999998
  3
AM_JIS$0
100
AcDbAlignedDimension
 13
-101.5
 23
-4.500000000000012
 33
0.0
 14
-101.4999999999999
 24
4.50000000000001
 34
0.0
 50
270.0000000000002
100
AcDbRotatedDimension
1001
ACAD
1000
DSTYLE
1002
{
1070
   271
1070
     0
1002
}
1001
GENIUS_GENDTOL_13
1000

1000
h7
1000

1040
0.0
  0
LINE
  5
24F9
330
1F
100
AcDbEntity
  8
AM_0
 48
0.5
100
AcDbLine
 10
-101.5
 20
4.499999999999986
 30
0.0
 11
-102.0
 21
3.999999999999987
 31
0.0
1001
GENIUS_GENFIL_13
1070
     0
1040
0.5
1040
0.5
1040
20.0
1040
0.0
1002
{
1002
}
1001
GENIUS_GENODEF_13
1002
{
1000
HIER
1070
     0
1002
}
1002
{
1000
MANEDIT
1070
     0
1002
}
1002
{
1000
NOSEL
1070
     0
1002
}
1002
{
1000
BEHIND
1070
     0
1002
}
1002
{
1000
REACTOR
1002
}
1001
GENIUS_GENOBJ-N-CHA_13
1002
{
1000
OWNER
1000
GEN
1002
}
  0
LINE
  5
24FC
330
1F
100
AcDbEntity
  8
AM_0
 48
0.5
100
AcDbLine
 10
-101.9999999999999
 20
-4.000000000000011
 30
0.0
 11
-101.4999999999999
 21
-4.500000000000012
 31
0.0
1001
GENIUS_GENFIL_13
1070
     0
1040
0.5
1040
0.5
1040
20.0
1040
0.0
1002
{
1002
}
1001
GENIUS_GENODEF_13
1002
{
1000
HIER
1070
     0
1002
}
1002
{
1000
MANEDIT
1070
     0
1002
}
1002
{
1000
NOSEL
1070
     0
1002
}
1002
{
1000
BEHIND
1070
     0
1002
}
1002
{
1000
REACTOR
1002
}
1001
GENIUS_GENOBJ-N-CHA_13
1002
{
1000
OWNER
1000
GEN
1002
}
  0
ELLIPSE
  5
2541
330
1F
100
AcDbEntity
  8
AM_0
 48
0.5
100
AcDbEllipse
 10
6.103455813051643
 20
-5.995169608223526
 30
0.0
 11
-7.397222288058633
 21
3.406917701414937
 31
0.0
210
0.0
220
0.0
230
-1.0
 40
0.7639059874992274
 41
-0.1617760152509138
 42
0.2299315428291684
  0
LINE
  5
2542
330
1F
100
AcDbEntity
  8
AM_0
 48
0.5
100
AcDbLine
 10
-1.616377741131771
 20
-3.542915580519088
 30
0.0
 11
-1.999998253225006
 21
-4.19999947596047
 31
0.0
  0
ARC
  5
290C
330
1F
100
AcDbEntity
  8
AM_11
 48
0.5
100
AcDbCircle
 10
-98.51907483729785
 20
-17.66785848258827
 30
0.0
 40
19.53452809651666
100
AcDbArc
 50
64.74833051131179
 51
100.2645516450266
  0
ARC
  5
290D
330
1F
100
AcDbEntity
  8
AM_11
 48
0.5
100
AcDbCircle
 10
-98.51907483729782
 20
17.66787048062773
 30
0.0
 40
19.53452809651666
100
AcDbArc
 50
259.7354483549732
 51
295.2516148471758
  0
ELLIPSE
  5
2B8E
330
1F
100
AcDbEntity
  8
AM_0
 48
0.5
100
AcDbEllipse
 10
6.103455813051642
 20
5.995169608223522
 30
0.0
 11
-7.397222288058633
 21
-3.406917701414938
 31
0.0
210
0.0
220
0.0
230
1.0
 40
0.7639059874992274
 41
-0.1617760152509138
 42
0.2299315428291684
  0
LINE
  5
2B8F
330
1F
100
AcDbEntity
  8
AM_0
 48
0.5
100
AcDbLine
 10
-1.616377741131771
 20
3.542915580519083
 30
0.0
 11
-1.999998253225015
 21
4.200003000041757
 31
0.0
  0
DIMENSION
  5
2BA8
330
1F
100
AcDbEntity
  8
AM_5
100
AcDbDimension
  2
*D8
 10
-0.5059401244912122
 20
-1.390048685242468
 30
0.0
 11
11.35545646716492
 21
-0.0000128464564002
 31
0.0
 70
    34
  1
<>
 51
359.9999999999998
  3
AM_JIS$2
100
AcDb2LineAngularDimension
 13
-0.0000000000000021
 23
-0.0000000000000058
 33
0.0
 14
-0.5059335634320968
 24
1.390040444804146
 34
0.0
 15
-0.0000000000000021
 25
-0.0000000000000058
 35
0.0
 16
11.84999437460812
 26
-5.111598570685324
 36
0.0
1001
GENIUS_GENDTOL_13
1000

1000
h7
1000

1040
0.0
1001
ACAD
1000
DSTYLE
1002
{
1070
   271
1070
     1
1070
   179
1070
     1
1002
}
  0
DIMENSION
  5
2D88
330
1F
100
AcDbEntity
  8
AM_5
100
AcDbDimension
  2
*D9
 10
8.555921024858051
 20
-4.199999475960472
 30
0.0
 11
6.855921024858052
 21
0.0000017620406424
 31
0.0
 70
    32
  1
%%c<>
 51
359.9999999999998
  3
AM_JIS$0
100
AcDbAlignedDimension
 13
-1.999998253225015
 23
4.200003000041757
 33
0.0
 14
-1.999998253225006
 24
-4.19999947596047
 34
0.0
 50
90.0
100
AcDbRotatedDimension
1001
ACAD
1000
DSTYLE
1002
{
1070
   271
1070
     1
1002
}
1001
GENIUS_GENDTOL_13
1000

1000
h7
1000

1040
0.0
  0
LINE
  5
2E91
330
1F
100
AcDbEntity
  8
AM_0
100
AcDbLine
 10
-43.0993721659034
 20
-4.199999114428828
 30
0.0
 11
-46.48038085156483
 21
-4.199999114428767
 31
0.0
  0
LINE
  5
2E92
330
1F
100
AcDbEntity
  8
AM_0
100
AcDbLine
 10
-41.46328924286589
 20
4.200000885571124
 30
0.0
 11
-46.48038629158375
 21
4.20000088557122
 31
0.0
  0
LINE
  5
2E93
330
1F
100
AcDbEntity
  8
AM_0
 48
0.5
100
AcDbLine
 10
-4.539400129482601
 20
4.199981522214836
 30
0.0
 11
-1.999998253225015
 21
4.200003000041757
 31
0.0
  0
LINE
  5
2E94
330
1F
100
AcDbEntity
  8
AM_0
 48
0.5
100
AcDbLine
 10
-0.0000000000000057
 20
-0.0000000000000067
 30
0.0
 11
-2.389738150086983
 21
1.61267330988584
 31
0.0
  0
LINE
  5
2E95
330
1F
100
AcDbEntity
  8
AM_0
 48
0.5
100
AcDbLine
 10
-4.896485833696614
 20
-4.200015807509215
 30
0.0
 11
-1.999998253225058
 21
-4.19999947596047
 31
0.0
  0
LINE
  5
2E96
330
1F
100
AcDbEntity
  8
AM_0
 48
0.5
100
AcDbLine
 10
-33.03348220963673
 20
-4.200015807509045
 30
0.0
 11
-18.23519367165465
 21
-4.200015807509143
 31
0.0
  0
LINE
  5
2E97
330
1F
100
AcDbEntity
  8
AM_11
 48
0.5
100
AcDbLine
 10
-41.71125556344265
 20
4.199984192491003
 30
0.0
 11
-33.20205027367835
 21
4.199984192490946
 31
0.0
  0
LINE
  5
2E98
330
1F
100
AcDbEntity
  8
AM_0
 48
0.5
100
AcDbLine
 10
-35.03757012231509
 20
1.952956456724374
 30
0.0
 11
-44.49999825322503
 21
-0.3399085604781508
 31
0.0
  0
LINE
  5
2E99
330
1F
100
AcDbEntity
  8
AM_0
100
AcDbLine
 10
-33.20205027367835
 20
4.199984192490946
 30
0.0
 11
-18.00586788794029
 21
4.199984192491104
 31
0.0
  0
LINE
  5
2E9A
330
1F
100
AcDbEntity
  8
AM_11
 48
0.5
100
AcDbLine
 10
-43.09961856989731
 20
-4.200015807508971
 30
0.0
 11
-33.03348220963673
 21
-4.200015807509045
 31
0.0
  0
LINE
  5
2E9B
330
1F
100
AcDbEntity
  8
AM_11
 48
0.5
100
AcDbLine
 10
-18.23519367165465
 20
-4.200015807509143
 30
0.0
 11
-4.896485833696614
 21
-4.200015807509227
 31
0.0
  0
LINE
  5
2E9C
330
1F
100
AcDbEntity
  8
AM_11
 48
0.5
100
AcDbLine
 10
-18.00561316218231
 20
4.199981522215399
 30
0.0
 11
-4.539400129482601
 21
4.199981522214836
 31
0.0
  0
ELLIPSE
  5
2E9D
330
1F
100
AcDbEntity
  8
AM_11
 48
0.5
100
AcDbEllipse
 10
1.480877685542336
 20
16.92709739721667
 30
0.0
 11
19.53452809651624
 21
0.0000000000037185
 31
0.0
210
0.0
220
0.0
230
1.0
 40
0.9580722891566427
 41
4.271663339929894
 42
4.433393390970589
  0
SPLINE
  5
2E9E
330
1F
100
AcDbEntity
  8
AM_0
100
AcDbSpline
210
0.0
220
0.0
230
1.0
 70
     8
 71
     3
 72
    11
 73
     7
 74
     0
 42
0.0000000001
 43
0.0000000001
 40
11.27226913003534
 40
11.27226913003534
 40
11.27226913003534
 40
11.2722691300354
 40
12.28301561507924
 40
13.29510212255852
 40
14.30984805882082
 40
15.18258238371378
 40
15.18258238371378
 40
15.18258238371378
 40
15.18258238371378
 10
-18.23519367165465
 20
-4.200015807509143
 30
0.0
 10
-18.47022874329982
 20
-4.179462457272602
 30
0.0
 10
-18.93985556575159
 20
-4.12969722624751
 30
0.0
 10
-19.64187073406913
 20
-4.029308445869178
 30
0.0
 10
-20.30809550725742
 20
-3.909405054907762
 30
0.0
 10
-20.73897058394601
 20
-3.817231749721862
 30
0.0
 10
-20.93753008844071
 20
-3.771700682878459
 30
0.0
  0
SPLINE
  5
2E9F
330
1F
100
AcDbEntity
  8
AM_0
100
AcDbSpline
210
0.0
220
0.0
230
1.0
 70
     8
 71
     3
 72
    22
 73
    18
 74
     0
 42
0.0000000001
 43
0.0000000001
 40
17.17441611292
 40
17.17441611292
 40
17.17441611292
 40
17.17441611292
 40
17.38177636558528
 40
18.41823744757437
 40
19.46215659509824
 40
20.51397914882054
 40
21.57394542641293
 40
22.64209583141747
 40
23.71826625065247
 40
24.80210429862395
 40
25.8930771157021
 40
26.99048705697709
 40
28.09349309193389
 40
29.20112995599786
 40
30.31233024745139
 40
31.42594771747373
 40
32.5407895042663
 40
32.54078950426994
 40
32.54078950426994
 40
32.54078950426994
 10
-20.9378397632878
 20
-3.771648875910579
 30
0.0
 10
-20.98525488907733
 20
-3.761926287854007
 30
0.0
 10
-21.26948267327722
 20
-3.702704941296389
 30
0.0
 10
-21.79017195775953
 20
-3.583958433618476
 30
0.0
 10
-22.49794257807897
 20
-3.400440208248043
 30
0.0
 10
-23.20564107805791
 20
-3.195965367484941
 30
0.0
 10
-23.91327245400807
 20
-2.971810293985368
 30
0.0
 10
-24.62083577119761
 20
-2.729349389767354
 30
0.0
 10
-25.32833973891044
 20
-2.470091601077683
 30
0.0
 10
-26.03578763308887
 20
-2.195630242869294
 30
0.0
 10
-26.74318599930822
 20
-1.9076579032995
 30
0.0
 10
-27.45054270338977
 20
-1.607951189298722
 30
0.0
 10
-28.15786388476288
 20
-1.298353006514715
 30
0.0
 10
-28.86515666375895
 20
-0.9807680552837872
 30
0.0
 10
-29.57242730991276
 20
-0.6571491235704766
 30
0.0
 10
-30.27968630082391
 20
-0.3294931151021105
 30
0.0
 10
-30.75109974378452
 20
-0.1097411805031526
 30
0.0
 10
-30.9869359659316
 20
0.0001951452632781
 30
0.0
  0
SPLINE
  5
2EA0
330
1F
100
AcDbEntity
  8
AM_0
100
AcDbSpline
210
0.0
220
0.0
230
1.0
 70
     8
 71
     3
 72
    17
 73
    13
 74
     0
 42
0.0000000001
 43
0.0000000001
 40
1.580019955310467
 40
1.580019955310467
 40
1.580019955310467
 40
1.580019955310467
 40
2.030549285115227
 40
3.082371838836284
 40
4.126290986361125
 40
5.162752068350215
 40
6.192395305374981
 40
7.216039564037012
 40
8.234688489606833
 40
9.249433870634691
 40
10.26152376260694
 40
11.27226744710342
 40
11.27226744710342
 40
11.27226744710342
 40
11.27226744710352
 10
-11.56531941367929
 20
-3.099742153464435
 30
0.0
 10
-11.66550319787406
 20
-3.131666732265996
 30
0.0
 10
-12.00015069504875
 20
-3.236303803425174
 30
0.0
 10
-12.57147696183226
 20
-3.400430793517697
 30
0.0
 10
-13.27914906210073
 20
-3.584231249486734
 30
0.0
 10
-13.9870159838358
 20
-3.745583646338614
 30
0.0
 10
-14.69491533978622
 20
-3.883946126460248
 30
0.0
 10
-15.40289182010265
 20
-3.998312234489297
 30
0.0
 10
-16.11091721248262
 20
-4.088029333475724
 30
0.0
 10
-16.8189866921912
 20
-4.152516026598402
 30
0.0
 10
-17.52708281423005
 20
-4.191357205524714
 30
0.0
 10
-17.99926146962529
 20
-4.200018501817276
 30
0.0
 10
-18.23519367165459
 20
-4.200015807509143
 30
0.0
  0
SPLINE
  5
2EA1
330
1F
100
AcDbEntity
  8
AM_0
100
AcDbSpline
210
0.0
220
0.0
230
1.0
 70
     8
 71
     3
 72
    55
 73
    51
 74
     0
 42
0.0000000001
 43
0.0000000001
 40
0.0
 40
0.0
 40
0.0
 40
0.0
 40
1.010743684496582
 40
2.022833576467832
 40
3.037578957496688
 40
4.056212745003489
 40
5.079857003664532
 40
6.109500240690281
 40
7.145961322679372
 40
8.189895241603872
 40
9.241717795325891
 40
10.30168407291828
 40
11.36983447792315
 40
12.44600489715814
 40
13.52984294512926
 40
14.62081576220742
 40
15.7182257034828
 40
16.82123173843959
 40
17.92886860250316
 40
19.0400688939571
 40
20.15368796660465
 40
21.26852814259644
 40
22.38336992938901
 40
23.49698739941135
 40
24.6081876908653
 40
25.71582455492886
 40
26.81883757994213
 40
27.91624752121713
 40
29.00722033829659
 40
30.09105838626677
 40
31.16722880550176
 40
32.23537921050758
 40
33.29534548809967
 40
34.347168041821
 40
35.39108718934584
 40
36.42754827133493
 40
37.45720575381954
 40
38.48085062012849
 40
39.49948440763516
 40
40.51422944315121
 40
41.52631975251916
 40
42.53706336719636
 40
43.54780698187354
 40
44.55989729124051
 40
45.57464232675757
 40
46.59327611426424
 40
47.6169209805722
 40
48.64656348684535
 40
49.68302456883444
 40
50.58557219878025
 40
50.58557219878025
 40
50.58557219878025
 40
50.58557219878025
 10
-4.896485833696614
 20
-4.200015807509215
 30
0.0
 10
-5.132418038838547
 20
-4.197519579536399
 30
0.0
 10
-5.604596686750614
 20
-4.192518454761299
 30
0.0
 10
-6.312692823808582
 20
-4.152203774606794
 30
0.0
 10
-7.020758734912338
 20
-4.088113964530547
 30
0.0
 10
-7.728780823687725
 20
-3.998289658189704
 30
0.0
 10
-8.436752025188955
 20
-3.883948147151603
 30
0.0
 10
-9.144658372727064
 20
-3.74559788989428
 30
0.0
 10
-9.852502234217428
 20
-3.584170863062855
 30
0.0
 10
-10.56027733251544
 20
-3.400655568532712
 30
0.0
 10
-11.26797884638288
 20
-3.19617877907949
 30
0.0
 10
-11.97561030332048
 20
-2.972023974373585
 30
0.0
 10
-12.68317359850641
 20
-2.729562997186834
 30
0.0
 10
-13.39067757237732
 20
-2.470305228691495
 30
0.0
 10
-14.09812546414988
 20
-2.195843863422597
 30
0.0
 10
-14.80552383380303
 20
-1.907871531764499
 30
0.0
 10
-15.51288052648035
 20
-1.608164793033112
 30
0.0
 10
-16.22020175032188
 20
-1.298566701869934
 30
0.0
 10
-16.9274943699607
 20
-0.9809814069722456
 30
0.0
 10
-17.6347659537283
 20
-0.6573636080991302
 30
0.0
 10
-18.34202270506989
 20
-0.3297027744828176
 30
0.0
 10
-19.0492746115462
 20
-0.0000193347371896
 30
0.0
 10
-19.75652334305324
 20
0.3296700395157979
 30
0.0
 10
-20.46378246496526
 20
0.6573257705862897
 30
0.0
 10
-21.17105317559666
 20
0.9809445490320406
 30
0.0
 10
-21.87834705633037
 20
1.298531053788142
 30
0.0
 10
-22.58567121447963
 20
1.608126502786849
 30
0.0
 10
-23.29302902355274
 20
1.907834761448422
 30
0.0
 10
-24.00042749533064
 20
2.195806859590628
 30
0.0
 10
-24.70787536136144
 20
2.470268282577718
 30
0.0
 10
-25.41537933704397
 20
2.729526051452312
 30
0.0
 10
-26.12294265025213
 20
2.971986970663002
 30
0.0
 10
-26.83057403415446
 20
3.196142004251595
 30
0.0
 10
-27.53827250658073
 20
3.400616988177359
 30
0.0
 10
-28.24604322810731
 20
3.584134686300003
 30
0.0
 10
-28.95388682702432
 20
3.745564959225869
 30
0.0
 10
-29.66179822925099
 20
3.883899414963294
 30
0.0
 10
-30.36977176968898
 20
3.998276317116195
 30
0.0
 10
-31.07779406835385
 20
4.087994148335742
 30
0.0
 10
-31.78586047144325
 20
4.152473152481736
 30
0.0
 10
-32.49395600812007
 20
4.191326518823886
 30
0.0
 10
-33.20206710476691
 20
4.204306142897768
 30
0.0
 10
-33.91017820037186
 20
4.191326518803582
 30
0.0
 10
-34.61827374018041
 20
4.152473152563497
 30
0.0
 10
-35.32634013173974
 20
4.087994148028215
 30
0.0
 10
-36.03436247363385
 20
3.998276318272577
 30
0.0
 10
-36.74233240005078
 20
3.883899968221856
 30
0.0
 10
-37.45024101337602
 20
3.745566373621233
 30
0.0
 10
-38.12590049999279
 20
3.591462598669891
 30
0.0
 10
-38.56427606953871
 20
3.47876505120122
 30
0.0
 10
-38.76765678343191
 20
3.423842038602272
 30
0.0
  0
SPLINE
  5
2EA2
330
1F
100
AcDbEntity
  8
AM_0
 48
0.5
100
AcDbSpline
210
0.0
220
0.0
230
1.0
 70
     8
 71
     3
 72
    25
 73
    21
 74
     0
 42
0.0000000001
 43
0.0000000001
 40
6.846175049578289
 40
6.846175049578289
 40
6.846175049578289
 40
6.846175049578289
 40
7.604337694224321
 40
8.711974558287883
 40
9.814980593243754
 40
10.91239053451967
 40
12.0033633515982
 40
13.08720139956839
 40
14.16337181880432
 40
15.23152222380919
 40
16.29148850140128
 40
17.34331105512262
 40
18.38723020264746
 40
19.42369128463655
 40
20.45333379090873
 40
21.47697865721768
 40
22.49561244472435
 40
23.5103574802404
 40
24.52244778960836
 40
25.53320666051913
 40
25.53320666051913
 40
25.53320666051913
 40
25.53320666051913
 10
-5.372889300829744
 20
0.7602116892644283
 30
0.0
 10
-5.535288268507517
 20
0.8339562195919304
 30
0.0
 10
-5.93528560166786
 20
1.014699795860805
 30
0.0
 10
-6.573475738884833
 20
1.298532275171791
 30
0.0
 10
-7.287585204730503
 20
1.608130545439571
 30
0.0
 10
-8.001730583605025
 20
1.907837236144822
 30
0.0
 10
-8.715918011348115
 20
2.195809582008673
 30
0.0
 10
-9.430155445770177
 20
2.470270938158477
 30
0.0
 10
-10.14444949132405
 20
2.729528728825893
 30
0.0
 10
-10.85880345481494
 20
2.97198962723386
 30
0.0
 10
-11.57322613525112
 20
3.196144721778463
 30
0.0
 10
-12.28771656521896
 20
3.400619484998114
 30
0.0
 10
-13.00227987675335
 20
3.584137996511209
 30
0.0
 10
-13.71691354812748
 20
3.745564488862743
 30
0.0
 10
-14.43161478762101
 20
3.883909533149801
 30
0.0
 10
-15.14637961825755
 20
3.998256114249286
 30
0.0
 10
-15.86119691858327
 20
4.088080898429462
 30
0.0
 10
-16.57605881058608
 20
4.152163842261421
 30
0.0
 10
-17.29095368990333
 20
4.192489788104627
 30
0.0
 10
-17.76766774625668
 20
4.197487154117006
 30
0.0
 10
-18.00586788794027
 20
4.199984192491108
 30
0.0
  0
SPLINE
  5
2EA3
330
1F
100
AcDbEntity
  8
AM_0
100
AcDbSpline
210
0.0
220
0.0
230
1.0
 70
     8
 71
     3
 72
    23
 73
    19
 74
     0
 42
0.0000000001
 43
0.0000000001
 40
16.03460024169435
 40
16.03460024169435
 40
16.03460024169435
 40
16.03460024169435
 40
16.35212704903564
 40
17.38177054169784
 40
18.41822485651776
 40
19.46214173629503
 40
20.51396345435107
 40
21.57393551351153
 40
22.64208202342361
 40
23.7182574881101
 40
24.80209208578934
 40
25.89306333925047
 40
26.99048218457928
 40
28.09348763352352
 40
29.20111863782268
 40
30.31232390128032
 40
31.42594612798585
 40
32.5407912310448
 40
32.5407912310486
 40
32.5407912310486
 40
32.5407912310486
 10
-41.71125556351721
 20
4.199984192491006
 30
0.0
 10
-41.64155405472044
 20
4.186399748056787
 30
0.0
 10
-41.33321531845739
 20
4.12465654370989
 30
0.0
 10
-40.7900733139494
 20
4.003680157993064
 30
0.0
 10
-40.08670299624853
 20
3.823789595417019
 30
0.0
 10
-39.38398600198311
 20
3.621802478365169
 30
0.0
 10
-38.68188080704547
 20
3.398887805246917
 30
0.0
 10
-37.98036249247791
 20
3.156288330355214
 30
0.0
 10
-37.27939051220325
 20
2.895390854595964
 30
0.0
 10
-36.57891605319708
 20
2.617713735835662
 30
0.0
 10
-35.87889931198473
 20
2.324829443408269
 30
0.0
 10
-35.1792841656858
 20
2.018442202767811
 30
0.0
 10
-34.48001391831615
 20
1.700332868931017
 30
0.0
 10
-33.78104197949373
 20
1.372330437207442
 30
0.0
 10
-33.08230986708528
 20
1.036342196819477
 30
0.0
 10
-32.38375286369894
 20
0.6943300725908461
 30
0.0
 10
-31.68531408707552
 20
0.3482759321677975
 30
0.0
 10
-31.21981330293438
 20
0.116265553058962
 30
0.0
 10
-30.98693596592846
 20
0.0001951452617817
 30
0.0
  0
SPLINE
  5
2EA4
330
1F
100
AcDbEntity
  8
AM_0
100
AcDbSpline
210
0.0
220
0.0
230
1.0
 70
     8
 71
     3
 72
    46
 73
    42
 74
     0
 42
0.0000000001
 43
0.0000000001
 40
0.0
 40
0.0
 40
0.0
 40
0.0
 40
0.5056245176053715
 40
0.759310862862336
 40
1.013969309739036
 40
1.269880374404297
 40
1.527291183660732
 40
1.786406454158005
 40
2.047386241038974
 40
2.310345544571907
 40
2.575337113970003
 40
2.842374715221223
 40
3.111417320030211
 40
3.382376832022752
 40
3.655120036292296
 40
3.929472521611371
 40
4.205224030350333
 40
4.482133246366229
 40
4.759933319229942
 40
5.038338087391601
 40
5.317048131389549
 40
5.595758175387723
 40
5.874162943549383
 40
6.151963016412869
 40
6.428872232428759
 40
6.704623741167955
 40
6.978976226486705
 40
7.251719430756336
 40
7.522680721168327
 40
7.791723325977311
 40
8.058760927228529
 40
8.32375249662655
 40
8.586708135057122
 40
8.84768792193809
 40
9.106803192435362
 40
9.364213819003406
 40
9.620125035580644
 40
9.87478726697307
 40
10.12847352585208
 40
10.38149610319407
 40
10.63418200686337
 40
10.63418200686337
 40
10.63418200686337
 40
10.63418200686337
 10
-2.914297796891713
 20
-4.200018477785277
 30
0.0
 10
-3.386499514699988
 20
-4.190450553121416
 30
0.0
 10
-4.095618398990217
 20
-4.176082125801633
 30
0.0
 10
-5.038564702855217
 20
-4.087618358414326
 30
0.0
 10
-5.746594398593376
 20
-3.998423348482659
 30
0.0
 10
-6.454563574647496
 20
-3.883912106919562
 30
0.0
 10
-7.162470365984387
 20
-3.745607331181095
 30
0.0
 10
-7.870311135947968
 20
-3.584170235919962
 30
0.0
 10
-8.578084699011361
 20
-3.400652481332144
 30
0.0
 10
-9.285787905332169
 20
-3.196180893597277
 30
0.0
 10
-9.993422169439405
 20
-2.972023681329432
 30
0.0
 10
-10.70098558801211
 20
-2.72956307660762
 30
0.0
 10
-11.4084895284351
 20
-2.470305207155712
 30
0.0
 10
-12.11593742931892
 20
-2.195843869341496
 30
0.0
 10
-12.82333579630688
 20
-1.907871529825192
 30
0.0
 10
-13.53069249045597
 20
-1.608164794832142
 30
0.0
 10
-14.23801371107604
 20
-1.298566696592505
 30
0.0
 10
-14.9453063421872
 20
-0.9809814263829629
 30
0.0
 10
-15.65257788310759
 20
-0.6573635354496
 30
0.0
 10
-16.35983479480901
 20
-0.3297030463381922
 30
0.0
 10
-17.06708576118395
 20
-0.0000184778513992
 30
0.0
 10
-17.77433672740353
 20
0.3296660910359934
 30
0.0
 10
-18.48159363957101
 20
0.6573265789461152
 30
0.0
 10
-19.18886517878791
 20
0.9809444742697486
 30
0.0
 10
-19.89615781621561
 20
1.298529728197356
 30
0.0
 10
-20.60347901341461
 20
1.608127886808673
 30
0.0
 10
-21.3108357943
 20
1.907834398224194
 30
0.0
 10
-22.0182353783055
 20
2.195808190795354
 30
0.0
 10
-22.72568602799059
 20
2.470267034989182
 30
0.0
 10
-23.43319123049212
 20
2.729526233826653
 30
0.0
 10
-24.14075463259076
 20
2.971986910693413
 30
0.0
 10
-24.84838598981683
 20
3.196142063148034
 30
0.0
 10
-25.55608448085672
 20
3.400616813885159
 30
0.0
 10
-26.26385515483591
 20
3.584135318163092
 30
0.0
 10
-26.97169551513846
 20
3.745561851361912
 30
0.0
 10
-27.67960282546924
 20
3.883906740935405
 30
0.0
 10
-28.38757651983728
 20
3.99825445897721
 30
0.0
 10
-29.09560256727791
 20
4.088077385162528
 30
0.0
 10
-29.80367241994556
 20
4.152161313268978
 30
0.0
 10
-30.51176797502216
 20
4.19248687237993
 30
0.0
 10
-30.98394682067768
 20
4.197484414636067
 30
0.0
 10
-31.21987906778848
 20
4.199981522215883
 30
0.0
  0
SPLINE
  5
2EA5
330
1F
100
AcDbEntity
  8
AM_0
 48
0.5
100
AcDbSpline
210
0.0
220
0.0
230
1.0
 70
     8
 71
     3
 72
    17
 73
    13
 74
     0
 42
0.0000000001
 43
0.0000000001
 40
0.0
 40
0.0
 40
0.0
 40
0.0
 40
1.010743614677189
 40
2.022833924044153
 40
3.037578959561199
 40
4.056212747067873
 40
5.079857613375832
 40
6.109500119648989
 40
7.14596120163808
 40
8.18989512056258
 40
9.241717674284874
 40
9.693948937866434
 40
9.693948937866434
 40
9.693948937866434
 40
9.693948937866434
 10
-4.539145413561863
 20
4.199984192490891
 30
0.0
 10
-4.777341957502334
 20
4.197487095069717
 30
0.0
 10
-5.254052413721018
 20
4.192489573144427
 30
0.0
 10
-5.968943709441991
 20
4.152163861263332
 30
0.0
 10
-6.683805573503298
 20
4.088080834596666
 30
0.0
 10
-7.398622979240302
 20
3.998256351970895
 30
0.0
 10
-8.113387413384884
 20
3.883908639549901
 30
0.0
 10
-8.828090145795977
 20
3.745567854251828
 30
0.0
 10
-9.54272158396178
 20
3.584124541462558
 30
0.0
 10
-10.25730945845066
 20
3.400665579141905
 30
0.0
 10
-10.83414342452977
 20
3.23539678603092
 30
0.0
 10
-11.17289414980966
 20
3.132080023644191
 30
0.0
 10
-11.2745689433376
 20
3.100455454310373
 30
0.0
  0
SPLINE
  5
2EA6
330
1F
100
AcDbEntity
  8
AM_0
 48
0.5
100
AcDbSpline
210
0.0
220
0.0
230
1.0
 70
     8
 71
     3
 72
    10
 73
     6
 74
     0
 42
0.0000000001
 43
0.0000000001
 40
0.0
 40
0.0
 40
0.0
 40
0.0
 40
2.69986029516136
 40
4.147722969032201
 40
6.285750005020438
 40
6.285750005020438
 40
6.285750005020438
 40
6.285750005020438
 10
-5.457445310769334
 20
0.760178497874414
 30
0.0
 10
-4.451689271741264
 20
0.3699694745663226
 30
0.0
 10
-3.674263218616704
 20
-0.229498183667399
 30
0.0
 10
-1.835755036498441
 20
0.0607146114708991
 30
0.0
 10
-2.181999603498795
 20
1.038189706365415
 30
0.0
 10
-2.410775890900674
 20
1.633990882126242
 30
0.0
  0
SPLINE
  5
2EA7
330
1F
100
AcDbEntity
  8
AM_0
 48
0.5
100
AcDbSpline
210
0.0
220
0.0
230
1.0
 70
     8
 71
     3
 72
    26
 73
    22
 74
     0
 42
0.0000000001
 43
0.0000000001
 40
0.0
 40
0.0
 40
0.0
 40
0.0
 40
0.2526859211241313
 40
0.5057083941171959
 40
0.7593947393741639
 40
1.01405318625086
 40
1.26996425091637
 40
1.527375060172565
 40
1.786490330669834
 40
2.047470117551047
 40
2.310425755981314
 40
2.575417325379407
 40
2.842456731169063
 40
3.111495753801943
 40
3.382458822635121
 40
3.655202026904655
 40
3.929554512223505
 40
4.205306020962704
 40
4.482215236978595
 40
4.76001530984208
 40
5.029821427366006
 40
5.029821427366006
 40
5.029821427366006
 40
5.029821427366006
 10
-31.07643231006008
 20
-4.200234564506911
 30
0.0
 10
-31.31236451523042
 20
-4.19773566636702
 30
0.0
 10
-31.78454316319952
 20
-4.192734541809831
 30
0.0
 10
-32.49263929983061
 20
-4.152419860017834
 30
0.0
 10
-33.20070521256303
 20
-4.088330056189833
 30
0.0
 10
-33.90872729521644
 20
-3.998505726362182
 30
0.0
 10
-34.61669851973873
 20
-3.884164303643933
 30
0.0
 10
-35.32460478059683
 20
-3.745813713840957
 30
0.0
 10
-36.03244560685201
 20
-3.584388707218314
 30
0.0
 10
-36.74021617104557
 20
-3.40086969796611
 30
0.0
 10
-37.44791479993929
 20
-3.196395390874129
 30
0.0
 10
-38.15554731791937
 20
-2.972238451037291
 30
0.0
 10
-38.86311079278782
 20
-2.729782975305581
 30
0.0
 10
-39.5706132414379
 20
-2.470516245689784
 30
0.0
 10
-40.27806412366513
 20
-2.196062797644549
 30
0.0
 10
-40.98546496800495
 20
-1.90808753651332
 30
0.0
 10
-41.69282104775898
 20
-1.608379586674815
 30
0.0
 10
-42.40014535268932
 20
-1.298788081472203
 30
0.0
 10
-43.10742619347677
 20
-0.9811775083467891
 30
0.0
 10
-43.80744172337643
 20
-0.6609937478447111
 30
0.0
 10
-44.27122834925847
 20
-0.4458920515823673
 30
0.0
 10
-44.49999825322507
 20
-0.3399085604781467
 30
0.0
  0
SPLINE
  5
2EA8
330
1F
100
AcDbEntity
  8
AM_0
 48
0.5
100
AcDbSpline
210
0.0
220
0.0
230
1.0
 70
     8
 71
     3
 72
    22
 73
    18
 74
     0
 42
0.0000000001
 43
0.0000000001
 40
0.0
 40
0.0
 40
0.0
 40
0.0
 40
1.010743684496582
 40
2.022833993863546
 40
3.037578683882831
 40
4.056212471389632
 40
5.079857945358201
 40
6.109499720892564
 40
7.145961650132166
 40
8.189873411961459
 40
9.241710626092514
 40
10.30166235592959
 40
11.36982472628033
 40
12.44598212828784
 40
13.52983440361964
 40
14.62080578343036
 40
14.90544694398022
 40
14.90544694398022
 40
14.90544694398022
 40
14.90544694398022
 10
-33.03348220963654
 20
-4.200015807509045
 30
0.0
 10
-33.29455259708957
 20
-4.197736412808955
 30
0.0
 10
-33.76673143265725
 20
-4.19273678109839
 30
0.0
 10
-34.47482682776346
 20
-4.152410870825697
 30
0.0
 10
-35.18289350506938
 20
-4.088331850497161
 30
0.0
 10
-35.8909159703249
 20
-3.998507461351297
 30
0.0
 10
-36.59888524354809
 20
-3.884155282747677
 30
0.0
 10
-37.30679393899164
 20
-3.745816655011087
 30
0.0
 10
-38.01463168328051
 20
-3.584385782369645
 30
0.0
 10
-38.72240334375409
 20
-3.400864116138408
 30
0.0
 10
-39.43010254588696
 20
-3.196397534920687
 30
0.0
 10
-40.13773298804556
 20
-2.972230445361571
 30
0.0
 10
-40.84529923184621
 20
-2.729789325142385
 30
0.0
 10
-41.55280074582364
 20
-2.470515476459493
 30
0.0
 10
-42.26025078418532
 20
-2.196060591116129
 30
0.0
 10
-42.79194892775485
 20
-1.979623219102586
 30
0.0
 10
-43.08822968768745
 20
-1.855914574451803
 30
0.0
 10
-43.04545873657716
 20
-1.873888937149005
 30
0.0
  0
SPLINE
  5
2EA9
330
1F
100
AcDbEntity
  8
AM_0
100
AcDbSpline
210
0.0
220
0.0
230
1.0
 70
     8
 71
     3
 72
    13
 73
     9
 74
     0
 42
0.0000000001
 43
0.0000000001
 40
16.03460056234195
 40
16.03460056234195
 40
16.03460056234195
 40
16.03460056234195
 40
16.35212717791071
 40
17.38177067057215
 40
18.41822498539278
 40
19.46214186516937
 40
20.5139635832251
 40
21.34083983469381
 40
21.34083983469381
 40
21.34083983469381
 40
21.34083983469381
 10
-43.09961856989743
 20
-4.200015807508978
 30
0.0
 10
-42.89914765334258
 20
-4.186438493183
 30
0.0
 10
-42.59080866193554
 20
-4.124696982870583
 30
0.0
 10
-42.04766695350258
 20
-4.003719184726085
 30
0.0
 10
-41.34429654728577
 20
-3.823829120943514
 30
0.0
 10
-40.64157957699224
 20
-3.621841868810034
 30
0.0
 10
-39.99133520717526
 20
-3.415392768237946
 30
0.0
 10
-39.57649074997338
 20
-3.273237870274122
 30
0.0
 10
-39.39450097293613
 20
-3.208982561078808
 30
0.0
  0
ELLIPSE
  5
2EAA
330
1F
100
AcDbEntity
  8
AM_0
 48
0.5
100
AcDbEllipse
 10
-43.09961813026712
 20
-2.800234564506421
 30
0.0
 11
1.38307205066217
 21
0.2201526875345815
 31
0.0
210
0.0
220
0.0
230
1.0
 40
0.9994854818611663
 41
2.994908971753187
 42
4.554616244233504
  0
ELLIPSE
  5
2EAB
330
1F
100
AcDbEntity
  8
AM_0
 48
0.5
100
AcDbEllipse
 10
-43.44999173741062
 20
-2.842889746391131
 30
0.0
 11
-1.050351521001185
 21
0.000000000063076
 31
0.0
210
0.0
220
0.0
230
1.0
 40
0.9996653301355252
 41
4.317028824543108
 42
6.257553905129397
  0
ELLIPSE
  5
2EAC
330
1F
100
AcDbEntity
  8
AM_0
 48
0.5
100
AcDbEllipse
 10
-8.771835545868139
 20
11.42307049948774
 30
0.0
 11
14.44314079679494
 21
0.0297311246972894
 31
0.0
210
0.0
220
0.0
230
1.0
 40
0.9955472143558118
 41
-1.027323724923167
 42
-0.9201445985046616
  0
ELLIPSE
  5
2EAD
330
1F
100
AcDbEntity
  8
AM_0
 48
0.5
100
AcDbEllipse
 10
1.90813778312698
 20
-2.197608815844448
 30
0.0
 11
-0.0000000000001315
 21
4.809532685609158
 31
0.0
210
0.0
220
0.0
230
1.0
 40
0.9508928571428503
 41
1.485102427261186
 42
2.000210031613652
  0
ELLIPSE
  5
2EAE
330
1F
100
AcDbEntity
  8
AM_0
 48
0.5
100
AcDbEllipse
 10
-1.573346145597196
 20
-1.094579574025293
 30
0.0
 11
-0.1224481649811137
 21
0.6893017344194021
 31
0.0
210
0.0
220
0.0
230
1.0
 40
0.5020943881049936
 41
1.804839572544919
 42
4.940181462256894
  0
ELLIPSE
  5
2EAF
330
1F
100
AcDbEntity
  8
AM_0
 48
0.5
100
AcDbEllipse
 10
-1.573346145597196
 20
-1.094579574025293
 30
0.0
 11
-0.6093742352149354
 21
0.3492222353940492
 31
0.0
210
0.0
220
0.0
230
1.0
 40
0.4988814804710224
 41
4.481274365245241
 42
7.624714706574751
  0
ELLIPSE
  5
2EB0
330
1F
100
AcDbEntity
  8
AM_0
 48
0.5
100
AcDbEllipse
 10
2.376710884127277
 20
5.042359284007085
 30
0.0
 11
-12.32693090488008
 21
11.04404967871872
 31
0.0
210
0.0
220
0.0
230
1.0
 40
0.5105032002661176
 41
1.396464129511526
 42
1.619982138410976
  0
ELLIPSE
  5
2EB1
330
1F
100
AcDbEntity
  8
AM_0
 48
0.5
100
AcDbEllipse
 10
-7.619270570722054
 20
7.049123505198464
 30
0.0
 11
10.17185322940504
 21
0.0000000002787373
 31
0.0
210
0.0
220
0.0
230
1.0
 40
0.9955555555554486
 41
-1.060213001593909
 42
-0.9717182239144371
  0
VIEWPORT
  5
110
330
101
100
AcDbEntity
 67
     1
  8
0
100
AcDbViewport
 10
420.5
 20
297.0
 30
0.0
 40
948.9782706766916
 41
628.452
 68
     1
 69
     1
1001
ACAD
1000
MVIEW
1002
{
1070
    16
1010
0.0
1020
0.0
1030
0.0
1010
0.0
1020
0.0
1030
1.0
1040
0.0
1040
628.452
1040
420.5
1040
297.0
1040
50.0
1040
0.0
1040
0.0
1070
     0
1070
   100
1070
     1
1070
     1
1070
     0
1070
     0
1070
     0
1070
     0
1040
0.0
1040
0.0
1040
0.0
1040
10.0
1040
10.0
1040
10.0
1040
10.0
1070
     0
1002
{
1002
}
1002
}
  0
ENDSEC
  0
SECTION
  2
OBJECTS
  0
DICTIONARY
  5
C
330
0
100
AcDbDictionary
  3
ACAD_GROUP
350
D
  3
ACAD_LAYOUT
350
1A
  3
ACAD_MLINESTYLE
350
17
  3
ACAD_PLOTSETTINGS
350
19
  3
ACAD_PLOTSTYLENAME
350
E
  3
ACDBVARIABLEDICTIONARY
350
34
  3
ACMDICTIONARY
350
43
  3
AMG
350
2B
  3
AMGSNAPSETTINGS
350
6E
  3
DWGPROPS
350
2F2E
  3
ACDBHEADERROUNDTRIPXREC
350
2F3A
  0
DICTIONARY
  5
74
330
1F
100
AcDbDictionary
280
     1
  3
ACAD_INDEX
360
2F30
  3
ACAD_LAYOUTSELFREF
360
2F5D
  0
DICTIONARY
  5
2F62
330
101
100
AcDbDictionary
280
     1
  3
ACAD_LAYOUTSELFREF
360
2F63
  0
DICTIONARY
  5
D
102
{ACAD_REACTORS
330
C
102
}
330
C
100
AcDbDictionary
  0
DICTIONARY
  5
1A
102
{ACAD_REACTORS
330
C
102
}
330
C
100
AcDbDictionary
  0
DICTIONARY
  5
17
102
{ACAD_REACTORS
330
C
102
}
330
C
100
AcDbDictionary
  3
STANDARD
350
18
  0
DICTIONARY
  5
19
102
{ACAD_REACTORS
330
C
102
}
330
C
100
AcDbDictionary
  0
ACDBDICTIONARYWDFLT
  5
E
102
{ACAD_REACTORS
330
C
102
}
330
C
100
AcDbDictionary
281
     1
  3
Normal
350
F
100
AcDbDictionaryWithDefault
340
F
  0
DICTIONARY
  5
34
102
{ACAD_REACTORS
330
C
102
}
330
C
100
AcDbDictionary
  3
INDEXCTL
350
35
  3
SORTENTS
350
B5E
  0
DICTIONARY
  5
43
102
{ACAD_REACTORS
330
C
102
}
330
C
100
AcDbDictionary
  3
ACMSTDDICTIONARY
350
260
  0
DICTIONARY
  5
2B
102
{ACAD_REACTORS
330
C
102
}
330
C
100
AcDbDictionary
  3
ACMGSETTINGS
350
2C
  0
DICTIONARY
  5
6E
102
{ACAD_REACTORS
330
C
102
}
330
C
100
AcDbDictionary
  0
XRECORD
  5
2F2E
102
{ACAD_REACTORS
330
C
102
}
330
C
100
AcDbXrecord
  1
DWGPROPS COOKIE
  2

  3

  4

  6

  7

  8

  9

300
AmdtFileType=82
301
=
302
=
303
=
304
=
305
=
306
=
307
=
308
=
309
=
 40
0.0508116087962963
 41
2452800.443498622
 42
2452946.614339189
  1

 90
        1
  0
DICTIONARY
  5
2F3A
102
{ACAD_REACTORS
330
C
102
}
330
C
100
AcDbDictionary
  3
TSTACKALIGN
350
2F3B
  3
TSTACKSIZE
350
2F3C
  3
HYPERLINKBASE
350
2F3D
  3
STYLESHEET
350
2F3E
  3
LAYOUTDICT
350
2F3F
  3
PLOTSETDICT
350
2F40
  3
PLOTSTYLNAMDICT
350
2F41
  3
LWETCUNION
350
2F42
  3
INSUNITS
350
2F43
  3
CEPSNTYPE
350
2F44
  3
FINGERPRINTGUID
350
2F45
  3
VERSIONGUID
350
2F46
  3
PSVPSCALE
350
2F47
  3
DIMSTYLEDATA
350
2F48
  3
PUCSORTHOREF
350
2F49
  3
PUCSORTHOVIEW
350
2F4A
  3
PUCSBASE
350
2F4B
  3
PUCSORGTOP
350
2F4C
  3
PUCSORGBOTTOM
350
2F4D
  3
PUCSORGLEFT
350
2F4E
  3
PUCSORGRIGHT
350
2F4F
  3
PUCSORGFRONT
350
2F50
  3
PUCSORGBACK
350
2F51
  3
UCSORTHOREF
350
2F52
  3
UCSORTHOVIEW
350
2F53
  3
UCSBASE
350
2F54
  3
UCSORGTOP
350
2F55
  3
UCSORGBOTTOM
350
2F56
  3
UCSORGLEFT
350
2F57
  3
UCSORGRIGHT
350
2F58
  3
UCSORGFRONT
350
2F59
  3
UCSORGBACK
350
2F5A
  0
DICTIONARY
  5
2F30
102
{ACAD_REACTORS
330
74
102
}
330
74
100
AcDbDictionary
  3
*A1
350
2F31
  0
XRECORD
  5
2F5D
102
{ACAD_REACTORS
330
74
102
}
330
74
100
AcDbXrecord
340
1F
  0
XRECORD
  5
2F63
102
{ACAD_REACTORS
330
2F62
102
}
330
2F62
100
AcDbXrecord
340
101
  0
MLINESTYLE
  5
18
102
{ACAD_REACTORS
330
17
102
}
330
17
100
AcDbMlineStyle
  2
STANDARD
 70
     0
  3

 62
   256
 51
90.0
 52
90.0
 71
     2
 49
0.5
 62
   256
  6
BYLAYER
 49
-0.5
 62
   256
  6
BYLAYER
  0
ACDBPLACEHOLDER
  5
F
102
{ACAD_REACTORS
330
E
102
}
330
E
100
AcDbPlaceHolder
280
     0
  0
DICTIONARYVAR
  5
35
102
{ACAD_REACTORS
330
34
102
}
330
34
100
DictionaryVariables
280
     0
  1
1
  0
DICTIONARYVAR
  5
B5E
102
{ACAD_REACTORS
330
34
102
}
330
34
100
DictionaryVariables
280
     0
  1
96
  0
DICTIONARY
  5
260
102
{ACAD_REACTORS
330
43
102
}
330
43
100
AcDbDictionary
  0
DICTIONARY
  5
2C
102
{ACAD_REACTORS
330
2B
102
}
330
2B
100
AcDbDictionary
  3
DWGSETTINGS
350
2D
  0
XRECORD
  5
2F3B
102
{ACAD_REACTORS
330
2F3A
102
}
330
2F3A
100
AcDbXrecord
 90
        1
  0
XRECORD
  5
2F3C
102
{ACAD_REACTORS
330
2F3A
102
}
330
2F3A
100
AcDbXrecord
 90
       70
  0
XRECORD
  5
2F3D
102
{ACAD_REACTORS
330
2F3A
102
}
330
2F3A
100
AcDbXrecord
  1

  0
XRECORD
  5
2F3E
102
{ACAD_REACTORS
330
2F3A
102
}
330
2F3A
100
AcDbXrecord
  1
ASAMI.ctb
  0
XRECORD
  5
2F3F
102
{ACAD_REACTORS
330
2F3A
102
}
330
2F3A
100
AcDbXrecord
340
1A
  0
XRECORD
  5
2F40
102
{ACAD_REACTORS
330
2F3A
102
}
330
2F3A
100
AcDbXrecord
340
19
  0
XRECORD
  5
2F41
102
{ACAD_REACTORS
330
2F3A
102
}
330
2F3A
100
AcDbXrecord
340
E
  0
XRECORD
  5
2F42
102
{ACAD_REACTORS
330
2F3A
102
}
330
2F3A
100
AcDbXrecord
 90
    10781
  0
XRECORD
  5
2F43
102
{ACAD_REACTORS
330
2F3A
102
}
330
2F3A
100
AcDbXrecord
 90
        4
  0
XRECORD
  5
2F44
102
{ACAD_REACTORS
330
2F3A
102
}
330
2F3A
100
AcDbXrecord
 90
        0
  0
XRECORD
  5
2F45
102
{ACAD_REACTORS
330
2F3A
102
}
330
2F3A
100
AcDbXrecord
  1
{AFB28963-8C59-40AE-9337-C84526B81ACE}
  0
XRECORD
  5
2F46
102
{ACAD_REACTORS
330
2F3A
102
}
330
2F3A
100
AcDbXrecord
  1
{3F124F60-C9E4-4C6F-A932-0F3A406C29A1}
  0
XRECORD
  5
2F47
102
{ACAD_REACTORS
330
2F3A
102
}
330
2F3A
100
AcDbXrecord
 40
0.0
  0
XRECORD
  5
2F48
102
{ACAD_REACTORS
330
2F3A
102
}
330
2F3A
100
AcDbXrecord
1000
DSTYLE
1002
{
1070
    79
 70
     2
1070
   341
340
59
1070
   342
340
59
1070
   371
 70
    -1
1070
   372
 70
    -1
1002
}
  0
XRECORD
  5
2F49
102
{ACAD_REACTORS
330
2F3A
102
}
330
2F3A
100
AcDbXrecord
340
0
  0
XRECORD
  5
2F4A
102
{ACAD_REACTORS
330
2F3A
102
}
330
2F3A
100
AcDbXrecord
 70
     0
  0
XRECORD
  5
2F4B
102
{ACAD_REACTORS
330
2F3A
102
}
330
2F3A
100
AcDbXrecord
340
0
  0
XRECORD
  5
2F4C
102
{ACAD_REACTORS
330
2F3A
102
}
330
2F3A
100
AcDbXrecord
 10
0.0
 20
0.0
 30
0.0
  0
XRECORD
  5
2F4D
102
{ACAD_REACTORS
330
2F3A
102
}
330
2F3A
100
AcDbXrecord
 10
0.0
 20
0.0
 30
0.0
  0
XRECORD
  5
2F4E
102
{ACAD_REACTORS
330
2F3A
102
}
330
2F3A
100
AcDbXrecord
 10
0.0
 20
0.0
 30
0.0
  0
XRECORD
  5
2F4F
102
{ACAD_REACTORS
330
2F3A
102
}
330
2F3A
100
AcDbXrecord
 10
0.0
 20
0.0
 30
0.0
  0
XRECORD
  5
2F50
102
{ACAD_REACTORS
330
2F3A
102
}
330
2F3A
100
AcDbXrecord
 10
0.0
 20
0.0
 30
0.0
  0
XRECORD
  5
2F51
102
{ACAD_REACTORS
330
2F3A
102
}
330
2F3A
100
AcDbXrecord
 10
0.0
 20
0.0
 30
0.0
  0
XRECORD
  5
2F52
102
{ACAD_REACTORS
330
2F3A
102
}
330
2F3A
100
AcDbXrecord
340
0
  0
XRECORD
  5
2F53
102
{ACAD_REACTORS
330
2F3A
102
}
330
2F3A
100
AcDbXrecord
 70
     0
  0
XRECORD
  5
2F54
102
{ACAD_REACTORS
330
2F3A
102
}
330
2F3A
100
AcDbXrecord
340
0
  0
XRECORD
  5
2F55
102
{ACAD_REACTORS
330
2F3A
102
}
330
2F3A
100
AcDbXrecord
 10
0.0
 20
0.0
 30
0.0
  0
XRECORD
  5
2F56
102
{ACAD_REACTORS
330
2F3A
102
}
330
2F3A
100
AcDbXrecord
 10
0.0
 20
0.0
 30
0.0
  0
XRECORD
  5
2F57
102
{ACAD_REACTORS
330
2F3A
102
}
330
2F3A
100
AcDbXrecord
 10
0.0
 20
0.0
 30
0.0
  0
XRECORD
  5
2F58
102
{ACAD_REACTORS
330
2F3A
102
}
330
2F3A
100
AcDbXrecord
 10
0.0
 20
0.0
 30
0.0
  0
XRECORD
  5
2F59
102
{ACAD_REACTORS
330
2F3A
102
}
330
2F3A
100
AcDbXrecord
 10
0.0
 20
0.0
 30
0.0
  0
XRECORD
  5
2F5A
102
{ACAD_REACTORS
330
2F3A
102
}
330
2F3A
100
AcDbXrecord
 10
0.0
 20
0.0
 30
0.0
  0
LAYER_INDEX
  5
2F31
102
{ACAD_REACTORS
330
2F30
102
}
330
2F30
100
AcDbIndex
 40
2453151.571013264
100
AcDbLayerIndex
  8
0
360
2F32
 90
        0
  8
AM_0
360
2F33
 90
       44
  8
AM_7
360
2F34
 90
        1
  8
AM_11
360
2F35
 90
       17
  8
AM_5
360
2F36
 90
        5
  8
Defpoints
360
2F37
 90
        0
  8
AM_6
360
2F38
 90
        1
  0
XRECORD
  5
2D
102
{ACAD_REACTORS
330
2C
102
}
330
2C
100
AcDbXrecord
  1
VERSION
140
15.0
  1
PRODUCT
  2
AutoCAD Mechanical 2000
  0
IDBUFFER
  5
2F32
330
0
100
AcDbIdBuffer
  0
IDBUFFER
  5
2F33
330
0
100
AcDbIdBuffer
330
2E91
330
2E92
330
2E93
330
2E94
330
2E95
330
2E96
330
2E98
330
2E99
330
2E9E
330
2E9F
330
2EA0
330
2EA1
330
2EA2
330
2EA3
330
2EA4
330
2EA5
330
2EA6
330
2EA7
330
2EA8
330
2EA9
330
2EAA
330
2EAB
330
2EAC
330
2EAD
330
2EAE
330
2EAF
330
2EB0
330
2EB1
330
C1D
330
C20
330
C30
330
1CA9
330
1E12
330
1E16
330
1E22
330
1E25
330
1E26
330
220F
330
24F9
330
24FC
330
2541
330
2542
330
2B8E
330
2B8F
  0
IDBUFFER
  5
2F34
330
0
100
AcDbIdBuffer
330
C9F
  0
IDBUFFER
  5
2F35
330
0
100
AcDbIdBuffer
330
2E9D
330
1BE8
330
1BE9
330
1F66
330
1F67
330
222E
330
222F
330
2230
330
2231
330
2232
330
2233
330
290C
330
290D
330
2E97
330
2E9A
330
2E9B
330
2E9C
  0
IDBUFFER
  5
2F36
330
0
100
AcDbIdBuffer
330
CC6
330
DF5
330
228A
330
2BA8
330
2D88
  0
IDBUFFER
  5
2F37
330
0
100
AcDbIdBuffer
  0
IDBUFFER
  5
2F38
330
0
100
AcDbIdBuffer
330
19BD
  0
ENDSEC
  0
EOF
