  0
SECTION
  2
HEADER
  9
$ACADVER
  1
AC1014
  9
$ACADMAINTVER
 70
     9
  9
$DWGCODEPAGE
  3
ANSI_932
  9
$INSBASE
 10
0.0
 20
0.0
 30
0.0
  9
$EXTMIN
 10
-145.2514574387831
 20
-36.59394100445694
 30
-0.00000001
  9
$EXTMAX
 10
23.18893664105136
 20
22.32654608839259
 30
0.00000001
  9
$LIMMIN
 10
-161.4025624297553
 20
-62.37656341267504
  9
$LIMMAX
 10
39.48866728616269
 20
42.51072138927173
  9
$ORTHOMODE
 70
     0
  9
$REGENMODE
 70
     1
  9
$FILLMODE
 70
     1
  9
$QTEXTMODE
 70
     0
  9
$MIRRTEXT
 70
     0
  9
$DRAGMODE
 70
     2
  9
$LTSCALE
 40
1.0
  9
$OSMODE
 70
    55
  9
$ATTMODE
 70
     1
  9
$TEXTSIZE
 40
2.5
  9
$TRACEWID
 40
1.0
  9
$TEXTSTYLE
  7
STANDARD
  9
$CLAYER
  8
AM_0
  9
$CELTYPE
  6
BYLAYER
  9
$CECOLOR
 62
   256
  9
$CELTSCALE
 40
1.0
  9
$DELOBJ
 70
     1
  9
$DISPSILH
 70
     0
  9
$DIMSCALE
 40
1.0
  9
$DIMASZ
 40
2.5
  9
$DIMEXO
 40
1.0
  9
$DIMDLI
 40
12.0
  9
$DIMRND
 40
0.0
  9
$DIMDLE
 40
0.0
  9
$DIMEXE
 40
1.0
  9
$DIMTP
 40
0.1
  9
$DIMTM
 40
0.1
  9
$DIMTXT
 40
3.2
  9
$DIMCEN
 40
0.0
  9
$DIMTSZ
 40
0.0
  9
$DIMTOL
 70
     0
  9
$DIMLIM
 70
     0
  9
$DIMTIH
 70
     0
  9
$DIMTOH
 70
     0
  9
$DIMSE1
 70
     0
  9
$DIMSE2
 70
     0
  9
$DIMTAD
 70
     3
  9
$DIMZIN
 70
     8
  9
$DIMBLK
  1
OPEN30
  9
$DIMASO
 70
     1
  9
$DIMSHO
 70
     1
  9
$DIMPOST
  1

  9
$DIMAPOST
  1
"
  9
$DIMALT
 70
     0
  9
$DIMALTD
 70
     2
  9
$DIMALTF
 40
0.0393701
  9
$DIMLFAC
 40
1.0
  9
$DIMTOFL
 70
     1
  9
$DIMTVP
 40
0.0
  9
$DIMTIX
 70
     0
  9
$DIMSOXD
 70
     0
  9
$DIMSAH
 70
     0
  9
$DIMBLK1
  1

  9
$DIMBLK2
  1

  9
$DIMSTYLE
  2
AM_JIS
  9
$DIMCLRD
 70
   256
  9
$DIMCLRE
 70
   256
  9
$DIMCLRT
 70
     2
  9
$DIMTFAC
 40
0.71
  9
$DIMGAP
 40
1.5
  9
$DIMJUST
 70
     0
  9
$DIMSD1
 70
     0
  9
$DIMSD2
 70
     0
  9
$DIMTOLJ
 70
     0
  9
$DIMTZIN
 70
     0
  9
$DIMALTZ
 70
     0
  9
$DIMALTTZ
 70
     0
  9
$DIMFIT
 70
     3
  9
$DIMUPT
 70
     0
  9
$DIMUNIT
 70
     2
  9
$DIMDEC
 70
     3
  9
$DIMTDEC
 70
     3
  9
$DIMALTU
 70
     2
  9
$DIMALTTD
 70
     2
  9
$DIMTXSTY
  7
ASAMI
  9
$DIMAUNIT
 70
     0
  9
$LUNITS
 70
     2
  9
$LUPREC
 70
     2
  9
$SKETCHINC
 40
1.0
  9
$FILLETRAD
 40
2.5
  9
$AUNITS
 70
     0
  9
$AUPREC
 70
     0
  9
$MENU
  1
.
  9
$ELEVATION
 40
0.0
  9
$PELEVATION
 40
0.0
  9
$THICKNESS
 40
0.0
  9
$LIMCHECK
 70
     0
  9
$BLIPMODE
 70
     0
  9
$CHAMFERA
 40
2.5
  9
$CHAMFERB
 40
2.5
  9
$CHAMFERC
 40
20.0
  9
$CHAMFERD
 40
0.0
  9
$SKPOLY
 70
     0
  9
$TDCREATE
 40
2452800.443498622
  9
$TDUPDATE
 40
2453151.585366562
  9
$TDINDWG
 40
0.0941242940
  9
$TDUSRTIMER
 40
0.0941242940
  9
$USRTIMER
 70
     1
  9
$ANGBASE
 50
0.0
  9
$ANGDIR
 70
     0
  9
$PDMODE
 70
     0
  9
$PDSIZE
 40
0.0
  9
$PLINEWID
 40
0.0
  9
$COORDS
 70
     1
  9
$SPLFRAME
 70
     0
  9
$SPLINETYPE
 70
     6
  9
$SPLINESEGS
 70
     8
  9
$ATTDIA
 70
     1
  9
$ATTREQ
 70
     1
  9
$HANDLING
 70
 12289
  9
$HANDSEED
  5
23E4
  9
$SURFTAB1
 70
     6
  9
$SURFTAB2
 70
     6
  9
$SURFTYPE
 70
     6
  9
$SURFU
 70
     6
  9
$SURFV
 70
     6
  9
$UCSNAME
  2

  9
$UCSORG
 10
0.0
 20
0.0
 30
0.0
  9
$UCSXDIR
 10
1.0
 20
0.000000000000002
 30
0.0
  9
$UCSYDIR
 10
-0.000000000000002
 20
1.0
 30
0.0
  9
$PUCSNAME
  2

  9
$PUCSORG
 10
0.0
 20
0.0
 30
0.0
  9
$PUCSXDIR
 10
1.0
 20
0.0
 30
0.0
  9
$PUCSYDIR
 10
0.0
 20
1.0
 30
0.0
  9
$USERI1
 70
     0
  9
$USERI2
 70
     0
  9
$USERI3
 70
     0
  9
$USERI4
 70
     0
  9
$USERI5
 70
     0
  9
$USERR1
 40
0.0
  9
$USERR2
 40
0.0
  9
$USERR3
 40
0.0
  9
$USERR4
 40
0.0
  9
$USERR5
 40
0.0
  9
$WORLDVIEW
 70
     1
  9
$SHADEDGE
 70
     3
  9
$SHADEDIF
 70
    70
  9
$TILEMODE
 70
     1
  9
$MAXACTVP
 70
    64
  9
$PINSBASE
 10
0.0
 20
0.0
 30
0.0
  9
$PLIMCHECK
 70
     0
  9
$PEXTMIN
 10
1.000000000000000E+20
 20
1.000000000000000E+20
 30
1.000000000000000E+20
  9
$PEXTMAX
 10
-1.000000000000000E+20
 20
-1.000000000000000E+20
 30
-1.000000000000000E+20
  9
$PLIMMIN
 10
0.0
 20
0.0
  9
$PLIMMAX
 10
841.0
 20
594.0
  9
$UNITMODE
 70
     0
  9
$VISRETAIN
 70
     1
  9
$PLINEGEN
 70
     0
  9
$PSLTSCALE
 70
     0
  9
$TREEDEPTH
 70
  3020
  9
$PICKSTYLE
 70
     0
  9
$CMLSTYLE
  2
STANDARD
  9
$CMLJUST
 70
     0
  9
$CMLSCALE
 40
20.0
  9
$PROXYGRAPHICS
 70
     1
  9
$MEASUREMENT
 70
     1
  0
ENDSEC
  0
SECTION
  2
CLASSES
  0
CLASS
  1
ACDBDICTIONARYWDFLT
  2
AcDbDictionaryWithDefault
  3
AutoCAD 2000
 90
        0
280
     0
281
     0
  0
CLASS
  1
ACDBPLACEHOLDER
  2
AcDbPlaceHolder
  3
AutoCAD 2000
 90
        0
280
     0
281
     0
  0
CLASS
  1
LAYOUT
  2
AcDbLayout
  3
AutoCAD 2000
 90
        0
280
     0
281
     0
  0
CLASS
  1
AMGSETTINGSOBJ
  2
AmgSettingsObj
  3
"AcadM|Product Description: AutoCAD Mechanical 2000|Company: Autodesk"
 90
        0
280
     0
281
     0
  0
CLASS
  1
ACME_DOCUMENT
  2
AcMeDbDoc
  3
AcMeServices
 90
        0
280
     0
281
     0
  0
CLASS
  1
ACMESCOPE
  2
AcMeScope
  3
AcMeServices
 90
        0
280
     0
281
     0
  0
CLASS
  1
ACMECOMMANDHISTORY
  2
AcMeCommandHistory
  3
AcMeServices
 90
        0
280
     0
281
     0
  0
CLASS
  1
DICTIONARYVAR
  2
AcDbDictionaryVar
  3
AutoCAD 2000
 90
        0
280
     0
281
     0
  0
CLASS
  1
ACIMSYSVARMAN
  2
AcImSysVarManager
  3
AcMeServices
 90
        0
280
     0
281
     0
  0
CLASS
  1
ACIMREALSYSVAR
  2
AcImRealSysVar
  3
AcMeServices
 90
        0
280
     0
281
     0
  0
CLASS
  1
ACIMINTSYSVAR
  2
AcImIntSysVar
  3
AcMeServices
 90
        0
280
     0
281
     0
  0
CLASS
  1
ACMEDRAWINGMAN
  2
AcMeDrawingMan
  3
AcMeServices
 90
        0
280
     0
281
     0
  0
CLASS
  1
ACMEVIEW
  2
AcMeView
  3
AcMeServices
 90
        0
280
     0
281
     0
  0
CLASS
  1
ACDBENTITYCACHE
  2
AcMeEntityCache
  3
AcMeServices
 90
        0
280
     0
281
     0
  0
CLASS
  1
GSMANAGER
  2
AcMeGSManager
  3
AcMeServices
 90
        0
280
     0
281
     0
  0
CLASS
  1
AmdtInternalReactor
  2
AmdtInternalReactor
  3
AcMeServices
 90
        0
280
     0
281
     0
  0
CLASS
  1
ACMESTATEMGR
  2
AcMeStateMgr
  3
AcMeServices
 90
        0
280
     0
281
     0
  0
CLASS
  1
ACME_DATABASE
  2
AcMeDbDatabase
  3
AcMeServices
 90
        0
280
     0
281
     0
  0
CLASS
  1
ACRFINSADJUSTERMGR
  2
AcRfInsAdjusterMgr
  3
AcMeServices
 90
        0
280
     0
281
     0
  0
CLASS
  1
ACMDATADICTIONARY
  2
AcmDataDictionary
  3
"AcmSymBB|Product Description: AutoCAD Mechanical 2000|Company: Autodesk"
 90
        0
280
     0
281
     0
  0
CLASS
  1
ACMDATAENTRYBLOCK
  2
AcmDataEntryBlock
  3
"AcmSymBB|Product Description: AutoCAD Mechanical 2000|Company: Autodesk"
 90
        0
280
     0
281
     0
  0
CLASS
  1
AMGOBJPROPCFG
  2
AmgObjPropCfg
  3
"AmgLay|Product Description: AutoCAD Mechanical 2000|Company: Autodesk"
 90
        1
280
     0
281
     0
  0
CLASS
  1
ACAMGFILTERDAT
  2
AcAmgFilterDat
  3
"AcadM|Product Description: AutoCAD Mechanical 2000|Company: Autodesk"
 90
        0
280
     0
281
     0
  0
CLASS
  1
LAYER_INDEX
  2
AcDbLayerIndex
  3
AutoCAD 2000
 90
        0
280
     0
281
     0
  0
CLASS
  1
IDBUFFER
  2
AcDbIdBuffer
  3
AutoCAD 2000
 90
        0
280
     0
281
     0
  0
CLASS
  1
ACIMSTRSYSVAR
  2
AcImStrSysVar
  3
AcMeServices
 90
        0
280
     0
281
     0
  0
CLASS
  1
ACMSTANDARDJIS
  2
AcmStandardJIS
  3
"AcmSymBB|Product Description: AutoCAD Mechanical 2000|Company: Autodesk"
 90
        0
280
     0
281
     0
  0
CLASS
  1
ACMSURFSTANDARDJIS
  2
AcmSurfTextStdJIS
  3
"AcmSymBB|Product Description: AutoCAD Mechanical 2000|Company: Autodesk"
 90
        0
280
     0
281
     0
  0
CLASS
  1
ACMFCFSTANDARDJIS
  2
AcmFCFStdJIS
  3
"AcmSymBB|Product Description: AutoCAD Mechanical 2000|Company: Autodesk"
 90
        0
280
     0
281
     0
  0
CLASS
  1
ACMWELDSTANDARDJIS
  2
AcmWeldingStdJIS
  3
"AcmSymBB|Product Description: AutoCAD Mechanical 2000|Company: Autodesk"
 90
        0
280
     0
281
     0
  0
CLASS
  1
ACMIDSTANDARDJIS
  2
AcmIdStdJIS
  3
"AcmSymBB|Product Description: AutoCAD Mechanical 2000|Company: Autodesk"
 90
        0
280
     0
281
     0
  0
CLASS
  1
ACMDATUMSTANDARDJIS
  2
AcmDatumStdJIS
  3
"AcmSymBB|Product Description: AutoCAD Mechanical 2000|Company: Autodesk"
 90
        0
280
     0
281
     0
  0
CLASS
  1
ACMBOMSTANDARDJIS
  2
AcmBOMStdJIS
  3
"AcmSymBB|Product Description: AutoCAD Mechanical 2000|Company: Autodesk"
 90
        0
280
     0
281
     0
  0
CLASS
  1
ACMSTANDARDANSI
  2
AcmStandardANSI
  3
"AcmSymBB|Product Description: AutoCAD Mechanical 2000|Company: Autodesk"
 90
        0
280
     0
281
     0
  0
CLASS
  1
ACMSURFSTANDARDANSI
  2
AcmSurfTextStdANSI
  3
"AcmSymBB|Product Description: AutoCAD Mechanical 2000|Company: Autodesk"
 90
        0
280
     0
281
     0
  0
CLASS
  1
ACMFCFSTANDARDANSI
  2
AcmFCFStdANSI
  3
"AcmSymBB|Product Description: AutoCAD Mechanical 2000|Company: Autodesk"
 90
        0
280
     0
281
     0
  0
CLASS
  1
ACMWELDSTANDARDANSI
  2
AcmWeldingStdANSI
  3
"AcmSymBB|Product Description: AutoCAD Mechanical 2000|Company: Autodesk"
 90
        0
280
     0
281
     0
  0
CLASS
  1
ACMIDSTANDARDANSI
  2
AcmIdStdANSI
  3
"AcmSymBB|Product Description: AutoCAD Mechanical 2000|Company: Autodesk"
 90
        0
280
     0
281
     0
  0
CLASS
  1
ACMDATUMSTANDARDANSI
  2
AcmDatumStdANSI
  3
"AcmSymBB|Product Description: AutoCAD Mechanical 2000|Company: Autodesk"
 90
        0
280
     0
281
     0
  0
CLASS
  1
ACMBOMSTANDARDANSI
  2
AcmBOMStdANSI
  3
"AcmSymBB|Product Description: AutoCAD Mechanical 2000|Company: Autodesk"
 90
        0
280
     0
281
     0
  0
CLASS
  1
ACMSTANDARDBSI
  2
AcmStandardBSI
  3
"AcmSymBB|Product Description: AutoCAD Mechanical 2000|Company: Autodesk"
 90
        0
280
     0
281
     0
  0
CLASS
  1
ACMSURFSTANDARDBSI
  2
AcmSurfTextStdBSI
  3
"AcmSymBB|Product Description: AutoCAD Mechanical 2000|Company: Autodesk"
 90
        0
280
     0
281
     0
  0
CLASS
  1
ACMFCFSTANDARDBSI
  2
AcmFCFStdBSI
  3
"AcmSymBB|Product Description: AutoCAD Mechanical 2000|Company: Autodesk"
 90
        0
280
     0
281
     0
  0
CLASS
  1
ACMWELDSTANDARDBSI
  2
AcmWeldingStdBSI
  3
"AcmSymBB|Product Description: AutoCAD Mechanical 2000|Company: Autodesk"
 90
        0
280
     0
281
     0
  0
CLASS
  1
ACMIDSTANDARDBSI
  2
AcmIdStdBSI
  3
"AcmSymBB|Product Description: AutoCAD Mechanical 2000|Company: Autodesk"
 90
        0
280
     0
281
     0
  0
CLASS
  1
ACMDATUMSTANDARDBSI
  2
AcmDatumStdBSI
  3
"AcmSymBB|Product Description: AutoCAD Mechanical 2000|Company: Autodesk"
 90
        0
280
     0
281
     0
  0
CLASS
  1
ACMBOMSTANDARDBSI
  2
AcmBOMStdBSI
  3
"AcmSymBB|Product Description: AutoCAD Mechanical 2000|Company: Autodesk"
 90
        0
280
     0
281
     0
  0
CLASS
  1
LONG_TRANSACTION
  2
AcDbLongTransaction
  3
AutoCAD 2000
 90
        0
280
     0
281
     0
  0
CLASS
  1
LWPOLYLINE
  2
AcDbPolyline
  3
AutoCAD 2000
 90
        0
280
     0
281
     1
  0
CLASS
  1
HATCH
  2
AcDbHatch
  3
AutoCAD 2000
 90
        0
280
     0
281
     1
  0
CLASS
  1
XRECORD
  2
AcDbXrecord
  3
AutoCAD 2000
 90
        0
280
     0
281
     0
  0
ENDSEC
  0
SECTION
  2
TABLES
  0
TABLE
  2
VPORT
  5
8
330
0
100
AcDbSymbolTable
 70
     3
  0
VPORT
  5
23B9
330
8
100
AcDbSymbolTableRecord
100
AcDbViewportTableRecord
  2
*ACTIVE
 70
     0
 10
0.0
 20
0.0
 11
1.0
 21
1.0
 12
-63.27055351372691
 22
5.63434089321953
 13
0.0
 23
0.0
 14
2.5
 24
2.5
 15
10.0
 25
10.0
 16
0.0
 26
0.0
 36
1.0
 17
0.0
 27
0.0
 37
0.0
 40
146.2346038417343
 41
1.56570841889117
 42
50.0
 43
0.0
 44
0.0
 50
0.0
 51
0.0
 71
     0
 72
   100
 73
     1
 74
     1
 75
     0
 76
     0
 77
     0
 78
     0
  0
ENDTAB
  0
TABLE
  2
LTYPE
  5
5
330
0
100
AcDbSymbolTable
 70
    10
  0
LTYPE
  5
14
330
5
100
AcDbSymbolTableRecord
100
AcDbLinetypeTableRecord
  2
BYBLOCK
 70
     0
  3

 72
    65
 73
     0
 40
0.0
  0
LTYPE
  5
15
330
5
100
AcDbSymbolTableRecord
100
AcDbLinetypeTableRecord
  2
BYLAYER
 70
     0
  3

 72
    65
 73
     0
 40
0.0
  0
LTYPE
  5
16
330
5
100
AcDbSymbolTableRecord
100
AcDbLinetypeTableRecord
  2
CONTINUOUS
 70
     0
  3
Solid line
 72
    65
 73
     0
 40
0.0
  0
LTYPE
  5
4B
330
5
100
AcDbSymbolTableRecord
100
AcDbLinetypeTableRecord
  2
AM_ISO02W050
 70
     0
  3
__ __ __ __ __ __ __ __ __ __ __ __ __ __ __
 72
    65
 73
     2
 40
7.5
 49
6.0
 74
     0
 49
-1.5
 74
     0
  0
LTYPE
  5
4C
330
5
100
AcDbSymbolTableRecord
100
AcDbLinetypeTableRecord
  2
AM_ISO08W050
 70
     0
  3
____ . ____ . ____ . ____ . ____ . ____ . ____
 72
    65
 73
     4
 40
18.0
 49
12.0
 74
     0
 49
-1.5
 74
     0
 49
3.0
 74
     0
 49
-1.5
 74
     0
  0
LTYPE
  5
4D
330
5
100
AcDbSymbolTableRecord
100
AcDbLinetypeTableRecord
  2
AM_ISO09W050
 70
     0
  3
_____ . . _____ . . _____ . . ____ .. ____
 72
    65
 73
     6
 40
22.5
 49
12.0
 74
     0
 49
-1.5
 74
     0
 49
3.0
 74
     0
 49
-1.5
 74
     0
 49
3.0
 74
     0
 49
-1.5
 74
     0
  0
LTYPE
  5
4E
330
5
100
AcDbSymbolTableRecord
100
AcDbLinetypeTableRecord
  2
AMCONSTR
 70
     0
  3
_______________________
 72
    65
 73
     2
 40
9999.0
 49
9999.0
 74
     0
 49
0.0
 74
     0
  0
LTYPE
  5
4F
330
5
100
AcDbSymbolTableRecord
100
AcDbLinetypeTableRecord
  2
AM_ISO02W050X2
 70
     0
  3
 _ _ _ _ _ _ _ _ _ _ _ _
 72
    65
 73
     2
 40
3.75
 49
3.0
 74
     0
 49
-0.75
 74
     0
  0
LTYPE
  5
50
330
5
100
AcDbSymbolTableRecord
100
AcDbLinetypeTableRecord
  2
AM_ISO08W050X2
 70
     0
  3
__ . __ . __ . __ . __ . __
 72
    65
 73
     4
 40
9.0
 49
6.0
 74
     0
 49
-0.75
 74
     0
 49
1.5
 74
     0
 49
-0.75
 74
     0
  0
LTYPE
  5
53
330
5
100
AcDbSymbolTableRecord
100
AcDbLinetypeTableRecord
  2
AMZIGZAG
 70
     0
  3
/\/-/\/-/\/-/\/-/\/-/\/
 72
    65
 73
     2
 40
11.00009999999999
 49
0.0001
 74
     4
 75
   135
340
52
 46
0.04
 50
0.0
 44
0.0
 45
0.0
 49
-11.0
 74
     0
  0
LTYPE
  5
166
330
5
100
AcDbSymbolTableRecord
100
AcDbLinetypeTableRecord
  2
ACJISTGL
 70
     0
  3
_ _ _ _ _
 72
    65
 73
     2
 40
3.0
 49
2.0
 74
     0
 49
-1.0
 74
     0
  0
LTYPE
  5
26A
330
5
100
AcDbSymbolTableRecord
100
AcDbLinetypeTableRecord
  2
ACJISTGB
 70
     0
  3
__ . . __ . .
 72
    65
 73
     6
 40
9.0
 49
4.0
 74
     0
 49
-1.0
 74
     0
 49
1.0
 74
     0
 49
-1.0
 74
     0
 49
1.0
 74
     0
 49
-1.0
 74
     0
  0
ENDTAB
  0
TABLE
  2
LAYER
  5
2
330
0
100
AcDbSymbolTable
 70
     8
  0
LAYER
  5
10
330
2
100
AcDbSymbolTableRecord
100
AcDbLayerTableRecord
  2
0
 70
     0
 62
     7
  6
CONTINUOUS
  0
LAYER
  5
3F9
330
2
100
AcDbSymbolTableRecord
100
AcDbLayerTableRecord
  2
AM_0
 70
     0
 62
     7
  6
CONTINUOUS
  0
LAYER
  5
C7C
330
2
100
AcDbSymbolTableRecord
100
AcDbLayerTableRecord
  2
AM_7
 70
     0
 62
     4
  6
AM_ISO08W050
  0
LAYER
  5
C97
330
2
100
AcDbSymbolTableRecord
100
AcDbLayerTableRecord
  2
AM_11
 70
     0
 62
     3
  6
AM_ISO09W050
  0
LAYER
  5
CC5
330
2
100
AcDbSymbolTableRecord
100
AcDbLayerTableRecord
  2
AM_5
 70
     0
 62
     3
  6
CONTINUOUS
  0
LAYER
  5
CC7
330
2
100
AcDbSymbolTableRecord
100
AcDbLayerTableRecord
  2
DEFPOINTS
 70
     0
 62
     7
  6
CONTINUOUS
  0
LAYER
  5
19BC
330
2
100
AcDbSymbolTableRecord
100
AcDbLayerTableRecord
  2
AM_6
 70
     0
 62
     2
  6
CONTINUOUS
  0
LAYER
  5
2291
330
2
100
AcDbSymbolTableRecord
100
AcDbLayerTableRecord
  2
AM_CL
 70
     0
 62
     1
  6
AMCONSTR
  0
ENDTAB
  0
TABLE
  2
STYLE
  5
3
330
0
100
AcDbSymbolTable
 70
     5
  0
STYLE
  5
11
330
3
100
AcDbSymbolTableRecord
100
AcDbTextStyleTableRecord
  2
STANDARD
 70
     0
 40
0.0
 41
1.0
 50
0.0
 71
     0
 42
2.5
  3
simplex.shx
  4
EXTFONT.SHX
  0
STYLE
  5
52
330
3
100
AcDbSymbolTableRecord
100
AcDbTextStyleTableRecord
  2

 70
     1
 40
0.0
 41
1.0
 50
0.0
 71
     0
 42
2.5
  3
ltypeshp.shx
  4

  0
STYLE
  5
6B
330
3
100
AcDbSymbolTableRecord
100
AcDbTextStyleTableRecord
  2
ASAMI
 70
     0
 40
0.0
 41
1.0
 50
0.0
 71
     0
 42
2.5
  3
simplex.shx
  4
EXTFONT.SHX
  0
STYLE
  5
262
330
3
100
AcDbSymbolTableRecord
100
AcDbTextStyleTableRecord
  2
ACJISTS
 70
     0
 40
1.0
 41
1.0
 50
0.0
 71
     0
 42
2.5
  3
simplex.shx
  4
bigfont.shx
  0
STYLE
  5
269
330
3
100
AcDbSymbolTableRecord
100
AcDbTextStyleTableRecord
  2
ACJISGDT
 70
     0
 40
0.0
 41
1.0
 50
0.0
 71
     0
 42
2.5
  3
amgdtans.shx
  4

  0
ENDTAB
  0
TABLE
  2
VIEW
  5
6
330
0
100
AcDbSymbolTable
 70
     0
  0
ENDTAB
  0
TABLE
  2
UCS
  5
7
330
0
100
AcDbSymbolTable
 70
     0
  0
ENDTAB
  0
TABLE
  2
APPID
  5
9
330
0
100
AcDbSymbolTable
 70
    14
  0
APPID
  5
12
330
9
100
AcDbSymbolTableRecord
100
AcDbRegAppTableRecord
  2
ACAD
 70
     0
  0
APPID
  5
30
330
9
100
AcDbSymbolTableRecord
100
AcDbRegAppTableRecord
  2
MCAD_NO_VIS
 70
     0
  0
APPID
  5
31
330
9
100
AcDbSymbolTableRecord
100
AcDbRegAppTableRecord
  2
ACAD_TEMP_GRAPHIC
 70
     0
  0
APPID
  5
2C2
330
9
100
AcDbSymbolTableRecord
100
AcDbRegAppTableRecord
  2
GENIUS_GENDTOL_13
 70
     0
  0
APPID
  5
339
330
9
100
AcDbSymbolTableRecord
100
AcDbRegAppTableRecord
  2
GENIUS_GENODEF_13
 70
     0
  0
APPID
  5
33A
330
9
100
AcDbSymbolTableRecord
100
AcDbRegAppTableRecord
  2
GENIUS_GENOBJ-N-RSBK_13
 70
     0
  0
APPID
  5
33B
330
9
100
AcDbSymbolTableRecord
100
AcDbRegAppTableRecord
  2
GENIUS_GENOBJ-N-LIB_13
 70
     0
  0
APPID
  5
33C
330
9
100
AcDbSymbolTableRecord
100
AcDbRegAppTableRecord
  2
GENIUS_GENSCALE_13
 70
     0
  0
APPID
  5
378
330
9
100
AcDbSymbolTableRecord
100
AcDbRegAppTableRecord
  2
GENIUS_GENDIMSH_14
 70
     0
  0
APPID
  5
C82
330
9
100
AcDbSymbolTableRecord
100
AcDbRegAppTableRecord
  2
GENIUS_GENOBJ-N-CRS_13
 70
     0
  0
APPID
  5
C83
330
9
100
AcDbSymbolTableRecord
100
AcDbRegAppTableRecord
  2
GENIUS_GENOENT_13
 70
     0
  0
APPID
  5
C84
330
9
100
AcDbSymbolTableRecord
100
AcDbRegAppTableRecord
  2
GENIUS_GENOREF_13
 70
     0
  0
APPID
  5
C85
330
9
100
AcDbSymbolTableRecord
100
AcDbRegAppTableRecord
  2
GENIUS_GENOLIS_13
 70
     0
  0
APPID
  5
CA0
330
9
100
AcDbSymbolTableRecord
100
AcDbRegAppTableRecord
  2
GENIUS_GENOBJ-N-CEN_13
 70
     0
  0
ENDTAB
  0
TABLE
  2
DIMSTYLE
  5
A
330
0
100
AcDbSymbolTable
 70
     9
  0
DIMSTYLE
105
58
330
A
100
AcDbSymbolTableRecord
100
AcDbDimStyleTableRecord
  2
AM_JIS
 70
     0
  3

  4
"
  5
OPEN30
  6

  7

 40
0.5
 41
2.5
 42
1.0
 43
12.0
 44
1.0
 45
0.0
 46
0.0
 47
0.1
 48
0.1
140
3.2
141
0.0
142
0.0
143
0.0393701
144
1.0
145
0.0
146
0.71
147
1.5
 71
     0
 72
     0
 73
     0
 74
     0
 75
     0
 76
     0
 77
     3
 78
     8
170
     0
171
     2
172
     1
173
     0
174
     0
175
     0
176
   256
177
   256
178
     2
270
     2
271
     3
272
     3
273
     2
274
     2
340
6B
275
     0
280
     0
281
     0
282
     0
283
     0
284
     0
285
     0
286
     0
287
     3
288
     0
  0
DIMSTYLE
105
5F
330
A
100
AcDbSymbolTableRecord
100
AcDbDimStyleTableRecord
  2
AM_JIS$3
 70
     0
  3

  4
"
  5
OPEN30
  6

  7

 40
0.5
 41
2.5
 42
1.0
 43
10.0
 44
1.0
 45
0.0
 46
0.0
 47
0.1
 48
0.1
140
3.2
141
0.0
142
0.0
143
0.0393701
144
1.0
145
0.0
146
0.71
147
1.5
 71
     0
 72
     0
 73
     0
 74
     1
 75
     0
 76
     0
 77
     3
 78
     8
170
     0
171
     2
172
     0
173
     0
174
     0
175
     0
176
   256
177
   256
178
     2
270
     2
271
     2
272
     3
273
     2
274
     2
340
6B
275
     0
280
     0
281
     0
282
     0
283
     0
284
     0
285
     0
286
     0
287
     0
288
     1
  0
DIMSTYLE
105
60
330
A
100
AcDbSymbolTableRecord
100
AcDbDimStyleTableRecord
  2
AM_JIS$4
 70
     0
  3

  4
"
  5
OPEN30
  6

  7

 40
0.5
 41
2.5
 42
1.0
 43
10.0
 44
1.0
 45
0.0
 46
0.0
 47
0.1
 48
0.1
140
3.2
141
0.0
142
0.0
143
0.0393701
144
1.0
145
0.0
146
0.71
147
1.5
 71
     0
 72
     0
 73
     0
 74
     1
 75
     0
 76
     0
 77
     3
 78
     8
170
     0
171
     2
172
     0
173
     0
174
     0
175
     0
176
   256
177
   256
178
     2
270
     2
271
     2
272
     3
273
     2
274
     2
340
6B
275
     0
280
     0
281
     0
282
     0
283
     0
284
     0
285
     0
286
     0
287
     0
288
     1
  0
DIMSTYLE
105
61
330
A
100
AcDbSymbolTableRecord
100
AcDbDimStyleTableRecord
  2
AM_JIS$6
 70
     0
  3

  4
"
  5
OPEN30
  6

  7

 40
0.5
 41
2.5
 42
1.0
 43
10.0
 44
1.0
 45
0.0
 46
0.0
 47
0.1
 48
0.1
140
3.2
141
0.0
142
0.0
143
0.0393701
144
1.0
145
0.0
146
0.71
147
1.5
 71
     0
 72
     0
 73
     0
 74
     0
 75
     0
 76
     0
 77
     0
 78
     8
170
     0
171
     2
172
     1
173
     0
174
     0
175
     0
176
   256
177
   256
178
     2
270
     2
271
     2
272
     2
273
     2
274
     2
340
6B
275
     0
280
     0
281
     0
282
     0
283
     0
284
     0
285
     0
286
     0
287
     3
288
     0
  0
DIMSTYLE
105
62
330
A
100
AcDbSymbolTableRecord
100
AcDbDimStyleTableRecord
  2
AM_JIS$7
 70
     0
  3

  4
"
  5
OPEN30
  6

  7

 40
0.5
 41
2.5
 42
1.0
 43
10.0
 44
1.0
 45
0.0
 46
0.0
 47
0.1
 48
0.1
140
3.2
141
0.0
142
0.0
143
0.0393701
144
1.0
145
0.0
146
0.71
147
1.5
 71
     0
 72
     0
 73
     0
 74
     0
 75
     0
 76
     0
 77
     3
 78
     8
170
     0
171
     2
172
     1
173
     0
174
     0
175
     0
176
   256
177
   256
178
     2
270
     2
271
     2
272
     3
273
     2
274
     2
340
6B
275
     0
280
     0
281
     0
282
     0
283
     0
284
     0
285
     0
286
     0
287
     3
288
     0
  0
DIMSTYLE
105
63
330
A
100
AcDbSymbolTableRecord
100
AcDbDimStyleTableRecord
  2
AM_JIS$SF
 70
     0
  3

  4
"
  5
OPEN30
  6

  7

 40
0.5
 41
2.5
 42
1.0
 43
10.0
 44
1.0
 45
0.0
 46
0.0
 47
0.1
 48
0.1
140
3.2
141
0.0
142
0.0
143
0.0393701
144
1.0
145
0.0
146
0.71
147
1.5
 71
     0
 72
     0
 73
     0
 74
     0
 75
     1
 76
     1
 77
     3
 78
     8
170
     0
171
     2
172
     1
173
     0
174
     0
175
     0
176
   256
177
   256
178
     2
270
     2
271
     2
272
     2
273
     2
274
     2
340
6B
275
     0
280
     0
281
     0
282
     0
283
     0
284
     0
285
     0
286
     0
287
     3
288
     0
  0
DIMSTYLE
105
68
330
A
100
AcDbSymbolTableRecord
100
AcDbDimStyleTableRecord
  2
AM_JIS$SH
 70
     0
  3

  4
"
  5

  6
GENAXEH
  7
OPEN30
 40
0.5
 41
2.5
 42
1.0
 43
10.0
 44
1.0
 45
0.0
 46
0.0
 47
0.1
 48
0.1
140
3.2
141
0.0
142
0.0
143
0.0393701
144
2.0
145
0.0
146
0.71
147
1.5
 71
     0
 72
     0
 73
     0
 74
     0
 75
     1
 76
     1
 77
     3
 78
     8
170
     0
171
     2
172
     1
173
     1
174
     0
175
     0
176
   256
177
   256
178
     2
270
     2
271
     2
272
     2
273
     2
274
     2
340
6B
275
     0
280
     0
281
     0
282
     0
283
     0
284
     0
285
     0
286
     0
287
     3
288
     0
  0
DIMSTYLE
105
B34
102
{ACAD_REACTORS
330
11B2
102
}
330
A
100
AcDbSymbolTableRecord
100
AcDbDimStyleTableRecord
  2
AM_JIS$2
 70
     0
  3

  4
"
  5
OPEN30
  6

  7

 40
0.5
 41
2.5
 42
1.0
 43
12.0
 44
1.0
 45
0.0
 46
0.0
 47
0.1
 48
0.1
140
3.2
141
0.0
142
0.0
143
0.0393701
144
1.0
145
0.0
146
0.71
147
1.5
 71
     0
 72
     0
 73
     0
 74
     0
 75
     0
 76
     0
 77
     3
 78
     8
170
     0
171
     2
172
     1
173
     0
174
     0
175
     0
176
   256
177
   256
178
     2
270
     2
271
     3
272
     3
273
     2
274
     2
340
6B
275
     0
280
     0
281
     0
282
     0
283
     0
284
     0
285
     0
286
     0
287
     3
288
     0
  0
DIMSTYLE
105
BA5
102
{ACAD_REACTORS
330
CC6
330
DF5
330
1EEB
330
2129
102
}
330
A
100
AcDbSymbolTableRecord
100
AcDbDimStyleTableRecord
  2
AM_JIS$0
 70
     0
  3

  4
"
  5
OPEN30
  6

  7

 40
0.5
 41
2.5
 42
0.8
 43
10.0
 44
1.0
 45
0.0
 46
0.0
 47
0.1
 48
0.1000000001
140
3.799999999999999
141
0.0
142
0.0
143
0.0393701
144
1.0
145
0.0
146
0.71
147
1.5
 71
     0
 72
     0
 73
     0
 74
     0
 75
     0
 76
     0
 77
     3
 78
     1
170
     0
171
     2
172
     1
173
     0
174
     0
175
     0
176
     3
177
     3
178
     2
270
     2
271
     2
272
     2
273
     2
274
     2
340
11
275
     1
280
     0
281
     0
282
     0
283
     0
284
     8
285
     0
286
     0
287
     0
288
     0
  0
ENDTAB
  0
TABLE
  2
BLOCK_RECORD
  5
1
330
0
100
AcDbSymbolTable
 70
    10
  0
BLOCK_RECORD
  5
1F
102
{ACAD_XDICTIONARY
360
74
102
}
330
1
100
AcDbSymbolTableRecord
100
AcDbBlockTableRecord
  2
*MODEL_SPACE
  0
BLOCK_RECORD
  5
101
102
{ACAD_XDICTIONARY
360
23E2
102
}
330
1
100
AcDbSymbolTableRecord
100
AcDbBlockTableRecord
  2
*PAPER_SPACE
  0
BLOCK_RECORD
  5
59
330
1
100
AcDbSymbolTableRecord
100
AcDbBlockTableRecord
  2
_OPEN30
  0
BLOCK_RECORD
  5
64
330
1
100
AcDbSymbolTableRecord
100
AcDbBlockTableRecord
  2
GENAXEH
  0
BLOCK_RECORD
  5
CC8
330
1
100
AcDbSymbolTableRecord
100
AcDbBlockTableRecord
  2
*D5
  0
BLOCK_RECORD
  5
DF6
330
1
100
AcDbSymbolTableRecord
100
AcDbBlockTableRecord
  2
*D6
  0
BLOCK_RECORD
  5
11B3
330
1
100
AcDbSymbolTableRecord
100
AcDbBlockTableRecord
  2
*D7
  0
BLOCK_RECORD
  5
1EEC
330
1
100
AcDbSymbolTableRecord
100
AcDbBlockTableRecord
  2
*D8
  0
BLOCK_RECORD
  5
212A
330
1
100
AcDbSymbolTableRecord
100
AcDbBlockTableRecord
  2
*D9
  0
ENDTAB
  0
ENDSEC
  0
SECTION
  2
BLOCKS
  0
BLOCK
  5
20
330
1F
100
AcDbEntity
  8
0
100
AcDbBlockBegin
  2
*MODEL_SPACE
 70
     0
 10
0.0
 20
0.0
 30
0.0
  3
*MODEL_SPACE
  1

  0
ENDBLK
  5
21
330
1F
100
AcDbEntity
  8
0
100
AcDbBlockEnd
  0
BLOCK
  5
103
330
101
100
AcDbEntity
 67
     1
  8
0
100
AcDbBlockBegin
  2
*PAPER_SPACE
 70
     0
 10
0.0
 20
0.0
 30
0.0
  3
*PAPER_SPACE
  1

  0
ENDBLK
  5
104
330
101
100
AcDbEntity
 67
     1
  8
0
100
AcDbBlockEnd
  0
BLOCK
  5
5D
330
59
100
AcDbEntity
  8
0
100
AcDbBlockBegin
  2
_OPEN30
 70
     0
 10
0.0
 20
0.0
 30
0.0
  3
_OPEN30
  1

  0
LINE
  5
5A
330
59
100
AcDbEntity
  8
0
 62
     0
100
AcDbLine
 10
-1.0
 20
0.26794919
 30
0.0
 11
0.0
 21
0.0
 31
0.0
  0
LINE
  5
5B
330
59
100
AcDbEntity
  8
0
 62
     0
100
AcDbLine
 10
0.0
 20
0.0
 30
0.0
 11
-1.0
 21
-0.26794919
 31
0.0
  0
LINE
  5
5C
330
59
100
AcDbEntity
  8
0
 62
     0
100
AcDbLine
 10
0.0
 20
0.0
 30
0.0
 11
-1.0
 21
0.0
 31
0.0
  0
ENDBLK
  5
5E
330
59
100
AcDbEntity
  8
0
100
AcDbBlockEnd
  0
BLOCK
  5
66
330
64
100
AcDbEntity
  8
0
100
AcDbBlockBegin
  2
GENAXEH
 70
     0
 10
0.0
 20
0.0
 30
0.0
  3
GENAXEH
  1

  0
LINE
  5
65
330
64
100
AcDbEntity
  8
0
100
AcDbLine
 10
-1.0
 20
0.0
 30
0.0
 11
1.0
 21
0.0
 31
0.0
  0
ENDBLK
  5
67
330
64
100
AcDbEntity
  8
0
100
AcDbBlockEnd
  0
BLOCK
  5
CD2
330
CC8
100
AcDbEntity
  8
0
100
AcDbBlockBegin
  2
*D5
 70
     1
 10
0.0
 20
0.0
 30
0.0
  3
*D5
  1

  0
LINE
  5
237A
330
CC8
100
AcDbEntity
  8
AM_5
 62
     3
100
AcDbLine
 10
-128.6014182918165
 20
-4.634845392509864
 30
0.0
 11
-128.6014182918165
 21
-25.84394100445689
 31
0.0
  0
LINE
  5
237B
330
CC8
100
AcDbEntity
  8
AM_5
 62
     3
100
AcDbLine
 10
-1.601456438783182
 20
-4.799963239154761
 30
0.0
 11
-1.601456438783184
 21
-25.84394100445689
 31
0.0
  0
LINE
  5
237C
330
CC8
100
AcDbEntity
  8
AM_5
 62
     3
100
AcDbLine
 10
-127.3514182918165
 20
-25.34394100445689
 30
0.0
 11
-2.851456438783184
 21
-25.34394100445689
 31
0.0
  0
INSERT
  5
237D
330
CC8
100
AcDbEntity
  8
AM_5
 62
     3
100
AcDbBlockReference
  2
_OPEN30
 10
-128.6014182918165
 20
-25.34394100445689
 30
0.0
 41
1.25
 42
1.25
 43
1.25
 50
180.0
  0
INSERT
  5
237E
330
CC8
100
AcDbEntity
  8
AM_5
 62
     3
100
AcDbBlockReference
  2
_OPEN30
 10
-1.601456438783184
 20
-25.34394100445689
 30
0.0
 41
1.25
 42
1.25
 43
1.25
  0
MTEXT
  5
237F
330
CC8
100
AcDbEntity
  8
AM_5
 62
     2
100
AcDbMText
 10
-65.10143736529986
 20
-23.64394100445689
 30
0.0
 40
1.9
 41
0.0
 71
     5
 72
     1
  1
127
1001
ACAD
1000
MTEXTBEGIN
1070
    73
1070
     1
1070
    44
1040
1.0
1070
    74
1070
     0
1000
MTEXTEND
  0
POINT
  5
2380
330
CC8
100
AcDbEntity
  8
DEFPOINTS
 62
     0
100
AcDbPoint
 10
-128.6014182918165
 20
-4.234845392509863
 30
0.0
  0
POINT
  5
2381
330
CC8
100
AcDbEntity
  8
DEFPOINTS
 62
     0
100
AcDbPoint
 10
-1.601456438783182
 20
-4.399963239154761
 30
0.0
  0
POINT
  5
2382
330
CC8
100
AcDbEntity
  8
DEFPOINTS
 62
     0
100
AcDbPoint
 10
-1.601456438783184
 20
-25.34394100445689
 30
0.0
  0
ENDBLK
  5
CD3
330
CC8
100
AcDbEntity
  8
0
100
AcDbBlockEnd
  0
BLOCK
  5
E00
330
DF6
100
AcDbEntity
  8
0
100
AcDbBlockBegin
  2
*D6
 70
     1
 10
0.0
 20
0.0
 30
0.0
  3
*D6
  1

  0
LINE
  5
235F
330
DF6
100
AcDbEntity
  8
AM_5
 62
     3
100
AcDbLine
 10
-73.60145643878322
 20
-4.900003493106804
 30
0.0
 11
-73.60145643878322
 21
-17.32532112985255
 31
0.0
  0
LINE
  5
2360
330
DF6
100
AcDbEntity
  8
AM_5
 62
     3
100
AcDbLine
 10
-1.601456438783182
 20
-4.799963239154761
 30
0.0
 11
-1.601456438783183
 21
-17.32532112985255
 31
0.0
  0
LINE
  5
2361
330
DF6
100
AcDbEntity
  8
AM_5
 62
     3
100
AcDbLine
 10
-72.35145643878322
 20
-16.82532112985255
 30
0.0
 11
-2.851456438783183
 21
-16.82532112985255
 31
0.0
  0
INSERT
  5
2362
330
DF6
100
AcDbEntity
  8
AM_5
 62
     3
100
AcDbBlockReference
  2
_OPEN30
 10
-73.60145643878322
 20
-16.82532112985255
 30
0.0
 41
1.25
 42
1.25
 43
1.25
 50
180.0
  0
INSERT
  5
2363
330
DF6
100
AcDbEntity
  8
AM_5
 62
     3
100
AcDbBlockReference
  2
_OPEN30
 10
-1.601456438783183
 20
-16.82532112985255
 30
0.0
 41
1.25
 42
1.25
 43
1.25
  0
MTEXT
  5
2364
330
DF6
100
AcDbEntity
  8
AM_5
 62
     2
100
AcDbMText
 10
-37.6014564387832
 20
-15.12532112985255
 30
0.0
 40
1.9
 41
0.0
 71
     5
 72
     1
  1
72
1001
ACAD
1000
MTEXTBEGIN
1070
    73
1070
     1
1070
    44
1040
1.0
1070
    74
1070
     0
1000
MTEXTEND
  0
POINT
  5
2365
330
DF6
100
AcDbEntity
  8
DEFPOINTS
 62
     0
100
AcDbPoint
 10
-73.60145643878322
 20
-4.500003493106803
 30
0.0
  0
POINT
  5
2366
330
DF6
100
AcDbEntity
  8
DEFPOINTS
 62
     0
100
AcDbPoint
 10
-1.601456438783182
 20
-4.399963239154761
 30
0.0
  0
POINT
  5
2367
330
DF6
100
AcDbEntity
  8
DEFPOINTS
 62
     0
100
AcDbPoint
 10
-1.601456438783183
 20
-16.82532112985255
 30
0.0
  0
ENDBLK
  5
E01
330
DF6
100
AcDbEntity
  8
0
100
AcDbBlockEnd
  0
BLOCK
  5
11C1
330
11B3
100
AcDbEntity
  8
0
100
AcDbBlockBegin
  2
*D7
 70
     1
 10
0.0
 20
0.0
 30
0.0
  3
*D7
  1

  0
LINE
  5
226F
330
11B3
100
AcDbEntity
  8
AM_5
100
AcDbLine
 10
0.1710037125789119
 20
-0.469849489763827
 30
0.0
 11
8.126192243195495
 21
-22.32655052675345
 31
0.0
  0
LINE
  5
2270
330
11B3
100
AcDbEntity
  8
AM_5
100
AcDbLine
 10
0.1710026646489373
 20
0.4698467864856566
 30
0.0
 11
8.126207701700666
 21
22.32654608839259
 31
0.0
  0
ARC
  5
2271
330
11B3
100
AcDbEntity
  8
AM_5
100
AcDbCircle
 10
-0.0000077310723222
 20
0.0000005940404499
 30
0.0
 40
23.25941941570151
100
AcDbArc
 50
293.0795412857039
 51
66.92041904371688
  0
INSERT
  5
2272
330
11B3
100
AcDbEntity
  8
AM_5
100
AcDbBlockReference
  2
_OPEN30
 10
7.955182172787428
 20
-21.8567042159038
 30
0.0
 41
1.25
 42
1.25
 43
1.25
 50
201.5397705663451
  0
INSERT
  5
2273
330
11B3
100
AcDbEntity
  8
AM_5
100
AcDbBlockReference
  2
_OPEN30
 10
7.955197305979405
 20
21.85669989594738
 30
0.0
 41
1.25
 42
1.25
 43
1.25
 50
158.4601897630756
  0
MTEXT
  5
2274
330
11B3
100
AcDbEntity
  8
AM_5
 62
     2
100
AcDbMText
 10
21.70941168462779
 20
-0.0000074581638121
 30
0.0
 40
1.6
 41
0.0
 71
     5
 72
     1
  1
140°
  7
ASAMI
 11
0.0000000000000001
 21
1.0
 31
0.0
1001
ACAD
1000
MTEXTBEGIN
1070
    73
1070
     1
1070
    44
1040
1.0
1070
    74
1070
     0
1000
MTEXTEND
  0
POINT
  5
2275
330
11B3
100
AcDbEntity
  8
DEFPOINTS
 62
     0
100
AcDbPoint
 10
21.35717005732554
 20
9.212576155211028
 30
0.0
  0
POINT
  5
2276
330
11B3
100
AcDbEntity
  8
DEFPOINTS
 62
     0
100
AcDbPoint
 10
-0.0000079472858279
 20
0.0
 30
0.0
  0
POINT
  5
2277
330
11B3
100
AcDbEntity
  8
DEFPOINTS
 62
     0
100
AcDbPoint
 10
-0.000006357829155
 20
-0.0000031789141749
 30
0.0
  0
POINT
  5
2278
330
11B3
100
AcDbEntity
  8
DEFPOINTS
 62
     0
100
AcDbPoint
 10
-0.6672795613608193
 20
1.833314895630001
 30
0.0
  0
POINT
  5
2279
330
11B3
100
AcDbEntity
  8
DEFPOINTS
 62
     0
100
AcDbPoint
 10
-0.667290687560822
 20
-1.83334032694501
 30
0.0
  0
ENDBLK
  5
11C2
330
11B3
100
AcDbEntity
  8
0
100
AcDbBlockEnd
  0
BLOCK
  5
1EF6
330
1EEC
100
AcDbEntity
  8
0
100
AcDbBlockBegin
  2
*D8
 70
     1
 10
0.0
 20
0.0
 30
0.0
  3
*D8
  1

  0
LINE
  5
22B3
330
1EEC
100
AcDbEntity
  8
AM_5
 62
     3
100
AcDbLine
 10
-128.7067837906748
 20
-4.500010721489898
 30
0.0
 11
-143.1014574387831
 21
-4.500010721489926
 31
0.0
  0
LINE
  5
22B4
330
1EEC
100
AcDbEntity
  8
AM_5
 62
     3
100
AcDbLine
 10
-128.7067837906748
 20
4.499977837575107
 30
0.0
 11
-143.1014574387831
 21
4.499977837575079
 31
0.0
  0
LINE
  5
22B5
330
1EEC
100
AcDbEntity
  8
AM_5
 62
     3
100
AcDbLine
 10
-142.6014574387831
 20
-3.250010721489925
 30
0.0
 11
-142.6014574387831
 21
3.24997783757508
 31
0.0
  0
INSERT
  5
22B6
330
1EEC
100
AcDbEntity
  8
AM_5
 62
     3
100
AcDbBlockReference
  2
_OPEN30
 10
-142.6014574387831
 20
-4.500010721489925
 30
0.0
 41
1.25
 42
1.25
 43
1.25
 50
270.0000000000001
  0
INSERT
  5
22B7
330
1EEC
100
AcDbEntity
  8
AM_5
 62
     3
100
AcDbBlockReference
  2
_OPEN30
 10
-142.6014574387831
 20
4.49997783757508
 30
0.0
 41
1.25
 42
1.25
 43
1.25
 50
90.0000000000001
  0
MTEXT
  5
22B8
330
1EEC
100
AcDbEntity
  8
AM_5
 62
     2
100
AcDbMText
 10
-144.3014574387831
 20
-0.0000164419574199
 30
0.0
 40
1.9
 41
0.0
 71
     5
 72
     1
  1
%%c9
 11
-0.000000000000002
 21
1.0
 31
0.0
1001
ACAD
1000
MTEXTBEGIN
1070
    73
1070
     1
1070
    44
1040
1.0
1070
    74
1070
     0
1000
MTEXTEND
  0
POINT
  5
22B9
330
1EEC
100
AcDbEntity
  8
DEFPOINTS
 62
     0
100
AcDbPoint
 10
-128.3067837906748
 20
-4.500010721489612
 30
0.0
  0
POINT
  5
22BA
330
1EEC
100
AcDbEntity
  8
DEFPOINTS
 62
     0
100
AcDbPoint
 10
-128.3067837906748
 20
4.499977837575393
 30
0.0
  0
POINT
  5
22BB
330
1EEC
100
AcDbEntity
  8
DEFPOINTS
 62
     0
100
AcDbPoint
 10
-142.6014574387831
 20
4.499977837575397
 30
0.0
  0
ENDBLK
  5
1EF7
330
1EEC
100
AcDbEntity
  8
0
100
AcDbBlockEnd
  0
BLOCK
  5
2136
330
212A
100
AcDbEntity
  8
0
100
AcDbBlockBegin
  2
*D9
 70
     1
 10
0.0
 20
0.0
 30
0.0
  3
*D9
  1

  0
LINE
  5
2264
330
212A
100
AcDbEntity
  8
AM_5
 62
     3
100
AcDbLine
 10
-1.419859149523746
 20
-4.399997259876304
 30
0.0
 11
13.76288637704794
 21
-4.399997259876307
 31
0.0
  0
LINE
  5
2265
330
212A
100
AcDbEntity
  8
AM_5
 62
     3
100
AcDbLine
 10
-1.419858551025789
 20
4.399993703795526
 30
0.0
 11
13.76288637704795
 21
4.399993703795522
 31
0.0
  0
LINE
  5
2266
330
212A
100
AcDbEntity
  8
AM_5
 62
     3
100
AcDbLine
 10
13.26288637704794
 20
-5.649997259876307
 30
0.0
 11
13.26288637704794
 21
-6.899997259876307
 31
0.0
  0
LINE
  5
2267
330
212A
100
AcDbEntity
  8
AM_5
 62
     3
100
AcDbLine
 10
13.26288637704795
 20
5.649993703795522
 30
0.0
 11
13.26288637704795
 21
6.899993703795522
 31
0.0
  0
LINE
  5
2268
330
212A
100
AcDbEntity
  8
AM_5
 62
     3
100
AcDbLine
 10
13.26288637704794
 20
-4.399997259876307
 30
0.0
 11
13.26288637704795
 21
4.399993703795522
 31
0.0
  0
INSERT
  5
2269
330
212A
100
AcDbEntity
  8
AM_5
 62
     3
100
AcDbBlockReference
  2
_OPEN30
 10
13.26288637704794
 20
-4.399997259876307
 30
0.0
 41
1.25
 42
1.25
 43
1.25
 50
90.0
  0
INSERT
  5
226A
330
212A
100
AcDbEntity
  8
AM_5
 62
     3
100
AcDbBlockReference
  2
_OPEN30
 10
13.26288637704795
 20
4.399993703795522
 30
0.0
 41
1.25
 42
1.25
 43
1.25
 50
270.0
  0
MTEXT
  5
226B
330
212A
100
AcDbEntity
  8
AM_5
 62
     2
100
AcDbMText
 10
11.56288637704794
 20
-0.0000017780403925
 30
0.0
 40
1.9
 41
0.0
 71
     5
 72
     1
  1
%%c8.8
 11
0.0000000000000001
 21
1.0
 31
0.0
1001
ACAD
1000
MTEXTBEGIN
1070
    73
1070
     1
1070
    44
1040
1.0
1070
    74
1070
     0
1000
MTEXTEND
  0
POINT
  5
226C
330
212A
100
AcDbEntity
  8
DEFPOINTS
 62
     0
100
AcDbPoint
 10
-1.819859149523746
 20
-4.399997259876304
 30
0.0
  0
POINT
  5
226D
330
212A
100
AcDbEntity
  8
DEFPOINTS
 62
     0
100
AcDbPoint
 10
-1.819858551025789
 20
4.399993703795526
 30
0.0
  0
POINT
  5
226E
330
212A
100
AcDbEntity
  8
DEFPOINTS
 62
     0
100
AcDbPoint
 10
13.26288637704795
 20
4.399993703795522
 30
0.0
  0
ENDBLK
  5
2137
330
212A
100
AcDbEntity
  8
0
100
AcDbBlockEnd
  0
ENDSEC
  0
SECTION
  2
ENTITIES
  0
LINE
  5
C9F
330
1F
100
AcDbEntity
  8
AM_7
100
AcDbLine
 10
-131.31986172994
 20
-0.0000031789142055
 30
0.0
 11
2.500000154165912
 21
-0.0000031789141512
 31
0.0
1001
GENIUS_GENODEF_13
1002
{
1000
HIER
1070
     0
1002
}
1002
{
1000
MANEDIT
1070
     0
1002
}
1002
{
1000
NOSEL
1070
     0
1002
}
1002
{
1000
BEHIND
1070
     0
1002
}
1002
{
1000
REACTOR
1002
}
1001
GENIUS_GENOBJ-N-CEN_13
1002
{
1000
OWNER
1000
GEN
1002
}
  0
DIMENSION
  5
CC6
330
1F
100
AcDbEntity
  8
AM_5
100
AcDbDimension
  2
*D5
 10
-1.601456438783184
 20
-25.34394100445689
 30
0.0
 11
-65.10143736529986
 21
-23.64394100445689
 31
0.0
 70
    32
  1
<>
  3
AM_JIS$0
100
AcDbAlignedDimension
 13
-128.6014182918165
 23
-4.234845392509863
 33
0.0
 14
-1.601456438783182
 24
-4.399963239154761
 34
0.0
 50
0.0000000000001132
100
AcDbRotatedDimension
1001
GENIUS_GENDTOL_13
1000

1000
h7
1000

1040
0.0
1001
ACAD
1000
DSTYLE
1002
{
1070
   271
1070
     0
1002
}
  0
DIMENSION
  5
DF5
330
1F
100
AcDbEntity
  8
AM_5
100
AcDbDimension
  2
*D6
 10
-1.601456438783183
 20
-16.82532112985255
 30
0.0
 11
-37.6014564387832
 21
-15.12532112985255
 31
0.0
 70
    32
  1
<>
  3
AM_JIS$0
100
AcDbAlignedDimension
 13
-73.60145643878322
 23
-4.500003493106803
 33
0.0
 14
-1.601456438783182
 24
-4.399963239154761
 34
0.0
 50
0.0000000000001527
100
AcDbRotatedDimension
1001
GENIUS_GENDTOL_13
1000

1000
h7
1000

1040
0.0
1001
ACAD
1000
DSTYLE
1002
{
1070
   271
1070
     0
1002
}
  0
DIMENSION
  5
11B2
330
1F
100
AcDbEntity
  8
AM_5
100
AcDbDimension
  2
*D7
 10
-0.667290687560822
 20
-1.83334032694501
 30
0.0
 11
21.70941168462779
 21
-0.0000074581638156
 31
0.0
 70
    34
  1
<>
  3
AM_JIS$2
100
AcDb2LineAngularDimension
 13
-0.000006357829155
 23
-0.0000031789141749
 33
0.0
 14
-0.6672795613608193
 24
1.833314895630001
 34
0.0
 15
-0.0000079472858279
 25
0.0
 35
0.0
 16
21.35717005732554
 26
9.212576155211028
 36
0.0
1001
ACAD
1000
DSTYLE
1002
{
1070
   179
1070
     3
1002
}
1001
GENIUS_GENDTOL_13
1000

1000
h7
1000

1040
0.0
  0
TEXT
  5
19BD
330
1F
100
AcDbEntity
  8
AM_6
100
AcDbText
 10
-78.0776278414903
 20
-36.59394100445693
 30
0.0
 40
2.5
  1
MDW0880LDLH
 50
0.0000000000001527
 72
     4
 11
-65.10143736529983
 21
-35.34394100445689
 31
0.0
100
AcDbText
  0
LINE
  5
1C24
330
1F
100
AcDbEntity
  8
AM_0
 48
0.5
100
AcDbLine
 10
-128.6014182918165
 20
4.234812508596392
 30
0.0
 11
-128.3067837906748
 21
4.499977837575393
 31
0.0
  0
LINE
  5
1C25
330
1F
100
AcDbEntity
  8
AM_0
 48
0.5
100
AcDbLine
 10
-128.6014182918165
 20
-4.234845392509863
 30
0.0
 11
-128.3067837906748
 21
-4.500010721489612
 31
0.0
  0
LINE
  5
1C26
330
1F
100
AcDbEntity
  8
AM_0
 48
0.5
100
AcDbLine
 10
-128.3068346533081
 20
-4.500033609673121
 30
0.0
 11
-128.3068346533081
 21
4.500026474965892
 31
0.0
  0
LINE
  5
1C27
330
1F
100
AcDbEntity
  8
AM_0
 48
0.5
100
AcDbLine
 10
-128.6014564387831
 20
-4.23486828069335
 30
0.0
 11
-128.6014564387831
 21
4.234861145986145
 31
0.0
  0
LINE
  5
1C28
330
1F
100
AcDbEntity
  8
AM_0
100
AcDbLine
 10
-80.0877984364833
 20
4.499996432646244
 30
0.0
 11
-128.3068346532821
 21
4.500012098883073
 31
0.0
  0
LINE
  5
1C2B
330
1F
100
AcDbEntity
  8
AM_0
 48
0.5
100
AcDbLine
 10
-73.60145643878322
 20
-4.500003493106854
 30
0.0
 11
-128.3067837906709
 21
-4.500022091304074
 31
0.0
  0
LINE
  5
1C2C
330
1F
100
AcDbEntity
  8
AM_0
 48
0.5
100
AcDbLine
 10
-73.81984901428257
 20
4.501275045979362
 30
0.0
 11
-128.3068346552738
 21
4.500017212330174
 31
0.0
  0
LINE
  5
1C2D
330
1F
100
AcDbEntity
  8
AM_0
 48
0.5
100
AcDbLine
 10
-73.60145643878211
 20
4.501280087578323
 30
0.0
 11
-128.3067837915838
 21
4.500017213504364
 31
0.0
  0
LINE
  5
1DF0
330
1F
100
AcDbEntity
  8
AM_11
 48
0.3
100
AcDbLine
 10
-73.40948501301034
 20
-4.400559548096227
 30
0.0
 11
-60.39847627462644
 21
-4.399378398908039
 31
0.0
  0
DIMENSION
  5
1EEB
330
1F
100
AcDbEntity
  8
AM_5
100
AcDbDimension
  2
*D8
 10
-142.6014574387831
 20
4.499977837575397
 30
0.0
 11
-144.3014574387831
 21
-0.0000164419571282
 31
0.0
 70
    32
  1
%%c<>
 51
359.9999999999998
  3
AM_JIS$0
100
AcDbAlignedDimension
 13
-128.3067837906748
 23
-4.500010721489612
 33
0.0
 14
-128.3067837906748
 24
4.499977837575393
 34
0.0
 50
270.0000000000002
100
AcDbRotatedDimension
1001
ACAD
1000
DSTYLE
1002
{
1070
   271
1070
     0
1002
}
1001
GENIUS_GENDTOL_13
1000

1000
h7
1000

1040
0.0
  0
DIMENSION
  5
2129
330
1F
100
AcDbEntity
  8
AM_5
100
AcDbDimension
  2
*D9
 10
13.26288637704795
 20
4.399993703795522
 30
0.0
 11
13.26288637704794
 21
-0.0000017780403927
 31
0.0
 70
   160
  1
%%c<>
  3
AM_JIS$0
100
AcDbAlignedDimension
 13
-1.819859149523746
 23
-4.399997259876304
 33
0.0
 14
-1.819858551025789
 24
4.399993703795526
 34
0.0
 50
89.99999999999978
100
AcDbRotatedDimension
1001
ACAD
1000
DSTYLE
1002
{
1070
   271
1070
     1
1002
}
1001
GENIUS_GENDTOL_13
1000

1000
h7
1000

1040
0.0
  0
LINE
  5
213A
330
1F
100
AcDbEntity
  8
AM_0
 48
0.5
100
AcDbLine
 10
0.0
 20
-0.0000007013155382
 30
0.0
 11
-2.457288106282493
 21
1.689462850523543
 31
0.0
  0
LINE
  5
213B
330
1F
100
AcDbEntity
  8
AM_0
 48
0.5
100
AcDbLine
 10
-4.518187840779973
 20
4.399996501240014
 30
0.0
 11
-1.601468012584792
 21
4.399996501239996
 31
0.0
  0
LINE
  5
213C
330
1F
100
AcDbEntity
  8
AM_0
 48
0.5
100
AcDbLine
 10
-1.601471092081134
 20
-4.400003498760003
 30
0.0
 11
-4.518187840780028
 21
-4.400003498759985
 31
0.0
  0
LINE
  5
213D
330
1F
100
AcDbEntity
  8
AM_0
 48
0.5
100
AcDbLine
 10
-34.51776695367211
 20
-4.400003498759908
 30
0.0
 11
-20.39228757222501
 21
-4.400003498759899
 31
0.0
  0
LINE
  5
213E
330
1F
100
AcDbEntity
  8
AM_11
 48
0.5
100
AcDbLine
 10
-20.39228757222495
 20
4.399996501240102
 30
0.0
 11
-4.518187840779973
 21
4.399996501240014
 31
0.0
  0
LINE
  5
213F
330
1F
100
AcDbEntity
  8
AM_11
 48
0.5
100
AcDbLine
 10
-20.39228757222501
 20
-4.400003498759899
 30
0.0
 11
-4.518187840780028
 21
-4.400003498759987
 31
0.0
  0
LINE
  5
2140
330
1F
100
AcDbEntity
  8
AM_11
 48
0.3
100
AcDbLine
 10
-48.33425282092772
 20
4.40062160109198
 30
0.0
 11
-38.20401096050292
 21
4.399996501240203
 31
0.0
  0
LINE
  5
2144
330
1F
100
AcDbEntity
  8
AM_0
 48
0.5
100
AcDbLine
 10
-60.39847627462644
 20
-4.399378398908039
 30
0.0
 11
-48.33425282092776
 21
-4.399378398908019
 31
0.0
  0
LINE
  5
2145
330
1F
100
AcDbEntity
  8
AM_0
 48
0.5
100
AcDbLine
 10
-66.14598988147439
 20
4.400621601092079
 30
0.0
 11
-48.33425282092772
 21
4.40062160109198
 31
0.0
  0
LINE
  5
2146
330
1F
100
AcDbEntity
  8
AM_11
 48
0.5
100
AcDbLine
 10
-48.33425282092769
 20
-4.400003498759827
 30
0.0
 11
-34.51776695367211
 21
-4.400628598611616
 31
0.0
  0
LINE
  5
2147
330
1F
100
AcDbEntity
  8
AM_0
 48
0.5
100
AcDbLine
 10
-38.20402463277165
 20
4.399996501240203
 30
0.0
 11
-20.39228757222495
 21
4.399996501240102
 31
0.0
  0
ELLIPSE
  5
2148
330
1F
100
AcDbEntity
  8
AM_0
 48
0.5
100
AcDbEllipse
 10
-8.655252456664936
 20
7.384791626565226
 30
0.0
 11
-12.05552975336644
 21
0.0000000000015506
 31
0.0
210
0.0
220
0.0
230
1.0
 40
0.8800000000000048
 41
2.243923664093122
 42
2.371646881103627
  0
SPLINE
  5
214A
330
1F
100
AcDbEntity
  8
AM_0
100
AcDbSpline
210
0.0
220
0.0
230
1.0
 70
     8
 71
     3
 72
    55
 73
    51
 74
     0
 42
0.0000000001
 43
0.0000000001
 40
0.0
 40
0.0
 40
0.0
 40
0.0
 40
1.010743684496582
 40
2.022833576467832
 40
3.037578957496688
 40
4.056212745003489
 40
5.079857003664532
 40
6.109500240690281
 40
7.145961322679372
 40
8.189895241603872
 40
9.241717795325891
 40
10.30168407291828
 40
11.36983447792315
 40
12.44600489715814
 40
13.52984294512926
 40
14.62081576220742
 40
15.7182257034828
 40
16.82123173843959
 40
17.92886860250316
 40
19.0400688939571
 40
20.15368796660465
 40
21.26852814259644
 40
22.38336992938901
 40
23.49698739941135
 40
24.6081876908653
 40
25.71582455492886
 40
26.81883757994213
 40
27.91624752121713
 40
29.00722033829659
 40
30.09105838626677
 40
31.16722880550176
 40
32.23537921050758
 40
33.29534548809967
 40
34.347168041821
 40
35.39108718934584
 40
36.42754827133493
 40
37.45720575381954
 40
38.48085062012849
 40
39.49948440763516
 40
40.51422944315121
 40
41.52631975251916
 40
42.53706336719636
 40
43.54780698187354
 40
44.55989729124051
 40
45.57464232675757
 40
46.59327611426424
 40
47.6169209805722
 40
48.64656348684535
 40
49.68302456883444
 40
50.58557219878025
 40
50.58557219878025
 40
50.58557219878025
 40
50.58557219878025
 10
-32.46015308948278
 20
-4.399378398908111
 30
0.0
 10
-32.74093076298616
 20
-4.396760505504625
 30
0.0
 10
-33.30286007720991
 20
-4.391521231930723
 30
0.0
 10
-34.14554955175725
 20
-4.349286805102227
 30
0.0
 10
-34.98820305506823
 20
-4.282145099308091
 30
0.0
 10
-35.8308044064003
 20
-4.188043445046268
 30
0.0
 10
-36.67334519791834
 20
-4.068257100149239
 30
0.0
 10
-37.51580880817635
 20
-3.923318735403509
 30
0.0
 10
-38.35819805517773
 20
-3.754204707294411
 30
0.0
 10
-39.2005054686323
 20
-3.561950589215237
 30
0.0
 10
-40.04272531089148
 20
-3.347736809788092
 30
0.0
 10
-40.88486177995556
 20
-3.112907966762884
 30
0.0
 10
-41.72691713123395
 20
-2.858901228757731
 30
0.0
 10
-42.56890188553378
 20
-2.587297852238826
 30
0.0
 10
-43.41081989777489
 20
-2.299766898147623
 30
0.0
 10
-44.25267897484233
 20
-1.998081598315362
 30
0.0
 10
-45.09448845306716
 20
-1.684103110120591
 30
0.0
 10
-45.93625572061884
 20
-1.359762252711569
 30
0.0
 10
-46.77798894694463
 20
-1.02705384853307
 30
0.0
 10
-47.6196971389477
 20
-0.6880256782850779
 30
0.0
 10
-48.46138767921015
 20
-0.3447619478299095
 30
0.0
 10
-49.30307245370615
 20
0.0006207033321519
 30
0.0
 10
-50.14475344974176
 20
0.3460095715971793
 30
0.0
 10
-50.98644681116744
 20
0.6892679565281112
 30
0.0
 10
-51.82815396407047
 20
1.028297152995072
 30
0.0
 10
-52.66988869119727
 20
1.361006824644297
 30
0.0
 10
-53.51165945080337
 20
1.685344914071488
 30
0.0
 10
-54.35347025762596
 20
1.999324994574058
 30
0.0
 10
-55.19532945622985
 20
2.301010049770645
 30
0.0
 10
-56.03724743783626
 20
2.588541064328526
 30
0.0
 10
-56.87923219429208
 20
2.860144441244733
 30
0.0
 10
-57.72128756701828
 20
3.114151118513045
 30
0.0
 10
-58.56342394916468
 20
3.348980201320106
 30
0.0
 10
-59.40564017187235
 20
3.563192089242324
 30
0.0
 10
-60.24794237662846
 20
3.755448725370782
 30
0.0
 10
-61.09033131114714
 20
3.924566154150233
 30
0.0
 10
-61.93280093687769
 20
4.069487964922752
 30
0.0
 10
-62.77534451191243
 20
4.18931138622577
 30
0.0
 10
-63.61794611302922
 20
4.283301495122414
 30
0.0
 10
-64.46060020184146
 20
4.350850928037238
 30
0.0
 10
-65.30328896188854
 20
4.391554454681355
 30
0.0
 10
-66.14599623951008
 20
4.405152156092078
 30
0.0
 10
-66.98870351589168
 20
4.391554454660043
 30
0.0
 10
-67.83139227966576
 20
4.350850928122775
 30
0.0
 10
-68.67404635475627
 20
4.283301494800091
 30
0.0
 10
-69.51664800731923
 20
4.189311387437012
 30
0.0
 10
-70.35918728138781
 20
4.069488544526689
 30
0.0
 10
-71.20165358810869
 20
3.92456763589744
 30
0.0
 10
-72.0057409259039
 20
3.763125585948409
 30
0.0
 10
-72.52744194787235
 20
3.645061488600249
 30
0.0
 10
-72.65750691119001
 20
3.613943834248035
 30
0.0
  0
SPLINE
  5
214B
330
1F
100
AcDbEntity
  8
AM_0
100
AcDbSpline
210
0.0
220
0.0
230
1.0
 70
     8
 71
     3
 72
    46
 73
    42
 74
     0
 42
0.0000000001
 43
0.0000000001
 40
0.0
 40
0.0
 40
0.0
 40
0.0
 40
1.685415058684573
 40
2.531036209541122
 40
3.379897699130124
 40
4.232934581347659
 40
5.09097061220244
 40
5.954688180526682
 40
6.824620803463244
 40
7.701151815239691
 40
8.584457046566678
 40
9.474582384070743
 40
10.37139106676737
 40
11.27458944007584
 40
12.18373345430765
 40
13.09824173870457
 40
14.01741343450111
 40
14.9404441545541
 40
15.86644439743314
 40
16.79446029130534
 40
17.7234937712985
 40
18.65252725129241
 40
19.58054314516461
 40
20.5065433880429
 40
21.42957410809587
 40
22.34874580389318
 40
23.26325408828902
 40
24.17239810252112
 40
25.07560240389442
 40
25.97241108659103
 40
26.8625364240951
 40
27.74584165542184
 40
28.62236045019042
 40
29.49229307312698
 40
30.35601064145123
 40
31.2140460633447
 40
32.06708345193549
 40
32.9159575565769
 40
33.76157841950695
 40
34.60498701064691
 40
35.44727335621126
 40
35.44727335621126
 40
35.44727335621126
 40
35.44727335621126
 10
-30.10119516305028
 20
-4.399378398908124
 30
0.0
 10
-30.6631519322448
 20
-4.389354858784098
 30
0.0
 10
-31.50705855554161
 20
-4.374302220639582
 30
0.0
 10
-32.62923799381934
 20
-4.281625892900549
 30
0.0
 10
-33.4718483980287
 20
-4.188183501543591
 30
0.0
 10
-34.31438677910719
 20
-4.068219343715603
 30
0.0
 10
-35.15685091752024
 20
-3.923328626275319
 30
0.0
 10
-35.99923648536434
 20
-3.754204050287499
 30
0.0
 10
-36.84154207177026
 20
-3.561947355005053
 30
0.0
 10
-37.68376392818062
 20
-3.34773902499712
 30
0.0
 10
-38.52590373799491
 20
-3.112907659764167
 30
0.0
 10
-39.36795923611311
 20
-2.858901311960381
 30
0.0
 10
-40.2099439506073
 20
-2.587297829677452
 30
0.0
 10
-41.05186197369152
 20
-2.299766904348309
 30
0.0
 10
-41.89372104758723
 20
-1.998081596283621
 30
0.0
 10
-42.73553052756353
 20
-1.684103112005228
 30
0.0
 10
-43.57729779128144
 20
-1.359762247182764
 30
0.0
 10
-44.41903103126019
 20
-1.027053868868047
 30
0.0
 10
-45.26073917227175
 20
-0.6880256021759657
 30
0.0
 10
-46.10242990337489
 20
-0.3447622326307114
 30
0.0
 10
-46.94411355907715
 20
0.0006216010220892
 30
0.0
 10
-47.78579721459448
 20
0.3460054350945944
 30
0.0
 10
-48.62748794625227
 20
0.6892688033813342
 30
0.0
 10
-49.46919608523657
 20
1.02829707467274
 30
0.0
 10
-50.31092933273248
 20
1.361005435930224
 30
0.0
 10
-51.15269656857746
 20
1.685346363999187
 30
0.0
 10
-51.99450615177672
 20
1.999324614053532
 30
0.0
 10
-52.83636667401793
 20
2.301011444366142
 30
0.0
 10
-53.67828796838943
 20
2.588539757331074
 30
0.0
 10
-54.52027418485531
 20
2.860144632303647
 30
0.0
 10
-55.36232966336807
 20
3.114151055687838
 30
0.0
 10
-56.2044660137677
 20
3.348980263021227
 30
0.0
 10
-57.04668225862701
 20
3.563191906650573
 30
0.0
 10
-57.88898440679801
 20
3.755449387322658
 30
0.0
 10
-58.73136948711363
 20
3.924562898292827
 30
0.0
 10
-59.57383424316979
 20
4.069495639750748
 30
0.0
 10
-60.41637800139327
 20
4.189288487223091
 30
0.0
 10
-61.25898406384481
 20
4.283388695607674
 30
0.0
 10
-62.10164225792341
 20
4.350524239338214
 30
0.0
 10
-62.94433103986762
 20
4.392770063168729
 30
0.0
 10
-63.50626058942149
 20
4.398005583627502
 30
0.0
 10
-63.78703831287108
 20
4.400621601092066
 30
0.0
  0
SPLINE
  5
214C
330
1F
100
AcDbEntity
  8
AM_0
100
AcDbSpline
210
0.0
220
0.0
230
1.0
 70
     8
 71
     3
 72
    17
 73
    13
 74
     0
 42
0.0000000001
 43
0.0000000001
 40
1.580019955310467
 40
1.580019955310467
 40
1.580019955310467
 40
1.580019955310467
 40
2.030549285115227
 40
3.082371838836284
 40
4.126290986361125
 40
5.162752068350215
 40
6.192395305374981
 40
7.216039564037012
 40
8.234688489606833
 40
9.249433870634691
 40
10.26152376260694
 40
11.27226744710342
 40
11.27226744710342
 40
11.27226744710342
 40
11.27226744710352
 10
-40.39658371133081
 20
-3.24670796390565
 30
0.0
 10
-40.51581020621332
 20
-3.280152760745394
 30
0.0
 10
-40.91406675471589
 20
-3.389772549578821
 30
0.0
 10
-41.59398944650069
 20
-3.561715110628155
 30
0.0
 10
-42.43617428428948
 20
-3.754267969262417
 30
0.0
 10
-43.27859097477562
 20
-3.923303813583462
 30
0.0
 10
-44.12104626450043
 20
-4.068254983234716
 30
0.0
 10
-44.96359333821919
 20
-4.188067096408033
 30
0.0
 10
-45.80619862109757
 20
-4.282056438203365
 30
0.0
 10
-46.64885637132585
 20
-4.349613926236658
 30
0.0
 10
-47.49154582799928
 20
-4.390304685111865
 30
0.0
 10
-48.05347515112861
 20
-4.399378424085055
 30
0.0
 10
-48.33425282092769
 20
-4.39937839890802
 30
0.0
  0
SPLINE
  5
214D
330
1F
100
AcDbEntity
  8
AM_0
100
AcDbSpline
210
0.0
220
0.0
230
1.0
 70
     8
 71
     3
 72
    22
 73
    18
 74
     0
 42
0.0000000001
 43
0.0000000001
 40
17.17441611292
 40
17.17441611292
 40
17.17441611292
 40
17.17441611292
 40
17.38177636558528
 40
18.41823744757437
 40
19.46215659509824
 40
20.51397914882054
 40
21.57394542641293
 40
22.64209583141747
 40
23.71826625065247
 40
24.80210429862395
 40
25.8930771157021
 40
26.99048705697709
 40
28.09349309193389
 40
29.20112995599786
 40
30.31233024745139
 40
31.42594771747373
 40
32.5407895042663
 40
32.54078950426994
 40
32.54078950426994
 40
32.54078950426994
 10
-51.55061186548966
 20
-3.95061024456386
 30
0.0
 10
-51.60703955284182
 20
-3.940424676123648
 30
0.0
 10
-51.9452927215631
 20
-3.878383265444239
 30
0.0
 10
-52.5649534661703
 20
-3.753982162162641
 30
0.0
 10
-53.40725555048205
 20
-3.561724973679347
 30
0.0
 10
-54.2494718059795
 20
-3.347513235737071
 30
0.0
 10
-55.0916081786622
 20
-3.112684111118509
 30
0.0
 10
-55.93366355612657
 20
-2.858677449556795
 30
0.0
 10
-56.77564830309787
 20
-2.587074051881934
 30
0.0
 10
-57.61756631820215
 20
-2.299543105187453
 30
0.0
 10
-58.45942539118309
 20
-1.997857797066742
 30
0.0
 10
-59.30123488297983
 20
-1.683879334780244
 30
0.0
 10
-60.14300209999086
 20
-1.359538381387503
 30
0.0
 10
-60.98473551596416
 20
-1.026830337240828
 30
0.0
 10
-61.82644259213384
 20
-0.6878009802078714
 30
0.0
 10
-62.66813579765822
 20
-0.3445423046696045
 30
0.0
 10
-63.22915445847677
 20
-0.1143259922326129
 30
0.0
 10
-63.50981790475126
 20
0.0008453966655439
 30
0.0
  0
SPLINE
  5
214E
330
1F
100
AcDbEntity
  8
AM_0
100
AcDbSpline
210
0.0
220
0.0
230
1.0
 70
     8
 71
     3
 72
    11
 73
     7
 74
     0
 42
0.0000000001
 43
0.0000000001
 40
11.27226913003534
 40
11.27226913003534
 40
11.27226913003534
 40
11.2722691300354
 40
12.28301561507924
 40
13.29510212255852
 40
14.30984805882082
 40
15.18258238371378
 40
15.18258238371378
 40
15.18258238371378
 40
15.18258238371378
 10
-48.33425282092774
 20
-4.39937839890802
 30
0.0
 10
-48.61396283579633
 20
-4.37784352027637
 30
0.0
 10
-49.17285527925674
 20
-4.325708516345329
 30
0.0
 10
-50.00830792806187
 20
-4.22053931785377
 30
0.0
 10
-50.80116722310209
 20
-4.094926241608486
 30
0.0
 10
-51.31394207522718
 20
-3.998363731413768
 30
0.0
 10
-51.55024332833698
 20
-3.950664518530214
 30
0.0
  0
SPLINE
  5
214F
330
1F
100
AcDbEntity
  8
AM_0
100
AcDbSpline
210
0.0
220
0.0
230
1.0
 70
     8
 71
     3
 72
    23
 73
    19
 74
     0
 42
0.0000000001
 43
0.0000000001
 40
16.03460024169435
 40
16.03460024169435
 40
16.03460024169435
 40
16.03460024169435
 40
16.35212704903564
 40
17.38177054169784
 40
18.41822485651776
 40
19.46214173629503
 40
20.51396345435107
 40
21.57393551351153
 40
22.64208202342361
 40
23.7182574881101
 40
24.80209208578934
 40
25.89306333925047
 40
26.99048218457928
 40
28.09348763352352
 40
29.20111863782268
 40
30.31232390128032
 40
31.42594612798585
 40
32.5407912310448
 40
32.5407912310486
 40
32.5407912310486
 40
32.5407912310486
 10
-48.33425282092772
 20
4.40062160109198
 30
0.0
 10
-48.24767683366427
 20
4.385767975930286
 30
0.0
 10
-47.88072975678335
 20
4.321084618995453
 30
0.0
 10
-47.23434852910837
 20
4.194347453006417
 30
0.0
 10
-46.39728314714179
 20
4.005890673164867
 30
0.0
 10
-45.56099527087485
 20
3.79428512196774
 30
0.0
 10
-44.72543548339
 20
3.560755464415283
 30
0.0
 10
-43.89057412918969
 20
3.306603633576388
 30
0.0
 10
-43.0563629552885
 20
3.0332824684953
 30
0.0
 10
-42.22274387039095
 20
2.742382629794064
 30
0.0
 10
-41.38966950526661
 20
2.435551466298711
 30
0.0
 10
-40.55707306932284
 20
2.114574357056354
 30
0.0
 10
-39.72488708992912
 20
1.78131695970354
 30
0.0
 10
-38.89305612090719
 20
1.437695364564593
 30
0.0
 10
-38.0615105639701
 20
1.085707684158185
 30
0.0
 10
-37.23017340038838
 20
0.7274092682996287
 30
0.0
 10
-36.3989769358494
 20
0.3648763592850362
 30
0.0
 10
-35.84499479887703
 20
0.1218178668853347
 30
0.0
 10
-35.56785265604476
 20
0.0002202968120865
 30
0.0
  0
ELLIPSE
  5
2150
330
1F
100
AcDbEntity
  8
AM_0
 48
0.5
100
AcDbEllipse
 10
-1.489712397257494
 20
-1.146706837383342
 30
0.0
 11
-0.1594334779842578
 21
0.7194195705350084
 31
0.0
210
0.0
220
0.0
230
0.9999999999999998
 40
0.5627298637470034
 41
1.769728362542712
 42
4.905070252254686
  0
ELLIPSE
  5
2151
330
1F
100
AcDbEntity
  8
AM_0
 48
0.5
100
AcDbEllipse
 10
-1.489712397257494
 20
-1.146706837383342
 30
0.0
 11
-0.7338565679322144
 21
0.3449301251665807
 31
0.0
210
0.0
220
0.0
230
1.0
 40
0.4647095443725334
 41
4.417849522235772
 42
7.56128986356528
  0
SPLINE
  5
2152
330
1F
100
AcDbEntity
  8
AM_0
 48
0.5
100
AcDbSpline
210
0.0
220
0.0
230
1.0
 70
     8
 71
     3
 72
    17
 73
    13
 74
     0
 42
0.0000000001
 43
0.0000000001
 40
0.0
 40
0.0
 40
0.0
 40
0.0
 40
1.010743614677189
 40
2.022833924044153
 40
3.037578959561199
 40
4.056212747067873
 40
5.079857613375832
 40
6.109500119648989
 40
7.14596120163808
 40
8.18989512056258
 40
9.241717674284874
 40
9.693948937866434
 40
9.693948937866434
 40
9.693948937866434
 40
9.693948937866434
 10
-4.518187840779973
 20
4.399996501240014
 30
0.0
 10
-4.798965565381528
 20
4.397380494417815
 30
0.0
 10
-5.360895117240617
 20
4.392144995257996
 30
0.0
 10
-6.203583881860786
 20
4.349899011382555
 30
0.0
 10
-7.04623795347366
 20
4.282764412017464
 30
0.0
 10
-7.888839619174511
 20
4.188662573076178
 30
0.0
 10
-8.731378843821623
 20
4.06886973149227
 30
0.0
 10
-9.573845336631238
 20
3.923941289751427
 30
0.0
 10
-10.41622779028711
 20
3.754810200162659
 30
0.0
 10
-11.25855889260987
 20
3.562615096779112
 30
0.0
 10
-11.93851052326432
 20
3.389476361139028
 30
0.0
 10
-12.33781798708288
 20
3.281239752924347
 30
0.0
 10
-12.45766866461094
 20
3.24810925171749
 30
0.0
  0
SPLINE
  5
2153
330
1F
100
AcDbEntity
  8
AM_0
 48
0.5
100
AcDbSpline
210
0.0
220
0.0
230
1.0
 70
     8
 71
     3
 72
    16
 73
    12
 74
     0
 42
0.0000000001
 43
0.0000000001
 40
0.0
 40
0.0
 40
0.0
 40
0.0
 40
1.010743614677189
 40
2.022833924044153
 40
3.037578959561199
 40
4.056212747067873
 40
5.079857613375832
 40
6.109500119648989
 40
7.14596120163808
 40
8.18989512056258
 40
8.545190612624931
 40
8.545190612624931
 40
8.545190612624931
 40
8.545190612624931
 10
-4.518187840779973
 20
4.399996501240014
 30
0.0
 10
-4.798949955968056
 20
4.399970060983251
 30
0.0
 10
-5.360902372962946
 20
4.390941645997684
 30
0.0
 10
-6.203581924290893
 20
4.350222509009353
 30
0.0
 10
-7.046238506609769
 20
4.282677344573593
 30
0.0
 10
-7.888839372750853
 20
4.188685822546939
 30
0.0
 10
-8.731379275965876
 20
4.068864355812479
 30
0.0
 10
-9.573843842909541
 20
3.923939331180037
 30
0.0
 10
-10.4162333857513
 20
3.754823597759478
 30
0.0
 10
-11.07123029882454
 20
3.605316896379
 30
0.0
 10
-11.44561314230612
 20
3.513366573259074
 30
0.0
 10
-11.54055454052475
 20
3.489638125002296
 30
0.0
  0
SPLINE
  5
2154
330
1F
100
AcDbEntity
  8
AM_0
 48
0.5
100
AcDbSpline
210
0.0
220
0.0
230
1.0
 70
     8
 71
     3
 72
    25
 73
    21
 74
     0
 42
0.0000000001
 43
0.0000000001
 40
6.846175049578289
 40
6.846175049578289
 40
6.846175049578289
 40
6.846175049578289
 40
7.604337694224321
 40
8.711974558287883
 40
9.814980593243754
 40
10.91239053451967
 40
12.0033633515982
 40
13.08720139956839
 40
14.16337181880432
 40
15.23152222380919
 40
16.29148850140128
 40
17.34331105512262
 40
18.38723020264746
 40
19.42369128463655
 40
20.45333379090873
 40
21.47697865721768
 40
22.49561244472435
 40
23.5103574802404
 40
24.52244778960836
 40
25.53320666051913
 40
25.53320666051913
 40
25.53320666051913
 40
25.53320666051913
 10
-5.50097586824198
 20
0.7964253073837081
 30
0.0
 10
-5.692406070661722
 20
0.873681482012518
 30
0.0
 10
-6.16390888591465
 20
1.06303189524658
 30
0.0
 10
-6.916185017325338
 20
1.360380206905688
 30
0.0
 10
-7.757952188333034
 20
1.684721251948118
 30
0.0
 10
-8.599761692358462
 20
1.998699689829802
 30
0.0
 10
-9.44162076211411
 20
2.300385004544316
 30
0.0
 10
-10.28353877798758
 20
2.587915949082194
 30
0.0
 10
-11.12552352507599
 20
2.859519348828995
 30
0.0
 10
-11.96757890132529
 20
3.113526004304006
 30
0.0
 10
-12.8097152786975
 20
3.348355150969774
 30
0.0
 10
-13.65193151683947
 20
3.562566807676067
 30
0.0
 10
-14.4942336652137
 20
3.754824295927886
 30
0.0
 10
-15.33661875129716
 20
3.923937764105661
 30
0.0
 10
-16.17908348430799
 20
4.068870667644483
 30
0.0
 10
-17.02162317632591
 20
4.188662324034411
 30
0.0
 10
-17.86422471777162
 20
4.282764478889819
 30
0.0
 10
-18.70687882232097
 20
4.349898991475683
 30
0.0
 10
-19.54957181115865
 20
4.392145220454263
 30
0.0
 10
-20.11150560673008
 20
4.39738055627676
 30
0.0
 10
-20.39228757222495
 20
4.399996501240102
 30
0.0
  0
SPLINE
  5
2155
330
1F
100
AcDbEntity
  8
AM_0
 48
0.5
100
AcDbSpline
210
0.0
220
0.0
230
1.0
 70
     8
 71
     3
 72
    10
 73
     6
 74
     0
 42
0.0000000001
 43
0.0000000001
 40
0.0
 40
0.0
 40
0.0
 40
0.0
 40
2.69986029516136
 40
4.147722969032201
 40
6.285750005020438
 40
6.285750005020438
 40
6.285750005020438
 40
6.285750005020438
 10
-5.500841140747491
 20
0.7963730474638941
 30
0.0
 10
-4.901082028243092
 20
0.387582642093527
 30
0.0
 10
-3.97968818750286
 20
-0.2404310951036884
 30
0.0
 10
-1.800715527214553
 20
0.063601356945997
 30
0.0
 10
-2.211079458474257
 20
1.087622884930721
 30
0.0
 10
-2.482221725024646
 20
1.711795545251582
 30
0.0
  0
SPLINE
  5
2156
330
1F
100
AcDbEntity
  8
AM_0
100
AcDbSpline
210
0.0
220
0.0
230
1.0
 70
     8
 71
     3
 72
    46
 73
    42
 74
     0
 42
0.0000000001
 43
0.0000000001
 40
0.0
 40
0.0
 40
0.0
 40
0.0
 40
1.685415058684571
 40
2.531036209541119
 40
3.379897699130121
 40
4.232934581347656
 40
5.090970612202441
 40
5.954688180526683
 40
6.824620803463245
 40
7.70115181523969
 40
8.584457046566678
 40
9.474582384070743
 40
10.37139106676737
 40
11.27458944007584
 40
12.18373345430765
 40
13.09824173870457
 40
14.01741343450111
 40
14.9404441545541
 40
15.86644439743314
 40
16.79446029130534
 40
17.7234937712985
 40
18.65252725129241
 40
19.58054314516461
 40
20.5065433880429
 40
21.42957410809586
 40
22.34874580389318
 40
23.26325408828901
 40
24.17239810252112
 40
25.07560240389442
 40
25.97241108659103
 40
26.8625364240951
 40
27.74584165542183
 40
28.62236045019041
 40
29.49229307312697
 40
30.35601064145122
 40
31.21404606334469
 40
32.06708345193548
 40
32.9159575565769
 40
33.76157841950694
 40
34.6049870106469
 40
35.44727335621125
 40
35.44727335621125
 40
35.44727335621125
 40
35.44727335621125
 10
-2.159229914347524
 20
-4.40000349876
 30
0.0
 10
-2.721186683542045
 20
-4.389979958635973
 30
0.0
 10
-3.565093306838844
 20
-4.374927320491456
 30
0.0
 10
-4.687272745116596
 20
-4.282250992752429
 30
0.0
 10
-5.529883149325941
 20
-4.188808601395467
 30
0.0
 10
-6.372421530404428
 20
-4.068844443567479
 30
0.0
 10
-7.214885668817481
 20
-3.923953726127193
 30
0.0
 10
-8.057271236661593
 20
-3.754829150139375
 30
0.0
 10
-8.899576823067512
 20
-3.562572454856931
 30
0.0
 10
-9.741798679477863
 20
-3.348364124848997
 30
0.0
 10
-10.58393848929215
 20
-3.113532759616044
 30
0.0
 10
-11.42599398741034
 20
-2.859526411812257
 30
0.0
 10
-12.26797870190454
 20
-2.587922929529328
 30
0.0
 10
-13.10989672498876
 20
-2.300392004200185
 30
0.0
 10
-13.95175579888445
 20
-1.998706696135499
 30
0.0
 10
-14.79356527886078
 20
-1.684728211857102
 30
0.0
 10
-15.63533254257868
 20
-1.360387347034643
 30
0.0
 10
-16.47706578255745
 20
-1.027678968719921
 30
0.0
 10
-17.31877392356898
 20
-0.6886507020278438
 30
0.0
 10
-18.16046465467214
 20
-0.3453873324825872
 30
0.0
 10
-19.00214831037439
 20
-0.0000034988297891
 30
0.0
 10
-19.84383196589171
 20
0.3453803352427194
 30
0.0
 10
-20.68552269754951
 20
0.6886437035294578
 30
0.0
 10
-21.52723083653378
 20
1.027671974820863
 30
0.0
 10
-22.36896408402972
 20
1.360380336078349
 30
0.0
 10
-23.21073131987467
 20
1.68472126414731
 30
0.0
 10
-24.05254090307398
 20
1.998699514201657
 30
0.0
 10
-24.89440142531518
 20
2.300386344514266
 30
0.0
 10
-25.73632271968668
 20
2.587914657479196
 30
0.0
 10
-26.57830893615257
 20
2.85951953245177
 30
0.0
 10
-27.42036441466531
 20
3.113525955835962
 30
0.0
 10
-28.26250076506494
 20
3.34835516316935
 30
0.0
 10
-29.10471700992424
 20
3.562566806798697
 30
0.0
 10
-29.94701915809526
 20
3.754824287470781
 30
0.0
 10
-30.78940423841084
 20
3.923937798440949
 30
0.0
 10
-31.63186899446705
 20
4.06887053989887
 30
0.0
 10
-32.4744127526905
 20
4.188663387371214
 30
0.0
 10
-33.31701881514205
 20
4.282763595755799
 30
0.0
 10
-34.15967700922063
 20
4.349899139486337
 30
0.0
 10
-35.00236579116485
 20
4.392144963316853
 30
0.0
 10
-35.56429534071873
 20
4.397380483775625
 30
0.0
 10
-35.84507306416832
 20
4.399996501240191
 30
0.0
  0
SPLINE
  5
2157
330
1F
100
AcDbEntity
  8
AM_0
100
AcDbSpline
210
0.0
220
0.0
230
1.0
 70
     8
 71
     3
 72
    55
 73
    51
 74
     0
 42
0.0000000001
 43
0.0000000001
 40
0.0
 40
0.0
 40
0.0
 40
0.0
 40
1.010743684496582
 40
2.022833576467832
 40
3.037578957496688
 40
4.056212745003489
 40
5.079857003664532
 40
6.109500240690281
 40
7.145961322679372
 40
8.189895241603872
 40
9.241717795325891
 40
10.30168407291828
 40
11.36983447792315
 40
12.44600489715814
 40
13.52984294512926
 40
14.62081576220742
 40
15.7182257034828
 40
16.82123173843959
 40
17.92886860250316
 40
19.0400688939571
 40
20.15368796660465
 40
21.26852814259644
 40
22.38336992938901
 40
23.49698739941135
 40
24.6081876908653
 40
25.71582455492886
 40
26.81883757994213
 40
27.91624752121713
 40
29.00722033829659
 40
30.09105838626677
 40
31.16722880550176
 40
32.23537921050758
 40
33.29534548809967
 40
34.347168041821
 40
35.39108718934584
 40
36.42754827133493
 40
37.45720575381954
 40
38.48085062012849
 40
39.49948440763516
 40
40.51422944315121
 40
41.52631975251916
 40
42.53706336719636
 40
43.54780698187354
 40
44.55989729124051
 40
45.57464232675757
 40
46.59327611426424
 40
47.6169209805722
 40
48.64656348684535
 40
49.68302456883444
 40
50.58557219878025
 40
50.58557219878025
 40
50.58557219878025
 40
50.58557219878025
 10
-4.518187840780028
 20
-4.400003498759987
 30
0.0
 10
-4.798965514283401
 20
-4.3973856053565
 30
0.0
 10
-5.360894828507155
 20
-4.392146331782599
 30
0.0
 10
-6.20358430305449
 20
-4.349911904954103
 30
0.0
 10
-7.046237806365481
 20
-4.282770199159968
 30
0.0
 10
-7.888839157697544
 20
-4.188668544898144
 30
0.0
 10
-8.731379949215591
 20
-4.068882200001117
 30
0.0
 10
-9.573843559473589
 20
-3.923943835255385
 30
0.0
 10
-10.41623280647496
 20
-3.754829807146288
 30
0.0
 10
-11.25854021992954
 20
-3.562575689067113
 30
0.0
 10
-12.10076006218872
 20
-3.348361909639968
 30
0.0
 10
-12.9428965312528
 20
-3.11353306661476
 30
0.0
 10
-13.78495188253118
 20
-2.859526328609608
 30
0.0
 10
-14.62693663683101
 20
-2.587922952090702
 30
0.0
 10
-15.46885464907212
 20
-2.300391997999499
 30
0.0
 10
-16.31071372613955
 20
-1.998706698167238
 30
0.0
 10
-17.1525232043644
 20
-1.684728209972467
 30
0.0
 10
-17.99429047191609
 20
-1.360387352563446
 30
0.0
 10
-18.83602369824187
 20
-1.027678948384945
 30
0.0
 10
-19.67773189024493
 20
-0.6886507781369544
 30
0.0
 10
-20.51942243050739
 20
-0.3453870476817861
 30
0.0
 10
-21.36110720500338
 20
-0.0000043965197246
 30
0.0
 10
-22.20278820103899
 20
0.3453844717453028
 30
0.0
 10
-23.04448156246467
 20
0.6886428566762348
 30
0.0
 10
-23.88618871536769
 20
1.027672053143196
 30
0.0
 10
-24.72792344249449
 20
1.36038172479242
 30
0.0
 10
-25.5696942021006
 20
1.684719814219612
 30
0.0
 10
-26.41150500892321
 20
1.998699894722181
 30
0.0
 10
-27.2533642075271
 20
2.300384949918767
 30
0.0
 10
-28.0952821891335
 20
2.587915964476649
 30
0.0
 10
-28.93726694558931
 20
2.859519341392857
 30
0.0
 10
-29.77932231831552
 20
3.113526018661168
 30
0.0
 10
-30.62145870046192
 20
3.348355101468229
 30
0.0
 10
-31.4636749231696
 20
3.562566989390448
 30
0.0
 10
-32.30597712792571
 20
3.754823625518906
 30
0.0
 10
-33.14836606244439
 20
3.923941054298357
 30
0.0
 10
-33.99083568817493
 20
4.068862865070876
 30
0.0
 10
-34.83337926320966
 20
4.188686286373891
 30
0.0
 10
-35.67598086432646
 20
4.282676395270535
 30
0.0
 10
-36.51863495313871
 20
4.350225828185362
 30
0.0
 10
-37.36132371318579
 20
4.39092935482948
 30
0.0
 10
-38.20403099080733
 20
4.404527056240202
 30
0.0
 10
-39.04673826718894
 20
4.390929354808167
 30
0.0
 10
-39.88942703096302
 20
4.350225828270898
 30
0.0
 10
-40.73208110605352
 20
4.282676394948214
 30
0.0
 10
-41.57468275861648
 20
4.188686287585133
 30
0.0
 10
-42.41722203268508
 20
4.068863444674813
 30
0.0
 10
-43.25968833940594
 20
3.923942536045563
 30
0.0
 10
-44.06377567720116
 20
3.762500486096533
 30
0.0
 10
-44.5854766991696
 20
3.644436388748372
 30
0.0
 10
-44.8275155664282
 20
3.586897994597101
 30
0.0
  0
SPLINE
  5
2158
330
1F
100
AcDbEntity
  8
AM_0
100
AcDbSpline
210
0.0
220
0.0
230
1.0
 70
     8
 71
     3
 72
    11
 73
     7
 74
     0
 42
0.0000000001
 43
0.0000000001
 40
11.27226913003534
 40
11.27226913003534
 40
11.27226913003534
 40
11.2722691300354
 40
12.28301561507924
 40
13.29510212255852
 40
14.30984805882082
 40
15.18258238371378
 40
15.18258238371378
 40
15.18258238371378
 40
15.18258238371378
 10
-20.39228757222498
 20
-4.400003498759899
 30
0.0
 10
-20.67199758709357
 20
-4.378468620128247
 30
0.0
 10
-21.23089003055398
 20
-4.326333616197205
 30
0.0
 10
-22.06634267935911
 20
-4.221164417705645
 30
0.0
 10
-22.85920197439933
 20
-4.095551341460362
 30
0.0
 10
-23.37197682652442
 20
-3.998988831265645
 30
0.0
 10
-23.60827807963421
 20
-3.951289618382092
 30
0.0
  0
SPLINE
  5
2159
330
1F
100
AcDbEntity
  8
AM_0
100
AcDbSpline
210
0.0
220
0.0
230
1.0
 70
     8
 71
     3
 72
    22
 73
    18
 74
     0
 42
0.0000000001
 43
0.0000000001
 40
17.17441611292
 40
17.17441611292
 40
17.17441611292
 40
17.17441611292
 40
17.38177636558528
 40
18.41823744757437
 40
19.46215659509824
 40
20.51397914882054
 40
21.57394542641293
 40
22.64209583141747
 40
23.71826625065247
 40
24.80210429862395
 40
25.8930771157021
 40
26.99048705697709
 40
28.09349309193389
 40
29.20112995599786
 40
30.31233024745139
 40
31.42594771747373
 40
32.5407895042663
 40
32.54078950426994
 40
32.54078950426994
 40
32.54078950426994
 10
-23.60864661678689
 20
-3.951235344415737
 30
0.0
 10
-23.66507430413906
 20
-3.941049775975524
 30
0.0
 10
-24.00332747286033
 20
-3.879008365296116
 30
0.0
 10
-24.62298821746753
 20
-3.754607262014517
 30
0.0
 10
-25.46529030177929
 20
-3.562350073531224
 30
0.0
 10
-26.30750655727673
 20
-3.348138335588947
 30
0.0
 10
-27.14964292995944
 20
-3.113309210970385
 30
0.0
 10
-27.99169830742381
 20
-2.859302549408671
 30
0.0
 10
-28.8336830543951
 20
-2.587699151733811
 30
0.0
 10
-29.67560106949938
 20
-2.300168205039329
 30
0.0
 10
-30.51746014248033
 20
-1.998482896918618
 30
0.0
 10
-31.35926963427708
 20
-1.68450443463212
 30
0.0
 10
-32.2010368512881
 20
-1.36016348123938
 30
0.0
 10
-33.0427702672614
 20
-1.027455437092704
 30
0.0
 10
-33.88447734343108
 20
-0.6884260800597478
 30
0.0
 10
-34.72617054895545
 20
-0.3451674045214809
 30
0.0
 10
-35.287189209774
 20
-0.1149510920844894
 30
0.0
 10
-35.56785265604849
 20
0.0002202968136674
 30
0.0
  0
SPLINE
  5
215A
330
1F
100
AcDbEntity
  8
AM_0
100
AcDbSpline
210
0.0
220
0.0
230
1.0
 70
     8
 71
     3
 72
    17
 73
    13
 74
     0
 42
0.0000000001
 43
0.0000000001
 40
1.580019955310467
 40
1.580019955310467
 40
1.580019955310467
 40
1.580019955310467
 40
2.030549285115227
 40
3.082371838836284
 40
4.126290986361125
 40
5.162752068350215
 40
6.192395305374981
 40
7.216039564037012
 40
8.234688489606833
 40
9.249433870634691
 40
10.26152376260694
 40
11.27226744710342
 40
11.27226744710342
 40
11.27226744710342
 40
11.27226744710352
 10
-12.45461846262806
 20
-3.247333063757528
 30
0.0
 10
-12.57384495751056
 20
-3.28077786059727
 30
0.0
 10
-12.97210150601313
 20
-3.390397649430698
 30
0.0
 10
-13.65202419779793
 20
-3.562340210480032
 30
0.0
 10
-14.49420903558672
 20
-3.754893069114293
 30
0.0
 10
-15.33662572607286
 20
-3.923928913435338
 30
0.0
 10
-16.17908101579767
 20
-4.068880083086592
 30
0.0
 10
-17.02162808951643
 20
-4.188692196259909
 30
0.0
 10
-17.86423337239481
 20
-4.28268153805524
 30
0.0
 10
-18.70689112262309
 20
-4.350239026088534
 30
0.0
 10
-19.54958057929652
 20
-4.390929784963743
 30
0.0
 10
-20.11150990242586
 20
-4.400003523936931
 30
0.0
 10
-20.39228757222494
 20
-4.400003498759899
 30
0.0
  0
ELLIPSE
  5
215F
330
1F
100
AcDbEntity
  8
AM_0
 48
0.5
100
AcDbEllipse
 10
5.171499252319176
 20
-0.9780628859668016
 30
0.0
 11
7.906218802226798
 21
1.155251865087952
 31
0.0
210
0.0
220
0.0
230
1.0
 40
0.6932484888011917
 41
3.09395747632516
 42
3.591065452949758
  0
ELLIPSE
  5
2160
330
1F
100
AcDbEntity
  8
AM_0
 48
0.5
100
AcDbEllipse
 10
-8.655252456664936
 20
7.384791626565226
 30
0.0
 11
12.05552975336682
 21
0.0000000000007851
 31
0.0
210
0.0
220
0.0
230
1.0
 40
0.8799999999999931
 41
-1.060213001566563
 42
-0.9717182238870691
  0
ELLIPSE
  5
2162
330
1F
100
AcDbEntity
  8
AM_0
 48
0.5
100
AcDbEllipse
 10
3.191836675008396
 20
5.28246720436495
 30
0.0
 11
10.07722377777082
 21
0.0000000000000745
 31
0.0
210
0.0
220
0.0
230
1.0
 40
0.8800000000000004
 41
3.671960206823874
 42
4.080081137018769
  0
LINE
  5
2280
330
1F
100
AcDbEntity
  8
AM_0
100
AcDbLine
 10
-1.601468012584792
 20
4.399996501239996
 30
0.0
 11
0.0
 21
-0.0000007013155382
 31
0.0
  0
LINE
  5
2281
330
1F
100
AcDbEntity
  8
AM_0
100
AcDbLine
 10
-1.601471092081134
 20
-4.400003498760003
 30
0.0
 11
0.0
 21
0.0000021646423007
 31
0.0
  0
XLINE
  5
229E
330
1F
100
AcDbEntity
  8
AM_CL
100
AcDbXline
 10
-77773.60145643879
 20
-4.400019132654597
 30
0.0
 11
-0.000000000000002
 21
1.0
 31
0.0
  0
XLINE
  5
22A2
330
1F
100
AcDbEntity
  8
AM_CL
100
AcDbXline
 10
-77773.60145643879
 20
-4.400019132654597
 30
0.0
 11
-0.000000000000002
 21
1.0
 31
0.0
  0
LINE
  5
22FC
330
1F
100
AcDbEntity
  8
AM_0
100
AcDbLine
 10
-73.60145643866572
 20
4.501275045979381
 30
0.0
 11
-73.46407771478469
 21
4.420226684900848
 31
0.0
  0
LINE
  5
22FD
330
1F
100
AcDbEntity
  8
AM_11
 48
0.3
100
AcDbLine
 10
-73.45741154559476
 20
4.401241851087645
 30
0.0
 11
-66.08958744071023
 21
4.400621601092084
 31
0.0
  0
POLYLINE
  5
22FE
330
1F
100
AcDbEntity
  8
AM_0
100
AcDb2dPolyline
 66
     1
 10
0.0
 20
0.0
 30
0.0
 70
     2
  0
VERTEX
  5
22FF
330
22FE
100
AcDbEntity
  8
AM_0
100
AcDbVertex
100
AcDb2dVertex
 10
-70.66352500681947
 20
-3.843177657259694
 30
0.0
 42
-0.0359492156850201
  0
VERTEX
  5
2300
330
22FE
100
AcDbEntity
  8
AM_0
100
AcDbVertex
100
AcDb2dVertex
 10
-71.29462149785386
 20
-3.874947374646517
 30
0.0
 42
-0.0481074754172279
 70
     1
  0
VERTEX
  5
2301
330
22FE
100
AcDbEntity
  8
AM_0
100
AcDbVertex
100
AcDb2dVertex
 10
-71.76447384067557
 20
-3.827392045028443
 30
0.0
 42
-0.0393662058969625
  0
VERTEX
  5
2302
330
22FE
100
AcDbEntity
  8
AM_0
100
AcDbVertex
100
AcDb2dVertex
 10
-72.73641596440106
 20
-3.56951269395602
 30
0.0
 42
-0.0705719844457379
 70
     1
  0
VERTEX
  5
2303
330
22FE
100
AcDbEntity
  8
AM_0
100
AcDbVertex
100
AcDb2dVertex
 10
-73.23240561915035
 20
-3.322069560920881
 30
0.0
 42
-0.0827458522828334
  0
VERTEX
  5
2304
330
22FE
100
AcDbEntity
  8
AM_0
100
AcDbVertex
100
AcDb2dVertex
 10
-73.53259659237025
 20
-3.037061676238026
 30
0.0
 42
-0.154978185678887
 70
     1
  0
VERTEX
  5
2305
330
22FE
100
AcDbEntity
  8
AM_0
100
AcDbVertex
100
AcDb2dVertex
 10
-73.59938856376904
 20
-2.832532689044572
 30
0.0
 42
-0.1662693739572807
  0
VERTEX
  5
2306
330
22FE
100
AcDbEntity
  8
AM_0
100
AcDbVertex
100
AcDb2dVertex
 10
-73.52166482941202
 20
-2.641899308843624
 30
0.0
 42
-0.0979726163363275
 70
     1
  0
VERTEX
  5
2307
330
22FE
100
AcDbEntity
  8
AM_0
100
AcDbVertex
100
AcDb2dVertex
 10
-73.23240561915034
 20
-2.425228509837239
 30
0.0
 42
-0.091851179068373
  0
VERTEX
  5
2308
330
22FE
100
AcDbEntity
  8
AM_0
100
AcDbVertex
100
AcDb2dVertex
 10
-72.77899325656581
 20
-2.29190801258532
 30
0.0
 42
-0.04285893167511
 70
     1
  0
VERTEX
  5
2309
330
22FE
100
AcDbEntity
  8
AM_0
100
AcDbVertex
100
AcDb2dVertex
 10
-71.76447384067552
 20
-2.24883679640559
 30
0.0
 42
-0.0477012044965593
  0
VERTEX
  5
230A
330
22FE
100
AcDbEntity
  8
AM_0
100
AcDbVertex
100
AcDb2dVertex
 10
-71.25747882038308
 20
-2.310211482945502
 30
0.0
 42
-0.0391301448542795
 70
     1
  0
VERTEX
  5
230B
330
22FE
100
AcDbEntity
  8
AM_0
100
AcDbVertex
100
AcDb2dVertex
 10
-70.78704470292731
 20
-2.436798555028328
 30
0.0
  0
SEQEND
  5
230C
330
22FE
100
AcDbEntity
  8
AM_0
  0
LINE
  5
230D
330
1F
100
AcDbEntity
  8
AM_0
100
AcDbLine
 10
-73.46427030614082
 20
-2.583450854004572
 30
0.0
 11
-73.46427030614077
 21
-0.4910395123087187
 31
0.0
  0
LINE
  5
230E
330
1F
100
AcDbEntity
  8
AM_0
100
AcDbLine
 10
-73.60145643878313
 20
-4.500003493106803
 30
0.0
 11
-73.46427030614087
 21
-4.419068753729088
 31
0.0
  0
LINE
  5
230F
330
1F
100
AcDbEntity
  8
AM_0
100
AcDbLine
 10
-73.46427030614087
 20
-4.419068753729088
 30
0.0
 11
-73.46427030614083
 21
-3.120026398580328
 31
0.0
  0
SPLINE
  5
2310
330
1F
100
AcDbEntity
  8
AM_0
100
AcDbSpline
210
0.0
220
0.0
230
1.0
 70
     8
 71
     3
 72
    14
 73
    10
 74
     0
 42
0.0000000001
 43
0.0000000001
 40
1.580019955310467
 40
1.580019955310467
 40
1.580019955310467
 40
1.580019955310467
 40
2.030549285115227
 40
3.082371838836284
 40
4.126290986361125
 40
5.162752068350215
 40
6.192395305374981
 40
7.216039564037012
 40
8.092146932806128
 40
8.092146932806128
 40
8.092146932806128
 40
8.092146932806128
 10
-68.23207095226075
 20
-3.247333063757372
 30
0.0
 10
-68.34874852604357
 20
-3.280777860597114
 30
0.0
 10
-68.73849082173198
 20
-3.390397649430543
 30
0.0
 10
-69.4038775725167
 20
-3.562340210479875
 30
0.0
 10
-70.22805749700994
 20
-3.754893069114134
 30
0.0
 10
-71.05246431746472
 20
-3.923928913435177
 30
0.0
 10
-71.87690891195223
 20
-4.068880083086432
 30
0.0
 10
-72.66318393633487
 20
-4.183132769633226
 30
0.0
 10
-73.21784130578838
 20
-4.316016894767407
 30
0.0
 10
-73.46427030614087
 20
-4.419068753729088
 30
0.0
  0
SPLINE
  5
2311
330
1F
100
AcDbEntity
  8
AM_0
100
AcDbSpline
210
0.0
220
0.0
230
1.0
 70
     8
 71
     3
 72
    15
 73
    11
 74
     0
 42
0.0000000001
 43
0.0000000001
 40
9.996018264272805
 40
9.996018264272805
 40
9.996018264272805
 40
9.996018264272805
 40
10.37139106676736
 40
11.27458944007584
 40
12.18373345430765
 40
13.09824173870457
 40
14.01741343450111
 40
14.9404441545541
 40
15.86644439743314
 40
16.55140071192301
 40
16.55140071192301
 40
16.55140071192301
 40
16.55140071192301
 10
-67.70190547449705
 20
1.852410257110257
 30
0.0
 10
-67.81682037574718
 20
1.81394513411715
 30
0.0
 10
-68.2076397305171
 20
1.681453235238866
 30
0.0
 10
-68.87297719526085
 20
1.446625464384741
 30
0.0
 10
-69.69683832030675
 20
1.141511914182948
 30
0.0
 10
-70.5206509116925
 20
0.8239654925832214
 30
0.0
 10
-71.34442218935337
 20
0.4959389361150507
 30
0.0
 10
-72.16816017066228
 20
0.1594497807740344
 30
0.0
 10
-72.91977850172887
 20
-0.1534206111617411
 30
0.0
 10
-73.39670809391953
 20
-0.3541062894623845
 30
0.0
 10
-73.59938856376906
 20
-0.4396376112324495
 30
0.0
  0
LINE
  5
2312
330
1F
100
AcDbEntity
  8
AM_0
100
AcDbLine
 10
-73.60145643878322
 20
-4.500003493106803
 30
0.0
 11
-73.60145643878318
 21
4.501275120226443
 31
0.0
  0
LINE
  5
2313
330
1F
100
AcDbEntity
  8
AM_0
100
AcDbLine
 10
-73.46427030614077
 20
-0.3783560794413506
 30
0.0
 11
-73.46427030614065
 21
4.420381200354304
 31
0.0
  0
SPLINE
  5
2314
330
1F
100
AcDbEntity
  8
AM_0
100
AcDbSpline
210
0.0
220
0.0
230
1.0
 70
     8
 71
     3
 72
    20
 73
    16
 74
     0
 42
0.0000000001
 43
0.0000000001
 40
0.0
 40
0.0
 40
0.0
 40
0.0
 40
1.010743684496582
 40
2.022833576467832
 40
3.037578957496688
 40
4.056212745003489
 40
5.079857003664532
 40
6.109500240690281
 40
7.145961322679372
 40
8.189895241603872
 40
9.241717795325891
 40
10.30168407291828
 40
11.36983447792315
 40
12.44600489715814
 40
13.01371853178965
 40
13.01371853178965
 40
13.01371853178965
 40
13.01371853178965
 10
-60.46494886023789
 20
-4.399378398908045
 30
0.0
 10
-60.73972383998578
 20
-4.396760505504557
 30
0.0
 10
-61.28963977172285
 20
-4.391521231930656
 30
0.0
 10
-62.11431354443904
 20
-4.349286805102157
 30
0.0
 10
-62.93895211494126
 20
-4.28214509930802
 30
0.0
 10
-63.76353964841204
 20
-4.188043445046194
 30
0.0
 10
-64.58806791676583
 20
-4.068257100149164
 30
0.0
 10
-65.41252065390342
 20
-3.923318735403431
 30
0.0
 10
-66.2369006175826
 20
-3.754204707294333
 30
0.0
 10
-67.06120049721921
 20
-3.561950589215157
 30
0.0
 10
-67.88541467782869
 20
-3.347736809788012
 30
0.0
 10
-68.70954726766318
 20
-3.112907966762801
 30
0.0
 10
-69.53360047391406
 20
-2.858901228757646
 30
0.0
 10
-70.22584438492867
 20
-2.630722336260763
 30
0.0
 10
-70.64317710025912
 20
-2.487022505149393
 30
0.0
 10
-70.78704470292731
 20
-2.436798555028329
 30
0.0
  0
SPLINE
  5
2315
330
1F
100
AcDbEntity
  8
AM_0
100
AcDbSpline
210
0.0
220
0.0
230
1.0
 70
     8
 71
     3
 72
    20
 73
    16
 74
     0
 42
0.0000000001
 43
0.0000000001
 40
19.06958205160103
 40
19.06958205160103
 40
19.06958205160103
 40
19.06958205160103
 40
19.46214173629503
 40
20.51396345435107
 40
21.57393551351153
 40
22.64208202342361
 40
23.7182574881101
 40
24.80209208578934
 40
25.89306333925047
 40
26.99048218457928
 40
28.09348763352352
 40
29.20111863782268
 40
30.31232390128032
 40
31.42594612798585
 40
32.5407912310448
 40
32.5407912310486
 40
32.5407912310486
 40
32.5407912310486
 10
-73.46427030614065
 20
4.420381200354304
 30
0.0
 10
-73.28812756887249
 20
3.96762556737099
 30
0.0
 10
-73.12049741205155
 20
3.74670833031383
 30
0.0
 10
-72.47157825945236
 20
3.561380564267178
 30
0.0
 10
-71.6545652511516
 20
3.307228733428281
 30
0.0
 10
-70.83818852306606
 20
3.033907568347191
 30
0.0
 10
-70.02239122582325
 20
2.743007729645953
 30
0.0
 10
-69.20712700289076
 20
2.436176566150599
 30
0.0
 10
-68.3923304915796
 20
2.115199456908241
 30
0.0
 10
-67.5779356617441
 20
1.781942059555425
 30
0.0
 10
-66.76388825257956
 20
1.438320464416477
 30
0.0
 10
-65.95012015372789
 20
1.086332784010066
 30
0.0
 10
-65.13655599302875
 20
0.7280343681515089
 30
0.0
 10
-64.32312952339362
 20
0.3655014591369145
 30
0.0
 10
-63.78099086768087
 20
0.1224429667372118
 30
0.0
 10
-63.5097736952688
 20
0.000845396663963
 30
0.0
  0
SPLINE
  5
2316
330
1F
100
AcDbEntity
  8
AM_0
100
AcDbSpline
210
0.0
220
0.0
230
1.0
 70
     8
 71
     3
 72
    25
 73
    21
 74
     0
 42
0.0000000001
 43
0.0000000001
 40
0.0
 40
0.0
 40
0.0
 40
0.0
 40
1.685415058684573
 40
2.531036209541122
 40
3.379897699130124
 40
4.232934581347659
 40
5.09097061220244
 40
5.954688180526682
 40
6.824620803463244
 40
7.701151815239697
 40
8.58445704656667
 40
9.47458238407075
 40
10.37139106676736
 40
11.27458944007584
 40
12.18373345430765
 40
13.09824173870457
 40
14.01741343450111
 40
14.9404441545541
 40
15.86644439743314
 40
16.55140071192301
 40
16.55140071192301
 40
16.55140071192301
 40
16.55140071192301
 10
-58.15642265737434
 20
-4.399378398908046
 30
0.0
 10
-58.70636545712745
 20
-4.399378398908045
 30
0.0
 10
-59.53166598959993
 20
-4.399694817484681
 30
0.0
 10
-60.63041892979523
 20
-4.330280800271809
 30
0.0
 10
-61.45501532260351
 20
-4.235776563558522
 30
0.0
 10
-62.27954123205005
 20
-4.114449176664309
 30
0.0
 10
-63.10399448605135
 20
-3.967911973798567
 30
0.0
 10
-63.92837084922931
 20
-3.796865527629067
 30
0.0
 10
-64.75266894087738
 20
-3.602424097172957
 30
0.0
 10
-65.57688509257791
 20
-3.385781581596757
 30
0.0
 10
-66.40102095174134
 20
-3.14828167812251
 30
0.0
 10
-67.22507430169274
 20
-2.891388894548239
 30
0.0
 10
-68.04905838129013
 20
-2.616699009057537
 30
0.0
 10
-68.87297719526083
 20
-2.325900686849666
 30
0.0
 10
-69.69683832030674
 20
-2.020787136647869
 30
0.0
 10
-70.52065091169248
 20
-1.703240715048136
 30
0.0
 10
-71.34442218935335
 20
-1.375214158579961
 30
0.0
 10
-72.16816017066228
 20
-1.038725003238941
 30
0.0
 10
-72.91977850172887
 20
-0.7258546113031616
 30
0.0
 10
-73.39670809391953
 20
-0.5251689330025155
 30
0.0
 10
-73.59938856376906
 20
-0.4396376112324497
 30
0.0
  0
VIEWPORT
  5
110
330
101
100
AcDbEntity
 67
     1
  8
0
100
AcDbViewport
 10
420.5
 20
297.0
 30
0.0
 40
948.9782706766916
 41
628.452
 68
     1
 69
     1
1001
ACAD
1000
MVIEW
1002
{
1070
    16
1010
0.0
1020
0.0
1030
0.0
1010
0.0
1020
0.0
1030
1.0
1040
0.0
1040
628.452
1040
420.5
1040
297.0
1040
50.0
1040
0.0
1040
0.0
1070
     0
1070
   100
1070
     1
1070
     1
1070
     0
1070
     0
1070
     0
1070
     0
1040
0.0
1040
0.0
1040
0.0
1040
10.0
1040
10.0
1040
10.0
1040
10.0
1070
     0
1002
{
1002
}
1002
}
  0
ENDSEC
  0
SECTION
  2
OBJECTS
  0
DICTIONARY
  5
C
330
0
100
AcDbDictionary
  3
ACAD_GROUP
350
D
  3
ACAD_LAYOUT
350
1A
  3
ACAD_MLINESTYLE
350
17
  3
ACAD_PLOTSETTINGS
350
19
  3
ACAD_PLOTSTYLENAME
350
E
  3
ACDBVARIABLEDICTIONARY
350
34
  3
ACMDICTIONARY
350
43
  3
AMG
350
2B
  3
AMGSNAPSETTINGS
350
6E
  3
DWGPROPS
350
23AD
  3
ACDBHEADERROUNDTRIPXREC
350
23BA
  0
DICTIONARY
  5
74
330
1F
100
AcDbDictionary
280
     1
  3
ACAD_INDEX
360
23AF
  3
ACAD_LAYOUTSELFREF
360
23DD
  0
DICTIONARY
  5
23E2
330
101
100
AcDbDictionary
280
     1
  3
ACAD_LAYOUTSELFREF
360
23E3
  0
DICTIONARY
  5
D
102
{ACAD_REACTORS
330
C
102
}
330
C
100
AcDbDictionary
  0
DICTIONARY
  5
1A
102
{ACAD_REACTORS
330
C
102
}
330
C
100
AcDbDictionary
  0
DICTIONARY
  5
17
102
{ACAD_REACTORS
330
C
102
}
330
C
100
AcDbDictionary
  3
STANDARD
350
18
  0
DICTIONARY
  5
19
102
{ACAD_REACTORS
330
C
102
}
330
C
100
AcDbDictionary
  0
ACDBDICTIONARYWDFLT
  5
E
102
{ACAD_REACTORS
330
C
102
}
330
C
100
AcDbDictionary
281
     1
  3
Normal
350
F
100
AcDbDictionaryWithDefault
340
F
  0
DICTIONARY
  5
34
102
{ACAD_REACTORS
330
C
102
}
330
C
100
AcDbDictionary
  3
INDEXCTL
350
35
  3
SORTENTS
350
B5E
  0
DICTIONARY
  5
43
102
{ACAD_REACTORS
330
C
102
}
330
C
100
AcDbDictionary
  3
ACMSTDDICTIONARY
350
260
  0
DICTIONARY
  5
2B
102
{ACAD_REACTORS
330
C
102
}
330
C
100
AcDbDictionary
  3
ACMGSETTINGS
350
2C
  0
DICTIONARY
  5
6E
102
{ACAD_REACTORS
330
C
102
}
330
C
100
AcDbDictionary
  0
XRECORD
  5
23AD
102
{ACAD_REACTORS
330
C
102
}
330
C
100
AcDbXrecord
  1
DWGPROPS COOKIE
  2

  3

  4

  6

  7

  8

  9

300
AmdtFileType=82
301
=
302
=
303
=
304
=
305
=
306
=
307
=
308
=
309
=
 40
0.0940280902777778
 41
2452800.443498622
 42
2452982.987118241
  1

 90
        1
  0
DICTIONARY
  5
23BA
102
{ACAD_REACTORS
330
C
102
}
330
C
100
AcDbDictionary
  3
TSTACKALIGN
350
23BB
  3
TSTACKSIZE
350
23BC
  3
HYPERLINKBASE
350
23BD
  3
STYLESHEET
350
23BE
  3
LAYOUTDICT
350
23BF
  3
PLOTSETDICT
350
23C0
  3
PLOTSTYLNAMDICT
350
23C1
  3
LWETCUNION
350
23C2
  3
INSUNITS
350
23C3
  3
CEPSNTYPE
350
23C4
  3
FINGERPRINTGUID
350
23C5
  3
VERSIONGUID
350
23C6
  3
PSVPSCALE
350
23C7
  3
DIMSTYLEDATA
350
23C8
  3
PUCSORTHOREF
350
23C9
  3
PUCSORTHOVIEW
350
23CA
  3
PUCSBASE
350
23CB
  3
PUCSORGTOP
350
23CC
  3
PUCSORGBOTTOM
350
23CD
  3
PUCSORGLEFT
350
23CE
  3
PUCSORGRIGHT
350
23CF
  3
PUCSORGFRONT
350
23D0
  3
PUCSORGBACK
350
23D1
  3
UCSORTHOREF
350
23D2
  3
UCSORTHOVIEW
350
23D3
  3
UCSBASE
350
23D4
  3
UCSORGTOP
350
23D5
  3
UCSORGBOTTOM
350
23D6
  3
UCSORGLEFT
350
23D7
  3
UCSORGRIGHT
350
23D8
  3
UCSORGFRONT
350
23D9
  3
UCSORGBACK
350
23DA
  0
DICTIONARY
  5
23AF
102
{ACAD_REACTORS
330
74
102
}
330
74
100
AcDbDictionary
  3
*A1
350
23B0
  0
XRECORD
  5
23DD
102
{ACAD_REACTORS
330
74
102
}
330
74
100
AcDbXrecord
340
1F
  0
XRECORD
  5
23E3
102
{ACAD_REACTORS
330
23E2
102
}
330
23E2
100
AcDbXrecord
340
101
  0
MLINESTYLE
  5
18
102
{ACAD_REACTORS
330
17
102
}
330
17
100
AcDbMlineStyle
  2
STANDARD
 70
     0
  3

 62
   256
 51
90.0
 52
90.0
 71
     2
 49
0.5
 62
   256
  6
BYLAYER
 49
-0.5
 62
   256
  6
BYLAYER
  0
ACDBPLACEHOLDER
  5
F
102
{ACAD_REACTORS
330
E
102
}
330
E
100
AcDbPlaceHolder
280
     0
  0
DICTIONARYVAR
  5
35
102
{ACAD_REACTORS
330
34
102
}
330
34
100
DictionaryVariables
280
     0
  1
1
  0
DICTIONARYVAR
  5
B5E
102
{ACAD_REACTORS
330
34
102
}
330
34
100
DictionaryVariables
280
     0
  1
96
  0
DICTIONARY
  5
260
102
{ACAD_REACTORS
330
43
102
}
330
43
100
AcDbDictionary
  0
DICTIONARY
  5
2C
102
{ACAD_REACTORS
330
2B
102
}
330
2B
100
AcDbDictionary
  3
DWGSETTINGS
350
2D
  0
XRECORD
  5
23BB
102
{ACAD_REACTORS
330
23BA
102
}
330
23BA
100
AcDbXrecord
 90
        1
  0
XRECORD
  5
23BC
102
{ACAD_REACTORS
330
23BA
102
}
330
23BA
100
AcDbXrecord
 90
       70
  0
XRECORD
  5
23BD
102
{ACAD_REACTORS
330
23BA
102
}
330
23BA
100
AcDbXrecord
  1

  0
XRECORD
  5
23BE
102
{ACAD_REACTORS
330
23BA
102
}
330
23BA
100
AcDbXrecord
  1
ASAMI.ctb
  0
XRECORD
  5
23BF
102
{ACAD_REACTORS
330
23BA
102
}
330
23BA
100
AcDbXrecord
340
1A
  0
XRECORD
  5
23C0
102
{ACAD_REACTORS
330
23BA
102
}
330
23BA
100
AcDbXrecord
340
19
  0
XRECORD
  5
23C1
102
{ACAD_REACTORS
330
23BA
102
}
330
23BA
100
AcDbXrecord
340
E
  0
XRECORD
  5
23C2
102
{ACAD_REACTORS
330
23BA
102
}
330
23BA
100
AcDbXrecord
 90
    10781
  0
XRECORD
  5
23C3
102
{ACAD_REACTORS
330
23BA
102
}
330
23BA
100
AcDbXrecord
 90
        4
  0
XRECORD
  5
23C4
102
{ACAD_REACTORS
330
23BA
102
}
330
23BA
100
AcDbXrecord
 90
        0
  0
XRECORD
  5
23C5
102
{ACAD_REACTORS
330
23BA
102
}
330
23BA
100
AcDbXrecord
  1
{AFB28963-8C59-40AE-9337-C84526B81ACE}
  0
XRECORD
  5
23C6
102
{ACAD_REACTORS
330
23BA
102
}
330
23BA
100
AcDbXrecord
  1
{C1C54BA7-0E9D-4852-BA9A-B19EC626773E}
  0
XRECORD
  5
23C7
102
{ACAD_REACTORS
330
23BA
102
}
330
23BA
100
AcDbXrecord
 40
0.0
  0
XRECORD
  5
23C8
102
{ACAD_REACTORS
330
23BA
102
}
330
23BA
100
AcDbXrecord
1000
DSTYLE
1002
{
1070
    79
 70
     2
1070
   341
340
59
1070
   342
340
59
1070
   371
 70
    -1
1070
   372
 70
    -1
1002
}
  0
XRECORD
  5
23C9
102
{ACAD_REACTORS
330
23BA
102
}
330
23BA
100
AcDbXrecord
340
0
  0
XRECORD
  5
23CA
102
{ACAD_REACTORS
330
23BA
102
}
330
23BA
100
AcDbXrecord
 70
     0
  0
XRECORD
  5
23CB
102
{ACAD_REACTORS
330
23BA
102
}
330
23BA
100
AcDbXrecord
340
0
  0
XRECORD
  5
23CC
102
{ACAD_REACTORS
330
23BA
102
}
330
23BA
100
AcDbXrecord
 10
0.0
 20
0.0
 30
0.0
  0
XRECORD
  5
23CD
102
{ACAD_REACTORS
330
23BA
102
}
330
23BA
100
AcDbXrecord
 10
0.0
 20
0.0
 30
0.0
  0
XRECORD
  5
23CE
102
{ACAD_REACTORS
330
23BA
102
}
330
23BA
100
AcDbXrecord
 10
0.0
 20
0.0
 30
0.0
  0
XRECORD
  5
23CF
102
{ACAD_REACTORS
330
23BA
102
}
330
23BA
100
AcDbXrecord
 10
0.0
 20
0.0
 30
0.0
  0
XRECORD
  5
23D0
102
{ACAD_REACTORS
330
23BA
102
}
330
23BA
100
AcDbXrecord
 10
0.0
 20
0.0
 30
0.0
  0
XRECORD
  5
23D1
102
{ACAD_REACTORS
330
23BA
102
}
330
23BA
100
AcDbXrecord
 10
0.0
 20
0.0
 30
0.0
  0
XRECORD
  5
23D2
102
{ACAD_REACTORS
330
23BA
102
}
330
23BA
100
AcDbXrecord
340
0
  0
XRECORD
  5
23D3
102
{ACAD_REACTORS
330
23BA
102
}
330
23BA
100
AcDbXrecord
 70
     0
  0
XRECORD
  5
23D4
102
{ACAD_REACTORS
330
23BA
102
}
330
23BA
100
AcDbXrecord
340
0
  0
XRECORD
  5
23D5
102
{ACAD_REACTORS
330
23BA
102
}
330
23BA
100
AcDbXrecord
 10
0.0
 20
0.0
 30
0.0
  0
XRECORD
  5
23D6
102
{ACAD_REACTORS
330
23BA
102
}
330
23BA
100
AcDbXrecord
 10
0.0
 20
0.0
 30
0.0
  0
XRECORD
  5
23D7
102
{ACAD_REACTORS
330
23BA
102
}
330
23BA
100
AcDbXrecord
 10
0.0
 20
0.0
 30
0.0
  0
XRECORD
  5
23D8
102
{ACAD_REACTORS
330
23BA
102
}
330
23BA
100
AcDbXrecord
 10
0.0
 20
0.0
 30
0.0
  0
XRECORD
  5
23D9
102
{ACAD_REACTORS
330
23BA
102
}
330
23BA
100
AcDbXrecord
 10
0.0
 20
0.0
 30
0.0
  0
XRECORD
  5
23DA
102
{ACAD_REACTORS
330
23BA
102
}
330
23BA
100
AcDbXrecord
 10
0.0
 20
0.0
 30
0.0
  0
LAYER_INDEX
  5
23B0
102
{ACAD_REACTORS
330
23AF
102
}
330
23AF
100
AcDbIndex
 40
2453151.585366562
100
AcDbLayerIndex
  8
0
360
23B1
 90
        0
  8
AM_0
360
23B2
 90
       50
  8
AM_7
360
23B3
 90
        1
  8
AM_11
360
23B4
 90
        6
  8
AM_5
360
23B5
 90
        5
  8
Defpoints
360
23B6
 90
        0
  8
AM_6
360
23B7
 90
        1
  8
AM_CL
360
23B8
 90
        2
  0
XRECORD
  5
2D
102
{ACAD_REACTORS
330
2C
102
}
330
2C
100
AcDbXrecord
  1
VERSION
140
15.0
  1
PRODUCT
  2
AutoCAD Mechanical 2000
  0
IDBUFFER
  5
23B1
330
0
100
AcDbIdBuffer
  0
IDBUFFER
  5
23B2
330
0
100
AcDbIdBuffer
330
2315
330
2316
330
1C24
330
1C25
330
1C26
330
1C27
330
1C28
330
1C2B
330
1C2C
330
1C2D
330
213A
330
213B
330
213C
330
213D
330
2144
330
2145
330
2147
330
2148
330
214A
330
214B
330
214C
330
214D
330
214E
330
214F
330
2150
330
2151
330
2152
330
2153
330
2154
330
2155
330
2156
330
2157
330
2158
330
2159
330
215A
330
215F
330
2160
330
2162
330
2280
330
2281
330
22FC
330
22FE
330
230D
330
230E
330
230F
330
2310
330
2311
330
2312
330
2313
330
2314
  0
IDBUFFER
  5
23B3
330
0
100
AcDbIdBuffer
330
C9F
  0
IDBUFFER
  5
23B4
330
0
100
AcDbIdBuffer
330
1DF0
330
213E
330
213F
330
2140
330
2146
330
22FD
  0
IDBUFFER
  5
23B5
330
0
100
AcDbIdBuffer
330
CC6
330
DF5
330
11B2
330
1EEB
330
2129
  0
IDBUFFER
  5
23B6
330
0
100
AcDbIdBuffer
  0
IDBUFFER
  5
23B7
330
0
100
AcDbIdBuffer
330
19BD
  0
IDBUFFER
  5
23B8
330
0
100
AcDbIdBuffer
330
229E
330
22A2
  0
ENDSEC
  0
EOF
