  0
SECTION
  2
HEADER
  9
$ACADVER
  1
AC1014
  9
$ACADMAINTVER
 70
     9
  9
$DWGCODEPAGE
  3
ANSI_932
  9
$INSBASE
 10
0.0
 20
0.0
 30
0.0
  9
$EXTMIN
 10
-141.1499755686909
 20
-27.75003143075874
 30
-0.00000001
  9
$EXTMAX
 10
14.19343852413389
 20
13.85821806515034
 30
0.00000001
  9
$LIMMIN
 10
-145.817309080409
 20
-46.82451372827617
  9
$LIMMAX
 10
18.35158007092855
 20
29.5292533721153
  9
$ORTHOMODE
 70
     0
  9
$REGENMODE
 70
     1
  9
$FILLMODE
 70
     1
  9
$QTEXTMODE
 70
     0
  9
$MIRRTEXT
 70
     0
  9
$DRAGMODE
 70
     2
  9
$LTSCALE
 40
1.0
  9
$OSMODE
 70
    55
  9
$ATTMODE
 70
     1
  9
$TEXTSIZE
 40
2.5
  9
$TRACEWID
 40
1.0
  9
$TEXTSTYLE
  7
STANDARD
  9
$CLAYER
  8
AM_0
  9
$CELTYPE
  6
BYLAYER
  9
$CECOLOR
 62
   256
  9
$CELTSCALE
 40
1.0
  9
$DELOBJ
 70
     1
  9
$DISPSILH
 70
     0
  9
$DIMSCALE
 40
0.5
  9
$DIMASZ
 40
2.5
  9
$DIMEXO
 40
1.0
  9
$DIMDLI
 40
12.0
  9
$DIMRND
 40
0.0
  9
$DIMDLE
 40
0.0
  9
$DIMEXE
 40
1.0
  9
$DIMTP
 40
0.1
  9
$DIMTM
 40
0.1
  9
$DIMTXT
 40
3.2
  9
$DIMCEN
 40
0.0
  9
$DIMTSZ
 40
0.0
  9
$DIMTOL
 70
     0
  9
$DIMLIM
 70
     0
  9
$DIMTIH
 70
     0
  9
$DIMTOH
 70
     0
  9
$DIMSE1
 70
     0
  9
$DIMSE2
 70
     0
  9
$DIMTAD
 70
     3
  9
$DIMZIN
 70
     8
  9
$DIMBLK
  1
OPEN30
  9
$DIMASO
 70
     1
  9
$DIMSHO
 70
     1
  9
$DIMPOST
  1

  9
$DIMAPOST
  1
"
  9
$DIMALT
 70
     0
  9
$DIMALTD
 70
     2
  9
$DIMALTF
 40
0.0393701
  9
$DIMLFAC
 40
1.0
  9
$DIMTOFL
 70
     1
  9
$DIMTVP
 40
0.0
  9
$DIMTIX
 70
     0
  9
$DIMSOXD
 70
     0
  9
$DIMSAH
 70
     0
  9
$DIMBLK1
  1

  9
$DIMBLK2
  1

  9
$DIMSTYLE
  2
AM_JIS
  9
$DIMCLRD
 70
   256
  9
$DIMCLRE
 70
   256
  9
$DIMCLRT
 70
     2
  9
$DIMTFAC
 40
0.71
  9
$DIMGAP
 40
1.5
  9
$DIMJUST
 70
     0
  9
$DIMSD1
 70
     0
  9
$DIMSD2
 70
     0
  9
$DIMTOLJ
 70
     0
  9
$DIMTZIN
 70
     0
  9
$DIMALTZ
 70
     0
  9
$DIMALTTZ
 70
     0
  9
$DIMFIT
 70
     3
  9
$DIMUPT
 70
     0
  9
$DIMUNIT
 70
     2
  9
$DIMDEC
 70
     3
  9
$DIMTDEC
 70
     3
  9
$DIMALTU
 70
     2
  9
$DIMALTTD
 70
     2
  9
$DIMTXSTY
  7
ASAMI
  9
$DIMAUNIT
 70
     0
  9
$LUNITS
 70
     2
  9
$LUPREC
 70
     2
  9
$SKETCHINC
 40
1.0
  9
$FILLETRAD
 40
2.5
  9
$AUNITS
 70
     0
  9
$AUPREC
 70
     0
  9
$MENU
  1
.
  9
$ELEVATION
 40
0.0
  9
$PELEVATION
 40
0.0
  9
$THICKNESS
 40
0.0
  9
$LIMCHECK
 70
     0
  9
$BLIPMODE
 70
     0
  9
$CHAMFERA
 40
2.5
  9
$CHAMFERB
 40
2.5
  9
$CHAMFERC
 40
20.0
  9
$CHAMFERD
 40
0.0
  9
$SKPOLY
 70
     0
  9
$TDCREATE
 40
2452800.443498622
  9
$TDUPDATE
 40
2453151.680604189
  9
$TDINDWG
 40
0.0847432060
  9
$TDUSRTIMER
 40
0.0847432060
  9
$USRTIMER
 70
     1
  9
$ANGBASE
 50
0.0
  9
$ANGDIR
 70
     0
  9
$PDMODE
 70
     0
  9
$PDSIZE
 40
0.0
  9
$PLINEWID
 40
0.0
  9
$COORDS
 70
     1
  9
$SPLFRAME
 70
     0
  9
$SPLINETYPE
 70
     6
  9
$SPLINESEGS
 70
     8
  9
$ATTDIA
 70
     1
  9
$ATTREQ
 70
     1
  9
$HANDLING
 70
 12289
  9
$HANDSEED
  5
28E8
  9
$SURFTAB1
 70
     6
  9
$SURFTAB2
 70
     6
  9
$SURFTYPE
 70
     6
  9
$SURFU
 70
     6
  9
$SURFV
 70
     6
  9
$UCSNAME
  2

  9
$UCSORG
 10
-0.0000000000001147
 20
0.0000000000000052
 30
0.0
  9
$UCSXDIR
 10
1.0
 20
0.000000000000002
 30
0.0
  9
$UCSYDIR
 10
-0.000000000000002
 20
1.0
 30
0.0
  9
$PUCSNAME
  2

  9
$PUCSORG
 10
0.0
 20
0.0
 30
0.0
  9
$PUCSXDIR
 10
1.0
 20
0.0
 30
0.0
  9
$PUCSYDIR
 10
0.0
 20
1.0
 30
0.0
  9
$USERI1
 70
     0
  9
$USERI2
 70
     0
  9
$USERI3
 70
     0
  9
$USERI4
 70
     0
  9
$USERI5
 70
     0
  9
$USERR1
 40
0.0
  9
$USERR2
 40
0.0
  9
$USERR3
 40
0.0
  9
$USERR4
 40
0.0
  9
$USERR5
 40
0.0
  9
$WORLDVIEW
 70
     1
  9
$SHADEDGE
 70
     3
  9
$SHADEDIF
 70
    70
  9
$TILEMODE
 70
     1
  9
$MAXACTVP
 70
    64
  9
$PINSBASE
 10
0.0
 20
0.0
 30
0.0
  9
$PLIMCHECK
 70
     0
  9
$PEXTMIN
 10
1.000000000000000E+20
 20
1.000000000000000E+20
 30
1.000000000000000E+20
  9
$PEXTMAX
 10
-1.000000000000000E+20
 20
-1.000000000000000E+20
 30
-1.000000000000000E+20
  9
$PLIMMIN
 10
0.0
 20
0.0
  9
$PLIMMAX
 10
841.0
 20
594.0
  9
$UNITMODE
 70
     0
  9
$VISRETAIN
 70
     1
  9
$PLINEGEN
 70
     0
  9
$PSLTSCALE
 70
     0
  9
$TREEDEPTH
 70
  3020
  9
$PICKSTYLE
 70
     0
  9
$CMLSTYLE
  2
STANDARD
  9
$CMLJUST
 70
     0
  9
$CMLSCALE
 40
20.0
  9
$PROXYGRAPHICS
 70
     1
  9
$MEASUREMENT
 70
     1
  0
ENDSEC
  0
SECTION
  2
CLASSES
  0
CLASS
  1
ACDBDICTIONARYWDFLT
  2
AcDbDictionaryWithDefault
  3
AutoCAD 2000
 90
        0
280
     0
281
     0
  0
CLASS
  1
ACDBPLACEHOLDER
  2
AcDbPlaceHolder
  3
AutoCAD 2000
 90
        0
280
     0
281
     0
  0
CLASS
  1
LAYOUT
  2
AcDbLayout
  3
AutoCAD 2000
 90
        0
280
     0
281
     0
  0
CLASS
  1
AMGSETTINGSOBJ
  2
AmgSettingsObj
  3
"AcadM|Product Description: AutoCAD Mechanical 2000|Company: Autodesk"
 90
        0
280
     0
281
     0
  0
CLASS
  1
ACME_DOCUMENT
  2
AcMeDbDoc
  3
AcMeServices
 90
        0
280
     0
281
     0
  0
CLASS
  1
ACMESCOPE
  2
AcMeScope
  3
AcMeServices
 90
        0
280
     0
281
     0
  0
CLASS
  1
ACMECOMMANDHISTORY
  2
AcMeCommandHistory
  3
AcMeServices
 90
        0
280
     0
281
     0
  0
CLASS
  1
DICTIONARYVAR
  2
AcDbDictionaryVar
  3
AutoCAD 2000
 90
        0
280
     0
281
     0
  0
CLASS
  1
ACIMSYSVARMAN
  2
AcImSysVarManager
  3
AcMeServices
 90
        0
280
     0
281
     0
  0
CLASS
  1
ACIMREALSYSVAR
  2
AcImRealSysVar
  3
AcMeServices
 90
        0
280
     0
281
     0
  0
CLASS
  1
ACIMINTSYSVAR
  2
AcImIntSysVar
  3
AcMeServices
 90
        0
280
     0
281
     0
  0
CLASS
  1
ACMEDRAWINGMAN
  2
AcMeDrawingMan
  3
AcMeServices
 90
        0
280
     0
281
     0
  0
CLASS
  1
ACMEVIEW
  2
AcMeView
  3
AcMeServices
 90
        0
280
     0
281
     0
  0
CLASS
  1
ACDBENTITYCACHE
  2
AcMeEntityCache
  3
AcMeServices
 90
        0
280
     0
281
     0
  0
CLASS
  1
GSMANAGER
  2
AcMeGSManager
  3
AcMeServices
 90
        0
280
     0
281
     0
  0
CLASS
  1
AmdtInternalReactor
  2
AmdtInternalReactor
  3
AcMeServices
 90
        0
280
     0
281
     0
  0
CLASS
  1
ACMESTATEMGR
  2
AcMeStateMgr
  3
AcMeServices
 90
        0
280
     0
281
     0
  0
CLASS
  1
ACME_DATABASE
  2
AcMeDbDatabase
  3
AcMeServices
 90
        0
280
     0
281
     0
  0
CLASS
  1
ACRFINSADJUSTERMGR
  2
AcRfInsAdjusterMgr
  3
AcMeServices
 90
        0
280
     0
281
     0
  0
CLASS
  1
ACMDATADICTIONARY
  2
AcmDataDictionary
  3
"AcmSymBB|Product Description: AutoCAD Mechanical 2000|Company: Autodesk"
 90
        0
280
     0
281
     0
  0
CLASS
  1
ACMDATAENTRYBLOCK
  2
AcmDataEntryBlock
  3
"AcmSymBB|Product Description: AutoCAD Mechanical 2000|Company: Autodesk"
 90
        0
280
     0
281
     0
  0
CLASS
  1
AMGOBJPROPCFG
  2
AmgObjPropCfg
  3
"AmgLay|Product Description: AutoCAD Mechanical 2000|Company: Autodesk"
 90
        1
280
     0
281
     0
  0
CLASS
  1
ACAMGFILTERDAT
  2
AcAmgFilterDat
  3
"AcadM|Product Description: AutoCAD Mechanical 2000|Company: Autodesk"
 90
        0
280
     0
281
     0
  0
CLASS
  1
LAYER_INDEX
  2
AcDbLayerIndex
  3
AutoCAD 2000
 90
        0
280
     0
281
     0
  0
CLASS
  1
IDBUFFER
  2
AcDbIdBuffer
  3
AutoCAD 2000
 90
        0
280
     0
281
     0
  0
CLASS
  1
ACIMSTRSYSVAR
  2
AcImStrSysVar
  3
AcMeServices
 90
        0
280
     0
281
     0
  0
CLASS
  1
ACMSTANDARDJIS
  2
AcmStandardJIS
  3
"AcmSymBB|Product Description: AutoCAD Mechanical 2000|Company: Autodesk"
 90
        0
280
     0
281
     0
  0
CLASS
  1
ACMSURFSTANDARDJIS
  2
AcmSurfTextStdJIS
  3
"AcmSymBB|Product Description: AutoCAD Mechanical 2000|Company: Autodesk"
 90
        0
280
     0
281
     0
  0
CLASS
  1
ACMFCFSTANDARDJIS
  2
AcmFCFStdJIS
  3
"AcmSymBB|Product Description: AutoCAD Mechanical 2000|Company: Autodesk"
 90
        0
280
     0
281
     0
  0
CLASS
  1
ACMWELDSTANDARDJIS
  2
AcmWeldingStdJIS
  3
"AcmSymBB|Product Description: AutoCAD Mechanical 2000|Company: Autodesk"
 90
        0
280
     0
281
     0
  0
CLASS
  1
ACMIDSTANDARDJIS
  2
AcmIdStdJIS
  3
"AcmSymBB|Product Description: AutoCAD Mechanical 2000|Company: Autodesk"
 90
        0
280
     0
281
     0
  0
CLASS
  1
ACMDATUMSTANDARDJIS
  2
AcmDatumStdJIS
  3
"AcmSymBB|Product Description: AutoCAD Mechanical 2000|Company: Autodesk"
 90
        0
280
     0
281
     0
  0
CLASS
  1
ACMBOMSTANDARDJIS
  2
AcmBOMStdJIS
  3
"AcmSymBB|Product Description: AutoCAD Mechanical 2000|Company: Autodesk"
 90
        0
280
     0
281
     0
  0
CLASS
  1
ACMSTANDARDANSI
  2
AcmStandardANSI
  3
"AcmSymBB|Product Description: AutoCAD Mechanical 2000|Company: Autodesk"
 90
        0
280
     0
281
     0
  0
CLASS
  1
ACMSURFSTANDARDANSI
  2
AcmSurfTextStdANSI
  3
"AcmSymBB|Product Description: AutoCAD Mechanical 2000|Company: Autodesk"
 90
        0
280
     0
281
     0
  0
CLASS
  1
ACMFCFSTANDARDANSI
  2
AcmFCFStdANSI
  3
"AcmSymBB|Product Description: AutoCAD Mechanical 2000|Company: Autodesk"
 90
        0
280
     0
281
     0
  0
CLASS
  1
ACMWELDSTANDARDANSI
  2
AcmWeldingStdANSI
  3
"AcmSymBB|Product Description: AutoCAD Mechanical 2000|Company: Autodesk"
 90
        0
280
     0
281
     0
  0
CLASS
  1
ACMIDSTANDARDANSI
  2
AcmIdStdANSI
  3
"AcmSymBB|Product Description: AutoCAD Mechanical 2000|Company: Autodesk"
 90
        0
280
     0
281
     0
  0
CLASS
  1
ACMDATUMSTANDARDANSI
  2
AcmDatumStdANSI
  3
"AcmSymBB|Product Description: AutoCAD Mechanical 2000|Company: Autodesk"
 90
        0
280
     0
281
     0
  0
CLASS
  1
ACMBOMSTANDARDANSI
  2
AcmBOMStdANSI
  3
"AcmSymBB|Product Description: AutoCAD Mechanical 2000|Company: Autodesk"
 90
        0
280
     0
281
     0
  0
CLASS
  1
ACMSTANDARDBSI
  2
AcmStandardBSI
  3
"AcmSymBB|Product Description: AutoCAD Mechanical 2000|Company: Autodesk"
 90
        0
280
     0
281
     0
  0
CLASS
  1
ACMSURFSTANDARDBSI
  2
AcmSurfTextStdBSI
  3
"AcmSymBB|Product Description: AutoCAD Mechanical 2000|Company: Autodesk"
 90
        0
280
     0
281
     0
  0
CLASS
  1
ACMFCFSTANDARDBSI
  2
AcmFCFStdBSI
  3
"AcmSymBB|Product Description: AutoCAD Mechanical 2000|Company: Autodesk"
 90
        0
280
     0
281
     0
  0
CLASS
  1
ACMWELDSTANDARDBSI
  2
AcmWeldingStdBSI
  3
"AcmSymBB|Product Description: AutoCAD Mechanical 2000|Company: Autodesk"
 90
        0
280
     0
281
     0
  0
CLASS
  1
ACMIDSTANDARDBSI
  2
AcmIdStdBSI
  3
"AcmSymBB|Product Description: AutoCAD Mechanical 2000|Company: Autodesk"
 90
        0
280
     0
281
     0
  0
CLASS
  1
ACMDATUMSTANDARDBSI
  2
AcmDatumStdBSI
  3
"AcmSymBB|Product Description: AutoCAD Mechanical 2000|Company: Autodesk"
 90
        0
280
     0
281
     0
  0
CLASS
  1
ACMBOMSTANDARDBSI
  2
AcmBOMStdBSI
  3
"AcmSymBB|Product Description: AutoCAD Mechanical 2000|Company: Autodesk"
 90
        0
280
     0
281
     0
  0
CLASS
  1
LONG_TRANSACTION
  2
AcDbLongTransaction
  3
AutoCAD 2000
 90
        0
280
     0
281
     0
  0
CLASS
  1
LWPOLYLINE
  2
AcDbPolyline
  3
AutoCAD 2000
 90
        0
280
     0
281
     1
  0
CLASS
  1
HATCH
  2
AcDbHatch
  3
AutoCAD 2000
 90
        0
280
     0
281
     1
  0
CLASS
  1
XRECORD
  2
AcDbXrecord
  3
AutoCAD 2000
 90
        0
280
     0
281
     0
  0
ENDSEC
  0
SECTION
  2
TABLES
  0
TABLE
  2
VPORT
  5
8
330
0
100
AcDbSymbolTable
 70
     3
  0
VPORT
  5
28BD
330
8
100
AcDbSymbolTableRecord
100
AcDbViewportTableRecord
  2
*ACTIVE
 70
     0
 10
0.0
 20
0.0
 11
1.0
 21
1.0
 12
-60.57157415538161
 22
-6.946633599909532
 13
0.0
 23
0.0
 14
2.5
 24
2.5
 15
10.0
 25
10.0
 16
0.0
 26
0.0
 36
1.0
 17
0.0
 27
0.0
 37
0.0
 40
103.4231980924927
 41
1.56570841889117
 42
50.0
 43
0.0
 44
0.0
 50
0.0
 51
0.0
 71
     0
 72
   100
 73
     1
 74
     1
 75
     0
 76
     0
 77
     0
 78
     0
  0
ENDTAB
  0
TABLE
  2
LTYPE
  5
5
330
0
100
AcDbSymbolTable
 70
    10
  0
LTYPE
  5
14
330
5
100
AcDbSymbolTableRecord
100
AcDbLinetypeTableRecord
  2
BYBLOCK
 70
     0
  3

 72
    65
 73
     0
 40
0.0
  0
LTYPE
  5
15
330
5
100
AcDbSymbolTableRecord
100
AcDbLinetypeTableRecord
  2
BYLAYER
 70
     0
  3

 72
    65
 73
     0
 40
0.0
  0
LTYPE
  5
16
330
5
100
AcDbSymbolTableRecord
100
AcDbLinetypeTableRecord
  2
CONTINUOUS
 70
     0
  3
Solid line
 72
    65
 73
     0
 40
0.0
  0
LTYPE
  5
4B
330
5
100
AcDbSymbolTableRecord
100
AcDbLinetypeTableRecord
  2
AM_ISO02W050
 70
     0
  3
__ __ __ __ __ __ __ __ __ __ __ __ __ __ __
 72
    65
 73
     2
 40
7.5
 49
6.0
 74
     0
 49
-1.5
 74
     0
  0
LTYPE
  5
4C
330
5
100
AcDbSymbolTableRecord
100
AcDbLinetypeTableRecord
  2
AM_ISO08W050
 70
     0
  3
____ . ____ . ____ . ____ . ____ . ____ . ____
 72
    65
 73
     4
 40
18.0
 49
12.0
 74
     0
 49
-1.5
 74
     0
 49
3.0
 74
     0
 49
-1.5
 74
     0
  0
LTYPE
  5
4D
330
5
100
AcDbSymbolTableRecord
100
AcDbLinetypeTableRecord
  2
AM_ISO09W050
 70
     0
  3
_____ . . _____ . . _____ . . ____ .. ____
 72
    65
 73
     6
 40
22.5
 49
12.0
 74
     0
 49
-1.5
 74
     0
 49
3.0
 74
     0
 49
-1.5
 74
     0
 49
3.0
 74
     0
 49
-1.5
 74
     0
  0
LTYPE
  5
4E
330
5
100
AcDbSymbolTableRecord
100
AcDbLinetypeTableRecord
  2
AMCONSTR
 70
     0
  3
_______________________
 72
    65
 73
     2
 40
9999.0
 49
9999.0
 74
     0
 49
0.0
 74
     0
  0
LTYPE
  5
4F
330
5
100
AcDbSymbolTableRecord
100
AcDbLinetypeTableRecord
  2
AM_ISO02W050X2
 70
     0
  3
 _ _ _ _ _ _ _ _ _ _ _ _
 72
    65
 73
     2
 40
3.75
 49
3.0
 74
     0
 49
-0.75
 74
     0
  0
LTYPE
  5
50
330
5
100
AcDbSymbolTableRecord
100
AcDbLinetypeTableRecord
  2
AM_ISO08W050X2
 70
     0
  3
__ . __ . __ . __ . __ . __
 72
    65
 73
     4
 40
9.0
 49
6.0
 74
     0
 49
-0.75
 74
     0
 49
1.5
 74
     0
 49
-0.75
 74
     0
  0
LTYPE
  5
53
330
5
100
AcDbSymbolTableRecord
100
AcDbLinetypeTableRecord
  2
AMZIGZAG
 70
     0
  3
/\/-/\/-/\/-/\/-/\/-/\/
 72
    65
 73
     2
 40
11.00009999999999
 49
0.0001
 74
     4
 75
   135
340
52
 46
0.04
 50
0.0
 44
0.0
 45
0.0
 49
-11.0
 74
     0
  0
LTYPE
  5
166
330
5
100
AcDbSymbolTableRecord
100
AcDbLinetypeTableRecord
  2
ACJISTGL
 70
     0
  3
_ _ _ _ _
 72
    65
 73
     2
 40
3.0
 49
2.0
 74
     0
 49
-1.0
 74
     0
  0
LTYPE
  5
26A
330
5
100
AcDbSymbolTableRecord
100
AcDbLinetypeTableRecord
  2
ACJISTGB
 70
     0
  3
__ . . __ . .
 72
    65
 73
     6
 40
9.0
 49
4.0
 74
     0
 49
-1.0
 74
     0
 49
1.0
 74
     0
 49
-1.0
 74
     0
 49
1.0
 74
     0
 49
-1.0
 74
     0
  0
ENDTAB
  0
TABLE
  2
LAYER
  5
2
330
0
100
AcDbSymbolTable
 70
     7
  0
LAYER
  5
10
330
2
100
AcDbSymbolTableRecord
100
AcDbLayerTableRecord
  2
0
 70
     0
 62
     7
  6
CONTINUOUS
  0
LAYER
  5
3F9
330
2
100
AcDbSymbolTableRecord
100
AcDbLayerTableRecord
  2
AM_0
 70
     0
 62
     7
  6
CONTINUOUS
  0
LAYER
  5
C7C
330
2
100
AcDbSymbolTableRecord
100
AcDbLayerTableRecord
  2
AM_7
 70
     0
 62
     4
  6
AM_ISO08W050
  0
LAYER
  5
C97
330
2
100
AcDbSymbolTableRecord
100
AcDbLayerTableRecord
  2
AM_11
 70
     0
 62
     3
  6
AM_ISO09W050
  0
LAYER
  5
CC5
330
2
100
AcDbSymbolTableRecord
100
AcDbLayerTableRecord
  2
AM_5
 70
     0
 62
     3
  6
CONTINUOUS
  0
LAYER
  5
CC7
330
2
100
AcDbSymbolTableRecord
100
AcDbLayerTableRecord
  2
DEFPOINTS
 70
     0
 62
     7
  6
CONTINUOUS
  0
LAYER
  5
19BC
330
2
100
AcDbSymbolTableRecord
100
AcDbLayerTableRecord
  2
AM_6
 70
     0
 62
     2
  6
CONTINUOUS
  0
ENDTAB
  0
TABLE
  2
STYLE
  5
3
330
0
100
AcDbSymbolTable
 70
     5
  0
STYLE
  5
11
330
3
100
AcDbSymbolTableRecord
100
AcDbTextStyleTableRecord
  2
STANDARD
 70
     0
 40
0.0
 41
1.0
 50
0.0
 71
     0
 42
2.5
  3
simplex.shx
  4
EXTFONT.SHX
  0
STYLE
  5
52
330
3
100
AcDbSymbolTableRecord
100
AcDbTextStyleTableRecord
  2

 70
     1
 40
0.0
 41
1.0
 50
0.0
 71
     0
 42
2.5
  3
ltypeshp.shx
  4

  0
STYLE
  5
6B
330
3
100
AcDbSymbolTableRecord
100
AcDbTextStyleTableRecord
  2
ASAMI
 70
     0
 40
0.0
 41
1.0
 50
0.0
 71
     0
 42
2.5
  3
simplex.shx
  4
EXTFONT.SHX
  0
STYLE
  5
262
330
3
100
AcDbSymbolTableRecord
100
AcDbTextStyleTableRecord
  2
ACJISTS
 70
     0
 40
1.0
 41
1.0
 50
0.0
 71
     0
 42
2.5
  3
simplex.shx
  4
bigfont.shx
  0
STYLE
  5
269
330
3
100
AcDbSymbolTableRecord
100
AcDbTextStyleTableRecord
  2
ACJISGDT
 70
     0
 40
0.0
 41
1.0
 50
0.0
 71
     0
 42
2.5
  3
amgdtans.shx
  4

  0
ENDTAB
  0
TABLE
  2
VIEW
  5
6
330
0
100
AcDbSymbolTable
 70
     0
  0
ENDTAB
  0
TABLE
  2
UCS
  5
7
330
0
100
AcDbSymbolTable
 70
     0
  0
ENDTAB
  0
TABLE
  2
APPID
  5
9
330
0
100
AcDbSymbolTable
 70
    14
  0
APPID
  5
12
330
9
100
AcDbSymbolTableRecord
100
AcDbRegAppTableRecord
  2
ACAD
 70
     0
  0
APPID
  5
30
330
9
100
AcDbSymbolTableRecord
100
AcDbRegAppTableRecord
  2
MCAD_NO_VIS
 70
     0
  0
APPID
  5
31
330
9
100
AcDbSymbolTableRecord
100
AcDbRegAppTableRecord
  2
ACAD_TEMP_GRAPHIC
 70
     0
  0
APPID
  5
2C2
330
9
100
AcDbSymbolTableRecord
100
AcDbRegAppTableRecord
  2
GENIUS_GENDTOL_13
 70
     0
  0
APPID
  5
339
330
9
100
AcDbSymbolTableRecord
100
AcDbRegAppTableRecord
  2
GENIUS_GENODEF_13
 70
     0
  0
APPID
  5
33A
330
9
100
AcDbSymbolTableRecord
100
AcDbRegAppTableRecord
  2
GENIUS_GENOBJ-N-RSBK_13
 70
     0
  0
APPID
  5
33B
330
9
100
AcDbSymbolTableRecord
100
AcDbRegAppTableRecord
  2
GENIUS_GENOBJ-N-LIB_13
 70
     0
  0
APPID
  5
33C
330
9
100
AcDbSymbolTableRecord
100
AcDbRegAppTableRecord
  2
GENIUS_GENSCALE_13
 70
     0
  0
APPID
  5
378
330
9
100
AcDbSymbolTableRecord
100
AcDbRegAppTableRecord
  2
GENIUS_GENDIMSH_14
 70
     0
  0
APPID
  5
C82
330
9
100
AcDbSymbolTableRecord
100
AcDbRegAppTableRecord
  2
GENIUS_GENOBJ-N-CRS_13
 70
     0
  0
APPID
  5
C83
330
9
100
AcDbSymbolTableRecord
100
AcDbRegAppTableRecord
  2
GENIUS_GENOENT_13
 70
     0
  0
APPID
  5
C84
330
9
100
AcDbSymbolTableRecord
100
AcDbRegAppTableRecord
  2
GENIUS_GENOREF_13
 70
     0
  0
APPID
  5
C85
330
9
100
AcDbSymbolTableRecord
100
AcDbRegAppTableRecord
  2
GENIUS_GENOLIS_13
 70
     0
  0
APPID
  5
CA0
330
9
100
AcDbSymbolTableRecord
100
AcDbRegAppTableRecord
  2
GENIUS_GENOBJ-N-CEN_13
 70
     0
  0
ENDTAB
  0
TABLE
  2
DIMSTYLE
  5
A
330
0
100
AcDbSymbolTable
 70
     9
  0
DIMSTYLE
105
58
330
A
100
AcDbSymbolTableRecord
100
AcDbDimStyleTableRecord
  2
AM_JIS
 70
     0
  3

  4
"
  5
OPEN30
  6

  7

 40
0.5
 41
2.5
 42
1.0
 43
12.0
 44
1.0
 45
0.0
 46
0.0
 47
0.1
 48
0.1
140
3.2
141
0.0
142
0.0
143
0.0393701
144
1.0
145
0.0
146
0.71
147
1.5
 71
     0
 72
     0
 73
     0
 74
     0
 75
     0
 76
     0
 77
     3
 78
     8
170
     0
171
     2
172
     1
173
     0
174
     0
175
     0
176
   256
177
   256
178
     2
270
     2
271
     3
272
     3
273
     2
274
     2
340
6B
275
     0
280
     0
281
     0
282
     0
283
     0
284
     0
285
     0
286
     0
287
     3
288
     0
  0
DIMSTYLE
105
5F
330
A
100
AcDbSymbolTableRecord
100
AcDbDimStyleTableRecord
  2
AM_JIS$3
 70
     0
  3

  4
"
  5
OPEN30
  6

  7

 40
0.5
 41
2.5
 42
1.0
 43
10.0
 44
1.0
 45
0.0
 46
0.0
 47
0.1
 48
0.1
140
3.2
141
0.0
142
0.0
143
0.0393701
144
1.0
145
0.0
146
0.71
147
1.5
 71
     0
 72
     0
 73
     0
 74
     1
 75
     0
 76
     0
 77
     3
 78
     8
170
     0
171
     2
172
     0
173
     0
174
     0
175
     0
176
   256
177
   256
178
     2
270
     2
271
     2
272
     3
273
     2
274
     2
340
6B
275
     0
280
     0
281
     0
282
     0
283
     0
284
     0
285
     0
286
     0
287
     0
288
     1
  0
DIMSTYLE
105
60
330
A
100
AcDbSymbolTableRecord
100
AcDbDimStyleTableRecord
  2
AM_JIS$4
 70
     0
  3

  4
"
  5
OPEN30
  6

  7

 40
0.5
 41
2.5
 42
1.0
 43
10.0
 44
1.0
 45
0.0
 46
0.0
 47
0.1
 48
0.1
140
3.2
141
0.0
142
0.0
143
0.0393701
144
1.0
145
0.0
146
0.71
147
1.5
 71
     0
 72
     0
 73
     0
 74
     1
 75
     0
 76
     0
 77
     3
 78
     8
170
     0
171
     2
172
     0
173
     0
174
     0
175
     0
176
   256
177
   256
178
     2
270
     2
271
     2
272
     3
273
     2
274
     2
340
6B
275
     0
280
     0
281
     0
282
     0
283
     0
284
     0
285
     0
286
     0
287
     0
288
     1
  0
DIMSTYLE
105
61
330
A
100
AcDbSymbolTableRecord
100
AcDbDimStyleTableRecord
  2
AM_JIS$6
 70
     0
  3

  4
"
  5
OPEN30
  6

  7

 40
0.5
 41
2.5
 42
1.0
 43
10.0
 44
1.0
 45
0.0
 46
0.0
 47
0.1
 48
0.1
140
3.2
141
0.0
142
0.0
143
0.0393701
144
1.0
145
0.0
146
0.71
147
1.5
 71
     0
 72
     0
 73
     0
 74
     0
 75
     0
 76
     0
 77
     0
 78
     8
170
     0
171
     2
172
     1
173
     0
174
     0
175
     0
176
   256
177
   256
178
     2
270
     2
271
     2
272
     2
273
     2
274
     2
340
6B
275
     0
280
     0
281
     0
282
     0
283
     0
284
     0
285
     0
286
     0
287
     3
288
     0
  0
DIMSTYLE
105
62
330
A
100
AcDbSymbolTableRecord
100
AcDbDimStyleTableRecord
  2
AM_JIS$7
 70
     0
  3

  4
"
  5
OPEN30
  6

  7

 40
0.5
 41
2.5
 42
1.0
 43
10.0
 44
1.0
 45
0.0
 46
0.0
 47
0.1
 48
0.1
140
3.2
141
0.0
142
0.0
143
0.0393701
144
1.0
145
0.0
146
0.71
147
1.5
 71
     0
 72
     0
 73
     0
 74
     0
 75
     0
 76
     0
 77
     3
 78
     8
170
     0
171
     2
172
     1
173
     0
174
     0
175
     0
176
   256
177
   256
178
     2
270
     2
271
     2
272
     3
273
     2
274
     2
340
6B
275
     0
280
     0
281
     0
282
     0
283
     0
284
     0
285
     0
286
     0
287
     3
288
     0
  0
DIMSTYLE
105
63
330
A
100
AcDbSymbolTableRecord
100
AcDbDimStyleTableRecord
  2
AM_JIS$SF
 70
     0
  3

  4
"
  5
OPEN30
  6

  7

 40
0.5
 41
2.5
 42
1.0
 43
10.0
 44
1.0
 45
0.0
 46
0.0
 47
0.1
 48
0.1
140
3.2
141
0.0
142
0.0
143
0.0393701
144
1.0
145
0.0
146
0.71
147
1.5
 71
     0
 72
     0
 73
     0
 74
     0
 75
     1
 76
     1
 77
     3
 78
     8
170
     0
171
     2
172
     1
173
     0
174
     0
175
     0
176
   256
177
   256
178
     2
270
     2
271
     2
272
     2
273
     2
274
     2
340
6B
275
     0
280
     0
281
     0
282
     0
283
     0
284
     0
285
     0
286
     0
287
     3
288
     0
  0
DIMSTYLE
105
68
330
A
100
AcDbSymbolTableRecord
100
AcDbDimStyleTableRecord
  2
AM_JIS$SH
 70
     0
  3

  4
"
  5

  6
GENAXEH
  7
OPEN30
 40
0.5
 41
2.5
 42
1.0
 43
10.0
 44
1.0
 45
0.0
 46
0.0
 47
0.1
 48
0.1
140
3.2
141
0.0
142
0.0
143
0.0393701
144
2.0
145
0.0
146
0.71
147
1.5
 71
     0
 72
     0
 73
     0
 74
     0
 75
     1
 76
     1
 77
     3
 78
     8
170
     0
171
     2
172
     1
173
     1
174
     0
175
     0
176
   256
177
   256
178
     2
270
     2
271
     2
272
     2
273
     2
274
     2
340
6B
275
     0
280
     0
281
     0
282
     0
283
     0
284
     0
285
     0
286
     0
287
     3
288
     0
  0
DIMSTYLE
105
B34
102
{ACAD_REACTORS
330
24DE
102
}
330
A
100
AcDbSymbolTableRecord
100
AcDbDimStyleTableRecord
  2
AM_JIS$2
 70
     0
  3

  4
"
  5
OPEN30
  6

  7

 40
0.5
 41
2.5
 42
1.0
 43
12.0
 44
1.0
 45
0.0
 46
0.0
 47
0.1
 48
0.1
140
3.2
141
0.0
142
0.0
143
0.0393701
144
1.0
145
0.0
146
0.71
147
1.5
 71
     0
 72
     0
 73
     0
 74
     0
 75
     0
 76
     0
 77
     3
 78
     8
170
     0
171
     2
172
     1
173
     0
174
     0
175
     0
176
   256
177
   256
178
     2
270
     2
271
     3
272
     3
273
     2
274
     2
340
6B
275
     0
280
     0
281
     0
282
     0
283
     0
284
     0
285
     0
286
     0
287
     3
288
     0
  0
DIMSTYLE
105
BA5
102
{ACAD_REACTORS
330
CC6
330
DF5
330
1EEB
330
237C
102
}
330
A
100
AcDbSymbolTableRecord
100
AcDbDimStyleTableRecord
  2
AM_JIS$0
 70
     0
  3

  4
"
  5
OPEN30
  6

  7

 40
0.5
 41
2.5
 42
0.0
 43
10.0
 44
1.0
 45
0.0
 46
0.0
 47
0.1
 48
0.1000000001
140
3.799999999999999
141
0.0
142
0.0
143
0.0393701
144
1.0
145
0.0
146
0.71
147
1.5
 71
     0
 72
     0
 73
     0
 74
     0
 75
     0
 76
     0
 77
     3
 78
     1
170
     0
171
     2
172
     1
173
     0
174
     0
175
     0
176
     3
177
     3
178
     2
270
     2
271
     2
272
     2
273
     2
274
     2
340
11
275
     1
280
     0
281
     0
282
     0
283
     0
284
     8
285
     0
286
     0
287
     0
288
     0
  0
ENDTAB
  0
TABLE
  2
BLOCK_RECORD
  5
1
330
0
100
AcDbSymbolTable
 70
    10
  0
BLOCK_RECORD
  5
1F
102
{ACAD_XDICTIONARY
360
74
102
}
330
1
100
AcDbSymbolTableRecord
100
AcDbBlockTableRecord
  2
*MODEL_SPACE
  0
BLOCK_RECORD
  5
101
102
{ACAD_XDICTIONARY
360
28E6
102
}
330
1
100
AcDbSymbolTableRecord
100
AcDbBlockTableRecord
  2
*PAPER_SPACE
  0
BLOCK_RECORD
  5
59
330
1
100
AcDbSymbolTableRecord
100
AcDbBlockTableRecord
  2
_OPEN30
  0
BLOCK_RECORD
  5
64
330
1
100
AcDbSymbolTableRecord
100
AcDbBlockTableRecord
  2
GENAXEH
  0
BLOCK_RECORD
  5
CC8
330
1
100
AcDbSymbolTableRecord
100
AcDbBlockTableRecord
  2
*D5
  0
BLOCK_RECORD
  5
DF6
330
1
100
AcDbSymbolTableRecord
100
AcDbBlockTableRecord
  2
*D6
  0
BLOCK_RECORD
  5
1EEC
330
1
100
AcDbSymbolTableRecord
100
AcDbBlockTableRecord
  2
*D7
  0
BLOCK_RECORD
  5
237D
330
1
100
AcDbSymbolTableRecord
100
AcDbBlockTableRecord
  2
*D8
  0
BLOCK_RECORD
  5
24DF
330
1
100
AcDbSymbolTableRecord
100
AcDbBlockTableRecord
  2
*D9
  0
ENDTAB
  0
ENDSEC
  0
SECTION
  2
BLOCKS
  0
BLOCK
  5
20
330
1F
100
AcDbEntity
  8
0
100
AcDbBlockBegin
  2
*MODEL_SPACE
 70
     0
 10
0.0
 20
0.0
 30
0.0
  3
*MODEL_SPACE
  1

  0
ENDBLK
  5
21
330
1F
100
AcDbEntity
  8
0
100
AcDbBlockEnd
  0
BLOCK
  5
103
330
101
100
AcDbEntity
 67
     1
  8
0
100
AcDbBlockBegin
  2
*PAPER_SPACE
 70
     0
 10
0.0
 20
0.0
 30
0.0
  3
*PAPER_SPACE
  1

  0
ENDBLK
  5
104
330
101
100
AcDbEntity
 67
     1
  8
0
100
AcDbBlockEnd
  0
BLOCK
  5
5D
330
59
100
AcDbEntity
  8
0
100
AcDbBlockBegin
  2
_OPEN30
 70
     0
 10
0.0
 20
0.0
 30
0.0
  3
_OPEN30
  1

  0
LINE
  5
5A
330
59
100
AcDbEntity
  8
0
 62
     0
100
AcDbLine
 10
-1.0
 20
0.26794919
 30
0.0
 11
0.0
 21
0.0
 31
0.0
  0
LINE
  5
5B
330
59
100
AcDbEntity
  8
0
 62
     0
100
AcDbLine
 10
0.0
 20
0.0
 30
0.0
 11
-1.0
 21
-0.26794919
 31
0.0
  0
LINE
  5
5C
330
59
100
AcDbEntity
  8
0
 62
     0
100
AcDbLine
 10
0.0
 20
0.0
 30
0.0
 11
-1.0
 21
0.0
 31
0.0
  0
ENDBLK
  5
5E
330
59
100
AcDbEntity
  8
0
100
AcDbBlockEnd
  0
BLOCK
  5
66
330
64
100
AcDbEntity
  8
0
100
AcDbBlockBegin
  2
GENAXEH
 70
     0
 10
0.0
 20
0.0
 30
0.0
  3
GENAXEH
  1

  0
LINE
  5
65
330
64
100
AcDbEntity
  8
0
100
AcDbLine
 10
-1.0
 20
0.0
 30
0.0
 11
1.0
 21
0.0
 31
0.0
  0
ENDBLK
  5
67
330
64
100
AcDbEntity
  8
0
100
AcDbBlockEnd
  0
BLOCK
  5
CD2
330
CC8
100
AcDbEntity
  8
0
100
AcDbBlockBegin
  2
*D5
 70
     1
 10
0.0
 20
0.0
 30
0.0
  3
*D5
  1

  0
LINE
  5
25BE
330
CC8
100
AcDbEntity
  8
AM_5
 62
     3
100
AcDbLine
 10
-129.0000000000001
 20
-4.234865101779198
 30
0.0
 11
-129.0000000000001
 21
-17.00003143075871
 31
0.0
  0
LINE
  5
25BF
330
CC8
100
AcDbEntity
  8
AM_5
 62
     3
100
AcDbLine
 10
-1.999961853033421
 20
-4.450000427283649
 30
0.0
 11
-1.999961853033421
 21
-17.00003143075871
 31
0.0
  0
LINE
  5
25C0
330
CC8
100
AcDbEntity
  8
AM_5
 62
     3
100
AcDbLine
 10
-127.7500000000001
 20
-16.50003143075871
 30
0.0
 11
-3.249961853033421
 21
-16.50003143075871
 31
0.0
  0
INSERT
  5
25C1
330
CC8
100
AcDbEntity
  8
AM_5
 62
     3
100
AcDbBlockReference
  2
_OPEN30
 10
-129.0000000000001
 20
-16.50003143075871
 30
0.0
 41
1.25
 42
1.25
 43
1.25
 50
180.0
  0
INSERT
  5
25C2
330
CC8
100
AcDbEntity
  8
AM_5
 62
     3
100
AcDbBlockReference
  2
_OPEN30
 10
-1.999961853033421
 20
-16.50003143075871
 30
0.0
 41
1.25
 42
1.25
 43
1.25
  0
MTEXT
  5
25C3
330
CC8
100
AcDbEntity
  8
AM_5
 62
     2
100
AcDbMText
 10
-65.49998092651676
 20
-14.80003143075871
 30
0.0
 40
1.9
 41
0.0
 71
     5
 72
     1
  1
127
1001
ACAD
1000
MTEXTBEGIN
1070
    73
1070
     1
1070
    44
1040
1.0
1070
    74
1070
     0
1000
MTEXTEND
  0
POINT
  5
25C4
330
CC8
100
AcDbEntity
  8
DEFPOINTS
 62
     0
100
AcDbPoint
 10
-129.0000000000001
 20
-4.234865101779198
 30
0.0
  0
POINT
  5
25C5
330
CC8
100
AcDbEntity
  8
DEFPOINTS
 62
     0
100
AcDbPoint
 10
-1.999961853033421
 20
-4.450000427283649
 30
0.0
  0
POINT
  5
25C6
330
CC8
100
AcDbEntity
  8
DEFPOINTS
 62
     0
100
AcDbPoint
 10
-1.999961853033421
 20
-16.50003143075871
 30
0.0
  0
ENDBLK
  5
CD3
330
CC8
100
AcDbEntity
  8
0
100
AcDbBlockEnd
  0
BLOCK
  5
E00
330
DF6
100
AcDbEntity
  8
0
100
AcDbBlockBegin
  2
*D6
 70
     1
 10
0.0
 20
0.0
 30
0.0
  3
*D6
  1

  0
LINE
  5
2876
330
DF6
100
AcDbEntity
  8
AM_5
 62
     3
100
AcDbLine
 10
-74.00000000000011
 20
-4.500000388439733
 30
0.0
 11
-74.00000000000011
 21
-12.00003143075863
 31
0.0
  0
LINE
  5
2877
330
DF6
100
AcDbEntity
  8
AM_5
 62
     3
100
AcDbLine
 10
-1.999961853033455
 20
-4.450000108631988
 30
0.0
 11
-1.999961853033456
 21
-12.00003143075863
 31
0.0
  0
LINE
  5
2878
330
DF6
100
AcDbEntity
  8
AM_5
 62
     3
100
AcDbLine
 10
-72.75000000000011
 20
-11.50003143075863
 30
0.0
 11
-3.249961853033456
 21
-11.50003143075863
 31
0.0
  0
INSERT
  5
2879
330
DF6
100
AcDbEntity
  8
AM_5
 62
     3
100
AcDbBlockReference
  2
_OPEN30
 10
-74.00000000000011
 20
-11.50003143075863
 30
0.0
 41
1.25
 42
1.25
 43
1.25
 50
180.0
  0
INSERT
  5
287A
330
DF6
100
AcDbEntity
  8
AM_5
 62
     3
100
AcDbBlockReference
  2
_OPEN30
 10
-1.999961853033456
 20
-11.50003143075863
 30
0.0
 41
1.25
 42
1.25
 43
1.25
  0
MTEXT
  5
287B
330
DF6
100
AcDbEntity
  8
AM_5
 62
     2
100
AcDbMText
 10
-37.99998092651678
 20
-9.800031430758631
 30
0.0
 40
1.9
 41
0.0
 71
     5
 72
     1
  1
72
1001
ACAD
1000
MTEXTBEGIN
1070
    73
1070
     1
1070
    44
1040
1.0
1070
    74
1070
     0
1000
MTEXTEND
  0
POINT
  5
287C
330
DF6
100
AcDbEntity
  8
DEFPOINTS
 62
     0
100
AcDbPoint
 10
-74.00000000000011
 20
-4.500000388439733
 30
0.0
  0
POINT
  5
287D
330
DF6
100
AcDbEntity
  8
DEFPOINTS
 62
     0
100
AcDbPoint
 10
-1.999961853033455
 20
-4.450000108631988
 30
0.0
  0
POINT
  5
287E
330
DF6
100
AcDbEntity
  8
DEFPOINTS
 62
     0
100
AcDbPoint
 10
-1.999961853033456
 20
-11.50003143075863
 30
0.0
  0
ENDBLK
  5
E01
330
DF6
100
AcDbEntity
  8
0
100
AcDbBlockEnd
  0
BLOCK
  5
1EF6
330
1EEC
100
AcDbEntity
  8
0
100
AcDbBlockBegin
  2
*D7
 70
     1
 10
0.0
 20
0.0
 30
0.0
  3
*D7
  1

  0
LINE
  5
25C7
330
1EEC
100
AcDbEntity
  8
AM_5
 62
     3
100
AcDbLine
 10
-128.7053273518917
 20
-4.500007542575746
 30
0.0
 11
-138.9999755686909
 21
-4.500007542575765
 31
0.0
  0
LINE
  5
25C8
330
1EEC
100
AcDbEntity
  8
AM_5
 62
     3
100
AcDbLine
 10
-128.7053273518917
 20
4.499981016489259
 30
0.0
 11
-138.9999755686909
 21
4.49998101648924
 31
0.0
  0
LINE
  5
25C9
330
1EEC
100
AcDbEntity
  8
AM_5
 62
     3
100
AcDbLine
 10
-138.4999755686909
 20
-3.250007542575764
 30
0.0
 11
-138.4999755686909
 21
3.249981016489241
 31
0.0
  0
INSERT
  5
25CA
330
1EEC
100
AcDbEntity
  8
AM_5
 62
     3
100
AcDbBlockReference
  2
_OPEN30
 10
-138.4999755686909
 20
-4.500007542575764
 30
0.0
 41
1.25
 42
1.25
 43
1.25
 50
270.0000000000001
  0
INSERT
  5
25CB
330
1EEC
100
AcDbEntity
  8
AM_5
 62
     3
100
AcDbBlockReference
  2
_OPEN30
 10
-138.4999755686909
 20
4.499981016489241
 30
0.0
 41
1.25
 42
1.25
 43
1.25
 50
90.0000000000001
  0
MTEXT
  5
25CC
330
1EEC
100
AcDbEntity
  8
AM_5
 62
     2
100
AcDbMText
 10
-140.1999755686909
 20
-0.0000132630432595
 30
0.0
 40
1.9
 41
0.0
 71
     5
 72
     1
  1
%%c9
 11
-0.000000000000002
 21
1.0
 31
0.0
1001
ACAD
1000
MTEXTBEGIN
1070
    73
1070
     1
1070
    44
1040
1.0
1070
    74
1070
     0
1000
MTEXTEND
  0
POINT
  5
25CD
330
1EEC
100
AcDbEntity
  8
DEFPOINTS
 62
     0
100
AcDbPoint
 10
-128.7053273518917
 20
-4.50000754257546
 30
0.0
  0
POINT
  5
25CE
330
1EEC
100
AcDbEntity
  8
DEFPOINTS
 62
     0
100
AcDbPoint
 10
-128.7053273518917
 20
4.499981016489545
 30
0.0
  0
POINT
  5
25CF
330
1EEC
100
AcDbEntity
  8
DEFPOINTS
 62
     0
100
AcDbPoint
 10
-138.4999755686909
 20
4.499981016489549
 30
0.0
  0
ENDBLK
  5
1EF7
330
1EEC
100
AcDbEntity
  8
0
100
AcDbBlockEnd
  0
BLOCK
  5
2387
330
237D
100
AcDbEntity
  8
0
100
AcDbBlockBegin
  2
*D8
 70
     1
 10
0.0
 20
0.0
 30
0.0
  3
*D8
  1

  0
LINE
  5
287F
330
237D
100
AcDbEntity
  8
AM_5
 62
     3
100
AcDbLine
 10
-1.999961853033341
 20
4.449999891368006
 30
0.0
 11
9.819888315414891
 21
4.449999891368029
 31
0.0
  0
LINE
  5
2880
330
237D
100
AcDbEntity
  8
AM_5
 62
     3
100
AcDbLine
 10
-1.999961853033445
 20
-4.450000108631992
 30
0.0
 11
9.81988831541491
 21
-4.45000010863197
 31
0.0
  0
LINE
  5
2881
330
237D
100
AcDbEntity
  8
AM_5
 62
     3
100
AcDbLine
 10
9.319888315414894
 20
3.199999891368028
 30
0.0
 11
9.319888315414909
 21
-3.200000108631971
 31
0.0
  0
INSERT
  5
2882
330
237D
100
AcDbEntity
  8
AM_5
 62
     3
100
AcDbBlockReference
  2
_OPEN30
 10
9.319888315414893
 20
4.449999891368028
 30
0.0
 41
1.25
 42
1.25
 43
1.25
 50
90.0000000000001
  0
INSERT
  5
2883
330
237D
100
AcDbEntity
  8
AM_5
 62
     3
100
AcDbBlockReference
  2
_OPEN30
 10
9.31988831541491
 20
-4.450000108631971
 30
0.0
 41
1.25
 42
1.25
 43
1.25
 50
270.0000000000001
  0
MTEXT
  5
2884
330
237D
100
AcDbEntity
  8
AM_5
 62
     2
100
AcDbMText
 10
7.619888315414901
 20
-0.000000108631975
 30
0.0
 40
1.9
 41
0.0
 71
     5
 72
     1
  1
%%c8.9
 11
-0.000000000000002
 21
1.0
 31
0.0
1001
ACAD
1000
MTEXTBEGIN
1070
    73
1070
     1
1070
    44
1040
1.0
1070
    74
1070
     0
1000
MTEXTEND
  0
POINT
  5
2885
330
237D
100
AcDbEntity
  8
DEFPOINTS
 62
     0
100
AcDbPoint
 10
-1.999961853033331
 20
4.44999989136801
 30
0.0
  0
POINT
  5
2886
330
237D
100
AcDbEntity
  8
DEFPOINTS
 62
     0
100
AcDbPoint
 10
-1.999961853033455
 20
-4.450000108631988
 30
0.0
  0
POINT
  5
2887
330
237D
100
AcDbEntity
  8
DEFPOINTS
 62
     0
100
AcDbPoint
 10
9.3198883154149
 20
-4.450000108631991
 30
0.0
  0
ENDBLK
  5
2388
330
237D
100
AcDbEntity
  8
0
100
AcDbBlockEnd
  0
BLOCK
  5
24EF
330
24DF
100
AcDbEntity
  8
0
100
AcDbBlockBegin
  2
*D9
 70
     1
 10
0.0
 20
0.0
 30
0.0
  3
*D9
  1

  0
LINE
  5
25D0
330
24DF
100
AcDbEntity
  8
AM_5
100
AcDbLine
 10
0.1710100716627322
 20
-0.4698463103930029
 30
0.0
 11
5.043978875684575
 21
-13.85821806515036
 31
0.0
  0
LINE
  5
25D1
330
24DF
100
AcDbEntity
  8
AM_5
100
AcDbLine
 10
0.1710100716627253
 20
0.4698463103929126
 30
0.0
 11
5.043978875684371
 21
13.85821806515034
 31
0.0
  0
ARC
  5
25D2
330
24DF
100
AcDbEntity
  8
AM_5
100
AcDbCircle
 10
-0.0000000000000959
 20
-0.0000000000000464
 30
0.0
 40
14.24760763105703
100
AcDbArc
 50
295.0284030819037
 51
64.9715969180971
  0
INSERT
  5
25D3
330
24DF
100
AcDbEntity
  8
AM_5
100
AcDbBlockReference
  2
_OPEN30
 10
4.872968804021747
 20
-13.3883717547574
 30
0.0
 41
1.25
 42
1.25
 43
1.25
 50
202.5142015409515
  0
INSERT
  5
25D4
330
24DF
100
AcDbEntity
  8
AM_5
100
AcDbBlockReference
  2
_OPEN30
 10
4.872968804021549
 20
13.38837175475738
 30
0.0
 41
1.25
 42
1.25
 43
1.25
 50
157.4857984590493
  0
MTEXT
  5
25D5
330
24DF
100
AcDbEntity
  8
AM_5
 62
     2
100
AcDbMText
 10
12.69760763105694
 20
0.0000000000000519
 30
0.0
 40
1.6
 41
0.0
 71
     5
 72
     1
  1
140°
  7
ASAMI
 11
-0.000000000000002
 21
1.0
 31
0.0
1001
ACAD
1000
MTEXTBEGIN
1070
    73
1070
     1
1070
    44
1040
1.0
1070
    74
1070
     0
1000
MTEXTEND
  0
POINT
  5
25D6
330
24DF
100
AcDbEntity
  8
DEFPOINTS
 62
     0
100
AcDbPoint
 10
13.08238281134676
 20
-5.643189097126849
 30
0.0
  0
POINT
  5
25D7
330
24DF
100
AcDbEntity
  8
DEFPOINTS
 62
     0
100
AcDbPoint
 10
-0.0000000000000959
 20
-0.0000000000000464
 30
0.0
  0
POINT
  5
25D8
330
24DF
100
AcDbEntity
  8
DEFPOINTS
 62
     0
100
AcDbPoint
 10
-0.410619134442527
 20
1.128166799876588
 30
0.0
  0
POINT
  5
25D9
330
24DF
100
AcDbEntity
  8
DEFPOINTS
 62
     0
100
AcDbPoint
 10
-0.0000000000000959
 20
-0.0000000000000464
 30
0.0
  0
POINT
  5
25DA
330
24DF
100
AcDbEntity
  8
DEFPOINTS
 62
     0
100
AcDbPoint
 10
-0.4106191344425128
 20
-1.128166799876679
 30
0.0
  0
ENDBLK
  5
24F0
330
24DF
100
AcDbEntity
  8
0
100
AcDbBlockEnd
  0
ENDSEC
  0
SECTION
  2
ENTITIES
  0
LINE
  5
C9F
330
1F
100
AcDbEntity
  8
AM_7
100
AcDbLine
 10
-131.4999745686909
 20
-0.0000000000000533
 30
0.0
 11
2.319887315414997
 21
0.0000000000000009
 31
0.0
1001
GENIUS_GENODEF_13
1002
{
1000
HIER
1070
     0
1002
}
1002
{
1000
MANEDIT
1070
     0
1002
}
1002
{
1000
NOSEL
1070
     0
1002
}
1002
{
1000
BEHIND
1070
     0
1002
}
1002
{
1000
REACTOR
1002
}
1001
GENIUS_GENOBJ-N-CEN_13
1002
{
1000
OWNER
1000
GEN
1002
}
  0
DIMENSION
  5
CC6
330
1F
100
AcDbEntity
  8
AM_5
100
AcDbDimension
  2
*D5
 10
-1.999961853033421
 20
-16.50003143075871
 30
0.0
 11
-65.49998092651676
 21
-14.80003143075871
 31
0.0
 70
    32
  1
<>
  3
AM_JIS$0
100
AcDbAlignedDimension
 13
-129.0000000000001
 23
-4.234865101779198
 33
0.0
 14
-1.999961853033421
 24
-4.450000427283649
 34
0.0
 50
0.0000000000001132
100
AcDbRotatedDimension
1001
GENIUS_GENDTOL_13
1000

1000
h7
1000

1040
0.0
1001
ACAD
1000
DSTYLE
1002
{
1070
   271
1070
     0
1002
}
  0
DIMENSION
  5
DF5
330
1F
100
AcDbEntity
  8
AM_5
100
AcDbDimension
  2
*D6
 10
-1.999961853033456
 20
-11.50003143075863
 30
0.0
 11
-37.99998092651678
 21
-9.800031430758631
 31
0.0
 70
    32
  1
<>
  3
AM_JIS$0
100
AcDbAlignedDimension
 13
-74.00000000000011
 23
-4.500000388439733
 33
0.0
 14
-1.999961853033455
 24
-4.450000108631988
 34
0.0
 50
0.0000000000001527
100
AcDbRotatedDimension
1001
GENIUS_GENDTOL_13
1000

1000
h7
1000

1040
0.0
1001
ACAD
1000
DSTYLE
1002
{
1070
   271
1070
     0
1002
}
  0
TEXT
  5
19BD
330
1F
100
AcDbEntity
  8
AM_6
100
AcDbText
 10
-76.3333142598501
 20
-27.75003143075874
 30
0.0
 40
2.5
  1
MDW089LHK
 50
0.0000000000001527
 72
     4
 11
-65.49998092651676
 21
-26.50003143075871
 31
0.0
100
AcDbText
  0
LINE
  5
1C24
330
1F
100
AcDbEntity
  8
AM_0
 48
0.5
100
AcDbLine
 10
-128.9999618530334
 20
4.234815687510544
 30
0.0
 11
-128.7053273518917
 21
4.499981016489545
 31
0.0
  0
LINE
  5
1C25
330
1F
100
AcDbEntity
  8
AM_0
 48
0.5
100
AcDbLine
 10
-128.9999618530334
 20
-4.234842213595711
 30
0.0
 11
-128.7053273518917
 21
-4.50000754257546
 31
0.0
  0
LINE
  5
1C26
330
1F
100
AcDbEntity
  8
AM_0
 48
0.5
100
AcDbLine
 10
-128.7053782145251
 20
-4.500030430758968
 30
0.0
 11
-128.7053782145251
 21
4.500029653880044
 31
0.0
  0
LINE
  5
1C27
330
1F
100
AcDbEntity
  8
AM_0
 48
0.5
100
AcDbLine
 10
-129.0000000000001
 20
-4.234865101779198
 30
0.0
 11
-129.0000000000001
 21
4.234864324900297
 31
0.0
  0
LINE
  5
1C28
330
1F
100
AcDbEntity
  8
AM_0
100
AcDbLine
 10
-80.26791127523422
 20
4.499999611560396
 30
0.0
 11
-128.7053782145251
 21
4.500015348764787
 31
0.0
  0
LINE
  5
1C2B
330
1F
100
AcDbEntity
  8
AM_0
 48
0.5
100
AcDbLine
 10
-74.00000000000011
 20
-4.500000388439733
 30
0.0
 11
-128.7053782145251
 21
-4.500018986667214
 31
0.0
  0
LINE
  5
1C2C
330
1F
100
AcDbEntity
  8
AM_0
 48
0.5
100
AcDbLine
 10
-73.99996185303348
 20
4.501278224893514
 30
0.0
 11
-128.7053782145251
 21
4.500015348764787
 31
0.0
  0
LINE
  5
1C2D
330
1F
100
AcDbEntity
  8
AM_0
 48
0.5
100
AcDbLine
 10
-74.00000000000011
 20
4.501278224012891
 30
0.0
 11
-128.7053782145251
 21
4.500015348764787
 31
0.0
  0
LINE
  5
1EDD
330
1F
100
AcDbEntity
  8
AM_0
100
AcDbLine
 10
-74.00000000000011
 20
-4.500000389320357
 30
0.0
 11
-74.00000000000011
 21
4.501278224012891
 31
0.0
  0
LINE
  5
1EDF
330
1F
100
AcDbEntity
  8
AM_0
100
AcDbLine
 10
-74.00000000000011
 20
-4.500000388439733
 30
0.0
 11
-73.86192996880776
 21
-4.420285618763813
 31
0.0
  0
DIMENSION
  5
1EEB
330
1F
100
AcDbEntity
  8
AM_5
100
AcDbDimension
  2
*D7
 10
-138.4999755686909
 20
4.499981016489549
 30
0.0
 11
-140.1999755686909
 21
-0.0000132630429761
 31
0.0
 70
    32
  1
%%c<>
 51
359.9999999999998
  3
AM_JIS$0
100
AcDbAlignedDimension
 13
-128.7053273518917
 23
-4.50000754257546
 33
0.0
 14
-128.7053273518917
 24
4.499981016489545
 34
0.0
 50
270.0000000000002
100
AcDbRotatedDimension
1001
ACAD
1000
DSTYLE
1002
{
1070
   271
1070
     0
1002
}
1001
GENIUS_GENDTOL_13
1000

1000
h7
1000

1040
0.0
  0
LINE
  5
1FEC
330
1F
100
AcDbEntity
  8
AM_0
100
AcDbLine
 10
-74.00000000000011
 20
4.501278224012891
 30
0.0
 11
-73.86189182184086
 21
4.421541430175336
 31
0.0
  0
ELLIPSE
  5
20DE
330
1F
100
AcDbEntity
  8
AM_11
 48
0.5
100
AcDbEllipse
 10
-80.73224894186003
 20
19.65550548241487
 30
0.0
 11
-24.41816012064585
 21
0.0000000000000557
 31
0.0
210
0.0
220
0.0
230
1.0
 40
0.8899999999999989
 41
1.130070686340305
 42
2.011520147323596
  0
ELLIPSE
  5
20DF
330
1F
100
AcDbEntity
  8
AM_11
 48
0.5
100
AcDbEllipse
 10
-80.7322489418602
 20
-19.65549298916291
 30
0.0
 11
-24.41816012064583
 21
0.0000000000000828
 31
0.0
210
0.0
220
0.0
230
1.0
 40
0.89
 41
4.271664206181686
 42
5.153113667164993
  0
ELLIPSE
  5
20E0
330
1F
100
AcDbEntity
  8
AM_11
 48
0.5
100
AcDbEllipse
 10
-101.565582275193
 20
19.65550548241482
 30
0.0
 11
-24.41816012064585
 21
0.0000000000000557
 31
0.0
210
0.0
220
0.0
230
1.0
 40
0.8899999999999989
 41
1.130070686340305
 42
2.011520147323596
  0
ELLIPSE
  5
20E1
330
1F
100
AcDbEntity
  8
AM_11
 48
0.5
100
AcDbEllipse
 10
-101.5655822751932
 20
-19.65549298916297
 30
0.0
 11
-24.41816012064583
 21
0.0000000000000828
 31
0.0
210
0.0
220
0.0
230
1.0
 40
0.89
 41
4.271664206181686
 42
5.153113667164993
  0
ELLIPSE
  5
20E2
330
1F
100
AcDbEntity
  8
AM_11
 48
0.5
100
AcDbEllipse
 10
-122.3989571479905
 20
19.65552291997047
 30
0.0
 11
-24.41816012064585
 21
0.0000000000000557
 31
0.0
210
0.0
220
0.0
230
1.0
 40
0.8899999999999989
 41
1.297057077869658
 42
2.011520147323596
  0
ELLIPSE
  5
20E3
330
1F
100
AcDbEntity
  8
AM_11
 48
0.5
100
AcDbEllipse
 10
-122.3989571479907
 20
-19.65547555160731
 30
0.0
 11
-24.41816012064583
 21
0.0000000000000828
 31
0.0
210
0.0
220
0.0
230
1.0
 40
0.89
 41
4.271664206181686
 42
4.986128229309925
  0
DIMENSION
  5
237C
330
1F
100
AcDbEntity
  8
AM_5
100
AcDbDimension
  2
*D8
 10
9.3198883154149
 20
-4.450000108631991
 30
0.0
 11
7.619888315414901
 21
-0.0000001086319904
 31
0.0
 70
    32
  1
%%c<>
 51
359.9999999999998
  3
AM_JIS$0
100
AcDbAlignedDimension
 13
-1.999961853033331
 23
4.44999989136801
 33
0.0
 14
-1.999961853033455
 24
-4.450000108631988
 34
0.0
 50
89.99999999999943
100
AcDbRotatedDimension
1001
ACAD
1000
DSTYLE
1002
{
1070
   271
1070
     1
1002
}
1001
GENIUS_GENDTOL_13
1000

1000
h7
1000

1040
0.0
  0
ELLIPSE
  5
2472
330
1F
100
AcDbEntity
  8
AM_0
 48
0.5
100
AcDbEllipse
 10
7.647781752127393
 20
7.122815828269775
 30
0.0
 11
-7.101888545390178
 21
7.101888545390121
 31
0.0
210
0.0
220
0.0
230
1.0
 40
0.999999999999998
 41
1.171329590070667
 42
1.424984195904709
  0
ELLIPSE
  5
2473
330
1F
100
AcDbEntity
  8
AM_0
 48
0.5
100
AcDbEllipse
 10
7.64778175212945
 20
-7.122815828268134
 30
0.0
 11
-7.101888545388129
 21
-7.101888545392175
 31
0.0
210
0.0
220
0.0
230
-1.0
 40
0.9999999999999978
 41
1.171329590070667
 42
1.424984195904709
  0
LINE
  5
2474
330
1F
100
AcDbEntity
  8
AM_0
 48
0.5
100
AcDbLine
 10
-1.657081687715166
 20
3.342186490690014
 30
0.0
 11
-1.999961853033331
 21
4.44999989136801
 31
0.0
  0
LINE
  5
2476
330
1F
100
AcDbEntity
  8
AM_0
100
AcDbLine
 10
-0.0000000000000959
 20
-0.0000000000000464
 30
0.0
 11
-0.4106191344425128
 21
-1.128166799876679
 31
0.0
  0
LINE
  5
2477
330
1F
100
AcDbEntity
  8
AM_0
100
AcDbLine
 10
-0.410619134442527
 20
1.128166799876588
 30
0.0
 11
-0.0000000000000959
 21
-0.0000000000000464
 31
0.0
  0
LINE
  5
2478
330
1F
100
AcDbEntity
  8
AM_0
 48
0.5
100
AcDbLine
 10
-1.657081687714175
 20
-3.342186490691079
 30
0.0
 11
-1.999961853033455
 21
-4.450000108631988
 31
0.0
  0
DIMENSION
  5
24DE
330
1F
100
AcDbEntity
  8
AM_5
100
AcDbDimension
  2
*D9
 10
-0.4106191344425128
 20
-1.128166799876679
 30
0.0
 11
12.69760763105694
 21
0.0000000000000242
 31
0.0
 70
    34
  1
<>
 51
359.9999999999998
  3
AM_JIS$2
100
AcDb2LineAngularDimension
 13
-0.410619134442527
 23
1.128166799876588
 33
0.0
 14
-0.0000000000000959
 24
-0.0000000000000464
 34
0.0
 15
-0.0000000000000959
 25
-0.0000000000000464
 35
0.0
 16
13.08238281134676
 26
-5.643189097126849
 36
0.0
1001
ACAD
1000
DSTYLE
1002
{
1070
   179
1070
     3
1002
}
1001
GENIUS_GENDTOL_13
1000

1000
h7
1000

1040
0.0
  0
LINE
  5
282E
330
1F
100
AcDbEntity
  8
AM_0
 48
0.5
100
AcDbLine
 10
-4.698300679530844
 20
4.449999891368054
 30
0.0
 11
-1.999961853033331
 21
4.44999989136801
 31
0.0
  0
LINE
  5
282F
330
1F
100
AcDbEntity
  8
AM_0
 48
0.5
100
AcDbLine
 10
-0.0000000000000462
 20
-0.0000000000000594
 30
0.0
 11
-1.787544445176941
 21
1.684933939399763
 31
0.0
  0
LINE
  5
2830
330
1F
100
AcDbEntity
  8
AM_0
 48
0.5
100
AcDbLine
 10
-4.698300679530988
 20
-4.450000108631948
 30
0.0
 11
-1.999961853033473
 21
-4.450000108631988
 31
0.0
  0
LINE
  5
2831
330
1F
100
AcDbEntity
  8
AM_0
 48
0.5
100
AcDbLine
 10
-34.69787979242306
 20
-4.450000108631564
 30
0.0
 11
-20.57240041097596
 21
-4.450000108631697
 31
0.0
  0
LINE
  5
2832
330
1F
100
AcDbEntity
  8
AM_11
 48
0.5
100
AcDbLine
 10
-48.5143656596786
 20
4.450632094627874
 30
0.0
 11
-38.38412379925379
 21
4.449999891368586
 31
0.0
  0
LINE
  5
2833
330
1F
100
AcDbEntity
  8
AM_0
 48
0.5
100
AcDbLine
 10
-60.57858911337739
 20
-4.449367905372025
 30
0.0
 11
-48.51436565967872
 21
-4.449367905372127
 31
0.0
  0
LINE
  5
2834
330
1F
100
AcDbEntity
  8
AM_0
 48
0.5
100
AcDbLine
 10
-38.38413747152253
 20
4.449999891368586
 30
0.0
 11
-15.70184072298696
 21
4.449999891368227
 31
0.0
  0
LINE
  5
2835
330
1F
100
AcDbEntity
  8
AM_11
 48
0.5
100
AcDbLine
 10
-48.51436565967865
 20
-4.45000010863134
 30
0.0
 11
-34.69787979242306
 21
-4.450632311890677
 31
0.0
  0
LINE
  5
2836
330
1F
100
AcDbEntity
  8
AM_11
 48
0.5
100
AcDbLine
 10
-15.70184072298696
 20
4.449999891368227
 30
0.0
 11
-4.698300679530844
 21
4.449999891368054
 31
0.0
  0
LINE
  5
2837
330
1F
100
AcDbEntity
  8
AM_11
 48
0.5
100
AcDbLine
 10
-20.57240041097596
 20
-4.450000108631697
 30
0.0
 11
-4.698300679530988
 21
-4.450000108631948
 31
0.0
  0
ELLIPSE
  5
2838
330
1F
100
AcDbEntity
  8
AM_0
 48
0.5
100
AcDbEllipse
 10
4.271378944736132
 20
-2.162535914012187
 30
0.0
 11
6.737870335515166
 21
0.8264133230925946
 31
0.0
210
0.0
220
0.0
230
1.0
 40
0.7740661165881187
 41
2.991065558986761
 42
3.43246615211653
  0
SPLINE
  5
2839
330
1F
100
AcDbEntity
  8
AM_0
 48
0.5
100
AcDbSpline
210
0.0
220
0.0
230
1.0
 70
     8
 71
     3
 72
    15
 73
    11
 74
     0
 42
0.0000000001
 43
0.0000000001
 40
0.0
 40
0.0
 40
0.0
 40
0.0
 40
1.010743614677189
 40
2.022833924044153
 40
3.037578959561199
 40
4.056212747067873
 40
5.079857613375832
 40
6.109500119648989
 40
7.14596120163808
 40
7.518613194161257
 40
7.518613194161257
 40
7.518613194161257
 40
7.518613194161257
 10
-4.698300679530844
 20
4.449999891368054
 30
0.0
 10
-4.979078404132398
 20
4.447354157195608
 30
0.0
 10
-5.541007955991488
 20
4.442059163727159
 30
0.0
 10
-6.383696720611657
 20
4.399333111853143
 30
0.0
 10
-7.226350792224534
 20
4.331435619313458
 30
0.0
 10
-8.068952457925384
 20
4.236264441293302
 30
0.0
 10
-8.911491682572499
 20
4.115110317418674
 30
0.0
 10
-9.753958175382118
 20
3.968534961567148
 30
0.0
 10
-10.41451770408931
 20
3.83440264329178
 30
0.0
 10
-10.79434275121719
 20
3.750164892895418
 30
0.0
 10
-10.89465881720944
 20
3.727426901988296
 30
0.0
  0
ELLIPSE
  5
283A
330
1F
100
AcDbEntity
  8
AM_0
 48
0.5
100
AcDbEllipse
 10
3.661871761947802
 20
4.389319686082727
 30
0.0
 11
-0.0000000000001622
 21
9.65037559121469
 31
0.0
210
0.0
220
0.0
230
1.0
 40
0.8717091870455996
 41
1.951257656000313
 42
2.322034022628299
  0
SPLINE
  5
283B
330
1F
100
AcDbEntity
  8
AM_0
 48
0.5
100
AcDbSpline
210
0.0
220
0.0
230
1.0
 70
     8
 71
     3
 72
    25
 73
    21
 74
     0
 42
0.0000000001
 43
0.0000000001
 40
6.846175049578289
 40
6.846175049578289
 40
6.846175049578289
 40
6.846175049578289
 40
7.604337694224321
 40
8.711974558287883
 40
9.814980593243754
 40
10.91239053451967
 40
12.0033633515982
 40
13.08720139956839
 40
14.16337181880432
 40
15.23152222380919
 40
16.29148850140128
 40
17.34331105512262
 40
18.38723020264746
 40
19.42369128463655
 40
20.45333379090873
 40
21.47697865721768
 40
22.49561244472435
 40
23.5103574802404
 40
24.52244778960836
 40
25.53320666051913
 40
25.53320666051913
 40
25.53320666051913
 40
25.53320666051913
 10
-4.148901865469502
 20
0.8054797062958844
 30
0.0
 10
-4.297417470322779
 20
0.8836137920000297
 30
0.0
 10
-4.663219339161498
 20
1.07511591447539
 30
0.0
 10
-5.24685109246328
 20
1.37584318422155
 30
0.0
 10
-5.899911889388789
 20
1.703869922957668
 30
0.0
 10
-6.553005529165904
 20
2.021416297633474
 30
0.0
 10
-7.206137623086168
 20
2.326529854560675
 30
0.0
 10
-7.859315448652901
 20
2.617328196195593
 30
0.0
 10
-8.512545045709318
 20
2.892017998212255
 30
0.0
 10
-9.16582943836442
 20
3.148911092954052
 30
0.0
 10
-9.819176673406008
 20
3.386408752650117
 30
0.0
 10
-10.47258586612393
 20
3.603054632728105
 30
0.0
 10
-11.12606170981932
 20
3.797496865164613
 30
0.0
 10
-11.77960189834588
 20
3.968532077298965
 30
0.0
 10
-12.43320387864532
 20
4.115111945650752
 30
0.0
 10
-13.08686401372982
 20
4.236264870863303
 30
0.0
 10
-13.74057213291015
 20
4.33143636838754
 30
0.0
 10
-14.3943210316594
 20
4.399333773161907
 30
0.0
 10
-15.04810009766296
 20
4.442060072924352
 30
0.0
 10
-15.48406023604178
 20
4.44735490119938
 30
0.0
 10
-15.70189683084372
 20
4.450000572810042
 30
0.0
  0
SPLINE
  5
283C
330
1F
100
AcDbEntity
  8
AM_0
 48
0.5
100
AcDbSpline
210
0.0
220
0.0
230
1.0
 70
     8
 71
     3
 72
    10
 73
     6
 74
     0
 42
0.0000000001
 43
0.0000000001
 40
0.0
 40
0.0
 40
0.0
 40
0.0
 40
2.69986029516136
 40
4.147722969032201
 40
6.285750005020438
 40
6.285750005020438
 40
6.285750005020438
 40
6.285750005020438
 10
-4.148797341026215
 20
0.8054268525133512
 30
0.0
 10
-3.683491520764115
 20
0.3919911016273954
 30
0.0
 10
-2.968654667248292
 20
-0.2431591553107222
 30
0.0
 10
-1.278161534446165
 20
0.0643282109667621
 30
0.0
 10
-1.596530562377133
 20
1.099986347224044
 30
0.0
 10
-1.806888474603156
 20
1.731251878684932
 30
0.0
  0
ELLIPSE
  5
283D
330
1F
100
AcDbEntity
  8
AM_0
 48
0.5
100
AcDbEllipse
 10
-6.836075791669661
 20
8.464390342299012
 30
0.0
 11
-5.295715446744172
 21
9.939681402391292
 31
0.0
210
0.0
220
0.0
230
1.0
 40
0.5765942458597407
 41
3.179318503665776
 42
3.463281041605457
  0
ELLIPSE
  5
283E
330
1F
100
AcDbEntity
  8
AM_0
 48
0.5
100
AcDbEllipse
 10
-1.612248883126755
 20
-1.581832512868813
 30
0.0
 11
-0.5435385872060663
 21
0.3976125644635852
 31
0.0
210
0.0
220
0.0
230
1.0
 40
0.5286339402617381
 41
4.571799137643981
 42
7.715239478973492
  0
ELLIPSE
  5
283F
330
1F
100
AcDbEntity
  8
AM_0
 48
0.5
100
AcDbEllipse
 10
-1.612248883126755
 20
-1.581832512868813
 30
0.0
 11
-0.1040756889850104
 21
0.7318072698605056
 31
0.0
210
0.0
220
0.0
230
1.0
 40
0.4387992456449144
 41
1.831472620630346
 42
4.966814510342324
  0
ELLIPSE
  5
2840
330
1F
100
AcDbEntity
  8
AM_0
 48
0.5
100
AcDbEllipse
 10
-6.596056439213285
 20
7.468713824559075
 30
0.0
 11
7.060680641232842
 21
9.851856859809391
 31
0.0
210
0.0
220
0.0
230
1.0
 40
0.8291488828325121
 41
4.244851469899876
 42
4.30478198909777
  0
ELLIPSE
  5
2841
330
1F
100
AcDbEntity
  8
AM_11
 48
0.5
100
AcDbEllipse
 10
2.60108439127037
 20
19.65550580106644
 30
0.0
 11
-24.41816012064768
 21
0.0000000000067789
 31
0.0
210
0.0
220
0.0
230
1.0
 40
0.8899999999999426
 41
1.130070686340574
 42
1.29180073738125
  0
ELLIPSE
  5
2842
330
1F
100
AcDbEntity
  8
AM_11
 48
0.5
100
AcDbEllipse
 10
-18.23224894206361
 20
-19.65549267051103
 30
0.0
 11
-24.41816012064582
 21
0.0000000000004624
 31
0.0
210
0.0
220
0.0
230
1.0
 40
0.8899999999999986
 41
4.27166420618169
 42
5.153113667164995
  0
ELLIPSE
  5
2843
330
1F
100
AcDbEntity
  8
AM_11
 48
0.5
100
AcDbEllipse
 10
-18.23224894206298
 20
19.65550580106677
 30
0.0
 11
-24.41816012064587
 21
0.000000000000484
 31
0.0
210
0.0
220
0.0
230
1.0
 40
0.8899999999999982
 41
1.13007068634031
 42
2.011520147323597
  0
ELLIPSE
  5
2844
330
1F
100
AcDbEntity
  8
AM_11
 48
0.5
100
AcDbEllipse
 10
-39.06558227539633
 20
19.65550580106711
 30
0.0
 11
-24.41816012064585
 21
0.0000000000002889
 31
0.0
210
0.0
220
0.0
230
1.0
 40
0.8899999999999989
 41
1.130070686340301
 42
2.011520147323591
  0
ELLIPSE
  5
2845
330
1F
100
AcDbEntity
  8
AM_11
 48
0.5
100
AcDbEllipse
 10
-39.06558227539692
 20
-19.65549267051069
 30
0.0
 11
-24.4181601206458
 21
0.0000000000004352
 31
0.0
210
0.0
220
0.0
230
1.0
 40
0.8899999999999996
 41
4.271664206181688
 42
5.153113667164993
  0
SPLINE
  5
2846
330
1F
100
AcDbEntity
  8
AM_0
100
AcDbSpline
210
0.0
220
0.0
230
1.0
 70
     8
 71
     3
 72
    17
 73
    13
 74
     0
 42
0.0000000001
 43
0.0000000001
 40
1.580019955310467
 40
1.580019955310467
 40
1.580019955310467
 40
1.580019955310467
 40
2.030549285115227
 40
3.082371838836284
 40
4.126290986361125
 40
5.162752068350215
 40
6.192395305374981
 40
7.216039564037012
 40
8.234688489606833
 40
9.249433870634691
 40
10.26152376260694
 40
11.27226744710342
 40
11.27226744710342
 40
11.27226744710342
 40
11.27226744710352
 10
-12.63473130137901
 20
-3.284231145958925
 30
0.0
 10
-12.75395779626151
 20
-3.318055997308208
 30
0.0
 10
-13.15221434476408
 20
-3.428921465560193
 30
0.0
 10
-13.83213703654888
 20
-3.602817919348717
 30
0.0
 10
-14.67432187433767
 20
-3.79755887864927
 30
0.0
 10
-15.51673856482381
 20
-3.96851558483759
 30
0.0
 10
-16.35919385454862
 20
-4.115113926871237
 30
0.0
 10
-17.20174092826738
 20
-4.236287541330605
 30
0.0
 10
-18.04434621114576
 20
-4.331344943828146
 30
0.0
 10
-18.88700396137404
 20
-4.399670130589083
 30
0.0
 10
-19.72969341804747
 20
-4.440823284451502
 30
0.0
 10
-20.29162274117681
 20
-4.450000134094834
 30
0.0
 10
-20.57240041097589
 20
-4.450000108631697
 30
0.0
  0
SPLINE
  5
2847
330
1F
100
AcDbEntity
  8
AM_0
100
AcDbSpline
210
0.0
220
0.0
230
1.0
 70
     8
 71
     3
 72
    22
 73
    18
 74
     0
 42
0.0000000001
 43
0.0000000001
 40
17.17441611292
 40
17.17441611292
 40
17.17441611292
 40
17.17441611292
 40
17.38177636558528
 40
18.41823744757437
 40
19.46215659509824
 40
20.51397914882054
 40
21.57394542641293
 40
22.64209583141747
 40
23.71826625065247
 40
24.80210429862395
 40
25.8930771157021
 40
26.99048705697709
 40
28.09349309193389
 40
29.20112995599786
 40
30.31233024745139
 40
31.42594771747373
 40
32.5407895042663
 40
32.54078950426994
 40
32.54078950426994
 40
32.54078950426994
 10
-23.78875945553784
 20
-3.996132316169955
 30
0.0
 10
-23.84518714289001
 20
-3.985831002633831
 30
0.0
 10
-24.18344031161128
 20
-3.92308457592397
 30
0.0
 10
-24.80310105621848
 20
-3.797269823741439
 30
0.0
 10
-25.64540314053024
 20
-3.602827894479918
 30
0.0
 10
-26.48761939602769
 20
-3.386181932242834
 30
0.0
 10
-27.32975576871039
 20
-3.148684294844506
 30
0.0
 10
-28.17181114617476
 20
-2.891791193946856
 30
0.0
 10
-29.01379589314603
 20
-2.617101394025683
 30
0.0
 10
-29.85571390825031
 20
-2.326303050209663
 30
0.0
 10
-30.69757298123126
 20
-2.021189499951208
 30
0.0
 10
-31.53938247302801
 20
-1.703643100593265
 30
0.0
 10
-32.38114969003901
 20
-1.375616454548326
 30
0.0
 10
-33.22288310601232
 20
-1.039127637172702
 30
0.0
 10
-34.06459018218199
 20
-0.6962456738098171
 30
0.0
 10
-34.90628338770637
 20
-0.3490863315040615
 30
0.0
 10
-35.46730204852492
 20
-0.116253924607553
 30
0.0
 10
-35.74796549479941
 20
0.0002262300735402
 30
0.0
  0
SPLINE
  5
2848
330
1F
100
AcDbEntity
  8
AM_0
100
AcDbSpline
210
0.0
220
0.0
230
1.0
 70
     8
 71
     3
 72
    11
 73
     7
 74
     0
 42
0.0000000001
 43
0.0000000001
 40
11.27226913003534
 40
11.27226913003534
 40
11.27226913003534
 40
11.2722691300354
 40
12.28301561507924
 40
13.29510212255852
 40
14.30984805882082
 40
15.18258238371378
 40
15.18258238371378
 40
15.18258238371378
 40
15.18258238371378
 10
-20.57240041097593
 20
-4.450000108631697
 30
0.0
 10
-20.85211042584452
 20
-4.428220515470137
 30
0.0
 10
-21.41100286930493
 20
-4.3754930683126
 30
0.0
 10
-22.24645551811006
 20
-4.269128765292721
 30
0.0
 10
-23.03931481315028
 20
-4.142088267726458
 30
0.0
 10
-23.55208966527537
 20
-4.044428456279523
 30
0.0
 10
-23.78839091838516
 20
-3.996187206885927
 30
0.0
  0
SPLINE
  5
2849
330
1F
100
AcDbEntity
  8
AM_0
100
AcDbSpline
210
0.0
220
0.0
230
1.0
 70
     8
 71
     3
 72
    55
 73
    51
 74
     0
 42
0.0000000001
 43
0.0000000001
 40
0.0
 40
0.0
 40
0.0
 40
0.0
 40
1.010743684496582
 40
2.022833576467832
 40
3.037578957496688
 40
4.056212745003489
 40
5.079857003664532
 40
6.109500240690281
 40
7.145961322679372
 40
8.189895241603872
 40
9.241717795325891
 40
10.30168407291828
 40
11.36983447792315
 40
12.44600489715814
 40
13.52984294512926
 40
14.62081576220742
 40
15.7182257034828
 40
16.82123173843959
 40
17.92886860250316
 40
19.0400688939571
 40
20.15368796660465
 40
21.26852814259644
 40
22.38336992938901
 40
23.49698739941135
 40
24.6081876908653
 40
25.71582455492886
 40
26.81883757994213
 40
27.91624752121713
 40
29.00722033829659
 40
30.09105838626677
 40
31.16722880550176
 40
32.23537921050758
 40
33.29534548809967
 40
34.347168041821
 40
35.39108718934584
 40
36.42754827133493
 40
37.45720575381954
 40
38.48085062012849
 40
39.49948440763516
 40
40.51422944315121
 40
41.52631975251916
 40
42.53706336719636
 40
43.54780698187354
 40
44.55989729124051
 40
45.57464232675757
 40
46.59327611426424
 40
47.6169209805722
 40
48.64656348684535
 40
49.68302456883444
 40
50.58557219878025
 40
50.58557219878025
 40
50.58557219878025
 40
50.58557219878025
 10
-4.698300679530988
 20
-4.450000108631948
 30
0.0
 10
-4.979078353034361
 20
-4.447352466439781
 30
0.0
 10
-5.541007667258114
 20
-4.44205365566617
 30
0.0
 10
-6.383697141805448
 20
-4.399339292169159
 30
0.0
 10
-7.226350645116438
 20
-4.331434612445537
 30
0.0
 10
-8.068951996448502
 20
-4.236263621203456
 30
0.0
 10
-8.911492787966546
 20
-4.115116067841683
 30
0.0
 10
-9.75395639822454
 20
-3.968530676223832
 30
0.0
 10
-10.59634564522591
 20
-3.797494897795305
 30
0.0
 10
-11.43865305868049
 20
-3.603056073828858
 30
0.0
 10
-12.28087290093966
 20
-3.386408046908214
 30
0.0
 10
-13.12300937000374
 20
-3.148910694303166
 30
0.0
 10
-13.96506472128212
 20
-2.892017516093402
 30
0.0
 10
-14.80704947558195
 20
-2.617327737568591
 30
0.0
 10
-15.64896748782306
 20
-2.326529386271796
 30
0.0
 10
-16.49082656489049
 20
-2.021415844395978
 30
0.0
 10
-17.33263604311533
 20
-1.70386941883535
 30
0.0
 10
-18.17440331066703
 20
-1.375842869864853
 30
0.0
 10
-19.01613653699281
 20
-1.039353688366134
 30
0.0
 10
-19.85784472899585
 20
-0.6964729252744081
 30
0.0
 10
-20.6995352692583
 20
-0.3493084706095133
 30
0.0
 10
-21.5412200437543
 20
-0.000001016593329
 30
0.0
 10
-22.38290103978991
 20
0.3493127251747186
 30
0.0
 10
-23.22459440121559
 20
0.6964717735707834
 30
0.0
 10
-24.06630155411859
 20
1.03935357454306
 30
0.0
 10
-24.90803628124539
 20
1.375844037915579
 30
0.0
 10
-25.7498070408515
 20
1.703867787449905
 30
0.0
 10
-26.59161784767411
 20
2.02141582341274
 30
0.0
 10
-27.433477046278
 20
2.326529117872932
 30
0.0
 10
-28.2753950278844
 20
2.617327530323526
 30
0.0
 10
-29.11737978434019
 20
2.892017309250154
 30
0.0
 10
-29.9594351570664
 20
3.148910426032885
 30
0.0
 10
-30.8015715392128
 20
3.386408021144581
 30
0.0
 10
-31.64378776192048
 20
3.603054135065924
 30
0.0
 10
-32.48608996667659
 20
3.797495505695851
 30
0.0
 10
-33.32847890119527
 20
3.968534723438713
 30
0.0
 10
-34.17094852692581
 20
4.115103372970018
 30
0.0
 10
-35.01349210196054
 20
4.236288424060576
 30
0.0
 10
-35.85609370307734
 20
4.33134660237651
 30
0.0
 10
-36.69874779188959
 20
4.39966364248356
 30
0.0
 10
-37.54143655193667
 20
4.440829709203188
 30
0.0
 10
-38.38414382955821
 20
4.454581929948129
 30
0.0
 10
-39.22685110593982
 20
4.440829709181649
 30
0.0
 10
-40.0695398697139
 20
4.399663642570104
 30
0.0
 10
-40.9121939448044
 20
4.331346602050578
 30
0.0
 10
-41.75479559736737
 20
4.23628842528565
 30
0.0
 10
-42.59733487143595
 20
4.11510395916045
 30
0.0
 10
-43.43980117815681
 20
3.968536222024057
 30
0.0
 10
-44.24388851595204
 20
3.805259603325615
 30
0.0
 10
-44.76558953792048
 20
3.685853868507593
 30
0.0
 10
-45.00762840517908
 20
3.627661628968242
 30
0.0
  0
SPLINE
  5
284A
330
1F
100
AcDbEntity
  8
AM_0
100
AcDbSpline
210
0.0
220
0.0
230
1.0
 70
     8
 71
     3
 72
    46
 73
    42
 74
     0
 42
0.0000000001
 43
0.0000000001
 40
0.0
 40
0.0
 40
0.0
 40
0.0
 40
1.685415058684571
 40
2.531036209541119
 40
3.379897699130121
 40
4.232934581347656
 40
5.090970612202441
 40
5.954688180526683
 40
6.824620803463245
 40
7.70115181523969
 40
8.584457046566678
 40
9.474582384070743
 40
10.37139106676737
 40
11.27458944007584
 40
12.18373345430765
 40
13.09824173870457
 40
14.01741343450111
 40
14.9404441545541
 40
15.86644439743314
 40
16.79446029130534
 40
17.7234937712985
 40
18.65252725129241
 40
19.58054314516461
 40
20.5065433880429
 40
21.42957410809586
 40
22.34874580389318
 40
23.26325408828901
 40
24.17239810252112
 40
25.07560240389442
 40
25.97241108659103
 40
26.8625364240951
 40
27.74584165542183
 40
28.62236045019041
 40
29.49229307312697
 40
30.35601064145122
 40
31.21404606334469
 40
32.06708345193548
 40
32.9159575565769
 40
33.76157841950694
 40
34.6049870106469
 40
35.44727335621125
 40
35.44727335621125
 40
35.44727335621125
 40
35.44727335621125
 10
-2.339342753098482
 20
-4.450000108631982
 30
0.0
 10
-2.901299522293003
 20
-4.439862664642905
 30
0.0
 10
-3.745206145589802
 20
-4.424638973792191
 30
0.0
 10
-4.867385583867553
 20
-4.330909505965208
 30
0.0
 10
-5.709995988076896
 20
-4.23640526925191
 30
0.0
 10
-6.552534369155384
 20
-4.115077882357687
 30
0.0
 10
-7.394998507568436
 20
-3.968540679491935
 30
0.0
 10
-8.237384075412544
 20
-3.797494233322427
 30
0.0
 10
-9.079689661818463
 20
-3.603052802866312
 30
0.0
 10
-9.921911518228814
 20
-3.386410287290097
 30
0.0
 10
-10.76405132804309
 20
-3.148910383815851
 30
0.0
 10
-11.60610682616128
 20
-2.892017600241558
 30
0.0
 10
-12.44809154065548
 20
-2.617327714750861
 30
0.0
 10
-13.2900095637397
 20
-2.326529392542969
 30
0.0
 10
-14.13186863763539
 20
-2.021415842341175
 30
0.0
 10
-14.97367811761171
 20
-1.703869420741425
 30
0.0
 10
-15.81544538132961
 20
-1.375842864273247
 30
0.0
 10
-16.65717862130839
 20
-1.039353708932213
 30
0.0
 10
-17.49888676231989
 20
-0.696472848300445
 30
0.0
 10
-18.34057749342305
 20
-0.3493087586467109
 30
0.0
 10
-19.1822611491253
 20
-0.0000001087023953
 30
0.0
 10
-20.02394480464263
 20
0.3493085416664003
 30
0.0
 10
-20.86563553630043
 20
0.6964726300473146
 30
0.0
 10
-21.70734367528468
 20
1.039353495330676
 30
0.0
 10
-22.54907692278062
 20
1.375842633420642
 30
0.0
 10
-23.39084415862556
 20
1.703869253854032
 30
0.0
 10
-24.23265374182487
 20
2.021415438568095
 30
0.0
 10
-25.07451426406608
 20
2.326530528316083
 30
0.0
 10
-25.91643555843758
 20
2.617326208473805
 30
0.0
 10
-26.75842177490344
 20
2.892017502480167
 30
0.0
 10
-27.60047725341619
 20
3.148910362493733
 30
0.0
 10
-28.44261360381582
 20
3.386408083546828
 30
0.0
 10
-29.28482984867512
 20
3.603053950399242
 30
0.0
 10
-30.12713199684614
 20
3.797496175169881
 30
0.0
 10
-30.96951707716172
 20
3.968531430582902
 30
0.0
 10
-31.81198183321793
 20
4.115111135011943
 30
0.0
 10
-32.65452559144138
 20
4.236265264841938
 30
0.0
 10
-33.49713165389293
 20
4.331434793776357
 30
0.0
 10
-34.33978984797152
 20
4.39933324141293
 30
0.0
 10
-35.18247862991573
 20
4.442059131423348
 30
0.0
 10
-35.7444081794696
 20
4.447354146432794
 30
0.0
 10
-36.0251859029192
 20
4.44999989136855
 30
0.0
  0
SPLINE
  5
284B
330
1F
100
AcDbEntity
  8
AM_0
100
AcDbSpline
210
0.0
220
0.0
230
1.0
 70
     8
 71
     3
 72
    23
 73
    19
 74
     0
 42
0.0000000001
 43
0.0000000001
 40
16.03460024169435
 40
16.03460024169435
 40
16.03460024169435
 40
16.03460024169435
 40
16.35212704903564
 40
17.38177054169784
 40
18.41822485651776
 40
19.46214173629503
 40
20.51396345435107
 40
21.57393551351153
 40
22.64208202342361
 40
23.7182574881101
 40
24.80209208578934
 40
25.89306333925047
 40
26.99048218457928
 40
28.09348763352352
 40
29.20111863782268
 40
30.31232390128032
 40
31.42594612798585
 40
32.5407912310448
 40
32.5407912310486
 40
32.5407912310486
 40
32.5407912310486
 10
-48.5143656596786
 20
4.450632094627874
 30
0.0
 10
-48.42778967241516
 20
4.435609678271158
 30
0.0
 10
-48.06084259553422
 20
4.370191283189333
 30
0.0
 10
-47.41446136785924
 20
4.242013922132234
 30
0.0
 10
-46.57739598589266
 20
4.051415587974295
 30
0.0
 10
-45.74110810962572
 20
3.837405428240827
 30
0.0
 10
-44.90554832214089
 20
3.601222024579812
 30
0.0
 10
-44.07068696794057
 20
3.344182104754102
 30
0.0
 10
-43.23647579403938
 20
3.06775501734254
 30
0.0
 10
-42.40285670914182
 20
2.773549498656054
 30
0.0
 10
-41.5697823440175
 20
2.4632316173937
 30
0.0
 10
-40.73718590807373
 20
2.138607041000853
 30
0.0
 10
-39.90499992868003
 20
1.801562627769022
 30
0.0
 10
-39.0731689596581
 20
1.454036241776215
 30
0.0
 10
-38.24162340272101
 20
1.09804870136518
 30
0.0
 10
-37.41028623913929
 20
0.7356787125991316
 30
0.0
 10
-36.57908977460031
 20
0.3690261114366376
 30
0.0
 10
-36.02510763762795
 20
0.1232055907142066
 30
0.0
 10
-35.74796549479568
 20
0.0002262300719414
 30
0.0
  0
SPLINE
  5
284C
330
1F
100
AcDbEntity
  8
AM_0
100
AcDbSpline
210
0.0
220
0.0
230
1.0
 70
     8
 71
     3
 72
    11
 73
     7
 74
     0
 42
0.0000000001
 43
0.0000000001
 40
11.27226913003534
 40
11.27226913003534
 40
11.27226913003534
 40
11.2722691300354
 40
12.28301561507924
 40
13.29510212255852
 40
14.30984805882082
 40
15.18258238371378
 40
15.18258238371378
 40
15.18258238371378
 40
15.18258238371378
 10
-48.51436565967869
 20
-4.449367905372128
 30
0.0
 10
-48.79407567454729
 20
-4.42758831221057
 30
0.0
 10
-49.35296811800769
 20
-4.374860865053036
 30
0.0
 10
-50.18842076681282
 20
-4.268496562033154
 30
0.0
 10
-50.98128006185304
 20
-4.141456064466893
 30
0.0
 10
-51.49405491397813
 20
-4.043796253019958
 30
0.0
 10
-51.73035616708793
 20
-3.995555003626362
 30
0.0
  0
SPLINE
  5
284D
330
1F
100
AcDbEntity
  8
AM_0
100
AcDbSpline
210
0.0
220
0.0
230
1.0
 70
     8
 71
     3
 72
    17
 73
    13
 74
     0
 42
0.0000000001
 43
0.0000000001
 40
1.580019955310467
 40
1.580019955310467
 40
1.580019955310467
 40
1.580019955310467
 40
2.030549285115227
 40
3.082371838836284
 40
4.126290986361125
 40
5.162752068350215
 40
6.192395305374981
 40
7.216039564037012
 40
8.234688489606833
 40
9.249433870634691
 40
10.26152376260694
 40
11.27226744710342
 40
11.27226744710342
 40
11.27226744710342
 40
11.27226744710352
 10
-40.57669655008177
 20
-3.283598942699356
 30
0.0
 10
-40.69592304496427
 20
-3.317423794048643
 30
0.0
 10
-41.09417959346685
 20
-3.428289262300627
 30
0.0
 10
-41.77410228525164
 20
-3.602185716089152
 30
0.0
 10
-42.61628712304044
 20
-3.796926675389702
 30
0.0
 10
-43.45870381352656
 20
-3.967883381578024
 30
0.0
 10
-44.30115910325137
 20
-4.114481723611671
 30
0.0
 10
-45.14370617697013
 20
-4.235655338071039
 30
0.0
 10
-45.98631145984852
 20
-4.330712740568583
 30
0.0
 10
-46.82896921007681
 20
-4.399037927329518
 30
0.0
 10
-47.67165866675023
 20
-4.440191081191934
 30
0.0
 10
-48.23358798987957
 20
-4.449367930835269
 30
0.0
 10
-48.51436565967865
 20
-4.449367905372128
 30
0.0
  0
LINE
  5
284E
330
1F
100
AcDbEntity
  8
AM_11
 48
0.5
100
AcDbLine
 10
-73.91314367690757
 20
4.451131702494583
 30
0.0
 11
-66.24120923107532
 21
4.450492476611568
 31
0.0
  0
LINE
  5
284F
330
1F
100
AcDbEntity
  8
AM_0
100
AcDbLine
 10
-73.861891821841
 20
-2.612804820185451
 30
0.0
 11
-73.86189182184096
 21
-0.496616076879418
 31
0.0
  0
LINE
  5
2850
330
1F
100
AcDbEntity
  8
AM_0
100
AcDbLine
 10
-73.86192996880777
 20
-4.420285618763821
 30
0.0
 11
-73.86189182184101
 21
-3.155477814131386
 31
0.0
  0
POLYLINE
  5
2851
330
1F
100
AcDbEntity
  8
AM_0
100
AcDb2dPolyline
 66
     1
 10
0.0
 20
0.0
 30
0.0
 70
     2
  0
VERTEX
  5
2852
330
2851
100
AcDbEntity
  8
AM_0
100
AcDbVertex
100
AcDb2dVertex
 10
-70.99996185303351
 20
-3.886846736874338
 30
0.0
 42
-0.0359492156850201
  0
VERTEX
  5
2853
330
2851
100
AcDbEntity
  8
AM_0
100
AcDbVertex
100
AcDb2dVertex
 10
-71.64484518510168
 20
-3.918977473776916
 30
0.0
 42
-0.0481074754172279
 70
     1
  0
VERTEX
  5
2854
330
2851
100
AcDbEntity
  8
AM_0
100
AcDbVertex
100
AcDb2dVertex
 10
-72.12496185303351
 20
-3.870881742685905
 30
0.0
 42
-0.0393662058969625
  0
VERTEX
  5
2855
330
2851
100
AcDbEntity
  8
AM_0
100
AcDbVertex
100
AcDb2dVertex
 10
-73.11813688130555
 20
-3.610071944442197
 30
0.0
 42
-0.0705719844457379
 70
     1
  0
VERTEX
  5
2856
330
2851
100
AcDbEntity
  8
AM_0
100
AcDbVertex
100
AcDb2dVertex
 10
-73.62496185303341
 20
-3.359816957622562
 30
0.0
 42
-0.0827458522828334
  0
VERTEX
  5
2857
330
2851
100
AcDbEntity
  8
AM_0
100
AcDbVertex
100
AcDb2dVertex
 10
-73.93171075406048
 20
-3.0715703469774
 30
0.0
 42
-0.154978185678887
 70
     1
  0
VERTEX
  5
2858
330
2851
100
AcDbEntity
  8
AM_0
100
AcDbVertex
100
AcDb2dVertex
 10
-73.9999618530334
 20
-2.864717166747657
 30
0.0
 42
-0.1662693739572807
  0
VERTEX
  5
2859
330
2851
100
AcDbEntity
  8
AM_0
100
AcDbVertex
100
AcDb2dVertex
 10
-73.92054017741802
 20
-2.671917498135334
 30
0.0
 42
-0.0979726163363275
 70
     1
  0
VERTEX
  5
285A
330
2851
100
AcDbEntity
  8
AM_0
100
AcDbVertex
100
AcDb2dVertex
 10
-73.62496185303339
 20
-2.452784530958425
 30
0.0
 42
-0.091851179068373
  0
VERTEX
  5
285B
330
2851
100
AcDbEntity
  8
AM_0
100
AcDbVertex
100
AcDb2dVertex
 10
-73.16164431072675
 20
-2.31794902805592
 30
0.0
 42
-0.04285893167511
 70
     1
  0
VERTEX
  5
285C
330
2851
100
AcDbEntity
  8
AM_0
100
AcDbVertex
100
AcDb2dVertex
 10
-72.1249618530334
 20
-2.274388366237793
 30
0.0
 42
-0.0477012044965593
  0
VERTEX
  5
285D
330
2851
100
AcDbEntity
  8
AM_0
100
AcDbVertex
100
AcDb2dVertex
 10
-71.60689109416693
 20
-2.336460492397479
 30
0.0
 42
-0.0391301448542795
 70
     1
  0
VERTEX
  5
285E
330
2851
100
AcDbEntity
  8
AM_0
100
AcDbVertex
100
AcDb2dVertex
 10
-71.12617994223803
 20
-2.464486017811772
 30
0.0
  0
SEQEND
  5
285F
330
2851
100
AcDbEntity
  8
AM_0
  0
LINE
  5
2860
330
1F
100
AcDbEntity
  8
AM_0
100
AcDbLine
 10
-73.86189182184094
 20
-0.3826521504567389
 30
0.0
 11
-73.86189182184086
 21
4.421541430175336
 31
0.0
  0
SPLINE
  5
2861
330
1F
100
AcDbEntity
  8
AM_0
100
AcDbSpline
210
0.0
220
0.0
230
1.0
 70
     8
 71
     3
 72
    15
 73
    11
 74
     0
 42
0.0000000001
 43
0.0000000001
 40
9.996018264272805
 40
9.996018264272805
 40
9.996018264272805
 40
9.996018264272805
 40
10.37139106676736
 40
11.27458944007584
 40
12.18373345430765
 40
13.09824173870457
 40
14.01741343450111
 40
14.9404441545541
 40
15.86644439743314
 40
16.55140071192301
 40
16.55140071192301
 40
16.55140071192301
 40
16.55140071192301
 10
-67.97364321641445
 20
1.873463803555635
 30
0.0
 10
-68.09106853167964
 20
1.834561576892153
 30
0.0
 10
-68.49042566853785
 20
1.700564088253891
 30
0.0
 10
-69.1702979975861
 20
1.463067820003702
 30
0.0
 10
-70.0121570714818
 20
1.154487070367805
 30
0.0
 10
-70.85396655145811
 20
0.8333321667044517
 30
0.0
 10
-71.69573381517603
 20
0.5015780357309675
 30
0.0
 10
-72.53746705515478
 20
0.1612651399883556
 30
0.0
 10
-73.30550512962938
 20
-0.1551605973103202
 30
0.0
 10
-73.79285365547795
 20
-0.3581267946825579
 30
0.0
 10
-73.99996185303343
 20
-0.4446300632909173
 30
0.0
  0
SPLINE
  5
2862
330
1F
100
AcDbEntity
  8
AM_0
100
AcDbSpline
210
0.0
220
0.0
230
1.0
 70
     8
 71
     3
 72
    14
 73
    10
 74
     0
 42
0.0000000001
 43
0.0000000001
 40
1.580019955310467
 40
1.580019955310467
 40
1.580019955310467
 40
1.580019955310467
 40
2.030549285115227
 40
3.082371838836284
 40
4.126290986361125
 40
5.162752068350215
 40
6.192395305374981
 40
7.216039564037012
 40
8.092146932806128
 40
8.092146932806128
 40
8.092146932806128
 40
8.092146932806128
 10
-68.51539061115499
 20
-3.284231145958213
 30
0.0
 10
-68.6346171060375
 20
-3.318055997307497
 30
0.0
 10
-69.03287365454007
 20
-3.428921465559485
 30
0.0
 10
-69.71279634632489
 20
-3.602817919348008
 30
0.0
 10
-70.55498118411375
 20
-3.797558878648558
 30
0.0
 10
-71.39739787459989
 20
-3.968515584836879
 30
0.0
 10
-72.2398531643247
 20
-4.115113926870528
 30
0.0
 10
-73.04330503713543
 20
-4.230664939400803
 30
0.0
 10
-73.61007936982594
 20
-4.365059111411502
 30
0.0
 10
-73.86192996880777
 20
-4.420285618763821
 30
0.0
  0
SPLINE
  5
2863
330
1F
100
AcDbEntity
  8
AM_0
100
AcDbSpline
210
0.0
220
0.0
230
1.0
 70
     8
 71
     3
 72
    55
 73
    51
 74
     0
 42
0.0000000001
 43
0.0000000001
 40
0.0
 40
0.0
 40
0.0
 40
0.0
 40
1.010743684496582
 40
2.022833576467832
 40
3.037578957496688
 40
4.056212745003489
 40
5.079857003664532
 40
6.109500240690281
 40
7.145961322679372
 40
8.189895241603872
 40
9.241717795325891
 40
10.30168407291828
 40
11.36983447792315
 40
12.44600489715814
 40
13.52984294512926
 40
14.62081576220742
 40
15.7182257034828
 40
16.82123173843959
 40
17.92886860250316
 40
19.0400688939571
 40
20.15368796660465
 40
21.26852814259644
 40
22.38336992938901
 40
23.49698739941135
 40
24.6081876908653
 40
25.71582455492886
 40
26.81883757994213
 40
27.91624752121713
 40
29.00722033829659
 40
30.09105838626677
 40
31.16722880550176
 40
32.23537921050758
 40
33.29534548809967
 40
34.347168041821
 40
35.39108718934584
 40
36.42754827133493
 40
37.45720575381954
 40
38.48085062012849
 40
39.49948440763516
 40
40.51422944315121
 40
41.52631975251916
 40
42.53706336719636
 40
43.54780698187354
 40
44.55989729124051
 40
45.57464232675757
 40
46.59327611426424
 40
47.6169209805722
 40
48.64656348684535
 40
49.68302456883444
 40
50.58557219878025
 40
50.58557219878025
 40
50.58557219878025
 40
50.58557219878025
 10
-32.64026592823373
 20
-4.44936790537238
 30
0.0
 10
-32.92104360173711
 20
-4.446720263180216
 30
0.0
 10
-33.48297291596086
 20
-4.441421452406607
 30
0.0
 10
-34.3256623905082
 20
-4.398707088909595
 30
0.0
 10
-35.16831589381918
 20
-4.330802409185971
 30
0.0
 10
-36.01091724515125
 20
-4.235631417943891
 30
0.0
 10
-36.85345803666929
 20
-4.114483864582115
 30
0.0
 10
-37.6959216469273
 20
-3.967898472964266
 30
0.0
 10
-38.53831089392868
 20
-3.796862694535739
 30
0.0
 10
-39.38061830738325
 20
-3.602423870569293
 30
0.0
 10
-40.22283814964242
 20
-3.385775843648649
 30
0.0
 10
-41.06497461870652
 20
-3.1482784910436
 30
0.0
 10
-41.9070299699849
 20
-2.891385312833835
 30
0.0
 10
-42.74901472428473
 20
-2.616695534309025
 30
0.0
 10
-43.59093273652584
 20
-2.325897183012231
 30
0.0
 10
-44.43279181359328
 20
-2.020783641136413
 30
0.0
 10
-45.27460129181807
 20
-1.703237215575784
 30
0.0
 10
-46.11636855936976
 20
-1.375210666605287
 30
0.0
 10
-46.95810178569554
 20
-1.038721485106569
 30
0.0
 10
-47.79980997769861
 20
-0.695840722014842
 30
0.0
 10
-48.64150051796106
 20
-0.3486762673499473
 30
0.0
 10
-49.48318529245707
 20
0.0006311866662369
 30
0.0
 10
-50.32486628849267
 20
0.3499449284342845
 30
0.0
 10
-51.16655964991835
 20
0.697103976830349
 30
0.0
 10
-52.00826680282138
 20
1.039985777802625
 30
0.0
 10
-52.85000152994818
 20
1.376476241175145
 30
0.0
 10
-53.69177228955429
 20
1.704499990709472
 30
0.0
 10
-54.53358309637684
 20
2.022048026672306
 30
0.0
 10
-55.37544229498073
 20
2.327161321132499
 30
0.0
 10
-56.21736027658714
 20
2.617959733583091
 30
0.0
 10
-57.05934503304296
 20
2.89264951250972
 30
0.0
 10
-57.90140040576917
 20
3.149542629292453
 30
0.0
 10
-58.74353678791556
 20
3.387040224404147
 30
0.0
 10
-59.58575301062324
 20
3.60368633832549
 30
0.0
 10
-60.42805521537935
 20
3.798127708955417
 30
0.0
 10
-61.27044414989803
 20
3.96916692669828
 30
0.0
 10
-62.11291377562857
 20
4.115735576229584
 30
0.0
 10
-62.95545735066331
 20
4.236920627320147
 30
0.0
 10
-63.7980589517801
 20
4.33197880563608
 30
0.0
 10
-64.6407130405923
 20
4.400295845743125
 30
0.0
 10
-65.48340180063938
 20
4.441461912462752
 30
0.0
 10
-66.32610907826093
 20
4.455214133207697
 30
0.0
 10
-67.16881635464253
 20
4.441461912441212
 30
0.0
 10
-68.01150511841661
 20
4.400295845829668
 30
0.0
 10
-68.85415919350712
 20
4.331978805310143
 30
0.0
 10
-69.69676084607008
 20
4.23692062854522
 30
0.0
 10
-70.53930012013866
 20
4.115736162420013
 30
0.0
 10
-71.38176642685952
 20
3.969168425283625
 30
0.0
 10
-72.18585376465475
 20
3.80589180658518
 30
0.0
 10
-72.7075547866232
 20
3.686486071767161
 30
0.0
 10
-72.94959365388186
 20
3.628293832227809
 30
0.0
  0
SPLINE
  5
2864
330
1F
100
AcDbEntity
  8
AM_0
100
AcDbSpline
210
0.0
220
0.0
230
1.0
 70
     8
 71
     3
 72
    25
 73
    21
 74
     0
 42
0.0000000001
 43
0.0000000001
 40
1.604714676203542
 40
1.604714676203542
 40
1.604714676203542
 40
1.604714676203542
 40
1.685415058684573
 40
2.531036209541122
 40
3.379897699130124
 40
4.232934581347659
 40
5.09097061220244
 40
5.954688180526682
 40
6.824620803463244
 40
7.701151815239697
 40
8.58445704656667
 40
9.47458238407075
 40
10.37139106676736
 40
11.27458944007584
 40
12.18373345430765
 40
13.09824173870457
 40
14.01741343450111
 40
14.9404441545541
 40
15.86644439743314
 40
16.55140071192301
 40
16.55140071192301
 40
16.55140071192301
 40
16.55140071192301
 10
-59.82341580391171
 20
-4.449367905368701
 30
0.0
 10
-59.85025462711009
 20
-4.447807035954209
 30
0.0
 10
-60.15828520632458
 20
-4.429272921627222
 30
0.0
 10
-60.74767401771395
 20
-4.379485106751287
 30
0.0
 10
-61.5902844219233
 20
-4.283906958257159
 30
0.0
 10
-62.43282280300178
 20
-4.161200851057325
 30
0.0
 10
-63.27528694141484
 20
-4.012998452704465
 30
0.0
 10
-64.11767250925898
 20
-3.840008296919396
 30
0.0
 10
-64.95997809566486
 20
-3.643357304753549
 30
0.0
 10
-65.80219995207518
 20
-3.424252942409431
 30
0.0
 10
-66.64433976188949
 20
-3.184054176395698
 30
0.0
 10
-67.48639526000765
 20
-2.92424215664444
 30
0.0
 10
-68.32837997450184
 20
-2.646430795182245
 30
0.0
 10
-69.17029799758608
 20
-2.352327946585641
 30
0.0
 10
-70.01215707148178
 20
-2.043747196949726
 30
0.0
 10
-70.8539665514581
 20
-1.722592293286353
 30
0.0
 10
-71.69573381517601
 20
-1.390838162312851
 30
0.0
 10
-72.53746705515476
 20
-1.050525266570221
 30
0.0
 10
-73.30550512962938
 20
-0.7340995292715297
 30
0.0
 10
-73.79285365547795
 20
-0.5311333318992812
 30
0.0
 10
-73.99996185303343
 20
-0.4446300632909175
 30
0.0
  0
ELLIPSE
  5
2865
330
1F
100
AcDbEntity
  8
AM_11
 48
0.5
100
AcDbEllipse
 10
-59.89895714819447
 20
-19.65547523295479
 30
0.0
 11
-24.41816012064588
 21
0.0000000000004407
 31
0.0
210
0.0
220
0.0
230
1.0
 40
0.8899999999999975
 41
4.271664206181688
 42
5.153113667164996
  0
ELLIPSE
  5
2866
330
1F
100
AcDbEntity
  8
AM_11
 48
0.5
100
AcDbEllipse
 10
-59.89895714819388
 20
19.655523238623
 30
0.0
 11
-24.41816012064585
 21
0.0000000000004244
 31
0.0
210
0.0
220
0.0
230
1.0
 40
0.8899999999999984
 41
1.130070686340308
 42
2.011520147323596
  0
SPLINE
  5
2867
330
1F
100
AcDbEntity
  8
AM_0
100
AcDbSpline
210
0.0
220
0.0
230
1.0
 70
     8
 71
     3
 72
    46
 73
    42
 74
     0
 42
0.0000000001
 43
0.0000000001
 40
0.0
 40
0.0
 40
0.0
 40
0.0
 40
1.685415058684573
 40
2.531036209541122
 40
3.379897699130124
 40
4.232934581347659
 40
5.09097061220244
 40
5.954688180526682
 40
6.824620803463244
 40
7.701151815239691
 40
8.584457046566678
 40
9.474582384070743
 40
10.37139106676737
 40
11.27458944007584
 40
12.18373345430765
 40
13.09824173870457
 40
14.01741343450111
 40
14.9404441545541
 40
15.86644439743314
 40
16.79446029130534
 40
17.7234937712985
 40
18.65252725129241
 40
19.58054314516461
 40
20.5065433880429
 40
21.42957410809587
 40
22.34874580389318
 40
23.26325408828902
 40
24.17239810252112
 40
25.07560240389442
 40
25.97241108659103
 40
26.8625364240951
 40
27.74584165542184
 40
28.62236045019042
 40
29.49229307312698
 40
30.35601064145123
 40
31.2140460633447
 40
32.06708345193549
 40
32.9159575565769
 40
33.76157841950695
 40
34.60498701064691
 40
35.44727335621126
 40
35.44727335621126
 40
35.44727335621126
 40
35.44727335621126
 10
-30.28130800180123
 20
-4.449367905372419
 30
0.0
 10
-30.84326477099575
 20
-4.43923046138334
 30
0.0
 10
-31.68717139429256
 20
-4.42400677053263
 30
0.0
 10
-32.80935083257029
 20
-4.330277302705639
 30
0.0
 10
-33.65196123677965
 20
-4.235773065992346
 30
0.0
 10
-34.49449961785814
 20
-4.114445679098121
 30
0.0
 10
-35.33696375627119
 20
-3.967908476232371
 30
0.0
 10
-36.17934932411529
 20
-3.796862030062862
 30
0.0
 10
-37.02165491052121
 20
-3.602420599606744
 30
0.0
 10
-37.86387676693157
 20
-3.385778084030531
 30
0.0
 10
-38.70601657674585
 20
-3.148278180556285
 30
0.0
 10
-39.54807207486406
 20
-2.891385396981993
 30
0.0
 10
-40.39005678935825
 20
-2.616695511491294
 30
0.0
 10
-41.23197481244248
 20
-2.325897189283404
 30
0.0
 10
-42.07383388633817
 20
-2.020783639081608
 30
0.0
 10
-42.91564336631444
 20
-1.703237217481861
 30
0.0
 10
-43.75741063003235
 20
-1.375210661013679
 30
0.0
 10
-44.59914387001111
 20
-1.03872150567265
 30
0.0
 10
-45.44085201102266
 20
-0.6958406450408772
 30
0.0
 10
-46.28254274212581
 20
-0.3486765553871457
 30
0.0
 10
-47.12422639782807
 20
0.0006320945571725
 30
0.0
 10
-47.9659100533454
 20
0.3499407449259647
 30
0.0
 10
-48.80760078500319
 20
0.6971048333068803
 30
0.0
 10
-49.64930892398749
 20
1.039985698590242
 30
0.0
 10
-50.4910421714834
 20
1.376474836680207
 30
0.0
 10
-51.33280940732838
 20
1.704501457113599
 30
0.0
 10
-52.17461899052761
 20
2.02204764182766
 30
0.0
 10
-53.01647951276881
 20
2.327162731575648
 30
0.0
 10
-53.85840080714031
 20
2.617958411733373
 30
0.0
 10
-54.7003870236062
 20
2.892649705739733
 30
0.0
 10
-55.54244250211894
 20
3.149542565753297
 30
0.0
 10
-56.38457885251859
 20
3.387040286806394
 30
0.0
 10
-57.2267950973779
 20
3.60368615365881
 30
0.0
 10
-58.06909724554889
 20
3.798128378429449
 30
0.0
 10
-58.91148232586451
 20
3.969163633842468
 30
0.0
 10
-59.75394708192067
 20
4.115743338271512
 30
0.0
 10
-60.59649084014416
 20
4.236897468101504
 30
0.0
 10
-61.43909690259569
 20
4.33206699703592
 30
0.0
 10
-62.28175509667429
 20
4.399965444672498
 30
0.0
 10
-63.12444387861849
 20
4.442691334682912
 30
0.0
 10
-63.68637342817237
 20
4.44798634969236
 30
0.0
 10
-63.96715115162196
 20
4.450632094628114
 30
0.0
  0
SPLINE
  5
2868
330
1F
100
AcDbEntity
  8
AM_0
100
AcDbSpline
210
0.0
220
0.0
230
1.0
 70
     8
 71
     3
 72
    20
 73
    16
 74
     0
 42
0.0000000001
 43
0.0000000001
 40
0.0
 40
0.0
 40
0.0
 40
0.0
 40
1.010743684496582
 40
2.022833576467832
 40
3.037578957496688
 40
4.056212745003489
 40
5.079857003664532
 40
6.109500240690281
 40
7.145961322679372
 40
8.189895241603872
 40
9.241717795325891
 40
10.30168407291828
 40
11.36983447792315
 40
12.44600489715814
 40
13.01371853178965
 40
13.01371853178965
 40
13.01371853178965
 40
13.01371853178965
 10
-60.57858911337739
 20
-4.449367905372025
 30
0.0
 10
-60.85936678688077
 20
-4.446720263179861
 30
0.0
 10
-61.42129610110451
 20
-4.441421452406249
 30
0.0
 10
-62.26398557565186
 20
-4.39870708890924
 30
0.0
 10
-63.10663907896284
 20
-4.330802409185618
 30
0.0
 10
-63.9492404302949
 20
-4.235631417943537
 30
0.0
 10
-64.79178122181301
 20
-4.11448386458176
 30
0.0
 10
-65.63424483207102
 20
-3.96789847296391
 30
0.0
 10
-66.4766340790724
 20
-3.796862694535383
 30
0.0
 10
-67.3189414925269
 20
-3.602423870568937
 30
0.0
 10
-68.16116133478605
 20
-3.385775843648295
 30
0.0
 10
-69.00329780385011
 20
-3.148278491043245
 30
0.0
 10
-69.8453531551285
 20
-2.891385312833479
 30
0.0
 10
-70.55271972471172
 20
-2.660613478376399
 30
0.0
 10
-70.979169429102
 20
-2.51528069463876
 30
0.0
 10
-71.12617994223803
 20
-2.464486017811773
 30
0.0
  0
LINE
  5
2869
330
1F
100
AcDbEntity
  8
AM_0
 48
0.5
100
AcDbLine
 10
-66.32610272022524
 20
4.450632094628152
 30
0.0
 11
-48.5143656596786
 21
4.450632094627874
 31
0.0
  0
SPLINE
  5
286A
330
1F
100
AcDbEntity
  8
AM_0
100
AcDbSpline
210
0.0
220
0.0
230
1.0
 70
     8
 71
     3
 72
    22
 73
    18
 74
     0
 42
0.0000000001
 43
0.0000000001
 40
17.17441611292
 40
17.17441611292
 40
17.17441611292
 40
17.17441611292
 40
17.38177636558528
 40
18.41823744757437
 40
19.46215659509824
 40
20.51397914882054
 40
21.57394542641293
 40
22.64209583141747
 40
23.71826625065247
 40
24.80210429862395
 40
25.8930771157021
 40
26.99048705697709
 40
28.09349309193389
 40
29.20112995599786
 40
30.31233024745139
 40
31.42594771747373
 40
32.5407895042663
 40
32.54078950426994
 40
32.54078950426994
 40
32.54078950426994
 10
-51.73072470424061
 20
-3.99550011291039
 30
0.0
 10
-51.78715239159277
 20
-3.985198799374265
 30
0.0
 10
-52.12540556031405
 20
-3.922452372664404
 30
0.0
 10
-52.74506630492125
 20
-3.796637620481872
 30
0.0
 10
-53.587368389233
 20
-3.602195691220351
 30
0.0
 10
-54.42958464473045
 20
-3.385549728983269
 30
0.0
 10
-55.27172101741316
 20
-3.148052091584942
 30
0.0
 10
-56.11377639487752
 20
-2.89115899068729
 30
0.0
 10
-56.95576114184882
 20
-2.616469190766116
 30
0.0
 10
-57.79767915695311
 20
-2.325670846950099
 30
0.0
 10
-58.63953822993405
 20
-2.020557296691642
 30
0.0
 10
-59.48134772173075
 20
-1.703010897333698
 30
0.0
 10
-60.32311493874178
 20
-1.37498425128876
 30
0.0
 10
-61.16484835471507
 20
-1.038495433913136
 30
0.0
 10
-62.00655543088476
 20
-0.6956134705502512
 30
0.0
 10
-62.84824863640913
 20
-0.3484541282444955
 30
0.0
 10
-63.40926729722768
 20
-0.1156217213479871
 30
0.0
 10
-63.68993074350218
 20
0.0008584333331061
 30
0.0
  0
SPLINE
  5
286B
330
1F
100
AcDbEntity
  8
AM_0
100
AcDbSpline
210
0.0
220
0.0
230
1.0
 70
     8
 71
     3
 72
    20
 73
    16
 74
     0
 42
0.0000000001
 43
0.0000000001
 40
19.06958205160103
 40
19.06958205160103
 40
19.06958205160103
 40
19.06958205160103
 40
19.46214173629503
 40
20.51396345435107
 40
21.57393551351153
 40
22.64208202342361
 40
23.7182574881101
 40
24.80209208578934
 40
25.89306333925047
 40
26.99048218457928
 40
28.09348763352352
 40
29.20111863782268
 40
30.31232390128032
 40
31.42594612798585
 40
32.5407912310448
 40
32.5407912310486
 40
32.5407912310486
 40
32.5407912310486
 10
-73.86189182184086
 20
4.421541430175336
 30
0.0
 10
-73.6819010962658
 20
4.012715651433014
 30
0.0
 10
-73.51060891571728
 20
3.789287991227475
 30
0.0
 10
-72.84751357084366
 20
3.601854227839378
 30
0.0
 10
-72.01265221664337
 20
3.344814308013669
 30
0.0
 10
-71.17844104274219
 20
3.068387220602106
 30
0.0
 10
-70.34482195784464
 20
2.774181701915619
 30
0.0
 10
-69.51174759272031
 20
2.463863820653265
 30
0.0
 10
-68.67915115677654
 20
2.139239244260421
 30
0.0
 10
-67.84696517738281
 20
1.802194831028588
 30
0.0
 10
-67.01513420836086
 20
1.454668445035781
 30
0.0
 10
-66.18358865142377
 20
1.098680904624745
 30
0.0
 10
-65.35225148784205
 20
0.7363109158586978
 30
0.0
 10
-64.52105502330308
 20
0.3696583146962036
 30
0.0
 10
-63.96707288633071
 20
0.1238377939737725
 30
0.0
 10
-63.68993074349844
 20
0.0008584333315073
 30
0.0
  0
LINE
  5
286C
330
1F
100
AcDbEntity
  8
AM_11
100
AcDbLine
 10
-73.91230196680758
 20
-4.449367905368641
 30
0.0
 11
-59.82341580391171
 21
-4.449367905368701
 31
0.0
  0
VIEWPORT
  5
110
330
101
100
AcDbEntity
 67
     1
  8
0
100
AcDbViewport
 10
420.5
 20
297.0
 30
0.0
 40
948.9782706766916
 41
628.452
 68
     1
 69
     1
1001
ACAD
1000
MVIEW
1002
{
1070
    16
1010
0.0
1020
0.0
1030
0.0
1010
0.0
1020
0.0
1030
1.0
1040
0.0
1040
628.452
1040
420.5
1040
297.0
1040
50.0
1040
0.0
1040
0.0
1070
     0
1070
   100
1070
     1
1070
     1
1070
     0
1070
     0
1070
     0
1070
     0
1040
0.0
1040
0.0
1040
0.0
1040
10.0
1040
10.0
1040
10.0
1040
10.0
1070
     0
1002
{
1002
}
1002
}
  0
ENDSEC
  0
SECTION
  2
OBJECTS
  0
DICTIONARY
  5
C
330
0
100
AcDbDictionary
  3
ACAD_GROUP
350
D
  3
ACAD_LAYOUT
350
1A
  3
ACAD_MLINESTYLE
350
17
  3
ACAD_PLOTSETTINGS
350
19
  3
ACAD_PLOTSTYLENAME
350
E
  3
ACDBVARIABLEDICTIONARY
350
34
  3
ACMDICTIONARY
350
43
  3
AMG
350
2B
  3
AMGSNAPSETTINGS
350
6E
  3
DWGPROPS
350
28B2
  3
ACDBHEADERROUNDTRIPXREC
350
28BE
  0
DICTIONARY
  5
74
330
1F
100
AcDbDictionary
280
     1
  3
ACAD_INDEX
360
28B4
  3
ACAD_LAYOUTSELFREF
360
28E1
  0
DICTIONARY
  5
28E6
330
101
100
AcDbDictionary
280
     1
  3
ACAD_LAYOUTSELFREF
360
28E7
  0
DICTIONARY
  5
D
102
{ACAD_REACTORS
330
C
102
}
330
C
100
AcDbDictionary
  0
DICTIONARY
  5
1A
102
{ACAD_REACTORS
330
C
102
}
330
C
100
AcDbDictionary
  0
DICTIONARY
  5
17
102
{ACAD_REACTORS
330
C
102
}
330
C
100
AcDbDictionary
  3
STANDARD
350
18
  0
DICTIONARY
  5
19
102
{ACAD_REACTORS
330
C
102
}
330
C
100
AcDbDictionary
  0
ACDBDICTIONARYWDFLT
  5
E
102
{ACAD_REACTORS
330
C
102
}
330
C
100
AcDbDictionary
281
     1
  3
Normal
350
F
100
AcDbDictionaryWithDefault
340
F
  0
DICTIONARY
  5
34
102
{ACAD_REACTORS
330
C
102
}
330
C
100
AcDbDictionary
  3
INDEXCTL
350
35
  3
SORTENTS
350
B5E
  0
DICTIONARY
  5
43
102
{ACAD_REACTORS
330
C
102
}
330
C
100
AcDbDictionary
  3
ACMSTDDICTIONARY
350
260
  0
DICTIONARY
  5
2B
102
{ACAD_REACTORS
330
C
102
}
330
C
100
AcDbDictionary
  3
ACMGSETTINGS
350
2C
  0
DICTIONARY
  5
6E
102
{ACAD_REACTORS
330
C
102
}
330
C
100
AcDbDictionary
  0
XRECORD
  5
28B2
102
{ACAD_REACTORS
330
C
102
}
330
C
100
AcDbXrecord
  1
DWGPROPS COOKIE
  2

  3

  4

  6

  7

  8

  9

300
AmdtFileType=82
301
=
302
=
303
=
304
=
305
=
306
=
307
=
308
=
309
=
 40
0.0845793518518519
 41
2452800.443498622
 42
2452948.691518912
  1

 90
        1
  0
DICTIONARY
  5
28BE
102
{ACAD_REACTORS
330
C
102
}
330
C
100
AcDbDictionary
  3
TSTACKALIGN
350
28BF
  3
TSTACKSIZE
350
28C0
  3
HYPERLINKBASE
350
28C1
  3
STYLESHEET
350
28C2
  3
LAYOUTDICT
350
28C3
  3
PLOTSETDICT
350
28C4
  3
PLOTSTYLNAMDICT
350
28C5
  3
LWETCUNION
350
28C6
  3
INSUNITS
350
28C7
  3
CEPSNTYPE
350
28C8
  3
FINGERPRINTGUID
350
28C9
  3
VERSIONGUID
350
28CA
  3
PSVPSCALE
350
28CB
  3
DIMSTYLEDATA
350
28CC
  3
PUCSORTHOREF
350
28CD
  3
PUCSORTHOVIEW
350
28CE
  3
PUCSBASE
350
28CF
  3
PUCSORGTOP
350
28D0
  3
PUCSORGBOTTOM
350
28D1
  3
PUCSORGLEFT
350
28D2
  3
PUCSORGRIGHT
350
28D3
  3
PUCSORGFRONT
350
28D4
  3
PUCSORGBACK
350
28D5
  3
UCSORTHOREF
350
28D6
  3
UCSORTHOVIEW
350
28D7
  3
UCSBASE
350
28D8
  3
UCSORGTOP
350
28D9
  3
UCSORGBOTTOM
350
28DA
  3
UCSORGLEFT
350
28DB
  3
UCSORGRIGHT
350
28DC
  3
UCSORGFRONT
350
28DD
  3
UCSORGBACK
350
28DE
  0
DICTIONARY
  5
28B4
102
{ACAD_REACTORS
330
74
102
}
330
74
100
AcDbDictionary
  3
*A1
350
28B5
  0
XRECORD
  5
28E1
102
{ACAD_REACTORS
330
74
102
}
330
74
100
AcDbXrecord
340
1F
  0
XRECORD
  5
28E7
102
{ACAD_REACTORS
330
28E6
102
}
330
28E6
100
AcDbXrecord
340
101
  0
MLINESTYLE
  5
18
102
{ACAD_REACTORS
330
17
102
}
330
17
100
AcDbMlineStyle
  2
STANDARD
 70
     0
  3

 62
   256
 51
90.0
 52
90.0
 71
     2
 49
0.5
 62
   256
  6
BYLAYER
 49
-0.5
 62
   256
  6
BYLAYER
  0
ACDBPLACEHOLDER
  5
F
102
{ACAD_REACTORS
330
E
102
}
330
E
100
AcDbPlaceHolder
280
     0
  0
DICTIONARYVAR
  5
35
102
{ACAD_REACTORS
330
34
102
}
330
34
100
DictionaryVariables
280
     0
  1
1
  0
DICTIONARYVAR
  5
B5E
102
{ACAD_REACTORS
330
34
102
}
330
34
100
DictionaryVariables
280
     0
  1
96
  0
DICTIONARY
  5
260
102
{ACAD_REACTORS
330
43
102
}
330
43
100
AcDbDictionary
  0
DICTIONARY
  5
2C
102
{ACAD_REACTORS
330
2B
102
}
330
2B
100
AcDbDictionary
  3
DWGSETTINGS
350
2D
  0
XRECORD
  5
28BF
102
{ACAD_REACTORS
330
28BE
102
}
330
28BE
100
AcDbXrecord
 90
        1
  0
XRECORD
  5
28C0
102
{ACAD_REACTORS
330
28BE
102
}
330
28BE
100
AcDbXrecord
 90
       70
  0
XRECORD
  5
28C1
102
{ACAD_REACTORS
330
28BE
102
}
330
28BE
100
AcDbXrecord
  1

  0
XRECORD
  5
28C2
102
{ACAD_REACTORS
330
28BE
102
}
330
28BE
100
AcDbXrecord
  1
ASAMI.ctb
  0
XRECORD
  5
28C3
102
{ACAD_REACTORS
330
28BE
102
}
330
28BE
100
AcDbXrecord
340
1A
  0
XRECORD
  5
28C4
102
{ACAD_REACTORS
330
28BE
102
}
330
28BE
100
AcDbXrecord
340
19
  0
XRECORD
  5
28C5
102
{ACAD_REACTORS
330
28BE
102
}
330
28BE
100
AcDbXrecord
340
E
  0
XRECORD
  5
28C6
102
{ACAD_REACTORS
330
28BE
102
}
330
28BE
100
AcDbXrecord
 90
    10781
  0
XRECORD
  5
28C7
102
{ACAD_REACTORS
330
28BE
102
}
330
28BE
100
AcDbXrecord
 90
        4
  0
XRECORD
  5
28C8
102
{ACAD_REACTORS
330
28BE
102
}
330
28BE
100
AcDbXrecord
 90
        0
  0
XRECORD
  5
28C9
102
{ACAD_REACTORS
330
28BE
102
}
330
28BE
100
AcDbXrecord
  1
{AFB28963-8C59-40AE-9337-C84526B81ACE}
  0
XRECORD
  5
28CA
102
{ACAD_REACTORS
330
28BE
102
}
330
28BE
100
AcDbXrecord
  1
{86BFBD78-2056-49E9-B3E2-3C4EEDB0118C}
  0
XRECORD
  5
28CB
102
{ACAD_REACTORS
330
28BE
102
}
330
28BE
100
AcDbXrecord
 40
0.0
  0
XRECORD
  5
28CC
102
{ACAD_REACTORS
330
28BE
102
}
330
28BE
100
AcDbXrecord
1000
DSTYLE
1002
{
1070
    79
 70
     2
1070
   341
340
59
1070
   342
340
59
1070
   371
 70
    -1
1070
   372
 70
    -1
1002
}
  0
XRECORD
  5
28CD
102
{ACAD_REACTORS
330
28BE
102
}
330
28BE
100
AcDbXrecord
340
0
  0
XRECORD
  5
28CE
102
{ACAD_REACTORS
330
28BE
102
}
330
28BE
100
AcDbXrecord
 70
     0
  0
XRECORD
  5
28CF
102
{ACAD_REACTORS
330
28BE
102
}
330
28BE
100
AcDbXrecord
340
0
  0
XRECORD
  5
28D0
102
{ACAD_REACTORS
330
28BE
102
}
330
28BE
100
AcDbXrecord
 10
0.0
 20
0.0
 30
0.0
  0
XRECORD
  5
28D1
102
{ACAD_REACTORS
330
28BE
102
}
330
28BE
100
AcDbXrecord
 10
0.0
 20
0.0
 30
0.0
  0
XRECORD
  5
28D2
102
{ACAD_REACTORS
330
28BE
102
}
330
28BE
100
AcDbXrecord
 10
0.0
 20
0.0
 30
0.0
  0
XRECORD
  5
28D3
102
{ACAD_REACTORS
330
28BE
102
}
330
28BE
100
AcDbXrecord
 10
0.0
 20
0.0
 30
0.0
  0
XRECORD
  5
28D4
102
{ACAD_REACTORS
330
28BE
102
}
330
28BE
100
AcDbXrecord
 10
0.0
 20
0.0
 30
0.0
  0
XRECORD
  5
28D5
102
{ACAD_REACTORS
330
28BE
102
}
330
28BE
100
AcDbXrecord
 10
0.0
 20
0.0
 30
0.0
  0
XRECORD
  5
28D6
102
{ACAD_REACTORS
330
28BE
102
}
330
28BE
100
AcDbXrecord
340
0
  0
XRECORD
  5
28D7
102
{ACAD_REACTORS
330
28BE
102
}
330
28BE
100
AcDbXrecord
 70
     0
  0
XRECORD
  5
28D8
102
{ACAD_REACTORS
330
28BE
102
}
330
28BE
100
AcDbXrecord
340
0
  0
XRECORD
  5
28D9
102
{ACAD_REACTORS
330
28BE
102
}
330
28BE
100
AcDbXrecord
 10
0.0
 20
0.0
 30
0.0
  0
XRECORD
  5
28DA
102
{ACAD_REACTORS
330
28BE
102
}
330
28BE
100
AcDbXrecord
 10
0.0
 20
0.0
 30
0.0
  0
XRECORD
  5
28DB
102
{ACAD_REACTORS
330
28BE
102
}
330
28BE
100
AcDbXrecord
 10
0.0
 20
0.0
 30
0.0
  0
XRECORD
  5
28DC
102
{ACAD_REACTORS
330
28BE
102
}
330
28BE
100
AcDbXrecord
 10
0.0
 20
0.0
 30
0.0
  0
XRECORD
  5
28DD
102
{ACAD_REACTORS
330
28BE
102
}
330
28BE
100
AcDbXrecord
 10
0.0
 20
0.0
 30
0.0
  0
XRECORD
  5
28DE
102
{ACAD_REACTORS
330
28BE
102
}
330
28BE
100
AcDbXrecord
 10
0.0
 20
0.0
 30
0.0
  0
LAYER_INDEX
  5
28B5
102
{ACAD_REACTORS
330
28B4
102
}
330
28B4
100
AcDbIndex
 40
2453151.680604189
100
AcDbLayerIndex
  8
0
360
28B6
 90
        0
  8
AM_0
360
28B7
 90
       53
  8
AM_7
360
28B8
 90
        1
  8
AM_11
360
28B9
 90
       19
  8
AM_5
360
28BA
 90
        5
  8
Defpoints
360
28BB
 90
        0
  8
AM_6
360
28BC
 90
        1
  0
XRECORD
  5
2D
102
{ACAD_REACTORS
330
2C
102
}
330
2C
100
AcDbXrecord
  1
VERSION
140
15.0
  1
PRODUCT
  2
AutoCAD Mechanical 2000
  0
IDBUFFER
  5
28B6
330
0
100
AcDbIdBuffer
  0
IDBUFFER
  5
28B7
330
0
100
AcDbIdBuffer
330
2867
330
2868
330
2869
330
286A
330
286B
330
1C24
330
1C25
330
1C26
330
1C27
330
1C28
330
1C2B
330
1C2C
330
1C2D
330
1EDD
330
1EDF
330
1FEC
330
2472
330
2473
330
2474
330
2476
330
2477
330
2478
330
282E
330
282F
330
2830
330
2831
330
2833
330
2834
330
2838
330
2839
330
283A
330
283B
330
283C
330
283D
330
283E
330
283F
330
2840
330
2846
330
2847
330
2848
330
2849
330
284A
330
284B
330
284C
330
284D
330
284F
330
2850
330
2851
330
2860
330
2861
330
2862
330
2863
330
2864
  0
IDBUFFER
  5
28B8
330
0
100
AcDbIdBuffer
330
C9F
  0
IDBUFFER
  5
28B9
330
0
100
AcDbIdBuffer
330
2865
330
2866
330
286C
330
20DE
330
20DF
330
20E0
330
20E1
330
20E2
330
20E3
330
2832
330
2835
330
2836
330
2837
330
2841
330
2842
330
2843
330
2844
330
2845
330
284E
  0
IDBUFFER
  5
28BA
330
0
100
AcDbIdBuffer
330
CC6
330
DF5
330
1EEB
330
237C
330
24DE
  0
IDBUFFER
  5
28BB
330
0
100
AcDbIdBuffer
  0
IDBUFFER
  5
28BC
330
0
100
AcDbIdBuffer
330
19BD
  0
ENDSEC
  0
EOF
