  0
SECTION
  2
HEADER
  9
$ACADVER
  1
AC1014
  9
$ACADMAINTVER
 70
     9
  9
$DWGCODEPAGE
  3
ANSI_932
  9
$INSBASE
 10
0.0
 20
0.0
 30
0.0
  9
$EXTMIN
 10
-147.9378612150698
 20
-52.73256976177835
 30
-0.00000001
  9
$EXTMAX
 10
32.08245937083793
 20
31.08733553509095
 30
0.00000001
  9
$LIMMIN
 10
-172.9155440290093
 20
-81.281252344184
  9
$LIMMAX
 10
60.94051686902753
 20
63.15137432131263
  9
$ORTHOMODE
 70
     0
  9
$REGENMODE
 70
     1
  9
$FILLMODE
 70
     1
  9
$QTEXTMODE
 70
     0
  9
$MIRRTEXT
 70
     0
  9
$DRAGMODE
 70
     2
  9
$LTSCALE
 40
1.0
  9
$OSMODE
 70
    55
  9
$ATTMODE
 70
     1
  9
$TEXTSIZE
 40
2.5
  9
$TRACEWID
 40
1.0
  9
$TEXTSTYLE
  7
STANDARD
  9
$CLAYER
  8
AM_0
  9
$CELTYPE
  6
BYLAYER
  9
$CECOLOR
 62
   256
  9
$CELTSCALE
 40
1.0
  9
$DELOBJ
 70
     1
  9
$DISPSILH
 70
     0
  9
$DIMSCALE
 40
1.0
  9
$DIMASZ
 40
2.5
  9
$DIMEXO
 40
1.0
  9
$DIMDLI
 40
12.0
  9
$DIMRND
 40
0.0
  9
$DIMDLE
 40
0.0
  9
$DIMEXE
 40
1.0
  9
$DIMTP
 40
0.1
  9
$DIMTM
 40
0.1
  9
$DIMTXT
 40
3.2
  9
$DIMCEN
 40
0.0
  9
$DIMTSZ
 40
0.0
  9
$DIMTOL
 70
     0
  9
$DIMLIM
 70
     0
  9
$DIMTIH
 70
     0
  9
$DIMTOH
 70
     0
  9
$DIMSE1
 70
     0
  9
$DIMSE2
 70
     0
  9
$DIMTAD
 70
     3
  9
$DIMZIN
 70
     8
  9
$DIMBLK
  1
OPEN30
  9
$DIMASO
 70
     1
  9
$DIMSHO
 70
     1
  9
$DIMPOST
  1

  9
$DIMAPOST
  1
"
  9
$DIMALT
 70
     0
  9
$DIMALTD
 70
     2
  9
$DIMALTF
 40
0.0393701
  9
$DIMLFAC
 40
1.0
  9
$DIMTOFL
 70
     1
  9
$DIMTVP
 40
0.0
  9
$DIMTIX
 70
     0
  9
$DIMSOXD
 70
     0
  9
$DIMSAH
 70
     0
  9
$DIMBLK1
  1

  9
$DIMBLK2
  1

  9
$DIMSTYLE
  2
AM_JIS
  9
$DIMCLRD
 70
   256
  9
$DIMCLRE
 70
   256
  9
$DIMCLRT
 70
     2
  9
$DIMTFAC
 40
0.71
  9
$DIMGAP
 40
1.5
  9
$DIMJUST
 70
     0
  9
$DIMSD1
 70
     0
  9
$DIMSD2
 70
     0
  9
$DIMTOLJ
 70
     0
  9
$DIMTZIN
 70
     0
  9
$DIMALTZ
 70
     0
  9
$DIMALTTZ
 70
     0
  9
$DIMFIT
 70
     3
  9
$DIMUPT
 70
     0
  9
$DIMUNIT
 70
     2
  9
$DIMDEC
 70
     3
  9
$DIMTDEC
 70
     3
  9
$DIMALTU
 70
     2
  9
$DIMALTTD
 70
     2
  9
$DIMTXSTY
  7
ASAMI
  9
$DIMAUNIT
 70
     0
  9
$LUNITS
 70
     2
  9
$LUPREC
 70
     2
  9
$SKETCHINC
 40
1.0
  9
$FILLETRAD
 40
2.5
  9
$AUNITS
 70
     0
  9
$AUPREC
 70
     0
  9
$MENU
  1
.
  9
$ELEVATION
 40
0.0
  9
$PELEVATION
 40
0.0
  9
$THICKNESS
 40
0.0
  9
$LIMCHECK
 70
     0
  9
$BLIPMODE
 70
     0
  9
$CHAMFERA
 40
2.5
  9
$CHAMFERB
 40
2.5
  9
$CHAMFERC
 40
20.0
  9
$CHAMFERD
 40
0.0
  9
$SKPOLY
 70
     0
  9
$TDCREATE
 40
2452800.443498622
  9
$TDUPDATE
 40
2453151.585492604
  9
$TDINDWG
 40
0.1180406134
  9
$TDUSRTIMER
 40
0.1180406134
  9
$USRTIMER
 70
     1
  9
$ANGBASE
 50
0.0
  9
$ANGDIR
 70
     0
  9
$PDMODE
 70
     0
  9
$PDSIZE
 40
0.0
  9
$PLINEWID
 40
0.0
  9
$COORDS
 70
     1
  9
$SPLFRAME
 70
     0
  9
$SPLINETYPE
 70
     6
  9
$SPLINESEGS
 70
     8
  9
$ATTDIA
 70
     1
  9
$ATTREQ
 70
     1
  9
$HANDLING
 70
 12289
  9
$HANDSEED
  5
259A
  9
$SURFTAB1
 70
     6
  9
$SURFTAB2
 70
     6
  9
$SURFTYPE
 70
     6
  9
$SURFU
 70
     6
  9
$SURFV
 70
     6
  9
$UCSNAME
  2

  9
$UCSORG
 10
0.0
 20
0.0
 30
0.0
  9
$UCSXDIR
 10
1.0
 20
0.000000000000002
 30
0.0
  9
$UCSYDIR
 10
-0.000000000000002
 20
1.0
 30
0.0
  9
$PUCSNAME
  2

  9
$PUCSORG
 10
0.0
 20
0.0
 30
0.0
  9
$PUCSXDIR
 10
1.0
 20
0.0
 30
0.0
  9
$PUCSYDIR
 10
0.0
 20
1.0
 30
0.0
  9
$USERI1
 70
     0
  9
$USERI2
 70
     0
  9
$USERI3
 70
     0
  9
$USERI4
 70
     0
  9
$USERI5
 70
     0
  9
$USERR1
 40
0.0
  9
$USERR2
 40
0.0
  9
$USERR3
 40
0.0
  9
$USERR4
 40
0.0
  9
$USERR5
 40
0.0
  9
$WORLDVIEW
 70
     1
  9
$SHADEDGE
 70
     3
  9
$SHADEDIF
 70
    70
  9
$TILEMODE
 70
     1
  9
$MAXACTVP
 70
    64
  9
$PINSBASE
 10
0.0
 20
0.0
 30
0.0
  9
$PLIMCHECK
 70
     0
  9
$PEXTMIN
 10
1.000000000000000E+20
 20
1.000000000000000E+20
 30
1.000000000000000E+20
  9
$PEXTMAX
 10
-1.000000000000000E+20
 20
-1.000000000000000E+20
 30
-1.000000000000000E+20
  9
$PLIMMIN
 10
0.0
 20
0.0
  9
$PLIMMAX
 10
841.0
 20
594.0
  9
$UNITMODE
 70
     0
  9
$VISRETAIN
 70
     1
  9
$PLINEGEN
 70
     0
  9
$PSLTSCALE
 70
     0
  9
$TREEDEPTH
 70
  3020
  9
$PICKSTYLE
 70
     0
  9
$CMLSTYLE
  2
STANDARD
  9
$CMLJUST
 70
     0
  9
$CMLSCALE
 40
20.0
  9
$PROXYGRAPHICS
 70
     1
  9
$MEASUREMENT
 70
     1
  0
ENDSEC
  0
SECTION
  2
CLASSES
  0
CLASS
  1
ACDBDICTIONARYWDFLT
  2
AcDbDictionaryWithDefault
  3
AutoCAD 2000
 90
        0
280
     0
281
     0
  0
CLASS
  1
ACDBPLACEHOLDER
  2
AcDbPlaceHolder
  3
AutoCAD 2000
 90
        0
280
     0
281
     0
  0
CLASS
  1
LAYOUT
  2
AcDbLayout
  3
AutoCAD 2000
 90
        0
280
     0
281
     0
  0
CLASS
  1
AMGSETTINGSOBJ
  2
AmgSettingsObj
  3
"AcadM|Product Description: AutoCAD Mechanical 2000|Company: Autodesk"
 90
        0
280
     0
281
     0
  0
CLASS
  1
ACME_DOCUMENT
  2
AcMeDbDoc
  3
AcMeServices
 90
        0
280
     0
281
     0
  0
CLASS
  1
ACMESCOPE
  2
AcMeScope
  3
AcMeServices
 90
        0
280
     0
281
     0
  0
CLASS
  1
ACMECOMMANDHISTORY
  2
AcMeCommandHistory
  3
AcMeServices
 90
        0
280
     0
281
     0
  0
CLASS
  1
DICTIONARYVAR
  2
AcDbDictionaryVar
  3
AutoCAD 2000
 90
        0
280
     0
281
     0
  0
CLASS
  1
ACIMSYSVARMAN
  2
AcImSysVarManager
  3
AcMeServices
 90
        0
280
     0
281
     0
  0
CLASS
  1
ACIMREALSYSVAR
  2
AcImRealSysVar
  3
AcMeServices
 90
        0
280
     0
281
     0
  0
CLASS
  1
ACIMINTSYSVAR
  2
AcImIntSysVar
  3
AcMeServices
 90
        0
280
     0
281
     0
  0
CLASS
  1
ACMEDRAWINGMAN
  2
AcMeDrawingMan
  3
AcMeServices
 90
        0
280
     0
281
     0
  0
CLASS
  1
ACMEVIEW
  2
AcMeView
  3
AcMeServices
 90
        0
280
     0
281
     0
  0
CLASS
  1
ACDBENTITYCACHE
  2
AcMeEntityCache
  3
AcMeServices
 90
        0
280
     0
281
     0
  0
CLASS
  1
GSMANAGER
  2
AcMeGSManager
  3
AcMeServices
 90
        0
280
     0
281
     0
  0
CLASS
  1
AmdtInternalReactor
  2
AmdtInternalReactor
  3
AcMeServices
 90
        0
280
     0
281
     0
  0
CLASS
  1
ACMESTATEMGR
  2
AcMeStateMgr
  3
AcMeServices
 90
        0
280
     0
281
     0
  0
CLASS
  1
ACME_DATABASE
  2
AcMeDbDatabase
  3
AcMeServices
 90
        0
280
     0
281
     0
  0
CLASS
  1
ACRFINSADJUSTERMGR
  2
AcRfInsAdjusterMgr
  3
AcMeServices
 90
        0
280
     0
281
     0
  0
CLASS
  1
ACMDATADICTIONARY
  2
AcmDataDictionary
  3
"AcmSymBB|Product Description: AutoCAD Mechanical 2000|Company: Autodesk"
 90
        0
280
     0
281
     0
  0
CLASS
  1
ACMDATAENTRYBLOCK
  2
AcmDataEntryBlock
  3
"AcmSymBB|Product Description: AutoCAD Mechanical 2000|Company: Autodesk"
 90
        0
280
     0
281
     0
  0
CLASS
  1
AMGOBJPROPCFG
  2
AmgObjPropCfg
  3
"AmgLay|Product Description: AutoCAD Mechanical 2000|Company: Autodesk"
 90
        1
280
     0
281
     0
  0
CLASS
  1
ACAMGFILTERDAT
  2
AcAmgFilterDat
  3
"AcadM|Product Description: AutoCAD Mechanical 2000|Company: Autodesk"
 90
        0
280
     0
281
     0
  0
CLASS
  1
LAYER_INDEX
  2
AcDbLayerIndex
  3
AutoCAD 2000
 90
        0
280
     0
281
     0
  0
CLASS
  1
IDBUFFER
  2
AcDbIdBuffer
  3
AutoCAD 2000
 90
        0
280
     0
281
     0
  0
CLASS
  1
ACIMSTRSYSVAR
  2
AcImStrSysVar
  3
AcMeServices
 90
        0
280
     0
281
     0
  0
CLASS
  1
ACMSTANDARDJIS
  2
AcmStandardJIS
  3
"AcmSymBB|Product Description: AutoCAD Mechanical 2000|Company: Autodesk"
 90
        0
280
     0
281
     0
  0
CLASS
  1
ACMSURFSTANDARDJIS
  2
AcmSurfTextStdJIS
  3
"AcmSymBB|Product Description: AutoCAD Mechanical 2000|Company: Autodesk"
 90
        0
280
     0
281
     0
  0
CLASS
  1
ACMFCFSTANDARDJIS
  2
AcmFCFStdJIS
  3
"AcmSymBB|Product Description: AutoCAD Mechanical 2000|Company: Autodesk"
 90
        0
280
     0
281
     0
  0
CLASS
  1
ACMWELDSTANDARDJIS
  2
AcmWeldingStdJIS
  3
"AcmSymBB|Product Description: AutoCAD Mechanical 2000|Company: Autodesk"
 90
        0
280
     0
281
     0
  0
CLASS
  1
ACMIDSTANDARDJIS
  2
AcmIdStdJIS
  3
"AcmSymBB|Product Description: AutoCAD Mechanical 2000|Company: Autodesk"
 90
        0
280
     0
281
     0
  0
CLASS
  1
ACMDATUMSTANDARDJIS
  2
AcmDatumStdJIS
  3
"AcmSymBB|Product Description: AutoCAD Mechanical 2000|Company: Autodesk"
 90
        0
280
     0
281
     0
  0
CLASS
  1
ACMBOMSTANDARDJIS
  2
AcmBOMStdJIS
  3
"AcmSymBB|Product Description: AutoCAD Mechanical 2000|Company: Autodesk"
 90
        0
280
     0
281
     0
  0
CLASS
  1
ACMSTANDARDANSI
  2
AcmStandardANSI
  3
"AcmSymBB|Product Description: AutoCAD Mechanical 2000|Company: Autodesk"
 90
        0
280
     0
281
     0
  0
CLASS
  1
ACMSURFSTANDARDANSI
  2
AcmSurfTextStdANSI
  3
"AcmSymBB|Product Description: AutoCAD Mechanical 2000|Company: Autodesk"
 90
        0
280
     0
281
     0
  0
CLASS
  1
ACMFCFSTANDARDANSI
  2
AcmFCFStdANSI
  3
"AcmSymBB|Product Description: AutoCAD Mechanical 2000|Company: Autodesk"
 90
        0
280
     0
281
     0
  0
CLASS
  1
ACMWELDSTANDARDANSI
  2
AcmWeldingStdANSI
  3
"AcmSymBB|Product Description: AutoCAD Mechanical 2000|Company: Autodesk"
 90
        0
280
     0
281
     0
  0
CLASS
  1
ACMIDSTANDARDANSI
  2
AcmIdStdANSI
  3
"AcmSymBB|Product Description: AutoCAD Mechanical 2000|Company: Autodesk"
 90
        0
280
     0
281
     0
  0
CLASS
  1
ACMDATUMSTANDARDANSI
  2
AcmDatumStdANSI
  3
"AcmSymBB|Product Description: AutoCAD Mechanical 2000|Company: Autodesk"
 90
        0
280
     0
281
     0
  0
CLASS
  1
ACMBOMSTANDARDANSI
  2
AcmBOMStdANSI
  3
"AcmSymBB|Product Description: AutoCAD Mechanical 2000|Company: Autodesk"
 90
        0
280
     0
281
     0
  0
CLASS
  1
ACMSTANDARDBSI
  2
AcmStandardBSI
  3
"AcmSymBB|Product Description: AutoCAD Mechanical 2000|Company: Autodesk"
 90
        0
280
     0
281
     0
  0
CLASS
  1
ACMSURFSTANDARDBSI
  2
AcmSurfTextStdBSI
  3
"AcmSymBB|Product Description: AutoCAD Mechanical 2000|Company: Autodesk"
 90
        0
280
     0
281
     0
  0
CLASS
  1
ACMFCFSTANDARDBSI
  2
AcmFCFStdBSI
  3
"AcmSymBB|Product Description: AutoCAD Mechanical 2000|Company: Autodesk"
 90
        0
280
     0
281
     0
  0
CLASS
  1
ACMWELDSTANDARDBSI
  2
AcmWeldingStdBSI
  3
"AcmSymBB|Product Description: AutoCAD Mechanical 2000|Company: Autodesk"
 90
        0
280
     0
281
     0
  0
CLASS
  1
ACMIDSTANDARDBSI
  2
AcmIdStdBSI
  3
"AcmSymBB|Product Description: AutoCAD Mechanical 2000|Company: Autodesk"
 90
        0
280
     0
281
     0
  0
CLASS
  1
ACMDATUMSTANDARDBSI
  2
AcmDatumStdBSI
  3
"AcmSymBB|Product Description: AutoCAD Mechanical 2000|Company: Autodesk"
 90
        0
280
     0
281
     0
  0
CLASS
  1
ACMBOMSTANDARDBSI
  2
AcmBOMStdBSI
  3
"AcmSymBB|Product Description: AutoCAD Mechanical 2000|Company: Autodesk"
 90
        0
280
     0
281
     0
  0
CLASS
  1
LONG_TRANSACTION
  2
AcDbLongTransaction
  3
AutoCAD 2000
 90
        0
280
     0
281
     0
  0
CLASS
  1
LWPOLYLINE
  2
AcDbPolyline
  3
AutoCAD 2000
 90
        0
280
     0
281
     1
  0
CLASS
  1
HATCH
  2
AcDbHatch
  3
AutoCAD 2000
 90
        0
280
     0
281
     1
  0
CLASS
  1
XRECORD
  2
AcDbXrecord
  3
AutoCAD 2000
 90
        0
280
     0
281
     0
  0
ENDSEC
  0
SECTION
  2
TABLES
  0
TABLE
  2
VPORT
  5
8
330
0
100
AcDbSymbolTable
 70
     3
  0
VPORT
  5
256F
330
8
100
AcDbSymbolTableRecord
100
AcDbViewportTableRecord
  2
*ACTIVE
 70
     0
 10
0.0
 20
0.0
 11
1.0
 21
1.0
 12
-38.43540318477491
 22
-13.13130956361743
 13
0.0
 23
0.0
 14
2.5
 24
2.5
 15
10.0
 25
10.0
 16
0.0
 26
0.0
 36
1.0
 17
0.0
 27
0.0
 37
0.0
 40
313.2298528517029
 41
1.56570841889117
 42
50.0
 43
0.0
 44
0.0
 50
0.0
 51
0.0
 71
     0
 72
   100
 73
     1
 74
     3
 75
     0
 76
     0
 77
     0
 78
     0
  0
ENDTAB
  0
TABLE
  2
LTYPE
  5
5
330
0
100
AcDbSymbolTable
 70
    10
  0
LTYPE
  5
14
330
5
100
AcDbSymbolTableRecord
100
AcDbLinetypeTableRecord
  2
BYBLOCK
 70
     0
  3

 72
    65
 73
     0
 40
0.0
  0
LTYPE
  5
15
330
5
100
AcDbSymbolTableRecord
100
AcDbLinetypeTableRecord
  2
BYLAYER
 70
     0
  3

 72
    65
 73
     0
 40
0.0
  0
LTYPE
  5
16
330
5
100
AcDbSymbolTableRecord
100
AcDbLinetypeTableRecord
  2
CONTINUOUS
 70
     0
  3
Solid line
 72
    65
 73
     0
 40
0.0
  0
LTYPE
  5
4B
330
5
100
AcDbSymbolTableRecord
100
AcDbLinetypeTableRecord
  2
AM_ISO02W050
 70
     0
  3
__ __ __ __ __ __ __ __ __ __ __ __ __ __ __
 72
    65
 73
     2
 40
7.5
 49
6.0
 74
     0
 49
-1.5
 74
     0
  0
LTYPE
  5
4C
330
5
100
AcDbSymbolTableRecord
100
AcDbLinetypeTableRecord
  2
AM_ISO08W050
 70
     0
  3
____ . ____ . ____ . ____ . ____ . ____ . ____
 72
    65
 73
     4
 40
18.0
 49
12.0
 74
     0
 49
-1.5
 74
     0
 49
3.0
 74
     0
 49
-1.5
 74
     0
  0
LTYPE
  5
4D
330
5
100
AcDbSymbolTableRecord
100
AcDbLinetypeTableRecord
  2
AM_ISO09W050
 70
     0
  3
_____ . . _____ . . _____ . . ____ .. ____
 72
    65
 73
     6
 40
22.5
 49
12.0
 74
     0
 49
-1.5
 74
     0
 49
3.0
 74
     0
 49
-1.5
 74
     0
 49
3.0
 74
     0
 49
-1.5
 74
     0
  0
LTYPE
  5
4E
330
5
100
AcDbSymbolTableRecord
100
AcDbLinetypeTableRecord
  2
AMCONSTR
 70
     0
  3
_______________________
 72
    65
 73
     2
 40
9999.0
 49
9999.0
 74
     0
 49
0.0
 74
     0
  0
LTYPE
  5
4F
330
5
100
AcDbSymbolTableRecord
100
AcDbLinetypeTableRecord
  2
AM_ISO02W050X2
 70
     0
  3
 _ _ _ _ _ _ _ _ _ _ _ _
 72
    65
 73
     2
 40
3.75
 49
3.0
 74
     0
 49
-0.75
 74
     0
  0
LTYPE
  5
50
330
5
100
AcDbSymbolTableRecord
100
AcDbLinetypeTableRecord
  2
AM_ISO08W050X2
 70
     0
  3
__ . __ . __ . __ . __ . __
 72
    65
 73
     4
 40
9.0
 49
6.0
 74
     0
 49
-0.75
 74
     0
 49
1.5
 74
     0
 49
-0.75
 74
     0
  0
LTYPE
  5
53
330
5
100
AcDbSymbolTableRecord
100
AcDbLinetypeTableRecord
  2
AMZIGZAG
 70
     0
  3
/\/-/\/-/\/-/\/-/\/-/\/
 72
    65
 73
     2
 40
11.00009999999999
 49
0.0001
 74
     4
 75
   135
340
52
 46
0.04
 50
0.0
 44
0.0
 45
0.0
 49
-11.0
 74
     0
  0
LTYPE
  5
166
330
5
100
AcDbSymbolTableRecord
100
AcDbLinetypeTableRecord
  2
ACJISTGL
 70
     0
  3
_ _ _ _ _
 72
    65
 73
     2
 40
3.0
 49
2.0
 74
     0
 49
-1.0
 74
     0
  0
LTYPE
  5
26A
330
5
100
AcDbSymbolTableRecord
100
AcDbLinetypeTableRecord
  2
ACJISTGB
 70
     0
  3
__ . . __ . .
 72
    65
 73
     6
 40
9.0
 49
4.0
 74
     0
 49
-1.0
 74
     0
 49
1.0
 74
     0
 49
-1.0
 74
     0
 49
1.0
 74
     0
 49
-1.0
 74
     0
  0
ENDTAB
  0
TABLE
  2
LAYER
  5
2
330
0
100
AcDbSymbolTable
 70
     8
  0
LAYER
  5
10
330
2
100
AcDbSymbolTableRecord
100
AcDbLayerTableRecord
  2
0
 70
     0
 62
     7
  6
CONTINUOUS
  0
LAYER
  5
3F9
330
2
100
AcDbSymbolTableRecord
100
AcDbLayerTableRecord
  2
AM_0
 70
     0
 62
     7
  6
CONTINUOUS
  0
LAYER
  5
C7C
330
2
100
AcDbSymbolTableRecord
100
AcDbLayerTableRecord
  2
AM_7
 70
     0
 62
     4
  6
AM_ISO08W050
  0
LAYER
  5
C97
330
2
100
AcDbSymbolTableRecord
100
AcDbLayerTableRecord
  2
AM_11
 70
     0
 62
     3
  6
AM_ISO09W050
  0
LAYER
  5
CC5
330
2
100
AcDbSymbolTableRecord
100
AcDbLayerTableRecord
  2
AM_5
 70
     0
 62
     3
  6
CONTINUOUS
  0
LAYER
  5
CC7
330
2
100
AcDbSymbolTableRecord
100
AcDbLayerTableRecord
  2
DEFPOINTS
 70
     0
 62
     7
  6
CONTINUOUS
  0
LAYER
  5
19BC
330
2
100
AcDbSymbolTableRecord
100
AcDbLayerTableRecord
  2
AM_6
 70
     0
 62
     2
  6
CONTINUOUS
  0
LAYER
  5
2291
330
2
100
AcDbSymbolTableRecord
100
AcDbLayerTableRecord
  2
AM_CL
 70
     0
 62
     1
  6
AMCONSTR
  0
ENDTAB
  0
TABLE
  2
STYLE
  5
3
330
0
100
AcDbSymbolTable
 70
     5
  0
STYLE
  5
11
330
3
100
AcDbSymbolTableRecord
100
AcDbTextStyleTableRecord
  2
STANDARD
 70
     0
 40
0.0
 41
1.0
 50
0.0
 71
     0
 42
2.5
  3
simplex.shx
  4
EXTFONT.SHX
  0
STYLE
  5
52
330
3
100
AcDbSymbolTableRecord
100
AcDbTextStyleTableRecord
  2

 70
     1
 40
0.0
 41
1.0
 50
0.0
 71
     0
 42
2.5
  3
ltypeshp.shx
  4

  0
STYLE
  5
6B
330
3
100
AcDbSymbolTableRecord
100
AcDbTextStyleTableRecord
  2
ASAMI
 70
     0
 40
0.0
 41
1.0
 50
0.0
 71
     0
 42
2.5
  3
simplex.shx
  4
EXTFONT.SHX
  0
STYLE
  5
262
330
3
100
AcDbSymbolTableRecord
100
AcDbTextStyleTableRecord
  2
ACJISTS
 70
     0
 40
1.0
 41
1.0
 50
0.0
 71
     0
 42
2.5
  3
simplex.shx
  4
bigfont.shx
  0
STYLE
  5
269
330
3
100
AcDbSymbolTableRecord
100
AcDbTextStyleTableRecord
  2
ACJISGDT
 70
     0
 40
0.0
 41
1.0
 50
0.0
 71
     0
 42
2.5
  3
amgdtans.shx
  4

  0
ENDTAB
  0
TABLE
  2
VIEW
  5
6
330
0
100
AcDbSymbolTable
 70
     0
  0
ENDTAB
  0
TABLE
  2
UCS
  5
7
330
0
100
AcDbSymbolTable
 70
     0
  0
ENDTAB
  0
TABLE
  2
APPID
  5
9
330
0
100
AcDbSymbolTable
 70
    14
  0
APPID
  5
12
330
9
100
AcDbSymbolTableRecord
100
AcDbRegAppTableRecord
  2
ACAD
 70
     0
  0
APPID
  5
30
330
9
100
AcDbSymbolTableRecord
100
AcDbRegAppTableRecord
  2
MCAD_NO_VIS
 70
     0
  0
APPID
  5
31
330
9
100
AcDbSymbolTableRecord
100
AcDbRegAppTableRecord
  2
ACAD_TEMP_GRAPHIC
 70
     0
  0
APPID
  5
2C2
330
9
100
AcDbSymbolTableRecord
100
AcDbRegAppTableRecord
  2
GENIUS_GENDTOL_13
 70
     0
  0
APPID
  5
339
330
9
100
AcDbSymbolTableRecord
100
AcDbRegAppTableRecord
  2
GENIUS_GENODEF_13
 70
     0
  0
APPID
  5
33A
330
9
100
AcDbSymbolTableRecord
100
AcDbRegAppTableRecord
  2
GENIUS_GENOBJ-N-RSBK_13
 70
     0
  0
APPID
  5
33B
330
9
100
AcDbSymbolTableRecord
100
AcDbRegAppTableRecord
  2
GENIUS_GENOBJ-N-LIB_13
 70
     0
  0
APPID
  5
33C
330
9
100
AcDbSymbolTableRecord
100
AcDbRegAppTableRecord
  2
GENIUS_GENSCALE_13
 70
     0
  0
APPID
  5
378
330
9
100
AcDbSymbolTableRecord
100
AcDbRegAppTableRecord
  2
GENIUS_GENDIMSH_14
 70
     0
  0
APPID
  5
C82
330
9
100
AcDbSymbolTableRecord
100
AcDbRegAppTableRecord
  2
GENIUS_GENOBJ-N-CRS_13
 70
     0
  0
APPID
  5
C83
330
9
100
AcDbSymbolTableRecord
100
AcDbRegAppTableRecord
  2
GENIUS_GENOENT_13
 70
     0
  0
APPID
  5
C84
330
9
100
AcDbSymbolTableRecord
100
AcDbRegAppTableRecord
  2
GENIUS_GENOREF_13
 70
     0
  0
APPID
  5
C85
330
9
100
AcDbSymbolTableRecord
100
AcDbRegAppTableRecord
  2
GENIUS_GENOLIS_13
 70
     0
  0
APPID
  5
CA0
330
9
100
AcDbSymbolTableRecord
100
AcDbRegAppTableRecord
  2
GENIUS_GENOBJ-N-CEN_13
 70
     0
  0
ENDTAB
  0
TABLE
  2
DIMSTYLE
  5
A
330
0
100
AcDbSymbolTable
 70
     9
  0
DIMSTYLE
105
58
330
A
100
AcDbSymbolTableRecord
100
AcDbDimStyleTableRecord
  2
AM_JIS
 70
     0
  3

  4
"
  5
OPEN30
  6

  7

 40
1.0
 41
2.5
 42
1.0
 43
12.0
 44
1.0
 45
0.0
 46
0.0
 47
0.1
 48
0.1
140
3.2
141
0.0
142
0.0
143
0.0393701
144
1.0
145
0.0
146
0.71
147
1.5
 71
     0
 72
     0
 73
     0
 74
     0
 75
     0
 76
     0
 77
     3
 78
     8
170
     0
171
     2
172
     1
173
     0
174
     0
175
     0
176
   256
177
   256
178
     2
270
     2
271
     3
272
     3
273
     2
274
     2
340
6B
275
     0
280
     0
281
     0
282
     0
283
     0
284
     0
285
     0
286
     0
287
     3
288
     0
  0
DIMSTYLE
105
5F
330
A
100
AcDbSymbolTableRecord
100
AcDbDimStyleTableRecord
  2
AM_JIS$3
 70
     0
  3

  4
"
  5
OPEN30
  6

  7

 40
1.0
 41
2.5
 42
1.0
 43
10.0
 44
1.0
 45
0.0
 46
0.0
 47
0.1
 48
0.1
140
3.2
141
0.0
142
0.0
143
0.0393701
144
1.0
145
0.0
146
0.71
147
1.5
 71
     0
 72
     0
 73
     0
 74
     1
 75
     0
 76
     0
 77
     3
 78
     8
170
     0
171
     2
172
     0
173
     0
174
     0
175
     0
176
   256
177
   256
178
     2
270
     2
271
     2
272
     3
273
     2
274
     2
340
6B
275
     0
280
     0
281
     0
282
     0
283
     0
284
     0
285
     0
286
     0
287
     0
288
     1
  0
DIMSTYLE
105
60
330
A
100
AcDbSymbolTableRecord
100
AcDbDimStyleTableRecord
  2
AM_JIS$4
 70
     0
  3

  4
"
  5
OPEN30
  6

  7

 40
1.0
 41
2.5
 42
1.0
 43
10.0
 44
1.0
 45
0.0
 46
0.0
 47
0.1
 48
0.1
140
3.2
141
0.0
142
0.0
143
0.0393701
144
1.0
145
0.0
146
0.71
147
1.5
 71
     0
 72
     0
 73
     0
 74
     1
 75
     0
 76
     0
 77
     3
 78
     8
170
     0
171
     2
172
     0
173
     0
174
     0
175
     0
176
   256
177
   256
178
     2
270
     2
271
     2
272
     3
273
     2
274
     2
340
6B
275
     0
280
     0
281
     0
282
     0
283
     0
284
     0
285
     0
286
     0
287
     0
288
     1
  0
DIMSTYLE
105
61
330
A
100
AcDbSymbolTableRecord
100
AcDbDimStyleTableRecord
  2
AM_JIS$6
 70
     0
  3

  4
"
  5
OPEN30
  6

  7

 40
1.0
 41
2.5
 42
1.0
 43
10.0
 44
1.0
 45
0.0
 46
0.0
 47
0.1
 48
0.1
140
3.2
141
0.0
142
0.0
143
0.0393701
144
1.0
145
0.0
146
0.71
147
1.5
 71
     0
 72
     0
 73
     0
 74
     0
 75
     0
 76
     0
 77
     0
 78
     8
170
     0
171
     2
172
     1
173
     0
174
     0
175
     0
176
   256
177
   256
178
     2
270
     2
271
     2
272
     2
273
     2
274
     2
340
6B
275
     0
280
     0
281
     0
282
     0
283
     0
284
     0
285
     0
286
     0
287
     3
288
     0
  0
DIMSTYLE
105
62
330
A
100
AcDbSymbolTableRecord
100
AcDbDimStyleTableRecord
  2
AM_JIS$7
 70
     0
  3

  4
"
  5
OPEN30
  6

  7

 40
1.0
 41
2.5
 42
1.0
 43
10.0
 44
1.0
 45
0.0
 46
0.0
 47
0.1
 48
0.1
140
3.2
141
0.0
142
0.0
143
0.0393701
144
1.0
145
0.0
146
0.71
147
1.5
 71
     0
 72
     0
 73
     0
 74
     0
 75
     0
 76
     0
 77
     3
 78
     8
170
     0
171
     2
172
     1
173
     0
174
     0
175
     0
176
   256
177
   256
178
     2
270
     2
271
     2
272
     3
273
     2
274
     2
340
6B
275
     0
280
     0
281
     0
282
     0
283
     0
284
     0
285
     0
286
     0
287
     3
288
     0
  0
DIMSTYLE
105
63
330
A
100
AcDbSymbolTableRecord
100
AcDbDimStyleTableRecord
  2
AM_JIS$SF
 70
     0
  3

  4
"
  5
OPEN30
  6

  7

 40
1.0
 41
2.5
 42
1.0
 43
10.0
 44
1.0
 45
0.0
 46
0.0
 47
0.1
 48
0.1
140
3.2
141
0.0
142
0.0
143
0.0393701
144
1.0
145
0.0
146
0.71
147
1.5
 71
     0
 72
     0
 73
     0
 74
     0
 75
     1
 76
     1
 77
     3
 78
     8
170
     0
171
     2
172
     1
173
     0
174
     0
175
     0
176
   256
177
   256
178
     2
270
     2
271
     2
272
     2
273
     2
274
     2
340
6B
275
     0
280
     0
281
     0
282
     0
283
     0
284
     0
285
     0
286
     0
287
     3
288
     0
  0
DIMSTYLE
105
68
330
A
100
AcDbSymbolTableRecord
100
AcDbDimStyleTableRecord
  2
AM_JIS$SH
 70
     0
  3

  4
"
  5

  6
GENAXEH
  7
OPEN30
 40
1.0
 41
2.5
 42
1.0
 43
10.0
 44
1.0
 45
0.0
 46
0.0
 47
0.1
 48
0.1
140
3.2
141
0.0
142
0.0
143
0.0393701
144
2.0
145
0.0
146
0.71
147
1.5
 71
     0
 72
     0
 73
     0
 74
     0
 75
     1
 76
     1
 77
     3
 78
     8
170
     0
171
     2
172
     1
173
     1
174
     0
175
     0
176
   256
177
   256
178
     2
270
     2
271
     2
272
     2
273
     2
274
     2
340
6B
275
     0
280
     0
281
     0
282
     0
283
     0
284
     0
285
     0
286
     0
287
     3
288
     0
  0
DIMSTYLE
105
B34
102
{ACAD_REACTORS
330
11B2
102
}
330
A
100
AcDbSymbolTableRecord
100
AcDbDimStyleTableRecord
  2
AM_JIS$2
 70
     0
  3

  4
"
  5
OPEN30
  6

  7

 40
1.0
 41
2.5
 42
1.0
 43
12.0
 44
1.0
 45
0.0
 46
0.0
 47
0.1
 48
0.1
140
3.2
141
0.0
142
0.0
143
0.0393701
144
1.0
145
0.0
146
0.71
147
1.5
 71
     0
 72
     0
 73
     0
 74
     0
 75
     0
 76
     0
 77
     3
 78
     8
170
     0
171
     2
172
     1
173
     0
174
     0
175
     0
176
   256
177
   256
178
     2
270
     2
271
     3
272
     3
273
     2
274
     2
340
6B
275
     0
280
     0
281
     0
282
     0
283
     0
284
     0
285
     0
286
     0
287
     3
288
     0
  0
DIMSTYLE
105
BA5
102
{ACAD_REACTORS
330
CC6
330
DF5
330
1EEB
330
2129
102
}
330
A
100
AcDbSymbolTableRecord
100
AcDbDimStyleTableRecord
  2
AM_JIS$0
 70
     0
  3

  4
"
  5
OPEN30
  6

  7

 40
1.0
 41
2.5
 42
0.8
 43
10.0
 44
1.0
 45
0.0
 46
0.0
 47
0.1
 48
0.1000000001
140
3.799999999999999
141
0.0
142
0.0
143
0.0393701
144
1.0
145
0.0
146
0.71
147
1.5
 71
     0
 72
     0
 73
     0
 74
     0
 75
     0
 76
     0
 77
     3
 78
     9
170
     0
171
     2
172
     1
173
     0
174
     0
175
     0
176
     3
177
     3
178
     2
270
     2
271
     2
272
     2
273
     2
274
     2
340
11
275
     1
280
     0
281
     0
282
     0
283
     0
284
     8
285
     0
286
     0
287
     0
288
     0
  0
ENDTAB
  0
TABLE
  2
BLOCK_RECORD
  5
1
330
0
100
AcDbSymbolTable
 70
    15
  0
BLOCK_RECORD
  5
1F
102
{ACAD_XDICTIONARY
360
74
102
}
330
1
100
AcDbSymbolTableRecord
100
AcDbBlockTableRecord
  2
*MODEL_SPACE
  0
BLOCK_RECORD
  5
101
102
{ACAD_XDICTIONARY
360
2598
102
}
330
1
100
AcDbSymbolTableRecord
100
AcDbBlockTableRecord
  2
*PAPER_SPACE
  0
BLOCK_RECORD
  5
59
330
1
100
AcDbSymbolTableRecord
100
AcDbBlockTableRecord
  2
_OPEN30
  0
BLOCK_RECORD
  5
64
330
1
100
AcDbSymbolTableRecord
100
AcDbBlockTableRecord
  2
GENAXEH
  0
BLOCK_RECORD
  5
CC8
330
1
100
AcDbSymbolTableRecord
100
AcDbBlockTableRecord
  2
*D5
  0
BLOCK_RECORD
  5
DF6
330
1
100
AcDbSymbolTableRecord
100
AcDbBlockTableRecord
  2
*D7
  0
BLOCK_RECORD
  5
11B3
330
1
100
AcDbSymbolTableRecord
100
AcDbBlockTableRecord
  2
*D9
  0
BLOCK_RECORD
  5
1EEC
330
1
100
AcDbSymbolTableRecord
100
AcDbBlockTableRecord
  2
*D10
  0
BLOCK_RECORD
  5
212A
330
1
100
AcDbSymbolTableRecord
100
AcDbBlockTableRecord
  2
*D12
  0
ENDTAB
  0
ENDSEC
  0
SECTION
  2
BLOCKS
  0
BLOCK
  5
20
330
1F
100
AcDbEntity
  8
0
100
AcDbBlockBegin
  2
*MODEL_SPACE
 70
     0
 10
0.0
 20
0.0
 30
0.0
  3
*MODEL_SPACE
  1

  0
ENDBLK
  5
21
330
1F
100
AcDbEntity
  8
0
100
AcDbBlockEnd
  0
BLOCK
  5
103
330
101
100
AcDbEntity
 67
     1
  8
0
100
AcDbBlockBegin
  2
*PAPER_SPACE
 70
     0
 10
0.0
 20
0.0
 30
0.0
  3
*PAPER_SPACE
  1

  0
ENDBLK
  5
104
330
101
100
AcDbEntity
 67
     1
  8
0
100
AcDbBlockEnd
  0
BLOCK
  5
5D
330
59
100
AcDbEntity
  8
0
100
AcDbBlockBegin
  2
_OPEN30
 70
     0
 10
0.0
 20
0.0
 30
0.0
  3
_OPEN30
  1

  0
LINE
  5
5A
330
59
100
AcDbEntity
  8
0
 62
     0
100
AcDbLine
 10
-1.0
 20
0.26794919
 30
0.0
 11
0.0
 21
0.0
 31
0.0
  0
LINE
  5
5B
330
59
100
AcDbEntity
  8
0
 62
     0
100
AcDbLine
 10
0.0
 20
0.0
 30
0.0
 11
-1.0
 21
-0.26794919
 31
0.0
  0
LINE
  5
5C
330
59
100
AcDbEntity
  8
0
 62
     0
100
AcDbLine
 10
0.0
 20
0.0
 30
0.0
 11
-1.0
 21
0.0
 31
0.0
  0
ENDBLK
  5
5E
330
59
100
AcDbEntity
  8
0
100
AcDbBlockEnd
  0
BLOCK
  5
66
330
64
100
AcDbEntity
  8
0
100
AcDbBlockBegin
  2
GENAXEH
 70
     0
 10
0.0
 20
0.0
 30
0.0
  3
GENAXEH
  1

  0
LINE
  5
65
330
64
100
AcDbEntity
  8
0
100
AcDbLine
 10
-1.0
 20
0.0
 30
0.0
 11
1.0
 21
0.0
 31
0.0
  0
ENDBLK
  5
67
330
64
100
AcDbEntity
  8
0
100
AcDbBlockEnd
  0
BLOCK
  5
CD2
330
CC8
100
AcDbEntity
  8
0
100
AcDbBlockBegin
  2
*D5
 70
     1
 10
0.0
 20
0.0
 30
0.0
  3
*D5
  1

  0
LINE
  5
2530
330
CC8
100
AcDbEntity
  8
AM_5
 62
     3
100
AcDbLine
 10
-128.6014103445306
 20
-5.034845392509863
 30
0.0
 11
-128.6014103445306
 21
-31.23256976177827
 31
0.0
  0
LINE
  5
2531
330
CC8
100
AcDbEntity
  8
AM_5
 62
     3
100
AcDbLine
 10
-1.637860215069878
 20
-5.300003627473691
 30
0.0
 11
-1.637860215069879
 21
-31.23256976177827
 31
0.0
  0
LINE
  5
2532
330
CC8
100
AcDbEntity
  8
AM_5
 62
     3
100
AcDbLine
 10
-126.1014103445307
 20
-30.23256976177828
 30
0.0
 11
-4.137860215069879
 21
-30.23256976177828
 31
0.0
  0
INSERT
  5
2533
330
CC8
100
AcDbEntity
  8
AM_5
 62
     3
100
AcDbBlockReference
  2
_OPEN30
 10
-128.6014103445306
 20
-30.23256976177828
 30
0.0
 41
2.5
 42
2.5
 43
2.5
 50
180.0
  0
INSERT
  5
2534
330
CC8
100
AcDbEntity
  8
AM_5
 62
     3
100
AcDbBlockReference
  2
_OPEN30
 10
-1.637860215069879
 20
-30.23256976177828
 30
0.0
 41
2.5
 42
2.5
 43
2.5
  0
MTEXT
  5
2535
330
CC8
100
AcDbEntity
  8
AM_5
 62
     2
100
AcDbMText
 10
-65.11963527980029
 20
-26.83256976177828
 30
0.0
 40
3.799999999999999
 41
0.0
 71
     5
 72
     1
  1
127
1001
ACAD
1000
MTEXTBEGIN
1070
    73
1070
     1
1070
    44
1040
1.0
1070
    74
1070
     0
1000
MTEXTEND
  0
POINT
  5
2536
330
CC8
100
AcDbEntity
  8
DEFPOINTS
 62
     0
100
AcDbPoint
 10
-128.6014103445306
 20
-4.234845392509863
 30
0.0
  0
POINT
  5
2537
330
CC8
100
AcDbEntity
  8
DEFPOINTS
 62
     0
100
AcDbPoint
 10
-1.637860215069878
 20
-4.500003627473692
 30
0.0
  0
POINT
  5
2538
330
CC8
100
AcDbEntity
  8
DEFPOINTS
 62
     0
100
AcDbPoint
 10
-1.637860215069879
 20
-30.23256976177828
 30
0.0
  0
ENDBLK
  5
CD3
330
CC8
100
AcDbEntity
  8
0
100
AcDbBlockEnd
  0
BLOCK
  5
E00
330
DF6
100
AcDbEntity
  8
0
100
AcDbBlockBegin
  2
*D7
 70
     1
 10
0.0
 20
0.0
 30
0.0
  3
*D7
  1

  0
LINE
  5
254B
330
DF6
100
AcDbEntity
  8
AM_5
 62
     3
100
AcDbLine
 10
-73.63786021506988
 20
-5.300003505485766
 30
0.0
 11
-73.63786021506988
 21
-19.83494005485255
 31
0.0
  0
LINE
  5
254C
330
DF6
100
AcDbEntity
  8
AM_5
 62
     3
100
AcDbLine
 10
-1.637860215069878
 20
-5.300003627473691
 30
0.0
 11
-1.637860215069878
 21
-19.83494005485255
 31
0.0
  0
LINE
  5
254D
330
DF6
100
AcDbEntity
  8
AM_5
 62
     3
100
AcDbLine
 10
-71.13786021506988
 20
-18.83494005485255
 30
0.0
 11
-4.137860215069879
 21
-18.83494005485255
 31
0.0
  0
INSERT
  5
254E
330
DF6
100
AcDbEntity
  8
AM_5
 62
     3
100
AcDbBlockReference
  2
_OPEN30
 10
-73.63786021506988
 20
-18.83494005485255
 30
0.0
 41
2.5
 42
2.5
 43
2.5
 50
180.0
  0
INSERT
  5
254F
330
DF6
100
AcDbEntity
  8
AM_5
 62
     3
100
AcDbBlockReference
  2
_OPEN30
 10
-1.637860215069878
 20
-18.83494005485255
 30
0.0
 41
2.5
 42
2.5
 43
2.5
  0
MTEXT
  5
2550
330
DF6
100
AcDbEntity
  8
AM_5
 62
     2
100
AcDbMText
 10
-37.63786021506987
 20
-15.43494005485255
 30
0.0
 40
3.799999999999999
 41
0.0
 71
     5
 72
     1
  1
72
1001
ACAD
1000
MTEXTBEGIN
1070
    73
1070
     1
1070
    44
1040
1.0
1070
    74
1070
     0
1000
MTEXTEND
  0
POINT
  5
2551
330
DF6
100
AcDbEntity
  8
DEFPOINTS
 62
     0
100
AcDbPoint
 10
-73.63786021506988
 20
-4.500003505485766
 30
0.0
  0
POINT
  5
2552
330
DF6
100
AcDbEntity
  8
DEFPOINTS
 62
     0
100
AcDbPoint
 10
-1.637860215069878
 20
-4.500003627473692
 30
0.0
  0
POINT
  5
2553
330
DF6
100
AcDbEntity
  8
DEFPOINTS
 62
     0
100
AcDbPoint
 10
-1.637860215069878
 20
-18.83494005485255
 30
0.0
  0
ENDBLK
  5
E01
330
DF6
100
AcDbEntity
  8
0
100
AcDbBlockEnd
  0
BLOCK
  5
11C1
330
11B3
100
AcDbEntity
  8
0
100
AcDbBlockBegin
  2
*D9
 70
     1
 10
0.0
 20
0.0
 30
0.0
  3
*D9
  1

  0
LINE
  5
251A
330
11B3
100
AcDbEntity
  8
AM_5
100
AcDbLine
 10
0.3420217302728068
 20
-0.9396958006134791
 30
0.0
 11
11.3148675548228
 21
-31.08734218123052
 31
0.0
  0
LINE
  5
251B
330
11B3
100
AcDbEntity
  8
AM_5
100
AcDbLine
 10
0.3420210076560249
 20
0.9396929789308632
 30
0.0
 11
11.31488907914361
 21
31.08733553509095
 31
0.0
  0
ARC
  5
251C
330
11B3
100
AcDbEntity
  8
AM_5
100
AcDbCircle
 10
0.0000002162135057
 20
0.0000005940404499
 30
0.0
 40
32.08245915462633
100
AcDbArc
 50
294.4658580760215
 51
65.53410225339934
  0
INSERT
  5
251D
330
11B3
100
AcDbEntity
  8
AM_5
100
AcDbBlockReference
  2
_OPEN30
 10
10.97284741400666
 20
-30.14764955953121
 30
0.0
 41
2.5
 42
2.5
 43
2.5
 50
202.2329289615039
  0
INSERT
  5
251E
330
11B3
100
AcDbEntity
  8
AM_5
100
AcDbBlockReference
  2
_OPEN30
 10
10.97286828770109
 20
30.14764315020054
 30
0.0
 41
2.5
 42
2.5
 43
2.5
 50
157.7670313679169
  0
MTEXT
  5
251F
330
11B3
100
AcDbEntity
  8
AM_5
 62
     2
100
AcDbMText
 10
28.98245937083791
 20
-0.0000105126217466
 30
0.0
 40
3.2
 41
0.0
 71
     5
 72
     1
  1
140°
  7
ASAMI
 11
0.0000000000000001
 21
1.0
 31
0.0
1001
ACAD
1000
MTEXTBEGIN
1070
    73
1070
     1
1070
    44
1040
1.0
1070
    74
1070
     0
1000
MTEXTEND
  0
POINT
  5
2520
330
11B3
100
AcDbEntity
  8
DEFPOINTS
 62
     0
100
AcDbPoint
 10
29.45863681450374
 20
12.70719993843343
 30
0.0
  0
POINT
  5
2521
330
11B3
100
AcDbEntity
  8
DEFPOINTS
 62
     0
100
AcDbPoint
 10
0.0
 20
0.0
 30
0.0
  0
POINT
  5
2522
330
11B3
100
AcDbEntity
  8
DEFPOINTS
 62
     0
100
AcDbPoint
 10
0.0000015894566729
 20
-0.0000031789141749
 30
0.0
  0
POINT
  5
2523
330
11B3
100
AcDbEntity
  8
DEFPOINTS
 62
     0
100
AcDbPoint
 10
-0.6672716140749913
 20
1.833314895630001
 30
0.0
  0
POINT
  5
2524
330
11B3
100
AcDbEntity
  8
DEFPOINTS
 62
     0
100
AcDbPoint
 10
-0.667282740274994
 20
-1.83334032694501
 30
0.0
  0
ENDBLK
  5
11C2
330
11B3
100
AcDbEntity
  8
0
100
AcDbBlockEnd
  0
BLOCK
  5
1EF6
330
1EEC
100
AcDbEntity
  8
0
100
AcDbBlockBegin
  2
*D10
 70
     1
 10
0.0
 20
0.0
 30
0.0
  3
*D10
  1

  0
LINE
  5
245D
330
1EEC
100
AcDbEntity
  8
AM_5
 62
     3
100
AcDbLine
 10
-129.1431875669615
 20
-4.500010721489899
 30
0.0
 11
-143.6378612150698
 21
-4.500010721489926
 31
0.0
  0
LINE
  5
245E
330
1EEC
100
AcDbEntity
  8
AM_5
 62
     3
100
AcDbLine
 10
-129.1431875669615
 20
4.499977837575106
 30
0.0
 11
-143.6378612150698
 21
4.499977837575078
 31
0.0
  0
LINE
  5
245F
330
1EEC
100
AcDbEntity
  8
AM_5
 62
     3
100
AcDbLine
 10
-142.6378612150698
 20
-2.000010721489925
 30
0.0
 11
-142.6378612150698
 21
1.99997783757508
 31
0.0
  0
INSERT
  5
2460
330
1EEC
100
AcDbEntity
  8
AM_5
 62
     3
100
AcDbBlockReference
  2
_OPEN30
 10
-142.6378612150698
 20
-4.500010721489925
 30
0.0
 41
2.5
 42
2.5
 43
2.5
 50
270.0000000000001
  0
INSERT
  5
2461
330
1EEC
100
AcDbEntity
  8
AM_5
 62
     3
100
AcDbBlockReference
  2
_OPEN30
 10
-142.6378612150698
 20
4.49997783757508
 30
0.0
 41
2.5
 42
2.5
 43
2.5
 50
90.0000000000001
  0
MTEXT
  5
2462
330
1EEC
100
AcDbEntity
  8
AM_5
 62
     2
100
AcDbMText
 10
-146.0378612150698
 20
-0.0000164419574232
 30
0.0
 40
3.799999999999999
 41
0.0
 71
     5
 72
     1
  1
%%c9
 11
-0.000000000000002
 21
1.0
 31
0.0
1001
ACAD
1000
MTEXTBEGIN
1070
    73
1070
     1
1070
    44
1040
1.0
1070
    74
1070
     0
1000
MTEXTEND
  0
POINT
  5
2463
330
1EEC
100
AcDbEntity
  8
DEFPOINTS
 62
     0
100
AcDbPoint
 10
-128.3431875669615
 20
-4.500010721489612
 30
0.0
  0
POINT
  5
2464
330
1EEC
100
AcDbEntity
  8
DEFPOINTS
 62
     0
100
AcDbPoint
 10
-128.3431875669615
 20
4.499977837575393
 30
0.0
  0
POINT
  5
2465
330
1EEC
100
AcDbEntity
  8
DEFPOINTS
 62
     0
100
AcDbPoint
 10
-142.6378612150698
 20
4.499977837575397
 30
0.0
  0
ENDBLK
  5
1EF7
330
1EEC
100
AcDbEntity
  8
0
100
AcDbBlockEnd
  0
BLOCK
  5
2136
330
212A
100
AcDbEntity
  8
0
100
AcDbBlockBegin
  2
*D12
 70
     1
 10
0.0
 20
0.0
 30
0.0
  3
*D12
  1

  0
LINE
  5
2525
330
212A
100
AcDbEntity
  8
AM_5
 62
     3
100
AcDbLine
 10
-1.061211637454367
 20
-4.499997246797181
 30
0.0
 11
18.47021933188367
 21
-4.499997246797186
 31
0.0
  0
LINE
  5
2526
330
212A
100
AcDbEntity
  8
AM_5
 62
     3
100
AcDbLine
 10
-1.061211025354183
 20
4.499993511503554
 30
0.0
 11
18.47021933188367
 21
4.499993511503548
 31
0.0
  0
LINE
  5
2527
330
212A
100
AcDbEntity
  8
AM_5
 62
     3
100
AcDbLine
 10
17.47021933188367
 20
-6.999997246797185
 30
0.0
 11
17.47021933188366
 21
-9.499997246797185
 31
0.0
  0
LINE
  5
2528
330
212A
100
AcDbEntity
  8
AM_5
 62
     3
100
AcDbLine
 10
17.47021933188367
 20
6.999993511503549
 30
0.0
 11
17.47021933188367
 21
9.49999351150355
 31
0.0
  0
LINE
  5
2529
330
212A
100
AcDbEntity
  8
AM_5
 62
     3
100
AcDbLine
 10
17.47021933188367
 20
-4.499997246797185
 30
0.0
 11
17.47021933188367
 21
4.499993511503549
 31
0.0
  0
INSERT
  5
252A
330
212A
100
AcDbEntity
  8
AM_5
 62
     3
100
AcDbBlockReference
  2
_OPEN30
 10
17.47021933188367
 20
-4.499997246797185
 30
0.0
 41
2.5
 42
2.5
 43
2.5
 50
90.0
  0
INSERT
  5
252B
330
212A
100
AcDbEntity
  8
AM_5
 62
     3
100
AcDbBlockReference
  2
_OPEN30
 10
17.47021933188367
 20
4.499993511503549
 30
0.0
 41
2.5
 42
2.5
 43
2.5
 50
270.0
  0
MTEXT
  5
252C
330
212A
100
AcDbEntity
  8
AM_5
 62
     2
100
AcDbMText
 10
14.07021933188367
 20
-0.000001867646807
 30
0.0
 40
3.799999999999999
 41
0.0
 71
     5
 72
     1
  1
%%c9
 11
0.0000000000000001
 21
1.0
 31
0.0
1001
ACAD
1000
MTEXTBEGIN
1070
    73
1070
     1
1070
    44
1040
1.0
1070
    74
1070
     0
1000
MTEXTEND
  0
POINT
  5
252D
330
212A
100
AcDbEntity
  8
DEFPOINTS
 62
     0
100
AcDbPoint
 10
-1.861211637454367
 20
-4.499997246797181
 30
0.0
  0
POINT
  5
252E
330
212A
100
AcDbEntity
  8
DEFPOINTS
 62
     0
100
AcDbPoint
 10
-1.861211025354183
 20
4.499993511503554
 30
0.0
  0
POINT
  5
252F
330
212A
100
AcDbEntity
  8
DEFPOINTS
 62
     0
100
AcDbPoint
 10
17.47021933188367
 20
4.499993511503549
 30
0.0
  0
ENDBLK
  5
2137
330
212A
100
AcDbEntity
  8
0
100
AcDbBlockEnd
  0
ENDSEC
  0
SECTION
  2
ENTITIES
  0
LINE
  5
C9F
330
1F
100
AcDbEntity
  8
AM_7
100
AcDbLine
 10
-131.3198537826541
 20
-0.0000031789142055
 30
0.0
 11
2.500008101451741
 21
-0.0000031789141512
 31
0.0
1001
GENIUS_GENODEF_13
1002
{
1000
HIER
1070
     0
1002
}
1002
{
1000
MANEDIT
1070
     0
1002
}
1002
{
1000
NOSEL
1070
     0
1002
}
1002
{
1000
BEHIND
1070
     0
1002
}
1002
{
1000
REACTOR
1002
}
1001
GENIUS_GENOBJ-N-CEN_13
1002
{
1000
OWNER
1000
GEN
1002
}
  0
DIMENSION
  5
CC6
330
1F
100
AcDbEntity
  8
AM_5
100
AcDbDimension
  2
*D5
 10
-1.637860215069879
 20
-30.23256976177828
 30
0.0
 11
-65.11963527980029
 21
-26.83256976177828
 31
0.0
 70
    32
  1
<>
  3
AM_JIS$0
100
AcDbAlignedDimension
 13
-128.6014103445306
 23
-4.234845392509863
 33
0.0
 14
-1.637860215069878
 24
-4.500003627473692
 34
0.0
 50
0.0000000000001132
100
AcDbRotatedDimension
1001
GENIUS_GENDTOL_13
1000

1000
h7
1000

1040
0.0
1001
ACAD
1000
DSTYLE
1002
{
1070
   271
1070
     0
1002
}
  0
DIMENSION
  5
DF5
330
1F
100
AcDbEntity
  8
AM_5
100
AcDbDimension
  2
*D7
 10
-1.637860215069878
 20
-18.83494005485255
 30
0.0
 11
-37.63786021506987
 21
-15.43494005485255
 31
0.0
 70
    32
  1
<>
  3
AM_JIS$0
100
AcDbAlignedDimension
 13
-73.63786021506988
 23
-4.500003505485766
 33
0.0
 14
-1.637860215069878
 24
-4.500003627473692
 34
0.0
 50
0.0000000000001527
100
AcDbRotatedDimension
1001
GENIUS_GENDTOL_13
1000

1000
h7
1000

1040
0.0
1001
ACAD
1000
DSTYLE
1002
{
1070
   271
1070
     0
1002
}
  0
DIMENSION
  5
11B2
330
1F
100
AcDbEntity
  8
AM_5
100
AcDbDimension
  2
*D9
 10
-0.667282740274994
 20
-1.83334032694501
 30
0.0
 11
28.98245937083791
 21
-0.0000105126217513
 31
0.0
 70
    34
  1
<>
  3
AM_JIS$2
100
AcDb2LineAngularDimension
 13
0.0000015894566729
 23
-0.0000031789141749
 33
0.0
 14
-0.6672716140749913
 24
1.833314895630001
 34
0.0
 15
0.0
 25
0.0
 35
0.0
 16
29.45863681450374
 26
12.70719993843343
 36
0.0
1001
ACAD
1000
DSTYLE
1002
{
1070
   179
1070
     3
1002
}
1001
GENIUS_GENDTOL_13
1000

1000
h7
1000

1040
0.0
  0
TEXT
  5
19BD
330
1F
100
AcDbEntity
  8
AM_6
100
AcDbText
 10
-91.07201623218122
 20
-52.73256976177835
 30
0.0
 40
5.0
  1
MDW0900LDLH
 50
0.0000000000001527
 72
     4
 11
-65.11963527980026
 21
-50.23256976177828
 31
0.0
100
AcDbText
  0
LINE
  5
1C24
330
1F
100
AcDbEntity
  8
AM_0
 48
0.5
100
AcDbLine
 10
-128.6378220681032
 20
4.234812508596392
 30
0.0
 11
-128.3431875669615
 21
4.499977837575393
 31
0.0
  0
LINE
  5
1C25
330
1F
100
AcDbEntity
  8
AM_0
 48
0.5
100
AcDbLine
 10
-128.6378220681032
 20
-4.234845392509863
 30
0.0
 11
-128.3431875669615
 21
-4.500010721489612
 31
0.0
  0
LINE
  5
1C26
330
1F
100
AcDbEntity
  8
AM_0
 48
0.5
100
AcDbLine
 10
-128.3432384295948
 20
-4.500033609673121
 30
0.0
 11
-128.3432384295948
 21
4.500026474965892
 31
0.0
  0
LINE
  5
1C27
330
1F
100
AcDbEntity
  8
AM_0
 48
0.5
100
AcDbLine
 10
-128.6378602150698
 20
-4.23486828069335
 30
0.0
 11
-128.6378602150698
 21
4.234861145986145
 31
0.0
  0
LINE
  5
1C28
330
1F
100
AcDbEntity
  8
AM_0
100
AcDbLine
 10
-73.63992920475666
 20
4.499994337753234
 30
0.0
 11
-128.3431875669504
 21
4.50001211069662
 31
0.0
  0
LINE
  5
1C2B
330
1F
100
AcDbEntity
  8
AM_0
 48
0.5
100
AcDbLine
 10
-73.63786021506988
 20
-4.500003505485766
 30
0.0
 11
-128.3431875669576
 21
-4.500022103682986
 31
0.0
  0
DIMENSION
  5
1EEB
330
1F
100
AcDbEntity
  8
AM_5
100
AcDbDimension
  2
*D10
 10
-142.6378612150698
 20
4.499977837575397
 30
0.0
 11
-146.0378612150698
 21
-0.000016441957128
 31
0.0
 70
    32
  1
%%c<>
 51
359.9999999999998
  3
AM_JIS$0
100
AcDbAlignedDimension
 13
-128.3431875669615
 23
-4.500010721489612
 33
0.0
 14
-128.3431875669615
 24
4.499977837575393
 34
0.0
 50
270.0000000000002
100
AcDbRotatedDimension
1001
ACAD
1000
DSTYLE
1002
{
1070
   271
1070
     0
1002
}
1001
GENIUS_GENDTOL_13
1000

1000
h7
1000

1040
0.0
  0
DIMENSION
  5
2129
330
1F
100
AcDbEntity
  8
AM_5
100
AcDbDimension
  2
*D12
 10
17.47021933188367
 20
4.499993511503549
 30
0.0
 11
17.47021933188367
 21
-0.0000018676468074
 31
0.0
 70
   160
  1
%%c<>
  3
AM_JIS$0
100
AcDbAlignedDimension
 13
-1.861211637454367
 23
-4.499997246797181
 33
0.0
 14
-1.861211025354183
 24
4.499993511503554
 34
0.0
 50
89.99999999999978
100
AcDbRotatedDimension
1001
ACAD
1000
DSTYLE
1002
{
1070
   271
1070
     1
1002
}
1001
GENIUS_GENDTOL_13
1000

1000
h7
1000

1040
0.0
  0
LINE
  5
213A
330
1F
100
AcDbEntity
  8
AM_0
 48
0.5
100
AcDbLine
 10
0.0000079472858279
 20
-0.0000007664509436
 30
0.0
 11
-2.48351154525354
 21
1.750699940265434
 31
0.0
  0
LINE
  5
213B
330
1F
100
AcDbEntity
  8
AM_0
 48
0.5
100
AcDbLine
 10
-4.6208659807846
 20
4.499996372526326
 30
0.0
 11
-1.637857065584982
 21
4.499996372526307
 31
0.0
  0
LINE
  5
213C
330
1F
100
AcDbEntity
  8
AM_0
 48
0.5
100
AcDbLine
 10
-1.637860215069878
 20
-4.500003627473692
 30
0.0
 11
-4.620865980784656
 21
-4.500003627473673
 31
0.0
  0
ELLIPSE
  5
2148
330
1F
100
AcDbEntity
  8
AM_0
 48
0.5
100
AcDbEllipse
 10
-8.851954792485129
 20
7.552627750699838
 30
0.0
 11
-12.32951906594294
 21
0.0000000000015859
 31
0.0
210
0.0
220
0.0
230
0.9999999999999998
 40
0.8800000000000048
 41
2.243923664093122
 42
2.371646881103627
  0
ELLIPSE
  5
2150
330
1F
100
AcDbEntity
  8
AM_0
 48
0.5
100
AcDbEllipse
 10
-1.523561549909336
 20
-1.172768405611197
 30
0.0
 11
-0.1630569661202636
 21
0.7357700153198948
 31
0.0
210
0.0
220
0.0
230
0.9999999999999998
 40
0.5627298637470034
 41
1.769728362542712
 42
4.905070252254686
  0
ELLIPSE
  5
2151
330
1F
100
AcDbEntity
  8
AM_0
 48
0.5
100
AcDbEllipse
 10
-1.523561549909336
 20
-1.172768405611197
 30
0.0
 11
-0.7505351262943102
 21
0.3527694461930939
 31
0.0
210
0.0
220
0.0
230
1.0
 40
0.4647095443725334
 41
4.417849522235772
 42
7.56128986356528
  0
ELLIPSE
  5
215F
330
1F
100
AcDbEntity
  8
AM_0
 48
0.5
100
AcDbEllipse
 10
5.289041273521349
 20
-1.000291637117008
 30
0.0
 11
7.991945557093331
 21
1.524011550342627
 31
0.0
210
0.0
220
0.0
230
0.9999999999999998
 40
0.6590961816431085
 41
3.027281637568471
 42
3.552149263952474
  0
LINE
  5
2280
330
1F
100
AcDbEntity
  8
AM_0
100
AcDbLine
 10
-1.637857065584982
 20
4.499996372526307
 30
0.0
 11
0.0000079472858279
 21
-0.0000007664509436
 31
0.0
  0
LINE
  5
2281
330
1F
100
AcDbEntity
  8
AM_0
100
AcDbLine
 10
-1.637860215069878
 20
-4.500003627473692
 30
0.0
 11
0.0000079472858279
 21
0.0000021646423007
 31
0.0
  0
XLINE
  5
229E
330
1F
100
AcDbEntity
  8
AM_CL
100
AcDbXline
 10
-77773.60145643879
 20
-4.400019132654597
 30
0.0
 11
-0.000000000000002
 21
1.0
 31
0.0
  0
XLINE
  5
22A2
330
1F
100
AcDbEntity
  8
AM_CL
100
AcDbXline
 10
-77773.60145643879
 20
-4.400019132654597
 30
0.0
 11
-0.000000000000002
 21
1.0
 31
0.0
  0
ELLIPSE
  5
24BC
330
1F
100
AcDbEntity
  8
AM_0
 48
0.5
100
AcDbEllipse
 10
-8.659769691540203
 20
7.552627750699856
 30
0.0
 11
-7.025751800988275
 21
8.758848046563047
 31
0.0
210
0.0
220
0.0
230
1.0
 40
0.7101495252915513
 41
2.974644280129973
 42
3.100253997652203
  0
SPLINE
  5
24BD
330
1F
100
AcDbEntity
  8
AM_0
 48
0.5
100
AcDbSpline
210
0.0
220
0.0
230
1.0
 70
     8
 71
     3
 72
    10
 73
     6
 74
     0
 42
0.0000000001
 43
0.0000000001
 40
0.0
 40
0.0
 40
0.0
 40
0.0
 40
2.69986029516136
 40
4.147722969032201
 40
6.285750005020438
 40
6.285750005020438
 40
6.285750005020438
 40
6.285750005020438
 10
-5.503709170601074
 20
0.8144723857098503
 30
0.0
 10
-4.903636489052855
 20
0.3963912893083375
 30
0.0
 10
-3.981760920599613
 20
-0.2458954873706347
 30
0.0
 10
-1.801649038981686
 20
0.065046793134721
 30
0.0
 10
-2.21222751875405
 20
1.112341537664553
 30
0.0
 10
-2.48351154525354
 20
1.750699940265434
 30
0.0
  0
ELLIPSE
  5
24BE
330
1F
100
AcDbEntity
  8
AM_0
 48
0.5
100
AcDbEllipse
 10
3.193513394228415
 20
5.402523227995004
 30
0.0
 11
10.08249240205428
 21
0.0000000000000275
 31
0.0
210
0.0
220
0.0
230
1.0
 40
0.8995297034040763
 41
3.671960206823877
 42
4.080081137018772
  0
SPLINE
  5
24BF
330
1F
100
AcDbEntity
  8
AM_0
100
AcDbSpline
210
0.0
220
0.0
230
1.0
 70
     8
 71
     3
 72
    17
 73
    13
 74
     0
 42
0.0000000001
 43
0.0000000001
 40
1.580019955310467
 40
1.580019955310467
 40
1.580019955310467
 40
1.580019955310467
 40
2.030549285115227
 40
3.082371838836284
 40
4.126290986361125
 40
5.162752068350215
 40
6.192395305374981
 40
7.216039564037012
 40
8.234688489606833
 40
9.249433870634691
 40
10.26152376260694
 40
11.27226744710342
 40
11.27226744710342
 40
11.27226744710342
 40
11.27226744710352
 10
-12.46112210094562
 20
-3.321136137130226
 30
0.0
 10
-12.5804109304175
 20
-3.355341042989053
 30
0.0
 10
-12.97887569739063
 20
-3.467452190659604
 30
0.0
 10
-13.65915386974069
 20
-3.64330253718733
 30
0.0
 10
-14.5017790227974
 20
-3.840231597154187
 30
0.0
 10
-15.34463614976982
 20
-4.013109165209798
 30
0.0
 10
-16.18753189616158
 20
-4.161354679625852
 30
0.0
 10
-17.03051947453425
 20
-4.283889795371288
 30
0.0
 10
-17.87356529249974
 20
-4.380015258571057
 30
0.0
 10
-18.71666360524637
 20
-4.449108144059651
 30
0.0
 10
-19.55979364101506
 20
-4.490723692909296
 30
0.0
 10
-20.1220167548295
 20
-4.500003653222782
 30
0.0
 10
-20.40294122220715
 20
-4.500003627473545
 30
0.0
  0
LINE
  5
24C0
330
1F
100
AcDbEntity
  8
AM_0
 48
0.5
100
AcDbLine
 10
-34.53580575707809
 20
-4.500003627473525
 30
0.0
 11
-20.40294122220722
 21
-4.500003627473545
 31
0.0
  0
SPLINE
  5
24C1
330
1F
100
AcDbEntity
  8
AM_0
100
AcDbSpline
210
0.0
220
0.0
230
1.0
 70
     8
 71
     3
 72
    11
 73
     7
 74
     0
 42
0.0000000001
 43
0.0000000001
 40
11.27226913003534
 40
11.27226913003534
 40
11.27226913003534
 40
11.2722691300354
 40
12.28301561507924
 40
13.29510212255852
 40
14.30984805882082
 40
15.18258238371378
 40
15.18258238371378
 40
15.18258238371378
 40
15.18258238371378
 10
-20.40294122220719
 20
-4.500003627473545
 30
0.0
 10
-20.68279747645769
 20
-4.477979319782081
 30
0.0
 10
-21.24198212284664
 20
-4.42465942939806
 30
0.0
 10
-22.07787156716314
 20
-4.317100021849872
 30
0.0
 10
-22.87114538884555
 20
-4.188632102962649
 30
0.0
 10
-23.38418833247058
 20
-4.089874990263505
 30
0.0
 10
-23.62061312977745
 20
-4.041091704359871
 30
0.0
  0
LINE
  5
24C2
330
1F
100
AcDbEntity
  8
AM_11
 48
0.3
100
AcDbLine
 10
-48.35951522823073
 20
4.500635679193207
 30
0.0
 11
-38.22397702434464
 21
4.499996372526596
 31
0.0
  0
SPLINE
  5
24C3
330
1F
100
AcDbEntity
  8
AM_0
100
AcDbSpline
210
0.0
220
0.0
230
1.0
 70
     8
 71
     3
 72
    23
 73
    19
 74
     0
 42
0.0000000001
 43
0.0000000001
 40
16.03460024169435
 40
16.03460024169435
 40
16.03460024169435
 40
16.03460024169435
 40
16.35212704903564
 40
17.38177054169784
 40
18.41822485651776
 40
19.46214173629503
 40
20.51396345435107
 40
21.57393551351153
 40
22.64208202342361
 40
23.7182574881101
 40
24.80209208578934
 40
25.89306333925047
 40
26.99048218457928
 40
28.09348763352352
 40
29.20111863782268
 40
30.31232390128032
 40
31.42594612798585
 40
32.5407912310448
 40
32.5407912310486
 40
32.5407912310486
 40
32.5407912310486
 10
-48.35951522823073
 20
4.500635679193207
 30
0.0
 10
-48.27289397687878
 20
4.485444471641474
 30
0.0
 10
-47.90575505090105
 20
4.419291038412667
 30
0.0
 10
-47.25903587897598
 20
4.289673482287515
 30
0.0
 10
-46.42153285832086
 20
4.096933593813202
 30
0.0
 10
-45.58480774986477
 20
3.88051882554341
 30
0.0
 10
-44.74881111085379
 20
3.64168167577385
 30
0.0
 10
-43.9135132702857
 20
3.381753666961342
 30
0.0
 10
-43.07886594994722
 20
3.102220657219319
 30
0.0
 10
-42.24481102817131
 20
2.804709458547598
 30
0.0
 10
-41.41130111096173
 20
2.490904859518259
 30
0.0
 10
-40.57826937280601
 20
2.162632815974938
 30
0.0
 10
-39.74564830579727
 20
1.821801386864103
 30
0.0
 10
-38.91338243476862
 20
1.470370210017451
 30
0.0
 10
-38.08140212504539
 20
1.110382809601804
 30
0.0
 10
-37.24963031763076
 20
0.7439412479282796
 30
0.0
 10
-36.41799928281985
 20
0.3731689546178992
 30
0.0
 10
-35.86372751014982
 20
0.1245864055727488
 30
0.0
 10
-35.58644047048327
 20
0.0002252543614717
 30
0.0
  0
SPLINE
  5
24C4
330
1F
100
AcDbEntity
  8
AM_0
100
AcDbSpline
210
0.0
220
0.0
230
1.0
 70
     8
 71
     3
 72
    17
 73
    13
 74
     0
 42
0.0000000001
 43
0.0000000001
 40
1.580019955310467
 40
1.580019955310467
 40
1.580019955310467
 40
1.580019955310467
 40
2.030549285115227
 40
3.082371838836284
 40
4.126290986361125
 40
5.162752068350215
 40
6.192395305374981
 40
7.216039564037012
 40
8.234688489606833
 40
9.249433870634691
 40
10.26152376260694
 40
11.27226744710342
 40
11.27226744710342
 40
11.27226744710342
 40
11.27226744710352
 10
-40.4176961069692
 20
-3.320496830463476
 30
0.0
 10
-40.53698493644107
 20
-3.354701736322305
 30
0.0
 10
-40.9354497034142
 20
-3.466812883992855
 30
0.0
 10
-41.61572787576426
 20
-3.642663230520582
 30
0.0
 10
-42.45835302882096
 20
-3.839592290487438
 30
0.0
 10
-43.30121015579339
 20
-4.012469858543051
 30
0.0
 10
-44.14410590218515
 20
-4.160715372959105
 30
0.0
 10
-44.98709348055781
 20
-4.283250488704541
 30
0.0
 10
-45.8301392985233
 20
-4.37937595190431
 30
0.0
 10
-46.67323761126993
 20
-4.448468837392904
 30
0.0
 10
-47.51636764703863
 20
-4.490084386242545
 30
0.0
 10
-48.07859076085305
 20
-4.499364346556034
 30
0.0
 10
-48.35951522823071
 20
-4.499364320806793
 30
0.0
  0
SPLINE
  5
24C5
330
1F
100
AcDbEntity
  8
AM_0
100
AcDbSpline
210
0.0
220
0.0
230
1.0
 70
     8
 71
     3
 72
    11
 73
     7
 74
     0
 42
0.0000000001
 43
0.0000000001
 40
11.27226913003534
 40
11.27226913003534
 40
11.27226913003534
 40
11.2722691300354
 40
12.28301561507924
 40
13.29510212255852
 40
14.30984805882082
 40
15.18258238371378
 40
15.18258238371378
 40
15.18258238371378
 40
15.18258238371378
 10
-48.35951522823076
 20
-4.499364320806793
 30
0.0
 10
-48.63937148248126
 20
-4.477340013115332
 30
0.0
 10
-49.19855612887022
 20
-4.424020122731312
 30
0.0
 10
-50.03444557318671
 20
-4.316460715183125
 30
0.0
 10
-50.82771939486912
 20
-4.1879927962959
 30
0.0
 10
-51.34076233849416
 20
-4.089235683596756
 30
0.0
 10
-51.57718713580103
 20
-4.040452397693122
 30
0.0
  0
LINE
  5
24C6
330
1F
100
AcDbEntity
  8
AM_0
 48
0.5
100
AcDbLine
 10
-60.43004615927152
 20
-4.499364320806789
 30
0.0
 11
-48.35951522823078
 21
-4.499364320806793
 31
0.0
  0
SPLINE
  5
24C7
330
1F
100
AcDbEntity
  8
AM_0
100
AcDbSpline
210
0.0
220
0.0
230
1.0
 70
     8
 71
     3
 72
    22
 73
    18
 74
     0
 42
0.0000000001
 43
0.0000000001
 40
17.17441611292
 40
17.17441611292
 40
17.17441611292
 40
17.17441611292
 40
17.38177636558528
 40
18.41823744757437
 40
19.46215659509824
 40
20.51397914882054
 40
21.57394542641293
 40
22.64209583141747
 40
23.71826625065247
 40
24.80210429862395
 40
25.8930771157021
 40
26.99048705697709
 40
28.09349309193389
 40
29.20112995599786
 40
30.31233024745139
 40
31.42594771747373
 40
32.5407895042663
 40
32.54078950426994
 40
32.54078950426994
 40
32.54078950426994
 10
-23.62098185961056
 20
-4.041036196894281
 30
0.0
 10
-23.67743904876703
 20
-4.030619138262244
 30
0.0
 10
-24.01586906469325
 20
-3.96716769552194
 30
0.0
 10
-24.6358537834146
 20
-3.839939294438485
 30
0.0
 10
-25.47859624429368
 20
-3.643312624398752
 30
0.0
 10
-26.32125283148501
 20
-3.424232437866877
 30
0.0
 10
-27.16382949409686
 20
-3.1840662876888
 30
0.0
 10
-28.00632511914405
 20
-2.924286747455227
 30
0.0
 10
-28.84875007677077
 20
-2.646510545287755
 30
0.0
 10
-29.69110826764141
 20
-2.352444804350215
 30
0.0
 10
-30.53340748557229
 20
-2.043903011954031
 30
0.0
 10
-31.37565709639669
 20
-1.722788675524657
 30
0.0
 10
-32.21786441033305
 20
-1.391076336827535
 30
0.0
 10
-33.06003790555966
 20
-1.050806746222979
 30
0.0
 10
-33.90218504721155
 20
-0.7040721765301803
 30
0.0
 10
-34.74431831096621
 20
-0.3530121674569512
 30
0.0
 10
-35.30563028635285
 20
-0.1175636661009361
 30
0.0
 10
-35.586440470487
 20
0.0002252543630885
 30
0.0
  0
LINE
  5
24C8
330
1F
100
AcDbEntity
  8
AM_11
 48
0.5
100
AcDbLine
 10
-48.35951522823071
 20
-4.500003627473414
 30
0.0
 11
-34.5358057570781
 21
-4.500642934140044
 31
0.0
  0
LINE
  5
24C9
330
1F
100
AcDbEntity
  8
AM_0
 48
0.5
100
AcDbLine
 10
-38.22399070376158
 20
4.499996372526596
 30
0.0
 11
-20.40294122220714
 21
4.499996372526457
 31
0.0
  0
LINE
  5
24CA
330
1F
100
AcDbEntity
  8
AM_11
 48
0.5
100
AcDbLine
 10
-20.40294122220714
 20
4.499996372526457
 30
0.0
 11
-4.520542114945217
 21
4.499996372526335
 31
0.0
  0
LINE
  5
24CB
330
1F
100
AcDbEntity
  8
AM_11
 48
0.5
100
AcDbLine
 10
-20.40294122220722
 20
-4.500003627473545
 30
0.0
 11
-4.520542114945289
 21
-4.500003627473667
 31
0.0
  0
SPLINE
  5
24CC
330
1F
100
AcDbEntity
  8
AM_0
 48
0.5
100
AcDbSpline
210
0.0
220
0.0
230
1.0
 70
     8
 71
     3
 72
    17
 73
    13
 74
     0
 42
0.0000000001
 43
0.0000000001
 40
0.0
 40
0.0
 40
0.0
 40
0.0
 40
1.010743614677189
 40
2.022833924044153
 40
3.037578959561199
 40
4.056212747067873
 40
5.079857613375832
 40
6.109500119648989
 40
7.14596120163808
 40
8.18989512056258
 40
9.241717674284874
 40
9.693948937866434
 40
9.693948937866434
 40
9.693948937866434
 40
9.693948937866434
 10
-4.520542114945217
 20
4.499996372526335
 30
0.0
 10
-4.801466637154001
 20
4.497320911003631
 30
0.0
 10
-5.36368997981776
 20
4.491966423226545
 30
0.0
 10
-6.206819323171377
 20
4.448760303353937
 30
0.0
 10
-7.049913955379327
 20
4.380099917639642
 30
0.0
 10
-7.892956154276136
 20
4.2838594005406
 30
0.0
 10
-8.735935879473462
 20
4.161343994375242
 30
0.0
 10
-9.578842834807273
 20
4.013121724413017
 30
0.0
 10
-10.42166570704957
 20
3.840146746424506
 30
0.0
 10
-11.26443720111099
 20
3.643583572509517
 30
0.0
 10
-11.94474432746067
 20
3.466509865604886
 30
0.0
 10
-12.34426055919457
 20
3.355813334476237
 30
0.0
 10
-12.46417389765027
 20
3.321929867332861
 30
0.0
  0
SPLINE
  5
24CD
330
1F
100
AcDbEntity
  8
AM_0
 48
0.5
100
AcDbSpline
210
0.0
220
0.0
230
1.0
 70
     8
 71
     3
 72
    16
 73
    12
 74
     0
 42
0.0000000001
 43
0.0000000001
 40
0.0
 40
0.0
 40
0.0
 40
0.0
 40
1.010743614677189
 40
2.022833924044153
 40
3.037578959561199
 40
4.056212747067873
 40
5.079857613375832
 40
6.109500119648989
 40
7.14596120163808
 40
8.18989512056258
 40
8.545190612624931
 40
8.545190612624931
 40
8.545190612624931
 40
8.545190612624931
 10
-4.520542114945217
 20
4.499996372526335
 30
0.0
 10
-4.801451019579537
 20
4.499969331354646
 30
0.0
 10
-5.363697239333562
 20
4.490735725119407
 30
0.0
 10
-6.206817364578017
 20
4.449091153199526
 30
0.0
 10
-7.049914508804629
 20
4.380010871390227
 30
0.0
 10
-7.89295590772364
 20
4.283883178408424
 30
0.0
 10
-8.73593631184365
 20
4.16133849652091
 30
0.0
 10
-9.57884134030462
 20
4.013119721328641
 30
0.0
 10
-10.42167130543921
 20
3.840160448512163
 30
0.0
 10
-11.07701066725804
 20
3.687255867554856
 30
0.0
 10
-11.45158924744092
 20
3.593215764364024
 30
0.0
 10
-11.54658028339383
 20
3.568948033192319
 30
0.0
  0
SPLINE
  5
24CE
330
1F
100
AcDbEntity
  8
AM_0
 48
0.5
100
AcDbSpline
210
0.0
220
0.0
230
1.0
 70
     8
 71
     3
 72
    25
 73
    21
 74
     0
 42
0.0000000001
 43
0.0000000001
 40
6.846175049578289
 40
6.846175049578289
 40
6.846175049578289
 40
6.846175049578289
 40
7.604337694224321
 40
8.711974558287883
 40
9.814980593243754
 40
10.91239053451967
 40
12.0033633515982
 40
13.08720139956839
 40
14.16337181880432
 40
15.23152222380919
 40
16.29148850140128
 40
17.34331105512262
 40
18.38723020264746
 40
19.42369128463655
 40
20.45333379090873
 40
21.47697865721768
 40
22.49561244472435
 40
23.5103574802404
 40
24.52244778960836
 40
25.53320666051913
 40
25.53320666051913
 40
25.53320666051913
 40
25.53320666051913
 10
-5.503843968534462
 20
0.8145258333551147
 30
0.0
 10
-5.69537425544526
 20
0.8935378301345799
 30
0.0
 10
-6.16712358414643
 20
1.087191661851235
 30
0.0
 10
-6.919793024307744
 20
1.391297889684415
 30
0.0
 10
-7.762000292216728
 20
1.723010322114176
 30
0.0
 10
-8.604249915276202
 20
2.04412463358408
 30
0.0
 10
-9.446549129980098
 20
2.352666432723926
 30
0.0
 10
-10.28890732162032
 20
2.646732171455849
 30
0.0
 10
-11.13133227936423
 20
2.924508375742351
 30
0.0
 10
-11.97382790319571
 20
3.184287909750887
 30
0.0
 10
-12.81640457049952
 20
3.424454082477242
 30
0.0
 10
-13.65906114032629
 20
3.643534185926862
 30
0.0
 10
-14.50180366530134
 20
3.840161162548043
 30
0.0
 10
-15.34462917134753
 20
4.013118118638951
 30
0.0
 10
-16.18753436596249
 20
4.161344951803656
 30
0.0
 10
-17.03051455877498
 20
4.283859145838812
 30
0.0
 10
-17.87355663335168
 20
4.380099986031845
 30
0.0
 10
-18.71665129851332
 20
4.448760282994662
 30
0.0
 10
-19.55978486829298
 20
4.491966653540938
 30
0.0
 10
-20.1220124568878
 20
4.497320974268493
 30
0.0
 10
-20.40294122220714
 20
4.499996372526457
 30
0.0
  0
SPLINE
  5
24CF
330
1F
100
AcDbEntity
  8
AM_0
100
AcDbSpline
210
0.0
220
0.0
230
1.0
 70
     8
 71
     3
 72
    46
 73
    42
 74
     0
 42
0.0000000001
 43
0.0000000001
 40
0.0
 40
0.0
 40
0.0
 40
0.0
 40
1.685415058684571
 40
2.531036209541119
 40
3.379897699130121
 40
4.232934581347656
 40
5.090970612202441
 40
5.954688180526683
 40
6.824620803463245
 40
7.70115181523969
 40
8.584457046566678
 40
9.474582384070743
 40
10.37139106676737
 40
11.27458944007584
 40
12.18373345430765
 40
13.09824173870457
 40
14.01741343450111
 40
14.9404441545541
 40
15.86644439743314
 40
16.79446029130534
 40
17.7234937712985
 40
18.65252725129241
 40
19.58054314516461
 40
20.5065433880429
 40
21.42957410809586
 40
22.34874580389318
 40
23.26325408828901
 40
24.17239810252112
 40
25.07560240389442
 40
25.97241108659103
 40
26.8625364240951
 40
27.74584165542183
 40
28.62236045019041
 40
29.49229307312697
 40
30.35601064145122
 40
31.21404606334469
 40
32.06708345193548
 40
32.9159575565769
 40
33.76157841950694
 40
34.6049870106469
 40
35.44727335621125
 40
35.44727335621125
 40
35.44727335621125
 40
35.44727335621125
 10
-2.160350866390645
 20
-4.500003627473684
 30
0.0
 10
-2.72260144061974
 20
-4.489752279619565
 30
0.0
 10
-3.56694927937692
 20
-4.47435753606267
 30
0.0
 10
-4.68971542109297
 20
-4.379574928147754
 30
0.0
 10
-5.532766363066984
 20
-4.284008846078132
 30
0.0
 10
-6.375745244254646
 20
-4.161318230117689
 30
0.0
 10
-7.218649843960954
 20
-4.013134541826485
 30
0.0
 10
-8.061475832019665
 20
-3.840166225475305
 30
0.0
 10
-8.904221796823891
 20
-3.643540059845531
 30
0.0
 10
-9.746883987856415
 20
-3.424463358701052
 30
0.0
 10
-10.58946408939686
 20
-3.18429491698553
 30
0.0
 10
-11.43195983516096
 20
-2.924515697640747
 30
0.0
 10
-12.27438476029361
 20
-2.646739408942295
 30
0.0
 10
-13.11674295914836
 20
-2.352673689855669
 30
0.0
 10
-13.95904217799446
 20
-2.044131897516784
 30
0.0
 10
-14.80129177699227
 20
-1.723017538595695
 30
0.0
 10
-15.64349913765992
 20
-1.391305290481814
 30
0.0
 10
-16.4856724568
 20
-1.051035358114484
 30
0.0
 10
-17.32782066385046
 20
-0.7043019035430394
 30
0.0
 10
-18.16995145189021
 20
-0.3532370937808434
 30
0.0
 10
-19.01207516082986
 20
-0.0000036275450255
 30
0.0
 10
-19.85419886958449
 20
0.3532298391200417
 30
0.0
 10
-20.69632965817918
 20
0.7042946475951167
 30
0.0
 10
-21.53847786320131
 20
1.051028106870419
 30
0.0
 10
-22.38065118986249
 20
1.39129802179285
 30
0.0
 10
-23.22285852264262
 20
1.723010334590653
 30
0.0
 10
-24.06510822491737
 20
2.044124453964418
 30
0.0
 10
-24.90740889286622
 20
2.352667803147769
 30
0.0
 10
-25.74977036471855
 20
2.646730850498269
 30
0.0
 10
-26.59219679260816
 20
2.924508563538402
 30
0.0
 10
-27.43469251875656
 20
3.184287860181328
 30
0.0
 10
-28.27726915907369
 20
3.424454094954113
 30
0.0
 10
-29.1199257356213
 20
3.643534185029583
 30
0.0
 10
-29.96266826039303
 20
3.840161153898761
 30
0.0
 10
-30.80549376066832
 20
4.013118153754617
 30
0.0
 10
-31.6483989783407
 20
4.161344821154766
 30
0.0
 10
-32.49138323948464
 20
4.283860233342391
 30
0.0
 10
-33.33442983743087
 20
4.380099082826628
 30
0.0
 10
-34.17752859425986
 20
4.448760434369225
 30
0.0
 10
-35.02065795494658
 20
4.491966390559528
 30
0.0
 10
-35.58288129530392
 20
4.497320900119636
 30
0.0
 10
-35.86380581636015
 20
4.499996372526579
 30
0.0
  0
SPLINE
  5
24D0
330
1F
100
AcDbEntity
  8
AM_0
100
AcDbSpline
210
0.0
220
0.0
230
1.0
 70
     8
 71
     3
 72
    55
 73
    51
 74
     0
 42
0.0000000001
 43
0.0000000001
 40
0.0
 40
0.0
 40
0.0
 40
0.0
 40
1.010743684496582
 40
2.022833576467832
 40
3.037578957496688
 40
4.056212745003489
 40
5.079857003664532
 40
6.109500240690281
 40
7.145961322679372
 40
8.189895241603872
 40
9.241717795325891
 40
10.30168407291828
 40
11.36983447792315
 40
12.44600489715814
 40
13.52984294512926
 40
14.62081576220742
 40
15.7182257034828
 40
16.82123173843959
 40
17.92886860250316
 40
19.0400688939571
 40
20.15368796660465
 40
21.26852814259644
 40
22.38336992938901
 40
23.49698739941135
 40
24.6081876908653
 40
25.71582455492886
 40
26.81883757994213
 40
27.91624752121713
 40
29.00722033829659
 40
30.09105838626677
 40
31.16722880550176
 40
32.23537921050758
 40
33.29534548809967
 40
34.347168041821
 40
35.39108718934584
 40
36.42754827133493
 40
37.45720575381954
 40
38.48085062012849
 40
39.49948440763516
 40
40.51422944315121
 40
41.52631975251916
 40
42.53706336719636
 40
43.54780698187354
 40
44.55989729124051
 40
45.57464232675757
 40
46.59327611426424
 40
47.6169209805722
 40
48.64656348684535
 40
49.68302456883444
 40
50.58557219878025
 40
50.58557219878025
 40
50.58557219878025
 40
50.58557219878025
 10
-4.520542114945289
 20
-4.500003627473667
 30
0.0
 10
-4.801466586029175
 20
-4.497326236492827
 30
0.0
 10
-5.363689690933358
 20
-4.491967888519517
 30
0.0
 10
-6.206819744585309
 20
-4.448773588354009
 30
0.0
 10
-7.049913808194254
 20
-4.380105934700915
 30
0.0
 10
-7.892955692557915
 20
-4.283865606478592
 30
0.0
 10
-8.735936985445375
 20
-4.161356844652086
 30
0.0
 10
-9.578841056720493
 20
-4.013124426162131
 30
0.0
 10
-10.42167072586002
 20
-3.84016689741419
 30
0.0
 10
-11.26441851866814
 20
-3.643543367560486
 30
0.0
 10
-12.10707869449644
 20
-3.424461093146359
 30
0.0
 10
-12.94965545354005
 20
-3.184295230961485
 30
0.0
 10
-13.79215105238757
 20
-2.924515612547123
 30
0.0
 10
-14.63457601734666
 20
-2.646739432016423
 30
0.0
 10
-15.47693420535263
 20
-2.352673683514054
 30
0.0
 10
-16.31923342737213
 20
-2.044131899594694
 30
0.0
 10
-17.16148302461754
 20
-1.723017536668223
 30
0.0
 10
-18.003690389121
 20
-1.391305296136267
 30
0.0
 10
-18.84586369460094
 20
-1.051035337317345
 30
0.0
 10
-19.68801195266959
 20
-0.7043019813818976
 30
0.0
 10
-20.53014254976886
 20
-0.3532368025072921
 30
0.0
 10
-21.37226737808719
 20
-0.0000045456370002
 30
0.0
 10
-22.21438842596966
 20
0.3532340696340523
 30
0.0
 10
-23.05652184570714
 20
0.7042937814952344
 30
0.0
 10
-23.89866906413248
 20
1.05102818697281
 30
0.0
 10
-24.7408438711981
 20
1.39129944206861
 30
0.0
 10
-25.58305472958171
 20
1.723008851710057
 30
0.0
 10
-26.4253056561195
 20
2.044124843133141
 30
0.0
 10
-27.267604999739
 20
2.352666376856924
 30
0.0
 10
-28.10996315709424
 20
2.646732187200214
 30
0.0
 10
-28.95238812421045
 20
2.924508368137246
 30
0.0
 10
-29.79488374451699
 20
3.184287924434384
 30
0.0
 10
-30.63746041659749
 20
3.424454031850698
 30
0.0
 10
-31.4801169709819
 20
3.643534371771151
 30
0.0
 10
-32.32285955236831
 20
3.84016047690253
 30
0.0
 10
-33.16568890886177
 20
4.013121483608789
 30
0.0
 10
-34.00859899875447
 20
4.161336971898866
 30
0.0
 10
-34.85158307661391
 20
4.283883652776951
 30
0.0
 10
-35.6946252108929
 20
4.380009900512158
 30
0.0
 10
-36.53771986030922
 20
4.449094547811414
 30
0.0
 10
-37.38084919908736
 20
4.490723154606537
 30
0.0
 10
-38.22399706512141
 20
4.504629894685686
 30
0.0
 10
-39.06714492991487
 20
4.490723154584743
 30
0.0
 10
-39.91027427242196
 20
4.449094547898902
 30
0.0
 10
-40.75336890810936
 20
4.380009900182522
 30
0.0
 10
-41.59641109386141
 20
4.283883654015736
 30
0.0
 10
-42.43939086850605
 20
4.161337564675638
 30
0.0
 10
-43.28229763765381
 20
4.013122999032088
 30
0.0
 10
-44.08680537239241
 20
3.848011811584218
 30
0.0
 10
-44.60877915268534
 20
3.727264439296327
 30
0.0
 10
-44.85094456390899
 20
3.668418354368891
 30
0.0
  0
LINE
  5
24D2
330
1F
100
AcDbEntity
  8
AM_11
 48
0.3
100
AcDbLine
 10
-73.63786021401802
 20
4.50128224955637
 30
0.0
 11
-66.12413278041621
 21
4.500635679193349
 31
0.0
  0
SPLINE
  5
24D3
330
1F
100
AcDbEntity
  8
AM_0
100
AcDbSpline
210
0.0
220
0.0
230
1.0
 70
     8
 71
     3
 72
    20
 73
    16
 74
     0
 42
0.0000000001
 43
0.0000000001
 40
19.06958205160103
 40
19.06958205160103
 40
19.06958205160103
 40
19.06958205160103
 40
19.46214173629503
 40
20.51396345435107
 40
21.57393551351153
 40
22.64208202342361
 40
23.7182574881101
 40
24.80209208578934
 40
25.89306333925047
 40
26.99048218457928
 40
28.09348763352352
 40
29.20111863782268
 40
30.31232390128032
 40
31.42594612798585
 40
32.5407912310448
 40
32.5407912310486
 40
32.5407912310486
 40
32.5407912310486
 10
-73.63992920475666
 20
4.499994337753234
 30
0.0
 10
-73.32337069902192
 20
4.060140202562021
 30
0.0
 10
-73.15871868709713
 20
3.831860743170149
 30
0.0
 10
-72.50946026335732
 20
3.642320982440617
 30
0.0
 10
-71.69202010024983
 20
3.382392973628108
 30
0.0
 10
-70.87521655002072
 20
3.102859963886082
 30
0.0
 10
-70.05899273357527
 20
2.805348765214359
 30
0.0
 10
-69.24330227014468
 20
2.491544166185018
 30
0.0
 10
-68.42807976286676
 20
2.163272122641696
 30
0.0
 10
-67.61325914707359
 20
1.82244069353086
 30
0.0
 10
-66.79878613359159
 20
1.471009516684206
 30
0.0
 10
-65.98459257645287
 20
1.111022116268557
 30
0.0
 10
-65.17060306409064
 20
0.7445805545950314
 30
0.0
 10
-64.35675131478074
 20
0.3738082612846493
 30
0.0
 10
-63.81432921543813
 20
0.1252257122394977
 30
0.0
 10
-63.5429702439143
 20
0.00086456102822
 30
0.0
  0
POLYLINE
  5
24D4
330
1F
100
AcDbEntity
  8
AM_0
100
AcDb2dPolyline
 66
     1
 10
0.0
 20
0.0
 30
0.0
 70
     2
  0
VERTEX
  5
24D5
330
24D4
100
AcDbEntity
  8
AM_0
100
AcDbVertex
100
AcDb2dVertex
 10
-70.70046171532538
 20
-3.930522653211869
 30
0.0
 42
-0.0359492156850201
  0
VERTEX
  5
24D6
330
24D4
100
AcDbEntity
  8
AM_0
100
AcDbVertex
100
AcDb2dVertex
 10
-71.3318881593678
 20
-3.96301440963021
 30
0.0
 42
-0.0481074754172279
 70
     1
  0
VERTEX
  5
24D7
330
24D4
100
AcDbEntity
  8
AM_0
100
AcDbVertex
100
AcDb2dVertex
 10
-71.80198615272954
 20
-3.914378277066269
 30
0.0
 42
-0.0393662058969625
  0
VERTEX
  5
24D8
330
24D4
100
AcDbEntity
  8
AM_0
100
AcDbVertex
100
AcDb2dVertex
 10
-72.77443643207289
 20
-3.650638031651289
 30
0.0
 42
-0.0705719844457379
 70
     1
  0
VERTEX
  5
24D9
330
24D4
100
AcDbEntity
  8
AM_0
100
AcDbVertex
100
AcDb2dVertex
 10
-73.27068540260168
 20
-3.397571191047169
 30
0.0
 42
-0.0827458522828334
  0
VERTEX
  5
24DA
330
24D4
100
AcDbEntity
  8
AM_0
100
AcDbVertex
100
AcDb2dVertex
 10
-73.57103332316007
 20
-3.106085854439702
 30
0.0
 42
-0.154978185678887
 70
     1
  0
VERTEX
  5
24DB
330
24D4
100
AcDbEntity
  8
AM_0
100
AcDbVertex
100
AcDb2dVertex
 10
-73.63786021506972
 20
-2.896908481173671
 30
0.0
 42
-0.1662693739572807
  0
VERTEX
  5
24DC
330
24D4
100
AcDbEntity
  8
AM_0
100
AcDbVertex
100
AcDb2dVertex
 10
-73.56009584480313
 20
-2.701942524149973
 30
0.0
 42
-0.0979726163363275
 70
     1
  0
VERTEX
  5
24DD
330
24D4
100
AcDbEntity
  8
AM_0
100
AcDbVertex
100
AcDb2dVertex
 10
-73.27068540260167
 20
-2.480347388802535
 30
0.0
 42
-0.091851179068373
  0
VERTEX
  5
24DE
330
24D4
100
AcDbEntity
  8
AM_0
100
AcDbVertex
100
AcDb2dVertex
 10
-72.81703598470939
 20
-2.343996880249437
 30
0.0
 42
-0.04285893167511
 70
     1
  0
VERTEX
  5
24DF
330
24D4
100
AcDbEntity
  8
AM_0
100
AcDbVertex
100
AcDb2dVertex
 10
-71.80198615272947
 20
-2.299946772792897
 30
0.0
 42
-0.0477012044965593
  0
VERTEX
  5
24E0
330
24D4
100
AcDbEntity
  8
AM_0
100
AcDbVertex
100
AcDb2dVertex
 10
-71.29472606277754
 20
-2.362716338572353
 30
0.0
 42
-0.0391301448542795
 70
     1
  0
VERTEX
  5
24E1
330
24D4
100
AcDbEntity
  8
AM_0
100
AcDbVertex
100
AcDb2dVertex
 10
-70.82404599061542
 20
-2.492180389566154
 30
0.0
  0
SEQEND
  5
24E2
330
24D4
100
AcDbEntity
  8
AM_0
  0
SPLINE
  5
24E4
330
1F
100
AcDbEntity
  8
AM_0
100
AcDbSpline
210
0.0
220
0.0
230
1.0
 70
     8
 71
     3
 72
    14
 73
    10
 74
     0
 42
0.0000000001
 43
0.0000000001
 40
1.580019955310467
 40
1.580019955310467
 40
1.580019955310467
 40
1.580019955310467
 40
2.030549285115227
 40
3.082371838836284
 40
4.126290986361125
 40
5.162752068350215
 40
6.192395305374981
 40
7.216039564037012
 40
8.092146932806128
 40
8.092146932806128
 40
8.092146932806128
 40
8.092146932806128
 10
-68.26773643585806
 20
-3.321136137129955
 30
0.0
 10
-68.38447501159063
 20
-3.355341042988781
 30
0.0
 10
-68.77442107428556
 20
-3.467452190659332
 30
0.0
 10
-69.44015570588256
 20
-3.643302537187057
 30
0.0
 10
-70.26476653222534
 20
-3.840231597153911
 30
0.0
 10
-71.08960437315653
 20
-4.013109165209521
 30
0.0
 10
-71.91448000786967
 20
-4.161354679625575
 30
0.0
 10
-72.70116611647336
 20
-4.278204018139342
 30
0.0
 10
-73.25611347465295
 20
-4.41410823702657
 30
0.0
 10
-73.63786021506988
 20
-4.500003505485766
 30
0.0
  0
SPLINE
  5
24E5
330
1F
100
AcDbEntity
  8
AM_0
100
AcDbSpline
210
0.0
220
0.0
230
1.0
 70
     8
 71
     3
 72
    15
 73
    11
 74
     0
 42
0.0000000001
 43
0.0000000001
 40
9.996018264272805
 40
9.996018264272805
 40
9.996018264272805
 40
9.996018264272805
 40
10.37139106676736
 40
11.27458944007584
 40
12.18373345430765
 40
13.09824173870457
 40
14.01741343450111
 40
14.9404441545541
 40
15.86644439743314
 40
16.55140071192301
 40
16.55140071192301
 40
16.55140071192301
 40
16.55140071192301
 10
-67.73729377434097
 20
1.894510441030121
 30
0.0
 10
-67.85226875597164
 20
1.855171110696261
 30
0.0
 10
-68.24329244086147
 20
1.719668032298017
 30
0.0
 10
-68.90897776064948
 20
1.479503266651754
 30
0.0
 10
-69.73326962086864
 20
1.16745531758174
 30
0.0
 10
-70.55751292205299
 20
0.8426919318547483
 30
0.0
 10
-71.38171488791264
 20
0.5072102263759391
 30
0.0
 10
-72.20588354001217
 20
0.1630735902317196
 30
0.0
 10
-72.95789483591494
 20
-0.1569074924298674
 30
0.0
 10
-73.43507377880836
 20
-0.3621542088737064
 30
0.0
 10
-73.63786021506975
 20
-0.4496294243203633
 30
0.0
  0
SPLINE
  5
24E6
330
1F
100
AcDbEntity
  8
AM_0
100
AcDbSpline
210
0.0
220
0.0
230
1.0
 70
     8
 71
     3
 72
    22
 73
    18
 74
     0
 42
0.0000000001
 43
0.0000000001
 40
17.17441611292
 40
17.17441611292
 40
17.17441611292
 40
17.17441611292
 40
17.38177636558528
 40
18.41823744757437
 40
19.46215659509824
 40
20.51397914882054
 40
21.57394542641293
 40
22.64209583141747
 40
23.71826625065247
 40
24.80210429862395
 40
25.8930771157021
 40
26.99048705697709
 40
28.09349309193389
 40
29.20112995599786
 40
30.31233024745139
 40
31.42594771747373
 40
32.5407895042663
 40
32.54078950426994
 40
32.54078950426994
 40
32.54078950426994
 10
-51.57755586563414
 20
-4.040396890227532
 30
0.0
 10
-51.6340130547906
 20
-4.029979831595497
 30
0.0
 10
-51.97244307071683
 20
-3.966528388855192
 30
0.0
 10
-52.59242778943818
 20
-3.839299987771738
 30
0.0
 10
-53.43517025031726
 20
-3.642673317732004
 30
0.0
 10
-54.27782683750859
 20
-3.423593131200129
 30
0.0
 10
-55.12040350012044
 20
-3.183426981022052
 30
0.0
 10
-55.96289912516762
 20
-2.92364744078848
 30
0.0
 10
-56.80532408279436
 20
-2.645871238621006
 30
0.0
 10
-57.64768227366499
 20
-2.351805497683467
 30
0.0
 10
-58.48998149159587
 20
-2.043263705287284
 30
0.0
 10
-59.33223110242026
 20
-1.722149368857909
 30
0.0
 10
-60.17443841635663
 20
-1.390437030160786
 30
0.0
 10
-61.01661191158324
 20
-1.05016743955623
 30
0.0
 10
-61.85875905323513
 20
-0.7034328698634322
 30
0.0
 10
-62.70089231698978
 20
-0.352372860790203
 30
0.0
 10
-63.26220429237642
 20
-0.1169243594341877
 30
0.0
 10
-63.54301447651057
 20
0.0008645610298368
 30
0.0
  0
SPLINE
  5
24E7
330
1F
100
AcDbEntity
  8
AM_0
100
AcDbSpline
210
0.0
220
0.0
230
1.0
 70
     8
 71
     3
 72
    46
 73
    42
 74
     0
 42
0.0000000001
 43
0.0000000001
 40
0.0
 40
0.0
 40
0.0
 40
0.0
 40
1.685415058684573
 40
2.531036209541122
 40
3.379897699130124
 40
4.232934581347659
 40
5.09097061220244
 40
5.954688180526682
 40
6.824620803463244
 40
7.701151815239691
 40
8.584457046566678
 40
9.474582384070743
 40
10.37139106676737
 40
11.27458944007584
 40
12.18373345430765
 40
13.09824173870457
 40
14.01741343450111
 40
14.9404441545541
 40
15.86644439743314
 40
16.79446029130534
 40
17.7234937712985
 40
18.65252725129241
 40
19.58054314516461
 40
20.5065433880429
 40
21.42957410809587
 40
22.34874580389318
 40
23.26325408828902
 40
24.17239810252112
 40
25.07560240389442
 40
25.97241108659103
 40
26.8625364240951
 40
27.74584165542184
 40
28.62236045019042
 40
29.49229307312698
 40
30.35601064145123
 40
31.2140460633447
 40
32.06708345193549
 40
32.9159575565769
 40
33.76157841950695
 40
34.60498701064691
 40
35.44727335621126
 40
35.44727335621126
 40
35.44727335621126
 40
35.44727335621126
 10
-30.11692487241422
 20
-4.499364320806937
 30
0.0
 10
-30.67917544664331
 20
-4.489112972952818
 30
0.0
 10
-31.5235232854005
 20
-4.473718229395924
 30
0.0
 10
-32.64628942711652
 20
-4.378935621481003
 30
0.0
 10
-33.48934036909055
 20
-4.283369539411385
 30
0.0
 10
-34.33231925027821
 20
-4.160678923450941
 30
0.0
 10
-35.17522384998452
 20
-4.012495235159739
 30
0.0
 10
-36.01804983804322
 20
-3.839526918808558
 30
0.0
 10
-36.86079580284745
 20
-3.642900753178782
 30
0.0
 10
-37.70345799387998
 20
-3.423824052034304
 30
0.0
 10
-38.54603809542043
 20
-3.183655610318781
 30
0.0
 10
-39.38853384118454
 20
-2.923876390973999
 30
0.0
 10
-40.23095876631719
 20
-2.646100102275546
 30
0.0
 10
-41.07331696517193
 20
-2.352034383188922
 30
0.0
 10
-41.91561618401805
 20
-2.043492590850034
 30
0.0
 10
-42.75786578301582
 20
-1.722378231928949
 30
0.0
 10
-43.60007314368348
 20
-1.390665983815064
 30
0.0
 10
-44.44224646282354
 20
-1.050396051447738
 30
0.0
 10
-45.28439466987403
 20
-0.7036625968762893
 30
0.0
 10
-46.12652545791378
 20
-0.3525977871140959
 30
0.0
 10
-46.96864916685344
 20
0.0006356791217247
 30
0.0
 10
-47.81077287560806
 20
0.3538691457867885
 30
0.0
 10
-48.65290366420275
 20
0.7049339542618649
 30
0.0
 10
-49.49505186922492
 20
1.051667413537168
 30
0.0
 10
-50.33722519588605
 20
1.391937328459597
 30
0.0
 10
-51.17943252866623
 20
1.723649641257402
 30
0.0
 10
-52.02168223094092
 20
2.044763760631166
 30
0.0
 10
-52.86398289888978
 20
2.353307109814517
 30
0.0
 10
-53.70634437074211
 20
2.647370157165018
 30
0.0
 10
-54.54877079863172
 20
2.925147870205151
 30
0.0
 10
-55.39126652478012
 20
3.184927166848075
 30
0.0
 10
-56.23384316509725
 20
3.425093401620862
 30
0.0
 10
-57.07649974164488
 20
3.644173491696331
 30
0.0
 10
-57.91924226641659
 20
3.840800460565511
 30
0.0
 10
-58.76206776669192
 20
4.013757460421366
 30
0.0
 10
-59.60497298436425
 20
4.161984127821515
 30
0.0
 10
-60.44795724550822
 20
4.284499540009139
 30
0.0
 10
-61.29100384345444
 20
4.380738389493375
 30
0.0
 10
-62.13410260028345
 20
4.449399741035973
 30
0.0
 10
-62.97723196097014
 20
4.492605697226275
 30
0.0
 10
-63.53945530132749
 20
4.497960206786384
 30
0.0
 10
-63.82037982238371
 20
4.500635679193326
 30
0.0
  0
LINE
  5
24E8
330
1F
100
AcDbEntity
  8
AM_0
 48
0.5
100
AcDbLine
 10
-66.18056470978513
 20
4.500635679193344
 30
0.0
 11
-48.35951522823073
 21
4.500635679193207
 31
0.0
  0
SPLINE
  5
24E9
330
1F
100
AcDbEntity
  8
AM_0
100
AcDbSpline
210
0.0
220
0.0
230
1.0
 70
     8
 71
     3
 72
    20
 73
    16
 74
     0
 42
0.0000000001
 43
0.0000000001
 40
0.0
 40
0.0
 40
0.0
 40
0.0
 40
1.010743684496582
 40
2.022833576467832
 40
3.037578957496688
 40
4.056212745003489
 40
5.079857003664532
 40
6.109500240690281
 40
7.145961322679372
 40
8.189895241603872
 40
9.241717795325891
 40
10.30168407291828
 40
11.36983447792315
 40
12.44600489715814
 40
13.01371853178965
 40
13.01371853178965
 40
13.01371853178965
 40
13.01371853178965
 10
-60.49655349841097
 20
-4.499364320806794
 30
0.0
 10
-60.77147213738116
 20
-4.496686929825954
 30
0.0
 10
-61.32167557890223
 20
-4.491328581852645
 30
0.0
 10
-62.14678051166417
 20
-4.448134281687133
 30
0.0
 10
-62.97185022380753
 20
-4.379466628034037
 30
0.0
 10
-63.796868872236
 20
-4.283226299811713
 30
0.0
 10
-64.62182822456222
 20
-4.160717537985203
 30
0.0
 10
-65.44671200618262
 20
-4.012485119495247
 30
0.0
 10
-66.27152297629682
 20
-3.839527590747304
 30
0.0
 10
-67.09625382049852
 20
-3.6429040608936
 30
0.0
 10
-67.9208989208675
 20
-3.423821786479472
 30
0.0
 10
-68.74546238780379
 20
-3.183655924294596
 30
0.0
 10
-69.56994642965274
 20
-2.923876305880232
 30
0.0
 10
-70.26255226307378
 20
-2.690511529462963
 30
0.0
 10
-70.68010317037127
 20
-2.543545793099061
 30
0.0
 10
-70.8240459906154
 20
-2.492180389566154
 30
0.0
  0
SPLINE
  5
24EA
330
1F
100
AcDbEntity
  8
AM_0
100
AcDbSpline
210
0.0
220
0.0
230
1.0
 70
     8
 71
     3
 72
    25
 73
    21
 74
     0
 42
0.0000000001
 43
0.0000000001
 40
0.0
 40
0.0
 40
0.0
 40
0.0
 40
1.685415058684573
 40
2.531036209541122
 40
3.379897699130124
 40
4.232934581347659
 40
5.09097061220244
 40
5.954688180526682
 40
6.824620803463244
 40
7.701151815239697
 40
8.58445704656667
 40
9.47458238407075
 40
10.37139106676736
 40
11.27458944007584
 40
12.18373345430765
 40
13.09824173870457
 40
14.01741343450111
 40
14.9404441545541
 40
15.86644439743314
 40
16.55140071192301
 40
16.55140071192301
 40
16.55140071192301
 40
16.55140071192301
 10
-58.18682034038996
 20
-4.4993643208068
 30
0.0
 10
-58.73705066397436
 20
-4.499364320806797
 30
0.0
 10
-59.56278268417823
 20
-4.49968793071472
 30
0.0
 10
-60.66211007985351
 20
-4.428696322201552
 30
0.0
 10
-61.48713759225139
 20
-4.332044261926599
 30
0.0
 10
-62.31209458443705
 20
-4.207959434421151
 30
0.0
 10
-63.1369788831914
 20
-4.058091840581186
 30
0.0
 10
-63.96178625092195
 20
-3.88315797518056
 30
0.0
 10
-64.78651530620031
 20
-3.684297421304991
 30
0.0
 10
-65.61116237869086
 20
-3.462731212192966
 30
0.0
 10
-66.43572911666538
 20
-3.219833583639758
 30
0.0
 10
-67.26021330228999
 20
-2.957102327711525
 30
0.0
 10
-68.08462818134433
 20
-2.676169490277851
 30
0.0
 10
-68.90897776064946
 20
-2.378762115292526
 30
0.0
 10
-69.73326962086862
 20
-2.066714166222504
 30
0.0
 10
-70.55751292205298
 20
-1.741950780495503
 30
0.0
 10
-71.38171488791262
 20
-1.406469075016687
 30
0.0
 10
-72.20588354001217
 20
-1.062332438872459
 30
0.0
 10
-72.95789483591494
 20
-0.7423513562108657
 30
0.0
 10
-73.43507377880836
 20
-0.537104639767022
 30
0.0
 10
-73.63786021506975
 20
-0.4496294243203635
 30
0.0
  0
SPLINE
  5
24EB
330
1F
100
AcDbEntity
  8
AM_0
100
AcDbSpline
210
0.0
220
0.0
230
1.0
 70
     8
 71
     3
 72
    55
 73
    51
 74
     0
 42
0.0000000001
 43
0.0000000001
 40
0.0
 40
0.0
 40
0.0
 40
0.0
 40
1.010743684496582
 40
2.022833576467832
 40
3.037578957496688
 40
4.056212745003489
 40
5.079857003664532
 40
6.109500240690281
 40
7.145961322679372
 40
8.189895241603872
 40
9.241717795325891
 40
10.30168407291828
 40
11.36983447792315
 40
12.44600489715814
 40
13.52984294512926
 40
14.62081576220742
 40
15.7182257034828
 40
16.82123173843959
 40
17.92886860250316
 40
19.0400688939571
 40
20.15368796660465
 40
21.26852814259644
 40
22.38336992938901
 40
23.49698739941135
 40
24.6081876908653
 40
25.71582455492886
 40
26.81883757994213
 40
27.91624752121713
 40
29.00722033829659
 40
30.09105838626677
 40
31.16722880550176
 40
32.23537921050758
 40
33.29534548809967
 40
34.347168041821
 40
35.39108718934584
 40
36.42754827133493
 40
37.45720575381954
 40
38.48085062012849
 40
39.49948440763516
 40
40.51422944315121
 40
41.52631975251916
 40
42.53706336719636
 40
43.54780698187354
 40
44.55989729124051
 40
45.57464232675757
 40
46.59327611426424
 40
47.6169209805722
 40
48.64656348684535
 40
49.68302456883444
 40
50.58557219878025
 40
50.58557219878025
 40
50.58557219878025
 40
50.58557219878025
 10
-32.47711612096885
 20
-4.499364320806918
 30
0.0
 10
-32.75804059205274
 20
-4.49668692982608
 30
0.0
 10
-33.32026369695692
 20
-4.491328581852769
 30
0.0
 10
-34.16339375060887
 20
-4.448134281687261
 30
0.0
 10
-35.00648781421781
 20
-4.379466628034165
 30
0.0
 10
-35.84952969858147
 20
-4.283226299811844
 30
0.0
 10
-36.69251099146893
 20
-4.160717537985336
 30
0.0
 10
-37.53541506274406
 20
-4.012485119495384
 30
0.0
 10
-38.3782447318836
 20
-3.83952759074744
 30
0.0
 10
-39.22099252469171
 20
-3.642904060893738
 30
0.0
 10
-40.06365270052
 20
-3.423821786479611
 30
0.0
 10
-40.90622945956362
 20
-3.183655924294737
 30
0.0
 10
-41.74872505841115
 20
-2.923876305880374
 30
0.0
 10
-42.59115002337025
 20
-2.646100125349675
 30
0.0
 10
-43.43350821137621
 20
-2.352034376847306
 30
0.0
 10
-44.27580743339572
 20
-2.043492592927947
 30
0.0
 10
-45.11805703064111
 20
-1.722378230001475
 30
0.0
 10
-45.96026439514456
 20
-1.390665989469518
 30
0.0
 10
-46.8024377006245
 20
-1.050396030650597
 30
0.0
 10
-47.64458595869316
 20
-0.7036626747151493
 30
0.0
 10
-48.48671655579243
 20
-0.3525974958405436
 30
0.0
 10
-49.32884138411076
 20
0.0006347610297481
 30
0.0
 10
-50.17096243199324
 20
0.3538733763008006
 30
0.0
 10
-51.01309585173072
 20
0.7049330881619827
 30
0.0
 10
-51.85524307015607
 20
1.051667493639558
 30
0.0
 10
-52.69741787722169
 20
1.391938748735358
 30
0.0
 10
-53.53962873560529
 20
1.723648158376805
 30
0.0
 10
-54.38187966214306
 20
2.044764149799889
 30
0.0
 10
-55.22417900576256
 20
2.353305683523673
 30
0.0
 10
-56.06653716311781
 20
2.647371493866963
 30
0.0
 10
-56.90896213023401
 20
2.925147674803994
 30
0.0
 10
-57.75145775054057
 20
3.184927231101133
 30
0.0
 10
-58.59403442262106
 20
3.425093338517447
 30
0.0
 10
-59.43669097700547
 20
3.644173678437899
 30
0.0
 10
-60.27943355839187
 20
3.840799783569278
 30
0.0
 10
-61.12226291488533
 20
4.013760790275537
 30
0.0
 10
-61.96517300477804
 20
4.161976278565616
 30
0.0
 10
-62.80815708263748
 20
4.284522959443703
 30
0.0
 10
-63.65119921691647
 20
4.380649207178909
 30
0.0
 10
-64.49429386633278
 20
4.449733854478163
 30
0.0
 10
-65.33742320511092
 20
4.491362461273284
 30
0.0
 10
-66.18057107114497
 20
4.505269201352433
 30
0.0
 10
-67.02371893593843
 20
4.49136246125149
 30
0.0
 10
-67.86684827844552
 20
4.44973385456565
 30
0.0
 10
-68.70994291413291
 20
4.380649206849271
 30
0.0
 10
-69.55298509988496
 20
4.284522960682487
 30
0.0
 10
-70.3959648745296
 20
4.161976871342385
 30
0.0
 10
-71.23887164367737
 20
4.013762305698837
 30
0.0
 10
-72.04337937841597
 20
3.848651118250966
 30
0.0
 10
-72.5653531587089
 20
3.727903745963077
 30
0.0
 10
-72.69548612323792
 20
3.696078872193766
 30
0.0
  0
LINE
  5
24EC
330
1F
100
AcDbEntity
  8
AM_11
 48
0.3
100
AcDbLine
 10
-73.6378601606509
 20
-4.500589945686033
 30
0.0
 11
-60.43004615927152
 21
-4.499364320806789
 31
0.0
  0
VIEWPORT
  5
110
330
101
100
AcDbEntity
 67
     1
  8
0
100
AcDbViewport
 10
420.5
 20
297.0
 30
0.0
 40
948.9782706766916
 41
628.452
 68
     1
 69
     1
1001
ACAD
1000
MVIEW
1002
{
1070
    16
1010
0.0
1020
0.0
1030
0.0
1010
0.0
1020
0.0
1030
1.0
1040
0.0
1040
628.452
1040
420.5
1040
297.0
1040
50.0
1040
0.0
1040
0.0
1070
     0
1070
   100
1070
     1
1070
     1
1070
     0
1070
     0
1070
     0
1070
     0
1040
0.0
1040
0.0
1040
0.0
1040
10.0
1040
10.0
1040
10.0
1040
10.0
1070
     0
1002
{
1002
}
1002
}
  0
ENDSEC
  0
SECTION
  2
OBJECTS
  0
DICTIONARY
  5
C
330
0
100
AcDbDictionary
  3
ACAD_GROUP
350
D
  3
ACAD_LAYOUT
350
1A
  3
ACAD_MLINESTYLE
350
17
  3
ACAD_PLOTSETTINGS
350
19
  3
ACAD_PLOTSTYLENAME
350
E
  3
ACDBVARIABLEDICTIONARY
350
34
  3
ACMDICTIONARY
350
43
  3
AMG
350
2B
  3
AMGSNAPSETTINGS
350
6E
  3
DWGPROPS
350
2563
  3
ACDBHEADERROUNDTRIPXREC
350
2570
  0
DICTIONARY
  5
74
330
1F
100
AcDbDictionary
280
     1
  3
ACAD_INDEX
360
2565
  3
ACAD_LAYOUTSELFREF
360
2593
  0
DICTIONARY
  5
2598
330
101
100
AcDbDictionary
280
     1
  3
ACAD_LAYOUTSELFREF
360
2599
  0
DICTIONARY
  5
D
102
{ACAD_REACTORS
330
C
102
}
330
C
100
AcDbDictionary
  0
DICTIONARY
  5
1A
102
{ACAD_REACTORS
330
C
102
}
330
C
100
AcDbDictionary
  0
DICTIONARY
  5
17
102
{ACAD_REACTORS
330
C
102
}
330
C
100
AcDbDictionary
  3
STANDARD
350
18
  0
DICTIONARY
  5
19
102
{ACAD_REACTORS
330
C
102
}
330
C
100
AcDbDictionary
  0
ACDBDICTIONARYWDFLT
  5
E
102
{ACAD_REACTORS
330
C
102
}
330
C
100
AcDbDictionary
281
     1
  3
Normal
350
F
100
AcDbDictionaryWithDefault
340
F
  0
DICTIONARY
  5
34
102
{ACAD_REACTORS
330
C
102
}
330
C
100
AcDbDictionary
  3
INDEXCTL
350
35
  3
SORTENTS
350
B5E
  0
DICTIONARY
  5
43
102
{ACAD_REACTORS
330
C
102
}
330
C
100
AcDbDictionary
  3
ACMSTDDICTIONARY
350
260
  0
DICTIONARY
  5
2B
102
{ACAD_REACTORS
330
C
102
}
330
C
100
AcDbDictionary
  3
ACMGSETTINGS
350
2C
  0
DICTIONARY
  5
6E
102
{ACAD_REACTORS
330
C
102
}
330
C
100
AcDbDictionary
  0
XRECORD
  5
2563
102
{ACAD_REACTORS
330
C
102
}
330
C
100
AcDbXrecord
  1
DWGPROPS COOKIE
  2

  3

  4

  6

  7

  8

  9

300
AmdtFileType=82
301
=
302
=
303
=
304
=
305
=
306
=
307
=
308
=
309
=
 40
0.1179454861111111
 41
2452800.443498622
 42
2452982.998937905
  1

 90
        1
  0
DICTIONARY
  5
2570
102
{ACAD_REACTORS
330
C
102
}
330
C
100
AcDbDictionary
  3
TSTACKALIGN
350
2571
  3
TSTACKSIZE
350
2572
  3
HYPERLINKBASE
350
2573
  3
STYLESHEET
350
2574
  3
LAYOUTDICT
350
2575
  3
PLOTSETDICT
350
2576
  3
PLOTSTYLNAMDICT
350
2577
  3
LWETCUNION
350
2578
  3
INSUNITS
350
2579
  3
CEPSNTYPE
350
257A
  3
FINGERPRINTGUID
350
257B
  3
VERSIONGUID
350
257C
  3
PSVPSCALE
350
257D
  3
DIMSTYLEDATA
350
257E
  3
PUCSORTHOREF
350
257F
  3
PUCSORTHOVIEW
350
2580
  3
PUCSBASE
350
2581
  3
PUCSORGTOP
350
2582
  3
PUCSORGBOTTOM
350
2583
  3
PUCSORGLEFT
350
2584
  3
PUCSORGRIGHT
350
2585
  3
PUCSORGFRONT
350
2586
  3
PUCSORGBACK
350
2587
  3
UCSORTHOREF
350
2588
  3
UCSORTHOVIEW
350
2589
  3
UCSBASE
350
258A
  3
UCSORGTOP
350
258B
  3
UCSORGBOTTOM
350
258C
  3
UCSORGLEFT
350
258D
  3
UCSORGRIGHT
350
258E
  3
UCSORGFRONT
350
258F
  3
UCSORGBACK
350
2590
  0
DICTIONARY
  5
2565
102
{ACAD_REACTORS
330
74
102
}
330
74
100
AcDbDictionary
  3
*A1
350
2566
  0
XRECORD
  5
2593
102
{ACAD_REACTORS
330
74
102
}
330
74
100
AcDbXrecord
340
1F
  0
XRECORD
  5
2599
102
{ACAD_REACTORS
330
2598
102
}
330
2598
100
AcDbXrecord
340
101
  0
MLINESTYLE
  5
18
102
{ACAD_REACTORS
330
17
102
}
330
17
100
AcDbMlineStyle
  2
STANDARD
 70
     0
  3

 62
   256
 51
90.0
 52
90.0
 71
     2
 49
0.5
 62
   256
  6
BYLAYER
 49
-0.5
 62
   256
  6
BYLAYER
  0
ACDBPLACEHOLDER
  5
F
102
{ACAD_REACTORS
330
E
102
}
330
E
100
AcDbPlaceHolder
280
     0
  0
DICTIONARYVAR
  5
35
102
{ACAD_REACTORS
330
34
102
}
330
34
100
DictionaryVariables
280
     0
  1
1
  0
DICTIONARYVAR
  5
B5E
102
{ACAD_REACTORS
330
34
102
}
330
34
100
DictionaryVariables
280
     0
  1
96
  0
DICTIONARY
  5
260
102
{ACAD_REACTORS
330
43
102
}
330
43
100
AcDbDictionary
  0
DICTIONARY
  5
2C
102
{ACAD_REACTORS
330
2B
102
}
330
2B
100
AcDbDictionary
  3
DWGSETTINGS
350
2D
  0
XRECORD
  5
2571
102
{ACAD_REACTORS
330
2570
102
}
330
2570
100
AcDbXrecord
 90
        1
  0
XRECORD
  5
2572
102
{ACAD_REACTORS
330
2570
102
}
330
2570
100
AcDbXrecord
 90
       70
  0
XRECORD
  5
2573
102
{ACAD_REACTORS
330
2570
102
}
330
2570
100
AcDbXrecord
  1

  0
XRECORD
  5
2574
102
{ACAD_REACTORS
330
2570
102
}
330
2570
100
AcDbXrecord
  1
ASAMI.ctb
  0
XRECORD
  5
2575
102
{ACAD_REACTORS
330
2570
102
}
330
2570
100
AcDbXrecord
340
1A
  0
XRECORD
  5
2576
102
{ACAD_REACTORS
330
2570
102
}
330
2570
100
AcDbXrecord
340
19
  0
XRECORD
  5
2577
102
{ACAD_REACTORS
330
2570
102
}
330
2570
100
AcDbXrecord
340
E
  0
XRECORD
  5
2578
102
{ACAD_REACTORS
330
2570
102
}
330
2570
100
AcDbXrecord
 90
    10781
  0
XRECORD
  5
2579
102
{ACAD_REACTORS
330
2570
102
}
330
2570
100
AcDbXrecord
 90
        4
  0
XRECORD
  5
257A
102
{ACAD_REACTORS
330
2570
102
}
330
2570
100
AcDbXrecord
 90
        0
  0
XRECORD
  5
257B
102
{ACAD_REACTORS
330
2570
102
}
330
2570
100
AcDbXrecord
  1
{AFB28963-8C59-40AE-9337-C84526B81ACE}
  0
XRECORD
  5
257C
102
{ACAD_REACTORS
330
2570
102
}
330
2570
100
AcDbXrecord
  1
{61D38996-2711-449F-BDE7-6D77FB5F68CF}
  0
XRECORD
  5
257D
102
{ACAD_REACTORS
330
2570
102
}
330
2570
100
AcDbXrecord
 40
0.0
  0
XRECORD
  5
257E
102
{ACAD_REACTORS
330
2570
102
}
330
2570
100
AcDbXrecord
1000
DSTYLE
1002
{
1070
    79
 70
     2
1070
   341
340
59
1070
   342
340
59
1070
   371
 70
    -1
1070
   372
 70
    -1
1002
}
  0
XRECORD
  5
257F
102
{ACAD_REACTORS
330
2570
102
}
330
2570
100
AcDbXrecord
340
0
  0
XRECORD
  5
2580
102
{ACAD_REACTORS
330
2570
102
}
330
2570
100
AcDbXrecord
 70
     0
  0
XRECORD
  5
2581
102
{ACAD_REACTORS
330
2570
102
}
330
2570
100
AcDbXrecord
340
0
  0
XRECORD
  5
2582
102
{ACAD_REACTORS
330
2570
102
}
330
2570
100
AcDbXrecord
 10
0.0
 20
0.0
 30
0.0
  0
XRECORD
  5
2583
102
{ACAD_REACTORS
330
2570
102
}
330
2570
100
AcDbXrecord
 10
0.0
 20
0.0
 30
0.0
  0
XRECORD
  5
2584
102
{ACAD_REACTORS
330
2570
102
}
330
2570
100
AcDbXrecord
 10
0.0
 20
0.0
 30
0.0
  0
XRECORD
  5
2585
102
{ACAD_REACTORS
330
2570
102
}
330
2570
100
AcDbXrecord
 10
0.0
 20
0.0
 30
0.0
  0
XRECORD
  5
2586
102
{ACAD_REACTORS
330
2570
102
}
330
2570
100
AcDbXrecord
 10
0.0
 20
0.0
 30
0.0
  0
XRECORD
  5
2587
102
{ACAD_REACTORS
330
2570
102
}
330
2570
100
AcDbXrecord
 10
0.0
 20
0.0
 30
0.0
  0
XRECORD
  5
2588
102
{ACAD_REACTORS
330
2570
102
}
330
2570
100
AcDbXrecord
340
0
  0
XRECORD
  5
2589
102
{ACAD_REACTORS
330
2570
102
}
330
2570
100
AcDbXrecord
 70
     0
  0
XRECORD
  5
258A
102
{ACAD_REACTORS
330
2570
102
}
330
2570
100
AcDbXrecord
340
0
  0
XRECORD
  5
258B
102
{ACAD_REACTORS
330
2570
102
}
330
2570
100
AcDbXrecord
 10
0.0
 20
0.0
 30
0.0
  0
XRECORD
  5
258C
102
{ACAD_REACTORS
330
2570
102
}
330
2570
100
AcDbXrecord
 10
0.0
 20
0.0
 30
0.0
  0
XRECORD
  5
258D
102
{ACAD_REACTORS
330
2570
102
}
330
2570
100
AcDbXrecord
 10
0.0
 20
0.0
 30
0.0
  0
XRECORD
  5
258E
102
{ACAD_REACTORS
330
2570
102
}
330
2570
100
AcDbXrecord
 10
0.0
 20
0.0
 30
0.0
  0
XRECORD
  5
258F
102
{ACAD_REACTORS
330
2570
102
}
330
2570
100
AcDbXrecord
 10
0.0
 20
0.0
 30
0.0
  0
XRECORD
  5
2590
102
{ACAD_REACTORS
330
2570
102
}
330
2570
100
AcDbXrecord
 10
0.0
 20
0.0
 30
0.0
  0
LAYER_INDEX
  5
2566
102
{ACAD_REACTORS
330
2565
102
}
330
2565
100
AcDbIndex
 40
2453151.585492604
100
AcDbLayerIndex
  8
0
360
2567
 90
        0
  8
AM_0
360
2568
 90
       42
  8
AM_7
360
2569
 90
        1
  8
AM_11
360
256A
 90
        6
  8
AM_5
360
256B
 90
        5
  8
Defpoints
360
256C
 90
        0
  8
AM_6
360
256D
 90
        1
  8
AM_CL
360
256E
 90
        2
  0
XRECORD
  5
2D
102
{ACAD_REACTORS
330
2C
102
}
330
2C
100
AcDbXrecord
  1
VERSION
140
15.0
  1
PRODUCT
  2
AutoCAD Mechanical 2000
  0
IDBUFFER
  5
2567
330
0
100
AcDbIdBuffer
  0
IDBUFFER
  5
2568
330
0
100
AcDbIdBuffer
330
24BD
330
24BE
330
24BF
330
24C0
330
24C1
330
24C3
330
24C4
330
24C5
330
24C6
330
24C7
330
24C9
330
24CC
330
24CD
330
24CE
330
24CF
330
24D0
330
24D3
330
24D4
330
24E4
330
24E5
330
24E6
330
24E7
330
24E8
330
24E9
330
24EA
330
24EB
330
1C24
330
1C25
330
1C26
330
1C27
330
1C28
330
1C2B
330
213A
330
213B
330
213C
330
2148
330
2150
330
2151
330
215F
330
2280
330
2281
330
24BC
  0
IDBUFFER
  5
2569
330
0
100
AcDbIdBuffer
330
C9F
  0
IDBUFFER
  5
256A
330
0
100
AcDbIdBuffer
330
24C2
330
24C8
330
24CA
330
24CB
330
24D2
330
24EC
  0
IDBUFFER
  5
256B
330
0
100
AcDbIdBuffer
330
CC6
330
DF5
330
11B2
330
1EEB
330
2129
  0
IDBUFFER
  5
256C
330
0
100
AcDbIdBuffer
  0
IDBUFFER
  5
256D
330
0
100
AcDbIdBuffer
330
19BD
  0
IDBUFFER
  5
256E
330
0
100
AcDbIdBuffer
330
229E
330
22A2
  0
ENDSEC
  0
EOF
