  0
SECTION
  2
HEADER
  9
$ACADVER
  1
AC1014
  9
$ACADMAINTVER
 70
     9
  9
$DWGCODEPAGE
  3
ANSI_932
  9
$INSBASE
 10
0.0
 20
0.0
 30
0.0
  9
$EXTMIN
 10
-176.0500009999948
 20
-51.00000153234521
 30
-0.00000001
  9
$EXTMAX
 10
24.11349616950432
 20
23.68307910041764
 30
0.00000001
  9
$LIMMIN
 10
-183.3592331815538
 20
-77.82470750161587
  9
$LIMMAX
 10
37.2372877346504
 20
46.50179976544836
  9
$ORTHOMODE
 70
     0
  9
$REGENMODE
 70
     1
  9
$FILLMODE
 70
     1
  9
$QTEXTMODE
 70
     0
  9
$MIRRTEXT
 70
     0
  9
$DRAGMODE
 70
     2
  9
$LTSCALE
 40
1.0
  9
$OSMODE
 70
    55
  9
$ATTMODE
 70
     1
  9
$TEXTSIZE
 40
2.5
  9
$TRACEWID
 40
1.0
  9
$TEXTSTYLE
  7
STANDARD
  9
$CLAYER
  8
AM_0
  9
$CELTYPE
  6
BYLAYER
  9
$CECOLOR
 62
   256
  9
$CELTSCALE
 40
1.0
  9
$DELOBJ
 70
     1
  9
$DISPSILH
 70
     0
  9
$DIMSCALE
 40
1.0
  9
$DIMASZ
 40
2.5
  9
$DIMEXO
 40
1.0
  9
$DIMDLI
 40
12.0
  9
$DIMRND
 40
0.0
  9
$DIMDLE
 40
0.0
  9
$DIMEXE
 40
1.0
  9
$DIMTP
 40
0.1
  9
$DIMTM
 40
0.1
  9
$DIMTXT
 40
3.2
  9
$DIMCEN
 40
0.0
  9
$DIMTSZ
 40
0.0
  9
$DIMTOL
 70
     0
  9
$DIMLIM
 70
     0
  9
$DIMTIH
 70
     0
  9
$DIMTOH
 70
     0
  9
$DIMSE1
 70
     0
  9
$DIMSE2
 70
     0
  9
$DIMTAD
 70
     3
  9
$DIMZIN
 70
     8
  9
$DIMBLK
  1
OPEN30
  9
$DIMASO
 70
     1
  9
$DIMSHO
 70
     1
  9
$DIMPOST
  1

  9
$DIMAPOST
  1
"
  9
$DIMALT
 70
     0
  9
$DIMALTD
 70
     2
  9
$DIMALTF
 40
0.0393701
  9
$DIMLFAC
 40
1.0
  9
$DIMTOFL
 70
     1
  9
$DIMTVP
 40
0.0
  9
$DIMTIX
 70
     0
  9
$DIMSOXD
 70
     0
  9
$DIMSAH
 70
     0
  9
$DIMBLK1
  1

  9
$DIMBLK2
  1

  9
$DIMSTYLE
  2
AM_JIS
  9
$DIMCLRD
 70
   256
  9
$DIMCLRE
 70
   256
  9
$DIMCLRT
 70
     2
  9
$DIMTFAC
 40
0.71
  9
$DIMGAP
 40
1.5
  9
$DIMJUST
 70
     0
  9
$DIMSD1
 70
     0
  9
$DIMSD2
 70
     0
  9
$DIMTOLJ
 70
     0
  9
$DIMTZIN
 70
     0
  9
$DIMALTZ
 70
     0
  9
$DIMALTTZ
 70
     0
  9
$DIMFIT
 70
     3
  9
$DIMUPT
 70
     0
  9
$DIMUNIT
 70
     2
  9
$DIMDEC
 70
     3
  9
$DIMTDEC
 70
     3
  9
$DIMALTU
 70
     2
  9
$DIMALTTD
 70
     2
  9
$DIMTXSTY
  7
ASAMI
  9
$DIMAUNIT
 70
     0
  9
$LUNITS
 70
     2
  9
$LUPREC
 70
     2
  9
$SKETCHINC
 40
1.0
  9
$FILLETRAD
 40
2.5
  9
$AUNITS
 70
     0
  9
$AUPREC
 70
     0
  9
$MENU
  1
.
  9
$ELEVATION
 40
0.0
  9
$PELEVATION
 40
0.0
  9
$THICKNESS
 40
0.0
  9
$LIMCHECK
 70
     0
  9
$BLIPMODE
 70
     0
  9
$CHAMFERA
 40
0.75
  9
$CHAMFERB
 40
0.75
  9
$CHAMFERC
 40
20.0
  9
$CHAMFERD
 40
0.0
  9
$SKPOLY
 70
     0
  9
$TDCREATE
 40
2452800.443498622
  9
$TDUPDATE
 40
2453151.723828113
  9
$TDINDWG
 40
0.1581454282
  9
$TDUSRTIMER
 40
0.1581454282
  9
$USRTIMER
 70
     1
  9
$ANGBASE
 50
0.0
  9
$ANGDIR
 70
     0
  9
$PDMODE
 70
     0
  9
$PDSIZE
 40
0.0
  9
$PLINEWID
 40
0.0
  9
$COORDS
 70
     1
  9
$SPLFRAME
 70
     0
  9
$SPLINETYPE
 70
     6
  9
$SPLINESEGS
 70
     8
  9
$ATTDIA
 70
     1
  9
$ATTREQ
 70
     1
  9
$HANDLING
 70
 12289
  9
$HANDSEED
  5
5ADC
  9
$SURFTAB1
 70
     6
  9
$SURFTAB2
 70
     6
  9
$SURFTYPE
 70
     6
  9
$SURFU
 70
     6
  9
$SURFV
 70
     6
  9
$UCSNAME
  2

  9
$UCSORG
 10
0.0
 20
0.0
 30
0.0
  9
$UCSXDIR
 10
1.0
 20
0.000000000000002
 30
0.0
  9
$UCSYDIR
 10
-0.000000000000002
 20
1.0
 30
0.0
  9
$PUCSNAME
  2

  9
$PUCSORG
 10
0.0
 20
0.0
 30
0.0
  9
$PUCSXDIR
 10
1.0
 20
0.0
 30
0.0
  9
$PUCSYDIR
 10
0.0
 20
1.0
 30
0.0
  9
$USERI1
 70
     0
  9
$USERI2
 70
     0
  9
$USERI3
 70
     0
  9
$USERI4
 70
     0
  9
$USERI5
 70
     0
  9
$USERR1
 40
0.0
  9
$USERR2
 40
0.0
  9
$USERR3
 40
0.0
  9
$USERR4
 40
0.0
  9
$USERR5
 40
0.0
  9
$WORLDVIEW
 70
     1
  9
$SHADEDGE
 70
     3
  9
$SHADEDIF
 70
    70
  9
$TILEMODE
 70
     1
  9
$MAXACTVP
 70
    64
  9
$PINSBASE
 10
0.0
 20
0.0
 30
0.0
  9
$PLIMCHECK
 70
     0
  9
$PEXTMIN
 10
1.000000000000000E+20
 20
1.000000000000000E+20
 30
1.000000000000000E+20
  9
$PEXTMAX
 10
-1.000000000000000E+20
 20
-1.000000000000000E+20
 30
-1.000000000000000E+20
  9
$PLIMMIN
 10
0.0
 20
0.0
  9
$PLIMMAX
 10
841.0
 20
594.0
  9
$UNITMODE
 70
     0
  9
$VISRETAIN
 70
     1
  9
$PLINEGEN
 70
     0
  9
$PSLTSCALE
 70
     0
  9
$TREEDEPTH
 70
  3020
  9
$PICKSTYLE
 70
     0
  9
$CMLSTYLE
  2
STANDARD
  9
$CMLJUST
 70
     0
  9
$CMLSCALE
 40
20.0
  9
$PROXYGRAPHICS
 70
     1
  9
$MEASUREMENT
 70
     1
  0
ENDSEC
  0
SECTION
  2
CLASSES
  0
CLASS
  1
ACDBDICTIONARYWDFLT
  2
AcDbDictionaryWithDefault
  3
AutoCAD 2000
 90
        0
280
     0
281
     0
  0
CLASS
  1
ACDBPLACEHOLDER
  2
AcDbPlaceHolder
  3
AutoCAD 2000
 90
        0
280
     0
281
     0
  0
CLASS
  1
LAYOUT
  2
AcDbLayout
  3
AutoCAD 2000
 90
        0
280
     0
281
     0
  0
CLASS
  1
AMGSETTINGSOBJ
  2
AmgSettingsObj
  3
"AcadM|Product Description: AutoCAD Mechanical 2000|Company: Autodesk"
 90
        0
280
     0
281
     0
  0
CLASS
  1
ACME_DOCUMENT
  2
AcMeDbDoc
  3
AcMeServices
 90
        0
280
     0
281
     0
  0
CLASS
  1
ACMESCOPE
  2
AcMeScope
  3
AcMeServices
 90
        0
280
     0
281
     0
  0
CLASS
  1
ACMECOMMANDHISTORY
  2
AcMeCommandHistory
  3
AcMeServices
 90
        0
280
     0
281
     0
  0
CLASS
  1
DICTIONARYVAR
  2
AcDbDictionaryVar
  3
AutoCAD 2000
 90
        0
280
     0
281
     0
  0
CLASS
  1
ACIMSYSVARMAN
  2
AcImSysVarManager
  3
AcMeServices
 90
        0
280
     0
281
     0
  0
CLASS
  1
ACIMREALSYSVAR
  2
AcImRealSysVar
  3
AcMeServices
 90
        0
280
     0
281
     0
  0
CLASS
  1
ACIMINTSYSVAR
  2
AcImIntSysVar
  3
AcMeServices
 90
        0
280
     0
281
     0
  0
CLASS
  1
ACMEDRAWINGMAN
  2
AcMeDrawingMan
  3
AcMeServices
 90
        0
280
     0
281
     0
  0
CLASS
  1
ACMEVIEW
  2
AcMeView
  3
AcMeServices
 90
        0
280
     0
281
     0
  0
CLASS
  1
ACDBENTITYCACHE
  2
AcMeEntityCache
  3
AcMeServices
 90
        0
280
     0
281
     0
  0
CLASS
  1
GSMANAGER
  2
AcMeGSManager
  3
AcMeServices
 90
        0
280
     0
281
     0
  0
CLASS
  1
AmdtInternalReactor
  2
AmdtInternalReactor
  3
AcMeServices
 90
        0
280
     0
281
     0
  0
CLASS
  1
ACMESTATEMGR
  2
AcMeStateMgr
  3
AcMeServices
 90
        0
280
     0
281
     0
  0
CLASS
  1
ACME_DATABASE
  2
AcMeDbDatabase
  3
AcMeServices
 90
        0
280
     0
281
     0
  0
CLASS
  1
ACRFINSADJUSTERMGR
  2
AcRfInsAdjusterMgr
  3
AcMeServices
 90
        0
280
     0
281
     0
  0
CLASS
  1
ACMDATADICTIONARY
  2
AcmDataDictionary
  3
"AcmSymBB|Product Description: AutoCAD Mechanical 2000|Company: Autodesk"
 90
        0
280
     0
281
     0
  0
CLASS
  1
ACMDATAENTRYBLOCK
  2
AcmDataEntryBlock
  3
"AcmSymBB|Product Description: AutoCAD Mechanical 2000|Company: Autodesk"
 90
        0
280
     0
281
     0
  0
CLASS
  1
AMGOBJPROPCFG
  2
AmgObjPropCfg
  3
"AmgLay|Product Description: AutoCAD Mechanical 2000|Company: Autodesk"
 90
        1
280
     0
281
     0
  0
CLASS
  1
ACAMGFILTERDAT
  2
AcAmgFilterDat
  3
"AcadM|Product Description: AutoCAD Mechanical 2000|Company: Autodesk"
 90
        0
280
     0
281
     0
  0
CLASS
  1
LAYER_INDEX
  2
AcDbLayerIndex
  3
AutoCAD 2000
 90
        0
280
     0
281
     0
  0
CLASS
  1
IDBUFFER
  2
AcDbIdBuffer
  3
AutoCAD 2000
 90
        0
280
     0
281
     0
  0
CLASS
  1
ACIMSTRSYSVAR
  2
AcImStrSysVar
  3
AcMeServices
 90
        0
280
     0
281
     0
  0
CLASS
  1
ACMSTANDARDJIS
  2
AcmStandardJIS
  3
"AcmSymBB|Product Description: AutoCAD Mechanical 2000|Company: Autodesk"
 90
        0
280
     0
281
     0
  0
CLASS
  1
ACMSURFSTANDARDJIS
  2
AcmSurfTextStdJIS
  3
"AcmSymBB|Product Description: AutoCAD Mechanical 2000|Company: Autodesk"
 90
        0
280
     0
281
     0
  0
CLASS
  1
ACMFCFSTANDARDJIS
  2
AcmFCFStdJIS
  3
"AcmSymBB|Product Description: AutoCAD Mechanical 2000|Company: Autodesk"
 90
        0
280
     0
281
     0
  0
CLASS
  1
ACMWELDSTANDARDJIS
  2
AcmWeldingStdJIS
  3
"AcmSymBB|Product Description: AutoCAD Mechanical 2000|Company: Autodesk"
 90
        0
280
     0
281
     0
  0
CLASS
  1
ACMIDSTANDARDJIS
  2
AcmIdStdJIS
  3
"AcmSymBB|Product Description: AutoCAD Mechanical 2000|Company: Autodesk"
 90
        0
280
     0
281
     0
  0
CLASS
  1
ACMDATUMSTANDARDJIS
  2
AcmDatumStdJIS
  3
"AcmSymBB|Product Description: AutoCAD Mechanical 2000|Company: Autodesk"
 90
        0
280
     0
281
     0
  0
CLASS
  1
ACMBOMSTANDARDJIS
  2
AcmBOMStdJIS
  3
"AcmSymBB|Product Description: AutoCAD Mechanical 2000|Company: Autodesk"
 90
        0
280
     0
281
     0
  0
CLASS
  1
ACMSTANDARDANSI
  2
AcmStandardANSI
  3
"AcmSymBB|Product Description: AutoCAD Mechanical 2000|Company: Autodesk"
 90
        0
280
     0
281
     0
  0
CLASS
  1
ACMSURFSTANDARDANSI
  2
AcmSurfTextStdANSI
  3
"AcmSymBB|Product Description: AutoCAD Mechanical 2000|Company: Autodesk"
 90
        0
280
     0
281
     0
  0
CLASS
  1
ACMFCFSTANDARDANSI
  2
AcmFCFStdANSI
  3
"AcmSymBB|Product Description: AutoCAD Mechanical 2000|Company: Autodesk"
 90
        0
280
     0
281
     0
  0
CLASS
  1
ACMWELDSTANDARDANSI
  2
AcmWeldingStdANSI
  3
"AcmSymBB|Product Description: AutoCAD Mechanical 2000|Company: Autodesk"
 90
        0
280
     0
281
     0
  0
CLASS
  1
ACMIDSTANDARDANSI
  2
AcmIdStdANSI
  3
"AcmSymBB|Product Description: AutoCAD Mechanical 2000|Company: Autodesk"
 90
        0
280
     0
281
     0
  0
CLASS
  1
ACMDATUMSTANDARDANSI
  2
AcmDatumStdANSI
  3
"AcmSymBB|Product Description: AutoCAD Mechanical 2000|Company: Autodesk"
 90
        0
280
     0
281
     0
  0
CLASS
  1
ACMBOMSTANDARDANSI
  2
AcmBOMStdANSI
  3
"AcmSymBB|Product Description: AutoCAD Mechanical 2000|Company: Autodesk"
 90
        0
280
     0
281
     0
  0
CLASS
  1
ACMSTANDARDBSI
  2
AcmStandardBSI
  3
"AcmSymBB|Product Description: AutoCAD Mechanical 2000|Company: Autodesk"
 90
        0
280
     0
281
     0
  0
CLASS
  1
ACMSURFSTANDARDBSI
  2
AcmSurfTextStdBSI
  3
"AcmSymBB|Product Description: AutoCAD Mechanical 2000|Company: Autodesk"
 90
        0
280
     0
281
     0
  0
CLASS
  1
ACMFCFSTANDARDBSI
  2
AcmFCFStdBSI
  3
"AcmSymBB|Product Description: AutoCAD Mechanical 2000|Company: Autodesk"
 90
        0
280
     0
281
     0
  0
CLASS
  1
ACMWELDSTANDARDBSI
  2
AcmWeldingStdBSI
  3
"AcmSymBB|Product Description: AutoCAD Mechanical 2000|Company: Autodesk"
 90
        0
280
     0
281
     0
  0
CLASS
  1
ACMIDSTANDARDBSI
  2
AcmIdStdBSI
  3
"AcmSymBB|Product Description: AutoCAD Mechanical 2000|Company: Autodesk"
 90
        0
280
     0
281
     0
  0
CLASS
  1
ACMDATUMSTANDARDBSI
  2
AcmDatumStdBSI
  3
"AcmSymBB|Product Description: AutoCAD Mechanical 2000|Company: Autodesk"
 90
        0
280
     0
281
     0
  0
CLASS
  1
ACMBOMSTANDARDBSI
  2
AcmBOMStdBSI
  3
"AcmSymBB|Product Description: AutoCAD Mechanical 2000|Company: Autodesk"
 90
        0
280
     0
281
     0
  0
CLASS
  1
LONG_TRANSACTION
  2
AcDbLongTransaction
  3
AutoCAD 2000
 90
        0
280
     0
281
     0
  0
CLASS
  1
LWPOLYLINE
  2
AcDbPolyline
  3
AutoCAD 2000
 90
        0
280
     0
281
     1
  0
CLASS
  1
HATCH
  2
AcDbHatch
  3
AutoCAD 2000
 90
        0
280
     0
281
     1
  0
CLASS
  1
XRECORD
  2
AcDbXrecord
  3
AutoCAD 2000
 90
        0
280
     0
281
     0
  0
ENDSEC
  0
SECTION
  2
TABLES
  0
TABLE
  2
VPORT
  5
8
330
0
100
AcDbSymbolTable
 70
     3
  0
VPORT
  5
5AA6
330
8
100
AcDbSymbolTableRecord
100
AcDbViewportTableRecord
  2
*ACTIVE
 70
     0
 10
0.0
 20
0.0
 11
1.0
 21
1.0
 12
-75.41456509592899
 22
-28.44529468487056
 13
0.0
 23
0.0
 14
2.5
 24
2.5
 15
10.0
 25
10.0
 16
0.0
 26
0.0
 36
1.0
 17
0.0
 27
0.0
 37
0.0
 40
183.0885805004982
 41
1.56570841889117
 42
50.0
 43
0.0
 44
0.0
 50
0.0
 51
0.0
 71
     0
 72
   100
 73
     1
 74
     1
 75
     0
 76
     0
 77
     0
 78
     0
  0
ENDTAB
  0
TABLE
  2
LTYPE
  5
5
330
0
100
AcDbSymbolTable
 70
    10
  0
LTYPE
  5
14
330
5
100
AcDbSymbolTableRecord
100
AcDbLinetypeTableRecord
  2
BYBLOCK
 70
     0
  3

 72
    65
 73
     0
 40
0.0
  0
LTYPE
  5
15
330
5
100
AcDbSymbolTableRecord
100
AcDbLinetypeTableRecord
  2
BYLAYER
 70
     0
  3

 72
    65
 73
     0
 40
0.0
  0
LTYPE
  5
16
330
5
100
AcDbSymbolTableRecord
100
AcDbLinetypeTableRecord
  2
CONTINUOUS
 70
     0
  3
Solid line
 72
    65
 73
     0
 40
0.0
  0
LTYPE
  5
4B
330
5
100
AcDbSymbolTableRecord
100
AcDbLinetypeTableRecord
  2
AM_ISO02W050
 70
     0
  3
__ __ __ __ __ __ __ __ __ __ __ __ __ __ __
 72
    65
 73
     2
 40
7.5
 49
6.0
 74
     0
 49
-1.5
 74
     0
  0
LTYPE
  5
4C
330
5
100
AcDbSymbolTableRecord
100
AcDbLinetypeTableRecord
  2
AM_ISO08W050
 70
     0
  3
____ . ____ . ____ . ____ . ____ . ____ . ____
 72
    65
 73
     4
 40
18.0
 49
12.0
 74
     0
 49
-1.5
 74
     0
 49
3.0
 74
     0
 49
-1.5
 74
     0
  0
LTYPE
  5
4D
330
5
100
AcDbSymbolTableRecord
100
AcDbLinetypeTableRecord
  2
AM_ISO09W050
 70
     0
  3
_____ . . _____ . . _____ . . ____ .. ____
 72
    65
 73
     6
 40
22.5
 49
12.0
 74
     0
 49
-1.5
 74
     0
 49
3.0
 74
     0
 49
-1.5
 74
     0
 49
3.0
 74
     0
 49
-1.5
 74
     0
  0
LTYPE
  5
4E
330
5
100
AcDbSymbolTableRecord
100
AcDbLinetypeTableRecord
  2
AMCONSTR
 70
     0
  3
_______________________
 72
    65
 73
     2
 40
9999.0
 49
9999.0
 74
     0
 49
0.0
 74
     0
  0
LTYPE
  5
4F
330
5
100
AcDbSymbolTableRecord
100
AcDbLinetypeTableRecord
  2
AM_ISO02W050X2
 70
     0
  3
 _ _ _ _ _ _ _ _ _ _ _ _
 72
    65
 73
     2
 40
3.75
 49
3.0
 74
     0
 49
-0.75
 74
     0
  0
LTYPE
  5
50
330
5
100
AcDbSymbolTableRecord
100
AcDbLinetypeTableRecord
  2
AM_ISO08W050X2
 70
     0
  3
__ . __ . __ . __ . __ . __
 72
    65
 73
     4
 40
9.0
 49
6.0
 74
     0
 49
-0.75
 74
     0
 49
1.5
 74
     0
 49
-0.75
 74
     0
  0
LTYPE
  5
53
330
5
100
AcDbSymbolTableRecord
100
AcDbLinetypeTableRecord
  2
AMZIGZAG
 70
     0
  3
/\/-/\/-/\/-/\/-/\/-/\/
 72
    65
 73
     2
 40
11.00009999999999
 49
0.0001
 74
     4
 75
   135
340
52
 46
0.04
 50
0.0
 44
0.0
 45
0.0
 49
-11.0
 74
     0
  0
LTYPE
  5
166
330
5
100
AcDbSymbolTableRecord
100
AcDbLinetypeTableRecord
  2
ACJISTGL
 70
     0
  3
_ _ _ _ _
 72
    65
 73
     2
 40
3.0
 49
2.0
 74
     0
 49
-1.0
 74
     0
  0
LTYPE
  5
26A
330
5
100
AcDbSymbolTableRecord
100
AcDbLinetypeTableRecord
  2
ACJISTGB
 70
     0
  3
__ . . __ . .
 72
    65
 73
     6
 40
9.0
 49
4.0
 74
     0
 49
-1.0
 74
     0
 49
1.0
 74
     0
 49
-1.0
 74
     0
 49
1.0
 74
     0
 49
-1.0
 74
     0
  0
ENDTAB
  0
TABLE
  2
LAYER
  5
2
330
0
100
AcDbSymbolTable
 70
     7
  0
LAYER
  5
10
330
2
100
AcDbSymbolTableRecord
100
AcDbLayerTableRecord
  2
0
 70
     0
 62
     7
  6
CONTINUOUS
  0
LAYER
  5
3F9
330
2
100
AcDbSymbolTableRecord
100
AcDbLayerTableRecord
  2
AM_0
 70
     0
 62
     7
  6
CONTINUOUS
  0
LAYER
  5
C7C
330
2
100
AcDbSymbolTableRecord
100
AcDbLayerTableRecord
  2
AM_7
 70
     0
 62
     4
  6
AM_ISO08W050
  0
LAYER
  5
C97
330
2
100
AcDbSymbolTableRecord
100
AcDbLayerTableRecord
  2
AM_11
 70
     0
 62
     3
  6
AM_ISO09W050
  0
LAYER
  5
CC5
330
2
100
AcDbSymbolTableRecord
100
AcDbLayerTableRecord
  2
AM_5
 70
     0
 62
     3
  6
CONTINUOUS
  0
LAYER
  5
CC7
330
2
100
AcDbSymbolTableRecord
100
AcDbLayerTableRecord
  2
DEFPOINTS
 70
     0
 62
     7
  6
CONTINUOUS
  0
LAYER
  5
19BC
330
2
100
AcDbSymbolTableRecord
100
AcDbLayerTableRecord
  2
AM_6
 70
     0
 62
     2
  6
CONTINUOUS
  0
ENDTAB
  0
TABLE
  2
STYLE
  5
3
330
0
100
AcDbSymbolTable
 70
     5
  0
STYLE
  5
11
330
3
100
AcDbSymbolTableRecord
100
AcDbTextStyleTableRecord
  2
STANDARD
 70
     0
 40
0.0
 41
1.0
 50
0.0
 71
     0
 42
2.5
  3
simplex.shx
  4
EXTFONT.SHX
  0
STYLE
  5
52
330
3
100
AcDbSymbolTableRecord
100
AcDbTextStyleTableRecord
  2

 70
     1
 40
0.0
 41
1.0
 50
0.0
 71
     0
 42
2.5
  3
ltypeshp.shx
  4

  0
STYLE
  5
6B
330
3
100
AcDbSymbolTableRecord
100
AcDbTextStyleTableRecord
  2
ASAMI
 70
     0
 40
0.0
 41
1.0
 50
0.0
 71
     0
 42
2.5
  3
simplex.shx
  4
EXTFONT.SHX
  0
STYLE
  5
262
330
3
100
AcDbSymbolTableRecord
100
AcDbTextStyleTableRecord
  2
ACJISTS
 70
     0
 40
1.0
 41
1.0
 50
0.0
 71
     0
 42
2.5
  3
simplex.shx
  4
bigfont.shx
  0
STYLE
  5
269
330
3
100
AcDbSymbolTableRecord
100
AcDbTextStyleTableRecord
  2
ACJISGDT
 70
     0
 40
0.0
 41
1.0
 50
0.0
 71
     0
 42
2.5
  3
amgdtans.shx
  4

  0
ENDTAB
  0
TABLE
  2
VIEW
  5
6
330
0
100
AcDbSymbolTable
 70
     0
  0
ENDTAB
  0
TABLE
  2
UCS
  5
7
330
0
100
AcDbSymbolTable
 70
     0
  0
ENDTAB
  0
TABLE
  2
APPID
  5
9
330
0
100
AcDbSymbolTable
 70
    18
  0
APPID
  5
12
330
9
100
AcDbSymbolTableRecord
100
AcDbRegAppTableRecord
  2
ACAD
 70
     0
  0
APPID
  5
30
330
9
100
AcDbSymbolTableRecord
100
AcDbRegAppTableRecord
  2
MCAD_NO_VIS
 70
     0
  0
APPID
  5
31
330
9
100
AcDbSymbolTableRecord
100
AcDbRegAppTableRecord
  2
ACAD_TEMP_GRAPHIC
 70
     0
  0
APPID
  5
2C2
330
9
100
AcDbSymbolTableRecord
100
AcDbRegAppTableRecord
  2
GENIUS_GENDTOL_13
 70
     0
  0
APPID
  5
339
330
9
100
AcDbSymbolTableRecord
100
AcDbRegAppTableRecord
  2
GENIUS_GENODEF_13
 70
     0
  0
APPID
  5
33A
330
9
100
AcDbSymbolTableRecord
100
AcDbRegAppTableRecord
  2
GENIUS_GENOBJ-N-RSBK_13
 70
     0
  0
APPID
  5
33B
330
9
100
AcDbSymbolTableRecord
100
AcDbRegAppTableRecord
  2
GENIUS_GENOBJ-N-LIB_13
 70
     0
  0
APPID
  5
33C
330
9
100
AcDbSymbolTableRecord
100
AcDbRegAppTableRecord
  2
GENIUS_GENSCALE_13
 70
     0
  0
APPID
  5
378
330
9
100
AcDbSymbolTableRecord
100
AcDbRegAppTableRecord
  2
GENIUS_GENDIMSH_14
 70
     0
  0
APPID
  5
C82
330
9
100
AcDbSymbolTableRecord
100
AcDbRegAppTableRecord
  2
GENIUS_GENOBJ-N-CRS_13
 70
     0
  0
APPID
  5
C83
330
9
100
AcDbSymbolTableRecord
100
AcDbRegAppTableRecord
  2
GENIUS_GENOENT_13
 70
     0
  0
APPID
  5
C84
330
9
100
AcDbSymbolTableRecord
100
AcDbRegAppTableRecord
  2
GENIUS_GENOREF_13
 70
     0
  0
APPID
  5
C85
330
9
100
AcDbSymbolTableRecord
100
AcDbRegAppTableRecord
  2
GENIUS_GENOLIS_13
 70
     0
  0
APPID
  5
CA0
330
9
100
AcDbSymbolTableRecord
100
AcDbRegAppTableRecord
  2
GENIUS_GENOBJ-N-CEN_13
 70
     0
  0
APPID
  5
1B5D
330
9
100
AcDbSymbolTableRecord
100
AcDbRegAppTableRecord
  2
GENIUS_GENFIL_13
 70
     0
  0
APPID
  5
1B5E
330
9
100
AcDbSymbolTableRecord
100
AcDbRegAppTableRecord
  2
GENIUS_GENOBJ-N-CHA_13
 70
     0
  0
APPID
  5
1FBC
330
9
100
AcDbSymbolTableRecord
100
AcDbRegAppTableRecord
  2
GENIUS_GENREC_14
 70
     0
  0
APPID
  5
1FBD
330
9
100
AcDbSymbolTableRecord
100
AcDbRegAppTableRecord
  2
GENIUS_GENOBJ-N-REC_13
 70
     0
  0
ENDTAB
  0
TABLE
  2
DIMSTYLE
  5
A
330
0
100
AcDbSymbolTable
 70
     9
  0
DIMSTYLE
105
58
330
A
100
AcDbSymbolTableRecord
100
AcDbDimStyleTableRecord
  2
AM_JIS
 70
     0
  3

  4
"
  5
OPEN30
  6

  7

 40
1.0
 41
2.5
 42
1.0
 43
12.0
 44
1.0
 45
0.0
 46
0.0
 47
0.1
 48
0.1
140
3.2
141
0.0
142
0.0
143
0.0393701
144
1.0
145
0.0
146
0.71
147
1.5
 71
     0
 72
     0
 73
     0
 74
     0
 75
     0
 76
     0
 77
     3
 78
     8
170
     0
171
     2
172
     1
173
     0
174
     0
175
     0
176
   256
177
   256
178
     2
270
     2
271
     3
272
     3
273
     2
274
     2
340
6B
275
     0
280
     0
281
     0
282
     0
283
     0
284
     0
285
     0
286
     0
287
     3
288
     0
  0
DIMSTYLE
105
5F
330
A
100
AcDbSymbolTableRecord
100
AcDbDimStyleTableRecord
  2
AM_JIS$3
 70
     0
  3

  4
"
  5
OPEN30
  6

  7

 40
1.0
 41
2.5
 42
1.0
 43
10.0
 44
1.0
 45
0.0
 46
0.0
 47
0.1
 48
0.1
140
3.2
141
0.0
142
0.0
143
0.0393701
144
1.0
145
0.0
146
0.71
147
1.5
 71
     0
 72
     0
 73
     0
 74
     1
 75
     0
 76
     0
 77
     3
 78
     8
170
     0
171
     2
172
     0
173
     0
174
     0
175
     0
176
   256
177
   256
178
     2
270
     2
271
     2
272
     3
273
     2
274
     2
340
6B
275
     0
280
     0
281
     0
282
     0
283
     0
284
     0
285
     0
286
     0
287
     0
288
     1
  0
DIMSTYLE
105
60
330
A
100
AcDbSymbolTableRecord
100
AcDbDimStyleTableRecord
  2
AM_JIS$4
 70
     0
  3

  4
"
  5
OPEN30
  6

  7

 40
1.0
 41
2.5
 42
1.0
 43
10.0
 44
1.0
 45
0.0
 46
0.0
 47
0.1
 48
0.1
140
3.2
141
0.0
142
0.0
143
0.0393701
144
1.0
145
0.0
146
0.71
147
1.5
 71
     0
 72
     0
 73
     0
 74
     1
 75
     0
 76
     0
 77
     3
 78
     8
170
     0
171
     2
172
     0
173
     0
174
     0
175
     0
176
   256
177
   256
178
     2
270
     2
271
     2
272
     3
273
     2
274
     2
340
6B
275
     0
280
     0
281
     0
282
     0
283
     0
284
     0
285
     0
286
     0
287
     0
288
     1
  0
DIMSTYLE
105
61
330
A
100
AcDbSymbolTableRecord
100
AcDbDimStyleTableRecord
  2
AM_JIS$6
 70
     0
  3

  4
"
  5
OPEN30
  6

  7

 40
1.0
 41
2.5
 42
1.0
 43
10.0
 44
1.0
 45
0.0
 46
0.0
 47
0.1
 48
0.1
140
3.2
141
0.0
142
0.0
143
0.0393701
144
1.0
145
0.0
146
0.71
147
1.5
 71
     0
 72
     0
 73
     0
 74
     0
 75
     0
 76
     0
 77
     0
 78
     8
170
     0
171
     2
172
     1
173
     0
174
     0
175
     0
176
   256
177
   256
178
     2
270
     2
271
     2
272
     2
273
     2
274
     2
340
6B
275
     0
280
     0
281
     0
282
     0
283
     0
284
     0
285
     0
286
     0
287
     3
288
     0
  0
DIMSTYLE
105
62
330
A
100
AcDbSymbolTableRecord
100
AcDbDimStyleTableRecord
  2
AM_JIS$7
 70
     0
  3

  4
"
  5
OPEN30
  6

  7

 40
1.0
 41
2.5
 42
1.0
 43
10.0
 44
1.0
 45
0.0
 46
0.0
 47
0.1
 48
0.1
140
3.2
141
0.0
142
0.0
143
0.0393701
144
1.0
145
0.0
146
0.71
147
1.5
 71
     0
 72
     0
 73
     0
 74
     0
 75
     0
 76
     0
 77
     3
 78
     8
170
     0
171
     2
172
     1
173
     0
174
     0
175
     0
176
   256
177
   256
178
     2
270
     2
271
     2
272
     3
273
     2
274
     2
340
6B
275
     0
280
     0
281
     0
282
     0
283
     0
284
     0
285
     0
286
     0
287
     3
288
     0
  0
DIMSTYLE
105
63
330
A
100
AcDbSymbolTableRecord
100
AcDbDimStyleTableRecord
  2
AM_JIS$SF
 70
     0
  3

  4
"
  5
OPEN30
  6

  7

 40
1.0
 41
2.5
 42
1.0
 43
10.0
 44
1.0
 45
0.0
 46
0.0
 47
0.1
 48
0.1
140
3.2
141
0.0
142
0.0
143
0.0393701
144
1.0
145
0.0
146
0.71
147
1.5
 71
     0
 72
     0
 73
     0
 74
     0
 75
     1
 76
     1
 77
     3
 78
     8
170
     0
171
     2
172
     1
173
     0
174
     0
175
     0
176
   256
177
   256
178
     2
270
     2
271
     2
272
     2
273
     2
274
     2
340
6B
275
     0
280
     0
281
     0
282
     0
283
     0
284
     0
285
     0
286
     0
287
     3
288
     0
  0
DIMSTYLE
105
68
330
A
100
AcDbSymbolTableRecord
100
AcDbDimStyleTableRecord
  2
AM_JIS$SH
 70
     0
  3

  4
"
  5

  6
GENAXEH
  7
OPEN30
 40
1.0
 41
2.5
 42
1.0
 43
10.0
 44
1.0
 45
0.0
 46
0.0
 47
0.1
 48
0.1
140
3.2
141
0.0
142
0.0
143
0.0393701
144
2.0
145
0.0
146
0.71
147
1.5
 71
     0
 72
     0
 73
     0
 74
     0
 75
     1
 76
     1
 77
     3
 78
     8
170
     0
171
     2
172
     1
173
     1
174
     0
175
     0
176
   256
177
   256
178
     2
270
     2
271
     2
272
     2
273
     2
274
     2
340
6B
275
     0
280
     0
281
     0
282
     0
283
     0
284
     0
285
     0
286
     0
287
     3
288
     0
  0
DIMSTYLE
105
B34
102
{ACAD_REACTORS
330
5542
102
}
330
A
100
AcDbSymbolTableRecord
100
AcDbDimStyleTableRecord
  2
AM_JIS$2
 70
     0
  3

  4
"
  5
OPEN30
  6

  7

 40
1.0
 41
2.5
 42
1.0
 43
12.0
 44
1.0
 45
0.0
 46
0.0
 47
0.1
 48
0.1
140
3.2
141
0.0
142
0.0
143
0.0393701
144
1.0
145
0.0
146
0.71
147
1.5
 71
     0
 72
     0
 73
     0
 74
     0
 75
     0
 76
     0
 77
     3
 78
     8
170
     0
171
     2
172
     1
173
     0
174
     0
175
     0
176
   256
177
   256
178
     2
270
     2
271
     3
272
     3
273
     2
274
     2
340
6B
275
     0
280
     0
281
     0
282
     0
283
     0
284
     0
285
     0
286
     0
287
     3
288
     0
  0
DIMSTYLE
105
BA5
102
{ACAD_REACTORS
330
CC6
330
46D1
330
546F
330
5686
102
}
330
A
100
AcDbSymbolTableRecord
100
AcDbDimStyleTableRecord
  2
AM_JIS$0
 70
     0
  3

  4
"
  5
OPEN30
  6

  7

 40
1.0
 41
2.5
 42
0.0
 43
10.0
 44
1.0
 45
0.0
 46
0.0
 47
0.1
 48
0.1000000001
140
3.799999999999999
141
0.0
142
0.0
143
0.0393701
144
1.0
145
0.0
146
0.71
147
1.5
 71
     0
 72
     0
 73
     0
 74
     0
 75
     0
 76
     0
 77
     3
 78
     1
170
     0
171
     2
172
     1
173
     0
174
     0
175
     0
176
     3
177
     3
178
     2
270
     2
271
     2
272
     2
273
     2
274
     2
340
11
275
     1
280
     0
281
     0
282
     0
283
     0
284
     8
285
     0
286
     0
287
     0
288
     0
  0
ENDTAB
  0
TABLE
  2
BLOCK_RECORD
  5
1
330
0
100
AcDbSymbolTable
 70
    10
  0
BLOCK_RECORD
  5
1F
102
{ACAD_XDICTIONARY
360
74
102
}
330
1
100
AcDbSymbolTableRecord
100
AcDbBlockTableRecord
  2
*MODEL_SPACE
  0
BLOCK_RECORD
  5
101
102
{ACAD_XDICTIONARY
360
5ACF
102
}
330
1
100
AcDbSymbolTableRecord
100
AcDbBlockTableRecord
  2
*PAPER_SPACE
  0
BLOCK_RECORD
  5
59
330
1
100
AcDbSymbolTableRecord
100
AcDbBlockTableRecord
  2
_OPEN30
  0
BLOCK_RECORD
  5
64
330
1
100
AcDbSymbolTableRecord
100
AcDbBlockTableRecord
  2
GENAXEH
  0
BLOCK_RECORD
  5
CC8
330
1
100
AcDbSymbolTableRecord
100
AcDbBlockTableRecord
  2
*D5
  0
BLOCK_RECORD
  5
46D2
330
1
100
AcDbSymbolTableRecord
100
AcDbBlockTableRecord
  2
*D6
  0
BLOCK_RECORD
  5
5470
330
1
100
AcDbSymbolTableRecord
100
AcDbBlockTableRecord
  2
*D7
  0
BLOCK_RECORD
  5
5543
330
1
100
AcDbSymbolTableRecord
100
AcDbBlockTableRecord
  2
*D8
  0
BLOCK_RECORD
  5
5687
330
1
100
AcDbSymbolTableRecord
100
AcDbBlockTableRecord
  2
*D9
  0
ENDTAB
  0
ENDSEC
  0
SECTION
  2
BLOCKS
  0
BLOCK
  5
20
330
1F
100
AcDbEntity
  8
0
100
AcDbBlockBegin
  2
*MODEL_SPACE
 70
     0
 10
0.0
 20
0.0
 30
0.0
  3
*MODEL_SPACE
  1

  0
ENDBLK
  5
21
330
1F
100
AcDbEntity
  8
0
100
AcDbBlockEnd
  0
BLOCK
  5
103
330
101
100
AcDbEntity
 67
     1
  8
0
100
AcDbBlockBegin
  2
*PAPER_SPACE
 70
     0
 10
0.0
 20
0.0
 30
0.0
  3
*PAPER_SPACE
  1

  0
ENDBLK
  5
104
330
101
100
AcDbEntity
 67
     1
  8
0
100
AcDbBlockEnd
  0
BLOCK
  5
5D
330
59
100
AcDbEntity
  8
0
100
AcDbBlockBegin
  2
_OPEN30
 70
     0
 10
0.0
 20
0.0
 30
0.0
  3
_OPEN30
  1

  0
LINE
  5
5A
330
59
100
AcDbEntity
  8
0
 62
     0
100
AcDbLine
 10
-1.0
 20
0.26794919
 30
0.0
 11
0.0
 21
0.0
 31
0.0
  0
LINE
  5
5B
330
59
100
AcDbEntity
  8
0
 62
     0
100
AcDbLine
 10
0.0
 20
0.0
 30
0.0
 11
-1.0
 21
-0.26794919
 31
0.0
  0
LINE
  5
5C
330
59
100
AcDbEntity
  8
0
 62
     0
100
AcDbLine
 10
0.0
 20
0.0
 30
0.0
 11
-1.0
 21
0.0
 31
0.0
  0
ENDBLK
  5
5E
330
59
100
AcDbEntity
  8
0
100
AcDbBlockEnd
  0
BLOCK
  5
66
330
64
100
AcDbEntity
  8
0
100
AcDbBlockBegin
  2
GENAXEH
 70
     0
 10
0.0
 20
0.0
 30
0.0
  3
GENAXEH
  1

  0
LINE
  5
65
330
64
100
AcDbEntity
  8
0
100
AcDbLine
 10
-1.0
 20
0.0
 30
0.0
 11
1.0
 21
0.0
 31
0.0
  0
ENDBLK
  5
67
330
64
100
AcDbEntity
  8
0
100
AcDbBlockEnd
  0
BLOCK
  5
CD2
330
CC8
100
AcDbEntity
  8
0
100
AcDbBlockBegin
  2
*D5
 70
     1
 10
0.0
 20
0.0
 30
0.0
  3
*D5
  1

  0
LINE
  5
5A59
330
CC8
100
AcDbEntity
  8
AM_5
 62
     3
100
AcDbLine
 10
-155.9999999999951
 20
-3.750000532345409
 30
0.0
 11
-155.9999999999951
 21
-29.50726650289755
 31
0.0
  0
LINE
  5
5A5A
330
CC8
100
AcDbEntity
  8
AM_5
 62
     3
100
AcDbLine
 10
-1.999999999994997
 20
-4.499999999999547
 30
0.0
 11
-1.999999999994998
 21
-29.50726650289755
 31
0.0
  0
LINE
  5
5A5B
330
CC8
100
AcDbEntity
  8
AM_5
 62
     3
100
AcDbLine
 10
-153.4999999999951
 20
-28.50726650289756
 30
0.0
 11
-4.499999999994998
 21
-28.50726650289756
 31
0.0
  0
INSERT
  5
5A5C
330
CC8
100
AcDbEntity
  8
AM_5
 62
     3
100
AcDbBlockReference
  2
_OPEN30
 10
-155.9999999999951
 20
-28.50726650289756
 30
0.0
 41
2.5
 42
2.5
 43
2.5
 50
180.0
  0
INSERT
  5
5A5D
330
CC8
100
AcDbEntity
  8
AM_5
 62
     3
100
AcDbBlockReference
  2
_OPEN30
 10
-1.999999999994998
 20
-28.50726650289756
 30
0.0
 41
2.5
 42
2.5
 43
2.5
  0
MTEXT
  5
5A5E
330
CC8
100
AcDbEntity
  8
AM_5
 62
     2
100
AcDbMText
 10
-78.99999999999507
 20
-25.10726650289756
 30
0.0
 40
3.799999999999999
 41
0.0
 71
     5
 72
     1
  1
154
1001
ACAD
1000
MTEXTBEGIN
1070
    73
1070
     1
1070
    44
1040
1.0
1070
    74
1070
     0
1000
MTEXTEND
  0
POINT
  5
5A5F
330
CC8
100
AcDbEntity
  8
DEFPOINTS
 62
     0
100
AcDbPoint
 10
-155.9999999999951
 20
-3.750000532345409
 30
0.0
  0
POINT
  5
5A60
330
CC8
100
AcDbEntity
  8
DEFPOINTS
 62
     0
100
AcDbPoint
 10
-1.999999999994997
 20
-4.499999999999547
 30
0.0
  0
POINT
  5
5A61
330
CC8
100
AcDbEntity
  8
DEFPOINTS
 62
     0
100
AcDbPoint
 10
-1.999999999994998
 20
-28.50726650289756
 30
0.0
  0
ENDBLK
  5
CD3
330
CC8
100
AcDbEntity
  8
0
100
AcDbBlockEnd
  0
BLOCK
  5
46DE
330
46D2
100
AcDbEntity
  8
0
100
AcDbBlockBegin
  2
*D6
 70
     1
 10
0.0
 20
0.0
 30
0.0
  3
*D6
  1

  0
LINE
  5
5A78
330
46D2
100
AcDbEntity
  8
AM_5
 62
     3
100
AcDbLine
 10
-1.999999999995111
 20
-4.50000000000002
 30
0.0
 11
15.89166151051315
 21
-4.500000000000024
 31
0.0
  0
LINE
  5
5A79
330
46D2
100
AcDbEntity
  8
AM_5
 62
     3
100
AcDbLine
 10
-1.999999999995128
 20
4.499999999999979
 30
0.0
 11
15.89166151051315
 21
4.499999999999975
 31
0.0
  0
LINE
  5
5A7A
330
46D2
100
AcDbEntity
  8
AM_5
 62
     3
100
AcDbLine
 10
14.89166151051314
 20
-7.000000000000024
 30
0.0
 11
14.89166151051314
 21
-9.500000000000024
 31
0.0
  0
LINE
  5
5A7B
330
46D2
100
AcDbEntity
  8
AM_5
 62
     3
100
AcDbLine
 10
14.89166151051315
 20
6.999999999999975
 30
0.0
 11
14.89166151051315
 21
9.499999999999975
 31
0.0
  0
LINE
  5
5A7C
330
46D2
100
AcDbEntity
  8
AM_5
 62
     3
100
AcDbLine
 10
14.89166151051314
 20
-4.500000000000024
 30
0.0
 11
14.89166151051315
 21
4.499999999999975
 31
0.0
  0
INSERT
  5
5A7D
330
46D2
100
AcDbEntity
  8
AM_5
 62
     3
100
AcDbBlockReference
  2
_OPEN30
 10
14.89166151051314
 20
-4.500000000000024
 30
0.0
 41
2.5
 42
2.5
 43
2.5
 50
90.0
  0
INSERT
  5
5A7E
330
46D2
100
AcDbEntity
  8
AM_5
 62
     3
100
AcDbBlockReference
  2
_OPEN30
 10
14.89166151051315
 20
4.499999999999975
 30
0.0
 41
2.5
 42
2.5
 43
2.5
 50
270.0
  0
MTEXT
  5
5A7F
330
46D2
100
AcDbEntity
  8
AM_5
 62
     2
100
AcDbMText
 10
11.49166151051314
 20
-0.0000000000000227
 30
0.0
 40
3.799999999999999
 41
0.0
 71
     5
 72
     1
  1
%%c9
 11
0.0000000000000001
 21
1.0
 31
0.0
1001
ACAD
1000
MTEXTBEGIN
1070
    73
1070
     1
1070
    44
1040
1.0
1070
    74
1070
     0
1000
MTEXTEND
  0
POINT
  5
5A80
330
46D2
100
AcDbEntity
  8
DEFPOINTS
 62
     0
100
AcDbPoint
 10
-1.999999999995111
 20
-4.50000000000002
 30
0.0
  0
POINT
  5
5A81
330
46D2
100
AcDbEntity
  8
DEFPOINTS
 62
     0
100
AcDbPoint
 10
-1.999999999995128
 20
4.499999999999979
 30
0.0
  0
POINT
  5
5A82
330
46D2
100
AcDbEntity
  8
DEFPOINTS
 62
     0
100
AcDbPoint
 10
14.89166151051315
 20
4.499999999999975
 30
0.0
  0
ENDBLK
  5
46DF
330
46D2
100
AcDbEntity
  8
0
100
AcDbBlockEnd
  0
BLOCK
  5
547C
330
5470
100
AcDbEntity
  8
0
100
AcDbBlockBegin
  2
*D7
 70
     1
 10
0.0
 20
0.0
 30
0.0
  3
*D7
  1

  0
LINE
  5
5A62
330
5470
100
AcDbEntity
  8
AM_5
 62
     3
100
AcDbLine
 10
-155.2499999999948
 20
4.499999999999193
 30
0.0
 11
-171.7500009999948
 21
4.499999999999147
 31
0.0
  0
LINE
  5
5A63
330
5470
100
AcDbEntity
  8
AM_5
 62
     3
100
AcDbLine
 10
-155.2499999999966
 20
-4.500000000000033
 30
0.0
 11
-171.7500009999948
 21
-4.500000000000079
 31
0.0
  0
LINE
  5
5A64
330
5470
100
AcDbEntity
  8
AM_5
 62
     3
100
AcDbLine
 10
-170.7500009999948
 20
6.99999999999915
 30
0.0
 11
-170.7500009999948
 21
9.49999999999915
 31
0.0
  0
LINE
  5
5A65
330
5470
100
AcDbEntity
  8
AM_5
 62
     3
100
AcDbLine
 10
-170.7500009999948
 20
-7.000000000000077
 30
0.0
 11
-170.7500009999948
 21
-9.500000000000076
 31
0.0
  0
LINE
  5
5A66
330
5470
100
AcDbEntity
  8
AM_5
 62
     3
100
AcDbLine
 10
-170.7500009999948
 20
4.49999999999915
 30
0.0
 11
-170.7500009999948
 21
-4.500000000000077
 31
0.0
  0
INSERT
  5
5A67
330
5470
100
AcDbEntity
  8
AM_5
 62
     3
100
AcDbBlockReference
  2
_OPEN30
 10
-170.7500009999948
 20
4.49999999999915
 30
0.0
 41
2.5
 42
2.5
 43
2.5
 50
270.0000000000001
  0
INSERT
  5
5A68
330
5470
100
AcDbEntity
  8
AM_5
 62
     3
100
AcDbBlockReference
  2
_OPEN30
 10
-170.7500009999948
 20
-4.500000000000077
 30
0.0
 41
2.5
 42
2.5
 43
2.5
 50
90.00000000000015
  0
MTEXT
  5
5A69
330
5470
100
AcDbEntity
  8
AM_5
 62
     2
100
AcDbMText
 10
-174.1500009999948
 20
-0.0000005323455484
 30
0.0
 40
3.799999999999999
 41
0.0
 71
     5
 72
     1
  1
%%c9
 11
-0.0000000000000028
 21
1.0
 31
0.0
1001
ACAD
1000
MTEXTBEGIN
1070
    73
1070
     1
1070
    44
1040
1.0
1070
    74
1070
     0
1000
MTEXTEND
  0
POINT
  5
5A6A
330
5470
100
AcDbEntity
  8
DEFPOINTS
 62
     0
100
AcDbPoint
 10
-155.2499999999948
 20
4.499999999999676
 30
0.0
  0
POINT
  5
5A6B
330
5470
100
AcDbEntity
  8
DEFPOINTS
 62
     0
100
AcDbPoint
 10
-155.2499999999966
 20
-4.49999999999955
 30
0.0
  0
POINT
  5
5A6C
330
5470
100
AcDbEntity
  8
DEFPOINTS
 62
     0
100
AcDbPoint
 10
-170.7500009999948
 20
-4.499999999999546
 30
0.0
  0
ENDBLK
  5
547D
330
5470
100
AcDbEntity
  8
0
100
AcDbBlockEnd
  0
BLOCK
  5
5551
330
5543
100
AcDbEntity
  8
0
100
AcDbBlockBegin
  2
*D8
 70
     1
 10
0.0
 20
0.0
 30
0.0
  3
*D8
  1

  0
LINE
  5
5AD1
330
5543
100
AcDbEntity
  8
AM_5
100
AcDbLine
 10
0.3420201433320442
 20
-0.9396926207859101
 30
0.0
 11
8.619935848330467
 21
-23.68307910041757
 31
0.0
  0
LINE
  5
5AD2
330
5543
100
AcDbEntity
  8
AM_5
100
AcDbLine
 10
0.3420201433320366
 20
0.9396926207859108
 30
0.0
 11
8.619935848330275
 21
23.68307910041764
 31
0.0
  0
ARC
  5
5AD3
330
5543
100
AcDbEntity
  8
AM_5
100
AcDbCircle
 10
0.0000000000063708
 20
-0.0000000000000011
 30
0.0
 40
24.20300636245324
100
AcDbArc
 50
295.9208844424823
 51
64.07911555751823
  0
INSERT
  5
5AD4
330
5543
100
AcDbEntity
  8
AM_5
100
AcDbBlockReference
  2
_OPEN30
 10
8.277915705004794
 20
-22.74338647963166
 30
0.0
 41
2.5
 42
2.5
 43
2.5
 50
202.9604422212412
  0
INSERT
  5
5AD5
330
5543
100
AcDbEntity
  8
AM_5
100
AcDbBlockReference
  2
_OPEN30
 10
8.277915705004609
 20
22.74338647963173
 30
0.0
 41
2.5
 42
2.5
 43
2.5
 50
157.0395577787592
  0
MTEXT
  5
5AD6
330
5543
100
AcDbEntity
  8
AM_5
 62
     2
100
AcDbMText
 10
21.1030063624596
 20
0.000000000000079
 30
0.0
 40
3.2
 41
0.0
 71
     5
 72
     1
  1
140°
  7
ASAMI
 11
-0.000000000000002
 21
1.0
 31
0.0
  0
POINT
  5
5AD7
330
5543
100
AcDbEntity
  8
DEFPOINTS
 62
     0
100
AcDbPoint
 10
22.22359027693669
 20
-9.58632109748467
 30
0.0
  0
POINT
  5
5AD8
330
5543
100
AcDbEntity
  8
DEFPOINTS
 62
     0
100
AcDbPoint
 10
0.0000000000063716
 20
0.000000000000001
 30
0.0
  0
POINT
  5
5AD9
330
5543
100
AcDbEntity
  8
DEFPOINTS
 62
     0
100
AcDbPoint
 10
0.0000000000063716
 20
-0.0000000000000031
 30
0.0
  0
POINT
  5
5ADA
330
5543
100
AcDbEntity
  8
DEFPOINTS
 62
     0
100
AcDbPoint
 10
-0.317958392084049
 20
0.8735835025945208
 30
0.0
  0
POINT
  5
5ADB
330
5543
100
AcDbEntity
  8
DEFPOINTS
 62
     0
100
AcDbPoint
 10
-0.3179583920840454
 20
-0.8735835025945243
 30
0.0
  0
ENDBLK
  5
5552
330
5543
100
AcDbEntity
  8
0
100
AcDbBlockEnd
  0
BLOCK
  5
5691
330
5687
100
AcDbEntity
  8
0
100
AcDbBlockBegin
  2
*D9
 70
     1
 10
0.0
 20
0.0
 30
0.0
  3
*D9
  1

  0
LINE
  5
5A50
330
5687
100
AcDbEntity
  8
AM_5
 62
     3
100
AcDbLine
 10
-100.999999999995
 20
-4.500000532345419
 30
0.0
 11
-100.999999999995
 21
-19.50726650289775
 31
0.0
  0
LINE
  5
5A51
330
5687
100
AcDbEntity
  8
AM_5
 62
     3
100
AcDbLine
 10
-1.999999999994879
 20
-4.499999999999552
 30
0.0
 11
-1.99999999999488
 21
-19.50726650289775
 31
0.0
  0
LINE
  5
5A52
330
5687
100
AcDbEntity
  8
AM_5
 62
     3
100
AcDbLine
 10
-98.49999999999502
 20
-18.50726650289775
 30
0.0
 11
-4.49999999999488
 21
-18.50726650289775
 31
0.0
  0
INSERT
  5
5A53
330
5687
100
AcDbEntity
  8
AM_5
 62
     3
100
AcDbBlockReference
  2
_OPEN30
 10
-100.999999999995
 20
-18.50726650289775
 30
0.0
 41
2.5
 42
2.5
 43
2.5
 50
180.0
  0
INSERT
  5
5A54
330
5687
100
AcDbEntity
  8
AM_5
 62
     3
100
AcDbBlockReference
  2
_OPEN30
 10
-1.99999999999488
 20
-18.50726650289775
 30
0.0
 41
2.5
 42
2.5
 43
2.5
  0
MTEXT
  5
5A55
330
5687
100
AcDbEntity
  8
AM_5
 62
     2
100
AcDbMText
 10
-51.49999999999494
 20
-15.10726650289775
 30
0.0
 40
3.799999999999999
 41
0.0
 71
     5
 72
     1
  1
99
1001
ACAD
1000
MTEXTBEGIN
1070
    73
1070
     1
1070
    44
1040
1.0
1070
    74
1070
     0
1000
MTEXTEND
  0
POINT
  5
5A56
330
5687
100
AcDbEntity
  8
DEFPOINTS
 62
     0
100
AcDbPoint
 10
-100.999999999995
 20
-4.500000532345419
 30
0.0
  0
POINT
  5
5A57
330
5687
100
AcDbEntity
  8
DEFPOINTS
 62
     0
100
AcDbPoint
 10
-1.999999999994879
 20
-4.499999999999552
 30
0.0
  0
POINT
  5
5A58
330
5687
100
AcDbEntity
  8
DEFPOINTS
 62
     0
100
AcDbPoint
 10
-1.99999999999488
 20
-18.50726650289775
 30
0.0
  0
ENDBLK
  5
5692
330
5687
100
AcDbEntity
  8
0
100
AcDbBlockEnd
  0
ENDSEC
  0
SECTION
  2
ENTITIES
  0
LINE
  5
C1D
330
1F
100
AcDbEntity
  8
AM_0
 48
0.5
100
AcDbLine
 10
0.0000000000067477
 20
-0.0000000000000023
 30
0.0
 11
-0.336661826912521
 21
0.9249707674530231
 31
0.0
  0
LINE
  5
C9F
330
1F
100
AcDbEntity
  8
AM_7
100
AcDbLine
 10
-156.7499999999948
 20
-0.0000000000003263
 30
0.0
 11
0.8916604923160491
 21
0.0000000000000019
 31
0.0
1001
GENIUS_GENODEF_13
1002
{
1000
HIER
1070
     0
1002
}
1002
{
1000
MANEDIT
1070
     0
1002
}
1002
{
1000
NOSEL
1070
     0
1002
}
1002
{
1000
BEHIND
1070
     0
1002
}
1002
{
1000
REACTOR
1002
}
1001
GENIUS_GENOBJ-N-CEN_13
1002
{
1000
OWNER
1000
GEN
1002
}
  0
DIMENSION
  5
CC6
330
1F
100
AcDbEntity
  8
AM_5
100
AcDbDimension
  2
*D5
 10
-1.999999999994998
 20
-28.50726650289756
 30
0.0
 11
-78.99999999999507
 21
-25.10726650289756
 31
0.0
 70
    32
  1
<>
  3
AM_JIS$0
100
AcDbAlignedDimension
 13
-155.9999999999951
 23
-3.750000532345409
 33
0.0
 14
-1.999999999994997
 24
-4.499999999999547
 34
0.0
 50
0.0000000000001132
100
AcDbRotatedDimension
1001
GENIUS_GENDTOL_13
1000

1000
h7
1000

1040
0.0
1001
ACAD
1000
DSTYLE
1002
{
1070
   271
1070
     0
1002
}
  0
TEXT
  5
19BD
330
1F
100
AcDbEntity
  8
AM_6
100
AcDbText
 10
-101.1428571428521
 20
-51.00000153234521
 30
0.0
 40
5.0
  1
MDW090DHK
 50
0.0000000000001527
 72
     4
 11
-78.99999999999501
 21
-48.50000153234515
 31
0.0
100
AcDbText
  0
LINE
  5
4658
330
1F
100
AcDbEntity
  8
AM_0
 48
0.5
100
AcDbLine
 10
0.0000000000067477
 20
0.000000000000002
 30
0.0
 11
-0.3366618269125172
 21
-0.9249707674530247
 31
0.0
  0
DIMENSION
  5
46D1
330
1F
100
AcDbEntity
  8
AM_5
100
AcDbDimension
  2
*D6
 10
14.89166151051315
 20
4.499999999999975
 30
0.0
 11
14.89166151051315
 21
-0.0000000000000231
 31
0.0
 70
   160
  1
%%c<>
  3
AM_JIS$0
100
AcDbAlignedDimension
 13
-1.999999999995111
 23
-4.50000000000002
 33
0.0
 14
-1.999999999995128
 24
4.499999999999979
 34
0.0
 50
89.99999999999982
100
AcDbRotatedDimension
1001
GENIUS_GENDTOL_13
1000

1000
h7
1000

1040
0.0
1001
ACAD
1000
DSTYLE
1002
{
1070
   271
1070
     0
1002
}
  0
ELLIPSE
  5
4BB1
330
1F
100
AcDbEntity
  8
AM_0
 48
0.5
100
AcDbEllipse
 10
4.825320456401178
 20
-4.866721613518859
 30
0.0
 11
-4.592573397655459
 21
4.592573397655457
 31
0.0
210
0.0
220
0.0
230
-0.9999999999999998
 40
0.9999999999999987
 41
5.699111545081933
 42
6.149943071790046
  0
LINE
  5
4BB2
330
1F
100
AcDbEntity
  8
AM_0
 48
0.5
100
AcDbLine
 10
-1.53837945081759
 20
-3.567959003736362
 30
0.0
 11
-1.999999999995111
 21
-4.50000000000002
 31
0.0
  0
ELLIPSE
  5
51E5
330
1F
100
AcDbEntity
  8
AM_0
 48
0.5
100
AcDbEllipse
 10
4.825320456401159
 20
4.866721613518881
 30
0.0
 11
-4.592573397655439
 21
-4.592573397655475
 31
0.0
210
0.0
220
0.0
230
1.0
 40
0.9999999999999987
 41
5.699111545081933
 42
6.149943071790046
  0
LINE
  5
51E6
330
1F
100
AcDbEntity
  8
AM_0
 48
0.5
100
AcDbLine
 10
-1.538379450817604
 20
3.567959003736358
 30
0.0
 11
-1.999999999995128
 21
4.499999999999979
 31
0.0
  0
LINE
  5
546A
330
1F
100
AcDbEntity
  8
AM_0
 48
0.5
100
AcDbLine
 10
-100.9999999999949
 20
-4.500000532345405
 30
0.0
 11
-155.2499999999959
 21
-4.500000000000323
 31
0.0
  0
LINE
  5
546B
330
1F
100
AcDbEntity
  8
AM_0
 48
0.5
100
AcDbLine
 10
-155.9999999999951
 20
-3.750000532345437
 30
0.0
 11
-155.9999999999948
 21
3.749999467654561
 31
0.0
  0
LINE
  5
546D
330
1F
100
AcDbEntity
  8
AM_0
 48
0.5
100
AcDbLine
 10
-155.2499999999959
 20
-4.500000000000323
 30
0.0
 11
-155.2499999999948
 21
4.499999999999676
 31
0.0
  0
LINE
  5
546E
330
1F
100
AcDbEntity
  8
AM_0
 48
0.5
100
AcDbLine
 10
-100.999999999995
 20
4.499999467654594
 30
0.0
 11
-155.2499999999948
 21
4.499999999999676
 31
0.0
  0
DIMENSION
  5
546F
330
1F
100
AcDbEntity
  8
AM_5
100
AcDbDimension
  2
*D7
 10
-170.7500009999948
 20
-4.499999999999546
 30
0.0
 11
-170.7500009999948
 21
-0.0000005323450422
 31
0.0
 70
   160
  1
%%c<>
 51
359.9999999999998
  3
AM_JIS$0
100
AcDbAlignedDimension
 13
-155.2499999999948
 23
4.499999999999676
 33
0.0
 14
-155.2499999999966
 24
-4.49999999999955
 34
0.0
 50
270.0000037070897
100
AcDbRotatedDimension
1001
ACAD
1000
DSTYLE
1002
{
1070
   271
1070
     0
1002
}
1001
GENIUS_GENDTOL_13
1000

1000
h7
1000

1040
0.0
  0
LINE
  5
548B
330
1F
100
AcDbEntity
  8
AM_0
 48
0.5
100
AcDbLine
 10
-155.2499999999948
 20
4.499999999999676
 30
0.0
 11
-155.9999999999948
 21
3.749999467654561
 31
0.0
1001
GENIUS_GENFIL_13
1070
     0
1040
0.75
1040
0.75
1040
20.0
1040
0.0
1002
{
1002
}
1001
GENIUS_GENODEF_13
1002
{
1000
HIER
1070
     0
1002
}
1002
{
1000
MANEDIT
1070
     0
1002
}
1002
{
1000
NOSEL
1070
     0
1002
}
1002
{
1000
BEHIND
1070
     0
1002
}
1002
{
1000
REACTOR
1002
}
1001
GENIUS_GENOBJ-N-CHA_13
1002
{
1000
OWNER
1000
GEN
1002
}
  0
LINE
  5
548E
330
1F
100
AcDbEntity
  8
AM_0
 48
0.5
100
AcDbLine
 10
-155.9999999999951
 20
-3.750000532345437
 30
0.0
 11
-155.2499999999959
 21
-4.500000000000323
 31
0.0
1001
GENIUS_GENFIL_13
1070
     0
1040
0.75
1040
0.75
1040
20.0
1040
0.0
1002
{
1002
}
1001
GENIUS_GENODEF_13
1002
{
1000
HIER
1070
     0
1002
}
1002
{
1000
MANEDIT
1070
     0
1002
}
1002
{
1000
NOSEL
1070
     0
1002
}
1002
{
1000
BEHIND
1070
     0
1002
}
1002
{
1000
REACTOR
1002
}
1001
GENIUS_GENOBJ-N-CHA_13
1002
{
1000
OWNER
1000
GEN
1002
}
  0
DIMENSION
  5
5542
330
1F
100
AcDbEntity
  8
AM_5
100
AcDbDimension
  2
*D8
 10
-0.3179583920840454
 20
-0.8735835025945243
 30
0.0
 11
21.1030063624596
 21
0.000000000000033
 31
0.0
 70
    34
  1
<>
 51
359.9999999999998
  3
AM_JIS$2
100
AcDb2LineAngularDimension
 13
0.0000000000063716
 23
-0.0000000000000031
 33
0.0
 14
-0.317958392084049
 24
0.8735835025945208
 34
0.0
 15
0.0000000000063716
 25
0.000000000000001
 35
0.0
 16
22.22359027693669
 26
-9.58632109748467
 36
0.0
1001
GENIUS_GENDTOL_13
1000

1000
h7
1000

1040
0.0
1001
ACAD
1000
DSTYLE
1002
{
1070
   271
1070
     0
1002
}
  0
LINE
  5
5671
330
1F
100
AcDbEntity
  8
AM_0
100
AcDbLine
 10
-101.6470588235241
 20
-4.499936584799085
 30
0.0
 11
-106.4826910720176
 21
-4.499976949290501
 31
0.0
  0
DIMENSION
  5
5686
330
1F
100
AcDbEntity
  8
AM_5
100
AcDbDimension
  2
*D9
 10
-1.99999999999488
 20
-18.50726650289775
 30
0.0
 11
-51.49999999999494
 21
-15.10726650289775
 31
0.0
 70
    32
  1
<>
  3
AM_JIS$0
100
AcDbAlignedDimension
 13
-100.999999999995
 23
-4.500000532345419
 33
0.0
 14
-1.999999999994879
 24
-4.499999999999552
 34
0.0
 50
0.0000000000000396
100
AcDbRotatedDimension
1001
GENIUS_GENDTOL_13
1000

1000
h7
1000

1040
0.0
1001
ACAD
1000
DSTYLE
1002
{
1070
   271
1070
     0
1002
}
  0
LINE
  5
569F
330
1F
100
AcDbEntity
  8
AM_0
100
AcDbLine
 10
-101.6470588235241
 20
4.50000028176762
 30
0.0
 11
-106.4826938683079
 21
4.500000087838989
 31
0.0
  0
ELLIPSE
  5
57E0
330
1F
100
AcDbEntity
  8
AM_11
 48
0.5
100
AcDbEllipse
 10
-18.28935118435168
 20
-18.77209925173888
 30
0.0
 11
21.34844856262177
 21
0.0000000000000956
 31
0.0
210
0.0
220
0.0
230
1.0
 40
0.9722222222222226
 41
1.130071552591889
 42
2.011521013575197
  0
ELLIPSE
  5
57E1
330
1F
100
AcDbEntity
  8
AM_11
 48
0.5
100
AcDbEllipse
 10
-18.28935118435168
 20
18.77211277167811
 30
0.0
 11
-21.34844856262178
 21
0.0000000000000113
 31
0.0
210
0.0
220
0.0
230
1.0
 40
0.9722222222222219
 41
1.130070686340307
 42
2.011520147323599
  0
ELLIPSE
  5
57E2
330
1F
100
AcDbEntity
  8
AM_11
 48
0.5
100
AcDbEllipse
 10
-54.71792261291799
 20
-18.77209925173888
 30
0.0
 11
-21.34844856262177
 21
-0.0000000000000314
 31
0.0
210
0.0
220
0.0
230
1.0
 40
0.9722222222222226
 41
4.271664206181685
 42
5.153113667164992
  0
ELLIPSE
  5
57E3
330
1F
100
AcDbEntity
  8
AM_11
 48
0.5
100
AcDbEllipse
 10
-54.71792261291799
 20
18.77211277167811
 30
0.0
 11
-21.34844856262177
 21
-0.0000000000000409
 31
0.0
210
0.0
220
0.0
230
1.0
 40
0.9722222222222224
 41
1.130070686340304
 42
2.011520147323597
  0
ELLIPSE
  5
57E4
330
1F
100
AcDbEntity
  8
AM_11
 48
0.5
100
AcDbEllipse
 10
-36.50363689863738
 20
-18.77209925173888
 30
0.0
 11
-21.34844856262178
 21
-0.0000000000000077
 31
0.0
210
0.0
220
0.0
230
1.0
 40
0.9722222222222219
 41
4.271664206181687
 42
5.153113667164993
  0
ELLIPSE
  5
57E5
330
1F
100
AcDbEntity
  8
AM_11
 48
0.5
100
AcDbEllipse
 10
-36.50363689863738
 20
18.77211277167811
 30
0.0
 11
21.34844856262177
 21
0.0000000000002047
 31
0.0
210
0.0
220
0.0
230
1.0
 40
0.9722222222222224
 41
4.271663339930089
 42
5.153112800913382
  0
ELLIPSE
  5
57E6
330
1F
100
AcDbEntity
  8
AM_11
 48
0.5
100
AcDbEllipse
 10
-0.0750654700659368
 20
18.77211277167811
 30
0.0
 11
-21.34844856262239
 21
0.0000000000086339
 31
0.0
210
0.0
220
0.0
230
1.0
 40
0.9722222222221983
 41
1.130070686340713
 42
1.291800737381399
  0
ELLIPSE
  5
57E7
330
1F
100
AcDbEntity
  8
AM_11
 48
0.5
100
AcDbEllipse
 10
-72.93218643602435
 20
18.77211728767991
 30
0.0
 11
-21.34844856262178
 21
0.0000000000000113
 31
0.0
210
0.0
220
0.0
230
1.0
 40
0.9722222222222219
 41
1.130070686340307
 42
2.011520147323599
  0
ELLIPSE
  5
57E8
330
1F
100
AcDbEntity
  8
AM_11
 48
0.5
100
AcDbEllipse
 10
-72.93218643602435
 20
-18.77209473573708
 30
0.0
 11
21.34844856262177
 21
0.0000000000000956
 31
0.0
210
0.0
220
0.0
230
1.0
 40
0.9722222222222226
 41
1.130071552591889
 42
2.011521013575197
  0
ELLIPSE
  5
57E9
330
1F
100
AcDbEntity
  8
AM_11
 48
0.5
100
AcDbEllipse
 10
-91.14647215031004
 20
-18.77209473573708
 30
0.0
 11
-21.34844856262178
 21
-0.0000000000000077
 31
0.0
210
0.0
220
0.0
230
1.0
 40
0.9722222222222219
 41
4.271664206181687
 42
5.153113667164993
  0
ELLIPSE
  5
57EA
330
1F
100
AcDbEntity
  8
AM_11
 48
0.5
100
AcDbEllipse
 10
-91.14647215031004
 20
18.77211728767991
 30
0.0
 11
21.34844856262177
 21
0.0000000000002047
 31
0.0
210
0.0
220
0.0
230
1.0
 40
0.9722222222222224
 41
4.271663339930089
 42
5.153112800913382
  0
ELLIPSE
  5
57EB
330
1F
100
AcDbEntity
  8
AM_11
 48
0.5
100
AcDbEllipse
 10
-109.3607578645906
 20
18.77211728767991
 30
0.0
 11
-21.34844856262177
 21
-0.0000000000000409
 31
0.0
210
0.0
220
0.0
230
1.0
 40
0.9722222222222224
 41
1.130070686340304
 42
2.011520147323597
  0
ELLIPSE
  5
57EC
330
1F
100
AcDbEntity
  8
AM_11
 48
0.5
100
AcDbEllipse
 10
-109.3607578645906
 20
-18.77209473573708
 30
0.0
 11
-21.34844856262177
 21
-0.0000000000000314
 31
0.0
210
0.0
220
0.0
230
1.0
 40
0.9722222222222226
 41
4.271664206181685
 42
5.153113667164992
  0
ELLIPSE
  5
57ED
330
1F
100
AcDbEntity
  8
AM_11
 48
0.5
100
AcDbEllipse
 10
-127.5750401016647
 20
18.77213473561593
 30
0.0
 11
-21.34844856262178
 21
0.0000000000000113
 31
0.0
210
0.0
220
0.0
230
1.0
 40
0.9722222222222219
 41
1.130070686340307
 42
2.011520147323599
  0
ELLIPSE
  5
57EE
330
1F
100
AcDbEntity
  8
AM_11
 48
0.5
100
AcDbEllipse
 10
-127.5750401016647
 20
-18.77207728780106
 30
0.0
 11
21.34844856262177
 21
0.0000000000000956
 31
0.0
210
0.0
220
0.0
230
1.0
 40
0.9722222222222226
 41
1.130071552591889
 42
2.011521013575197
  0
ELLIPSE
  5
57EF
330
1F
100
AcDbEntity
  8
AM_11
 48
0.5
100
AcDbEllipse
 10
-145.7893258159504
 20
-18.77207728780106
 30
0.0
 11
-21.34844856262178
 21
-0.0000000000000077
 31
0.0
210
0.0
220
0.0
230
1.0
 40
0.9722222222222219
 41
4.271664206181687
 42
5.153113667164993
  0
ELLIPSE
  5
57F0
330
1F
100
AcDbEntity
  8
AM_11
 48
0.5
100
AcDbEllipse
 10
-145.7893258159504
 20
18.77213473561593
 30
0.0
 11
21.34844856262177
 21
0.0000000000002047
 31
0.0
210
0.0
220
0.0
230
1.0
 40
0.9722222222222224
 41
4.271663339930089
 42
5.153112800913382
  0
ELLIPSE
  5
57F1
330
1F
100
AcDbEntity
  8
AM_11
 48
0.5
100
AcDbEllipse
 10
-164.003611530231
 20
18.77213473561593
 30
0.0
 11
-21.34844856262177
 21
-0.0000000000000409
 31
0.0
210
0.0
220
0.0
230
1.0
 40
0.9722222222222224
 41
1.955089181065638
 42
2.011520147323597
  0
ELLIPSE
  5
57F2
330
1F
100
AcDbEntity
  8
AM_11
 48
0.5
100
AcDbEllipse
 10
-164.003611530231
 20
-18.77207728780106
 30
0.0
 11
-21.34844856262177
 21
-0.0000000000000314
 31
0.0
210
0.0
220
0.0
230
1.0
 40
0.9722222222222226
 41
4.271664206181685
 42
4.328096126113941
  0
ELLIPSE
  5
5967
330
1F
100
AcDbEntity
  8
AM_0
 48
0.5
100
AcDbEllipse
 10
-16.0938117774419
 20
65.78334628068486
 30
0.0
 11
-0.0000000001340265
 21
67.74820348994833
 31
0.0
210
0.0
220
0.0
230
1.0
 40
0.9935768767563114
 41
3.355641727266759
 42
3.383020221620997
  0
ELLIPSE
  5
5968
330
1F
100
AcDbEntity
  8
AM_0
 48
0.5
100
AcDbEllipse
 10
-2.315946838913503
 20
-0.649716455941631
 30
0.0
 11
-1.060118073448329
 21
0.3130174508627148
 31
0.0
210
0.0
220
0.0
230
1.0
 40
0.3630316140329191
 41
4.309585766783317
 42
7.453026108112828
  0
ELLIPSE
  5
5969
330
1F
100
AcDbEntity
  8
AM_0
 48
0.5
100
AcDbEllipse
 10
-2.315946838913503
 20
-0.649716455941631
 30
0.0
 11
-0.3507223602668069
 21
0.6957888951055386
 31
0.0
210
0.0
220
0.0
230
1.0
 40
0.7305827111350519
 41
1.540947489334194
 42
4.676289379046167
  0
ELLIPSE
  5
596A
330
1F
100
AcDbEntity
  8
AM_0
 48
0.5
100
AcDbEllipse
 10
0.8036036409489542
 20
5.402530398411084
 30
0.0
 11
10.579926929309
 21
3.606682133635349
 31
0.0
210
0.0
220
0.0
230
0.9999999999999998
 40
0.6166362446854344
 41
3.130188016200418
 42
3.878393730340614
  0
ELLIPSE
  5
596B
330
1F
100
AcDbEntity
  8
AM_0
 48
0.5
100
AcDbEllipse
 10
-18.14766150631051
 20
49.63937234188669
 30
0.0
 11
0.0000000002473166
 21
52.85931206326146
 31
0.0
210
0.0
220
0.0
230
1.0
 40
0.986849050430929
 41
3.385746125798141
 42
3.439922993933439
  0
ELLIPSE
  5
596C
330
1F
100
AcDbEntity
  8
AM_0
 48
0.5
100
AcDbEllipse
 10
-2.383748323392864
 20
-1.445198036666122
 30
0.0
 11
-4.535644876747659
 21
3.613472196492162
 31
0.0
210
0.0
220
0.0
230
1.0
 40
0.4008412638842234
 41
1.155851588922154
 42
1.960588472624504
  0
LINE
  5
596D
330
1F
100
AcDbEntity
  8
AM_0
 48
0.5
100
AcDbLine
 10
0.0000000000066811
 20
-0.0000000000000023
 30
0.0
 11
-4.784311266965785
 21
1.174347502960345
 31
0.0
  0
SPLINE
  5
596E
330
1F
100
AcDbEntity
  8
AM_0
 48
0.5
100
AcDbSpline
210
0.0
220
0.0
230
1.0
 70
     8
 71
     3
 72
    10
 73
     6
 74
     0
 42
0.0000000001
 43
0.0000000001
 40
0.0
 40
0.0
 40
0.0
 40
0.0
 40
2.69986029516136
 40
4.147722969032201
 40
6.201687855798567
 40
6.201687855798567
 40
6.201687855798567
 40
6.201687855798567
 10
-9.800998741071014
 20
1.870484673523794
 30
0.0
 10
-7.95287763551254
 20
-0.1047474704446459
 30
0.0
 10
-6.761579280288848
 20
-0.7470342471236508
 30
0.0
 10
-3.981995187321567
 20
-0.4402503369580068
 30
0.0
 10
-4.451189765958844
 20
0.5625784630721178
 30
0.0
 10
-4.784311266965783
 20
1.174347502960345
 30
0.0
  0
LINE
  5
596F
330
1F
100
AcDbEntity
  8
AM_0
100
AcDbLine
 10
-100.999999999995
 20
4.500000281767821
 30
0.0
 11
-100.7971366739141
 21
4.31593278764261
 31
0.0
  0
ELLIPSE
  5
5970
330
1F
100
AcDbEntity
  8
AM_0
100
AcDbEllipse
 10
-100.637437200522
 20
-2.92281719856637
 30
0.0
 11
-0.1562262449956714
 21
0.3682181751522293
 31
0.0
210
0.0
220
0.0
230
1.0
 40
0.8931348291507463
 41
1.218921267081726
 42
1.780872242807749
  0
ELLIPSE
  5
5971
330
1F
100
AcDbEntity
  8
AM_0
100
AcDbEllipse
 10
-100.6753170771343
 20
-2.946826930471294
 30
0.0
 11
0.1624577331666979
 21
0.3175159631642681
 31
0.0
210
0.0
220
0.0
230
1.0
 40
0.8977769646058245
 41
1.338957627541845
 42
1.94430688099702
  0
ELLIPSE
  5
5972
330
1F
100
AcDbEntity
  8
AM_0
100
AcDbEllipse
 10
-99.91687275157005
 20
-2.351032744548403
 30
0.0
 11
-0.0000000000177962
 21
1.29484646415709
 31
0.0
210
0.0
220
0.0
230
1.0
 40
0.9804724242409877
 41
2.222165445280169
 42
2.552396541801543
  0
ELLIPSE
  5
5973
330
1F
100
AcDbEntity
  8
AM_0
100
AcDbEllipse
 10
-100.2198019619417
 20
-3.376516560081638
 30
0.0
 11
-0.0000000000067602
 21
0.9585684318939129
 31
0.0
210
0.0
220
0.0
230
1.0
 40
0.9804724242409193
 41
0.4426332494725434
 42
0.8332770159536231
  0
ELLIPSE
  5
5974
330
1F
100
AcDbEntity
  8
AM_0
100
AcDbEllipse
 10
-99.49650225115767
 20
-1.747536230990574
 30
0.0
 11
0.0000000000108706
 21
2.034944656348553
 31
0.0
210
0.0
220
0.0
230
1.0
 40
0.9804724242408994
 41
2.542031073039776
 42
2.823851770174188
  0
ELLIPSE
  5
5975
330
1F
100
AcDbEntity
  8
AM_0
100
AcDbEllipse
 10
-100.0318706276863
 20
-3.706618581432061
 30
0.0
 11
-0.0000000000015672
 21
1.339333377634407
 31
0.0
210
0.0
220
0.0
230
1.0
 40
0.9804724242409374
 41
0.1000113452949418
 42
0.466388040069194
  0
ELLIPSE
  5
5976
330
1F
100
AcDbEntity
  8
AM_0
100
AcDbEllipse
 10
-98.6498720199399
 20
-1.451461391440985
 30
0.0
 11
0.0000000000020561
 21
2.541551354975434
 31
0.0
210
0.0
220
0.0
230
1.0
 40
0.9804724242408926
 41
2.945609816912491
 42
3.13789147566391
  0
ELLIPSE
  5
5977
330
1F
100
AcDbEntity
  8
AM_0
100
AcDbEllipse
 10
-97.98782310659966
 20
2.555776923065431
 30
0.0
 11
0.0000000000140281
 21
6.604621616972025
 31
0.0
210
0.0
220
0.0
230
1.0
 40
0.9804724242408463
 41
2.806097075230532
 42
2.96348063338436
  0
ELLIPSE
  5
5978
330
1F
100
AcDbEntity
  8
AM_0
100
AcDbEllipse
 10
-99.39758714111695
 20
-8.455726627066693
 30
0.0
 11
-0.0000000000007289
 21
6.131644958406633
 31
0.0
210
0.0
220
0.0
230
1.0
 40
0.9804724242410218
 41
-0.0436708493382976
 42
0.1276600234896894
  0
ELLIPSE
  5
5979
330
1F
100
AcDbEntity
  8
AM_0
100
AcDbEllipse
 10
-99.32688326585815
 20
-4.983031544973116
 30
0.0
 11
-0.0000000000007271
 21
2.660302682437623
 31
0.0
210
0.0
220
0.0
230
1.0
 40
0.9804724242410713
 41
-0.2681948460334289
 42
-0.0735832027612198
  0
ELLIPSE
  5
597A
330
1F
100
AcDbEntity
  8
AM_0
100
AcDbEllipse
 10
-99.08262205956894
 20
-4.817317754862179
 30
0.0
 11
0.0000000000148702
 21
2.442398666661463
 31
0.0
210
0.0
220
0.0
230
1.0
 40
0.9804724242405663
 41
-0.3424012338131634
 42
-0.1877332661650191
  0
SPLINE
  5
597B
330
1F
100
AcDbEntity
  8
AM_0
100
AcDbSpline
210
0.0
220
0.0
230
1.0
 70
     8
 71
     3
 72
    15
 73
    11
 74
     0
 42
0.0000000001
 43
0.0000000001
 40
10.33159096807071
 40
10.33159096807071
 40
10.33159096807071
 40
10.33159096807071
 40
10.37139106676736
 40
11.27458944007584
 40
12.18373345430765
 40
13.09824173870457
 40
14.01741343450111
 40
14.9404441545541
 40
15.86644439743314
 40
16.55140071192301
 40
16.55140071192301
 40
16.55140071192301
 40
16.55140071192301
 10
-95.25396166334042
 20
2.062235373923362
 30
0.0
 10
-95.48292314410304
 20
1.994574066401477
 30
0.0
 10
-95.7745712061255
 20
1.894828306111873
 30
0.0
 10
-96.34525936819285
 20
1.693786873594602
 30
0.0
 10
-97.17995335285198
 20
1.38524508125571
 30
0.0
 10
-98.01459816568716
 20
1.064130722334646
 30
0.0
 10
-98.84920112156782
 20
0.7324184742207745
 30
0.0
 10
-99.68377034328652
 20
0.392148541853455
 30
0.0
 10
-100.4452716213881
 20
0.0757627522554895
 30
0.0
 10
-100.7343835416079
 20
-0.0665609049909297
 30
0.0
 10
-100.9999999999945
 20
-0.2121263971370565
 30
0.0
  0
LINE
  5
597C
330
1F
100
AcDbEntity
  8
AM_11
 48
0.5
100
AcDbLine
 10
-22.12627726980731
 20
-4.49999645705641
 30
0.0
 11
-9.169811154682813
 21
-4.499999999999982
 31
0.0
  0
LINE
  5
597D
330
1F
100
AcDbEntity
  8
AM_0
 48
0.5
100
AcDbLine
 10
-35.51285857704135
 20
-4.499996457055781
 30
0.0
 11
-22.12627948624418
 21
-4.499996457056424
 31
0.0
  0
LINE
  5
597E
330
1F
100
AcDbEntity
  8
AM_0
 48
0.5
100
AcDbLine
 10
-63.96636216604312
 20
-4.499764032274579
 30
0.0
 11
-50.55658812503189
 21
-4.499996457054861
 31
0.0
  0
LINE
  5
597F
330
1F
100
AcDbEntity
  8
AM_11
 48
0.5
100
AcDbLine
 10
-50.55658812502888
 20
-4.49999645705495
 30
0.0
 11
-35.51285857704135
 21
-4.5006357637223
 31
0.0
  0
LINE
  5
5980
330
1F
100
AcDbEntity
  8
AM_0
 48
0.5
100
AcDbLine
 10
-9.169811154682813
 20
-4.499999999999982
 30
0.0
 11
-1.999999999994879
 21
-4.50000000000002
 31
0.0
  0
SPLINE
  5
5981
330
1F
100
AcDbEntity
  8
AM_0
100
AcDbSpline
210
0.0
220
0.0
230
1.0
 70
     8
 71
     3
 72
    22
 73
    18
 74
     0
 42
0.0000000001
 43
0.0000000001
 40
17.17441611292
 40
17.17441611292
 40
17.17441611292
 40
17.17441611292
 40
17.38177636558528
 40
18.41823744757437
 40
19.46215659509824
 40
20.51397914882054
 40
21.57394542641293
 40
22.64209583141747
 40
23.71826625065247
 40
24.80210429862395
 40
25.8930771157021
 40
26.99048705697709
 40
28.09349309193389
 40
29.20112995599786
 40
30.31233024745139
 40
31.42594771747373
 40
32.5407895042663
 40
32.54078950426994
 40
32.54078950426994
 40
32.54078950426994
 10
-53.60470023306872
 20
-4.041029026475549
 30
0.0
 10
-53.65817620222007
 20
-4.03061196784351
 30
0.0
 10
-53.97873543235474
 20
-3.96716052510319
 30
0.0
 10
-54.56598187852081
 20
-3.839932124019707
 30
0.0
 10
-55.36422335164154
 20
-3.643305453979937
 30
0.0
 10
-56.16238348563169
 20
-3.424225267448022
 30
0.0
 10
-56.96046791545715
 20
-3.184059117269911
 30
0.0
 10
-57.7584755869039
 20
-2.924279577036299
 30
0.0
 10
-58.55641632252094
 20
-2.646503374868788
 30
0.0
 10
-59.35429381699829
 20
-2.352437633931212
 30
0.0
 10
-60.15211545259997
 20
-2.043895841534994
 30
0.0
 10
-60.94989010059684
 20
-1.722781505105581
 30
0.0
 10
-61.74762468519148
 20
-1.39106916640842
 30
0.0
 10
-62.54532723687216
 20
-1.050799575803828
 30
0.0
 10
-63.34300482657777
 20
-0.7040650061109934
 30
0.0
 10
-64.14066927120806
 20
-0.3530049970377274
 30
0.0
 10
-64.67234118630956
 20
-0.1175564956816869
 30
0.0
 10
-64.93832319796317
 20
0.0002324247823499
 30
0.0
  0
SPLINE
  5
5982
330
1F
100
AcDbEntity
  8
AM_0
100
AcDbSpline
210
0.0
220
0.0
230
1.0
 70
     8
 71
     3
 72
    22
 73
    18
 74
     0
 42
0.0000000001
 43
0.0000000001
 40
17.17441611292
 40
17.17441611292
 40
17.17441611292
 40
17.17441611292
 40
17.38177636558528
 40
18.41823744757437
 40
19.46215659509824
 40
20.51397914882054
 40
21.57394542641293
 40
22.64209583141747
 40
23.71826625065247
 40
24.80210429862395
 40
25.8930771157021
 40
26.99048705697709
 40
28.09349309193389
 40
29.20112995599786
 40
30.31233024745139
 40
31.42594771747373
 40
32.5407895042663
 40
32.54078950426994
 40
32.54078950426994
 40
32.54078950426994
 10
-25.17439159428207
 20
-4.041029026477019
 30
0.0
 10
-25.22786756343342
 20
-4.030611967844978
 30
0.0
 10
-25.54842679356811
 20
-3.967160525104662
 30
0.0
 10
-26.13567323973415
 20
-3.839932124021177
 30
0.0
 10
-26.93391471285485
 20
-3.643305453981406
 30
0.0
 10
-27.73207484684506
 20
-3.424225267449495
 30
0.0
 10
-28.53015927667057
 20
-3.184059117271382
 30
0.0
 10
-29.3281669481173
 20
-2.924279577037771
 30
0.0
 10
-30.12610768373441
 20
-2.64650337487026
 30
0.0
 10
-30.92398517821176
 20
-2.352437633932684
 30
0.0
 10
-31.72180681381348
 20
-2.043895841536463
 30
0.0
 10
-32.51958146181034
 20
-1.722781505107052
 30
0.0
 10
-33.3173160464049
 20
-1.391069166409892
 30
0.0
 10
-34.11501859808556
 20
-1.050799575805298
 30
0.0
 10
-34.91269618779117
 20
-0.7040650061124632
 30
0.0
 10
-35.71036063242146
 20
-0.3530049970391976
 30
0.0
 10
-36.24203254752296
 20
-0.1175564956831573
 30
0.0
 10
-36.5080145591766
 20
0.0002324247808795
 30
0.0
  0
SPLINE
  5
5983
330
1F
100
AcDbEntity
  8
AM_0
100
AcDbSpline
210
0.0
220
0.0
230
1.0
 70
     8
 71
     3
 72
    17
 73
    13
 74
     0
 42
0.0000000001
 43
0.0000000001
 40
1.580019955310467
 40
1.580019955310467
 40
1.580019955310467
 40
1.580019955310467
 40
2.030549285115227
 40
3.082371838836284
 40
4.126290986361125
 40
5.162752068350215
 40
6.192395305374981
 40
7.216039564037012
 40
8.234688489606833
 40
9.249433870634691
 40
10.26152376260694
 40
11.27226744710342
 40
11.27226744710342
 40
11.27226744710342
 40
11.27226744710352
 10
-14.60382786086703
 20
-3.321128966713459
 30
0.0
 10
-14.71681764764619
 20
-3.355333872572279
 30
0.0
 10
-15.09424149578546
 20
-3.467445020242815
 30
0.0
 10
-15.73859760175662
 20
-3.64329536677051
 30
0.0
 10
-16.53672796149065
 20
-3.840224426737325
 30
0.0
 10
-17.33507804576545
 20
-4.013101994792902
 30
0.0
 10
-18.13346471016243
 20
-4.161347509208922
 30
0.0
 10
-18.9319383573556
 20
-4.28388262495432
 30
0.0
 10
-19.73046716880183
 20
-4.380008088154052
 30
0.0
 10
-20.52904570304401
 20
-4.449100973642605
 30
0.0
 10
-21.32765428517511
 20
-4.490716522492212
 30
0.0
 10
-21.86018922606988
 20
-4.499996482805673
 30
0.0
 10
-22.12627948624411
 20
-4.499996457056425
 30
0.0
  0
SPLINE
  5
5984
330
1F
100
AcDbEntity
  8
AM_0
100
AcDbSpline
210
0.0
220
0.0
230
1.0
 70
     8
 71
     3
 72
    11
 73
     7
 74
     0
 42
0.0000000001
 43
0.0000000001
 40
11.27226913003534
 40
11.27226913003534
 40
11.27226913003534
 40
11.2722691300354
 40
12.28301561507924
 40
13.29510212255852
 40
14.30984805882082
 40
15.18258238371378
 40
15.18258238371378
 40
15.18258238371378
 40
15.18258238371378
 10
-22.12627948624416
 20
-4.499996457056425
 30
0.0
 10
-22.39135794025008
 20
-4.477972149364947
 30
0.0
 10
-22.9210148598912
 20
-4.424652258980904
 30
0.0
 10
-23.71276518976215
 20
-4.317092851432678
 30
0.0
 10
-24.46415021354194
 20
-4.18862493254542
 30
0.0
 10
-24.95010194150665
 20
-4.089867819846256
 30
0.0
 10
-25.17404233521558
 20
-4.04108453394261
 30
0.0
  0
SPLINE
  5
5985
330
1F
100
AcDbEntity
  8
AM_0
100
AcDbSpline
210
0.0
220
0.0
230
1.0
 70
     8
 71
     3
 72
    17
 73
    13
 74
     0
 42
0.0000000001
 43
0.0000000001
 40
1.580019955310467
 40
1.580019955310467
 40
1.580019955310467
 40
1.580019955310467
 40
2.030549285115227
 40
3.082371838836284
 40
4.126290986361125
 40
5.162752068350215
 40
6.192395305374981
 40
7.216039564037012
 40
8.234688489606833
 40
9.249433870634691
 40
10.26152376260694
 40
11.27226744710342
 40
11.27226744710342
 40
11.27226744710342
 40
11.27226744710352
 10
-43.03413649965368
 20
-3.321128966711986
 30
0.0
 10
-43.14712628643281
 20
-3.355333872570807
 30
0.0
 10
-43.52455013457209
 20
-3.467445020241343
 30
0.0
 10
-44.16890624054324
 20
-3.643295366769038
 30
0.0
 10
-44.96703660027727
 20
-3.840224426735855
 30
0.0
 10
-45.76538668455206
 20
-4.013101994791434
 30
0.0
 10
-46.56377334894905
 20
-4.161347509207451
 30
0.0
 10
-47.36224699614223
 20
-4.283882624952846
 30
0.0
 10
-48.16077580758843
 20
-4.38000808815258
 30
0.0
 10
-48.9593543418306
 20
-4.449100973641136
 30
0.0
 10
-49.75796292396171
 20
-4.490716522490742
 30
0.0
 10
-50.29049786485647
 20
-4.499996482804204
 30
0.0
 10
-50.5565881250307
 20
-4.499996457054951
 30
0.0
  0
SPLINE
  5
5986
330
1F
100
AcDbEntity
  8
AM_0
100
AcDbSpline
210
0.0
220
0.0
230
1.0
 70
     8
 71
     3
 72
    11
 73
     7
 74
     0
 42
0.0000000001
 43
0.0000000001
 40
11.27226913003534
 40
11.27226913003534
 40
11.27226913003534
 40
11.2722691300354
 40
12.28301561507924
 40
13.29510212255852
 40
14.30984805882082
 40
15.18258238371378
 40
15.18258238371378
 40
15.18258238371378
 40
15.18258238371378
 10
-50.55658812503073
 20
-4.499996457054951
 30
0.0
 10
-50.82166657903669
 20
-4.477972149363478
 30
0.0
 10
-51.35132349867781
 20
-4.424652258979431
 30
0.0
 10
-52.14307382854877
 20
-4.317092851431208
 30
0.0
 10
-52.89445885232856
 20
-4.188624932543951
 30
0.0
 10
-53.38041058029332
 20
-4.089867819844783
 30
0.0
 10
-53.60435097400223
 20
-4.041084533941141
 30
0.0
  0
LINE
  5
5987
330
1F
100
AcDbEntity
  8
AM_0
100
AcDbLine
 10
-75.43627391386654
 20
-4.500410329560128
 30
0.0
 11
-89.16594038997329
 21
-4.499999999999304
 31
0.0
  0
LINE
  5
5988
330
1F
100
AcDbEntity
  8
AM_11
100
AcDbLine
 10
-89.16594038997329
 20
-4.499999999999304
 30
0.0
 11
-100.999999999995
 21
-4.500000532345419
 31
0.0
  0
SPLINE
  5
5989
330
1F
100
AcDbEntity
  8
AM_0
100
AcDbSpline
210
0.0
220
0.0
230
1.0
 70
     8
 71
     3
 72
    11
 73
     7
 74
     0
 42
0.0000000001
 43
0.0000000001
 40
11.27226913003534
 40
11.27226913003534
 40
11.27226913003534
 40
11.2722691300354
 40
12.28301561507924
 40
13.29510212255852
 40
14.30984805882082
 40
15.18258238371378
 40
15.18258238371378
 40
15.18258238371378
 40
15.18258238371378
 10
-75.24634002213774
 20
-4.500399627319224
 30
0.0
 10
-75.54002345611919
 20
-4.507265502897809
 30
0.0
 10
-76.0941591482952
 20
-4.453945612513788
 30
0.0
 10
-76.92250123315057
 20
-4.346386204965594
 30
0.0
 10
-77.7086124776237
 20
-4.217918286078369
 30
0.0
 10
-78.21702308674462
 20
-4.119161173379223
 30
0.0
 10
-78.45131317240635
 20
-4.070377887475587
 30
0.0
  0
SPLINE
  5
598A
330
1F
100
AcDbEntity
  8
AM_0
100
AcDbSpline
210
0.0
220
0.0
230
1.0
 70
     8
 71
     3
 72
    22
 73
    18
 74
     0
 42
0.0000000001
 43
0.0000000001
 40
17.17441611292
 40
17.17441611292
 40
17.17441611292
 40
17.17441611292
 40
17.38177636558528
 40
18.41823744757437
 40
19.46215659509824
 40
20.51397914882054
 40
21.57394542641293
 40
22.64209583141747
 40
23.71826625065247
 40
24.80210429862395
 40
25.8930771157021
 40
26.99048705697709
 40
28.09349309193389
 40
29.20112995599786
 40
30.31233024745139
 40
31.42594771747373
 40
32.5407895042663
 40
32.54078950426994
 40
32.54078950426994
 40
32.54078950426994
 10
-78.45131317240635
 20
-4.070377887475587
 30
0.0
 10
-78.50726060192463
 20
-4.05996082884355
 30
0.0
 10
-78.84263488721565
 20
-3.996509386103237
 30
0.0
 10
-79.4570216796031
 20
-3.869280985019788
 30
0.0
 10
-80.29215490420257
 20
-3.672654314980046
 30
0.0
 10
-81.12720303047952
 20
-3.453574128448168
 30
0.0
 10
-81.96217195382692
 20
-3.213407978270092
 30
0.0
 10
-82.79706057130882
 20
-2.953628438036517
 30
0.0
 10
-83.63187915943603
 20
-2.675852235869034
 30
0.0
 10
-84.46663158365325
 20
-2.381786494931493
 30
0.0
 10
-85.30132556740539
 20
-2.073244702535308
 30
0.0
 10
-86.1359703919604
 20
-1.752130366105925
 30
0.0
 10
-86.97057330153171
 20
-1.4204180274088
 30
0.0
 10
-87.80514269774702
 20
-1.080148436804243
 30
0.0
 10
-88.63968597833757
 20
-0.7334138671114495
 30
0.0
 10
-89.47421550633636
 20
-0.3823538580382186
 30
0.0
 10
-90.03045931956727
 20
-0.1469053566821952
 30
0.0
 10
-90.30873403036292
 20
-0.0291164362181701
 30
0.0
  0
SPLINE
  5
598B
330
1F
100
AcDbEntity
  8
AM_0
100
AcDbSpline
210
0.0
220
0.0
230
1.0
 70
     8
 71
     3
 72
    19
 73
    15
 74
     0
 42
0.0000000001
 43
0.0000000001
 40
1.479671614733745
 40
1.479671614733745
 40
1.479671614733745
 40
1.479671614733745
 40
2.022833576467832
 40
3.037578957496688
 40
4.056212745003489
 40
5.079857003664532
 40
6.109500240690281
 40
7.145961322679372
 40
8.189895241603872
 40
9.241717795325891
 40
10.30168407291828
 40
11.36983447792315
 40
12.44600489715814
 40
13.01371853178965
 40
13.01371853178965
 40
13.01371853178965
 40
13.01371853178965
 10
-89.04596861738555
 20
-4.499999999999304
 30
0.0
 10
-89.19535757355879
 20
-4.49269708081693
 30
0.0
 10
-89.62361492843436
 20
-4.4675421356649
 30
0.0
 10
-90.33045279114022
 20
-4.409447625282035
 30
0.0
 10
-91.16588273568893
 20
-4.313207297059705
 30
0.0
 10
-92.0012526358502
 20
-4.1906985352332
 30
0.0
 10
-92.8365460116435
 20
-4.042466116743238
 30
0.0
 10
-93.67176565708822
 20
-3.869508587995301
 30
0.0
 10
-94.50690416547406
 20
-3.672885058141589
 30
0.0
 10
-95.34195584798565
 20
-3.453802783727461
 30
0.0
 10
-96.17692486689408
 20
-3.213636921542579
 30
0.0
 10
-97.01181345841291
 20
-2.953857303128214
 30
0.0
 10
-97.71315960872264
 20
-2.720492526710945
 30
0.0
 10
-98.11446589650469
 20
-2.560858356554085
 30
0.0
 10
-98.27860024217983
 20
-2.516697478348675
 30
0.0
  0
SPLINE
  5
598C
330
1F
100
AcDbEntity
  8
AM_0
100
AcDbSpline
210
0.0
220
0.0
230
1.0
 70
     8
 71
     3
 72
    14
 73
    10
 74
     0
 42
0.0000000001
 43
0.0000000001
 40
1.580019955310467
 40
1.580019955310467
 40
1.580019955310467
 40
1.580019955310467
 40
2.030549285115227
 40
3.082371838836284
 40
4.126290986361125
 40
5.162752068350215
 40
6.192395305374981
 40
7.216039564037012
 40
8.092146932806128
 40
8.092146932806128
 40
8.092146932806128
 40
8.092146932806128
 10
-95.69317026776623
 20
-3.351117134377939
 30
0.0
 10
-95.81138202217536
 20
-3.385322040236767
 30
0.0
 10
-96.20624899658224
 20
-3.497433187907324
 30
0.0
 10
-96.8803848448066
 20
-3.673283534435042
 30
0.0
 10
-97.71540182077202
 20
-3.870212594401896
 30
0.0
 10
-98.55064867612911
 20
-4.043090162457506
 30
0.0
 10
-99.38593380220559
 20
-4.191335676873552
 30
0.0
 10
-100.1825474706844
 20
-4.308185015387318
 30
0.0
 10
-100.7444979690816
 20
-4.444089234274545
 30
0.0
 10
-100.999999999995
 20
-4.500000532345419
 30
0.0
  0
SPLINE
  5
598D
330
1F
100
AcDbEntity
  8
AM_0
100
AcDbSpline
210
0.0
220
0.0
230
1.0
 70
     8
 71
     3
 72
    25
 73
    21
 74
     0
 42
0.0000000001
 43
0.0000000001
 40
1.163660092745933
 40
1.163660092745933
 40
1.163660092745933
 40
1.163660092745933
 40
1.685415058684573
 40
2.531036209541122
 40
3.379897699130124
 40
4.232934581347659
 40
5.09097061220244
 40
5.954688180526682
 40
6.824620803463244
 40
7.701151815239697
 40
8.58445704656667
 40
9.47458238407075
 40
10.37139106676736
 40
11.27458944007584
 40
12.18373345430765
 40
13.09824173870457
 40
14.01741343450111
 40
14.9404441545541
 40
15.86644439743314
 40
16.55140071192301
 40
16.55140071192301
 40
16.55140071192301
 40
16.55140071192301
 10
-86.19292137821163
 20
-4.499999999999332
 30
0.0
 10
-86.36517491509311
 20
-4.493189353460085
 30
0.0
 10
-86.81633240830048
 20
-4.471066659585535
 30
0.0
 10
-87.5458956724813
 20
-4.408916618728887
 30
0.0
 10
-88.38133459285796
 20
-4.313350536659262
 30
0.0
 10
-89.21670210309487
 20
-4.190659920698811
 30
0.0
 10
-90.05199600254817
 20
-4.042476232407612
 30
0.0
 10
-90.88721200014903
 20
-3.869507916056422
 30
0.0
 10
-91.72234869703627
 20
-3.672881750426647
 30
0.0
 10
-92.55740237655654
 20
-3.453805049282165
 30
0.0
 10
-93.39237470778199
 20
-3.213636607566631
 30
0.0
 10
-94.22726344489081
 20
-2.953857388221859
 30
0.0
 10
-95.06208200081733
 20
-2.676081099523389
 30
0.0
 10
-95.89683443294656
 20
-2.382015380436777
 30
0.0
 10
-96.73152841760572
 20
-2.073473588097876
 30
0.0
 10
-97.56617323044087
 20
-1.752359229176795
 30
0.0
 10
-98.40077618632154
 20
-1.420646981062899
 30
0.0
 10
-99.23534540804016
 20
-1.080377048695569
 30
0.0
 10
-99.99684668614198
 20
-0.7639912590975895
 30
0.0
 10
-100.4050761282654
 20
-0.5610506855351344
 30
0.0
 10
-100.999999999995
 20
-0.2121263971367994
 30
0.0
  0
ELLIPSE
  5
598E
330
1F
100
AcDbEntity
  8
AM_0
100
AcDbEllipse
 10
-98.56065495207994
 20
0.5524622565192327
 30
0.0
 11
-0.0000000000005811
 21
4.546566291435305
 31
0.0
210
0.0
220
0.0
230
1.0
 40
0.9804724242409285
 41
3.11950811176781
 42
3.205549794956064
  0
SPLINE
  5
598F
330
1F
100
AcDbEntity
  8
AM_0
100
AcDbSpline
210
0.0
220
0.0
230
1.0
 70
     8
 71
     3
 72
    15
 73
    11
 74
     0
 42
0.0000000001
 43
0.0000000001
 40
4.116313036328508
 40
4.116313036328508
 40
4.116313036328508
 40
4.116313036328508
 40
4.126290986361125
 40
5.162752068350215
 40
6.192395305374981
 40
7.216039564037012
 40
8.234688489606833
 40
9.249433870634691
 40
10.26152376260694
 40
11.27226744710342
 40
11.27226744710342
 40
11.27226744710342
 40
11.27226744710352
 10
-69.40982766461387
 20
-3.864396863898051
 30
0.0
 10
-69.41249739618381
 20
-3.864988422388347
 30
0.0
 10
-69.69249580767152
 20
-3.926991700212381
 30
0.0
 10
-70.25006111395959
 20
-4.042395348325548
 30
0.0
 10
-71.08534624003603
 20
-4.190640862741599
 30
0.0
 10
-71.92072236892996
 20
-4.313175978487033
 30
0.0
 10
-72.75615621156349
 20
-4.409301441686796
 30
0.0
 10
-73.59164207499562
 20
-4.478394327175388
 30
0.0
 10
-74.38910743392693
 20
-4.481200073576026
 30
0.0
 10
-74.87104733307326
 20
-4.485544758024386
 30
0.0
 10
-75.24634002213772
 20
-4.500399627319224
 30
0.0
  0
LINE
  5
5990
330
1F
100
AcDbEntity
  8
AM_11
 48
0.5
100
AcDbLine
 10
-75.43627391386654
 20
-4.500410329560128
 30
0.0
 11
-63.96636216604312
 21
-4.499764032274579
 31
0.0
  0
LINE
  5
5991
330
1F
100
AcDbEntity
  8
AM_11
 48
0.5
100
AcDbLine
 10
-22.12627948622626
 20
4.500003542943427
 30
0.0
 11
-7.082549938258369
 21
4.500003542942709
 31
0.0
  0
LINE
  5
5992
330
1F
100
AcDbEntity
  8
AM_0
 48
0.5
100
AcDbLine
 10
-39.00628903966579
 20
4.500003542944505
 30
0.0
 11
-22.12627948624379
 21
4.500003542943574
 31
0.0
  0
LINE
  5
5993
330
1F
100
AcDbEntity
  8
AM_0
100
AcDbLine
 10
-67.43670733694888
 20
4.500003542945974
 30
0.0
 11
-48.60660752702901
 21
4.500642849611564
 31
0.0
  0
LINE
  5
5994
330
1F
100
AcDbEntity
  8
AM_11
 48
0.5
100
AcDbLine
 10
-48.60660752702901
 20
4.500642849611564
 30
0.0
 11
-39.00627608259001
 21
4.500003542944505
 31
0.0
  0
LINE
  5
5995
330
1F
100
AcDbEntity
  8
AM_0
100
AcDbLine
 10
-1.999999999995128
 20
4.499999999999979
 30
0.0
 11
-7.082902304601518
 21
4.500000000000016
 31
0.0
  0
SPLINE
  5
5996
330
1F
100
AcDbEntity
  8
AM_0
100
AcDbSpline
210
0.0
220
0.0
230
1.0
 70
     8
 71
     3
 72
    52
 73
    48
 74
     0
 42
0.0000000001
 43
0.0000000001
 40
3.537595802313026
 40
3.537595802313026
 40
3.537595802313026
 40
3.537595802313026
 40
4.056212745003489
 40
5.079857003664532
 40
6.109500240690281
 40
7.145961322679372
 40
8.189895241603872
 40
9.241717795325891
 40
10.30168407291828
 40
11.36983447792315
 40
12.44600489715814
 40
13.52984294512926
 40
14.62081576220742
 40
15.7182257034828
 40
16.82123173843959
 40
17.92886860250316
 40
19.0400688939571
 40
20.15368796660465
 40
21.26852814259644
 40
22.38336992938901
 40
23.49698739941135
 40
24.6081876908653
 40
25.71582455492886
 40
26.81883757994213
 40
27.91624752121713
 40
29.00722033829659
 40
30.09105838626677
 40
31.16722880550176
 40
32.23537921050758
 40
33.29534548809967
 40
34.347168041821
 40
35.39108718934584
 40
36.42754827133493
 40
37.45720575381954
 40
38.48085062012849
 40
39.49948440763516
 40
40.51422944315121
 40
41.52631975251916
 40
42.53706336719636
 40
43.54780698187354
 40
44.55989729124051
 40
45.57464232675757
 40
46.59327611426424
 40
47.6169209805722
 40
48.64656348684535
 40
49.68302456883444
 40
50.58557219878025
 40
50.58557219878025
 40
50.58557219878025
 40
50.58557219878025
 10
-9.169811154682813
 20
-4.499999999999982
 30
0.0
 10
-10.0044813135466
 20
-4.381458041124334
 30
0.0
 10
-10.40684997153892
 20
-4.263917676223551
 30
0.0
 10
-11.07535102211554
 20
-4.161349674235482
 30
0.0
 10
-11.87374557180068
 20
-4.013117255745491
 30
0.0
 10
-12.67206964815254
 20
-3.840159726997512
 30
0.0
 10
-13.47031617164994
 20
-3.643536197143772
 30
0.0
 10
-14.26847970477925
 20
-3.424453922729606
 30
0.0
 10
-15.06656422594444
 20
-3.184288060544697
 30
0.0
 10
-15.86457187257501
 20
-2.924508442130294
 30
0.0
 10
-16.66251261513728
 20
-2.646732261599558
 30
0.0
 10
-17.4603901069012
 20
-2.352666513097151
 30
0.0
 10
-18.25821174637566
 20
-2.044124729177757
 30
0.0
 10
-19.05598638151055
 20
-1.723010366251247
 30
0.0
 10
-19.85372101400205
 20
-1.391298125719254
 30
0.0
 10
-20.65142338595565
 20
-1.051028166900294
 30
0.0
 10
-21.44910203312564
 20
-0.7042948109648108
 30
0.0
 10
-22.24676395191318
 20
-0.3532296320901683
 30
0.0
 10
-23.04442040654008
 20
0.0000026247801609
 30
0.0
 10
-23.84207328035691
 20
0.3532412400512501
 30
0.0
 10
-24.63973787273334
 20
0.7043009519124701
 30
0.0
 10
-25.43741553515838
 20
1.051035357390083
 30
0.0
 10
-26.23511932940642
 20
1.39130661248592
 30
0.0
 10
-27.03285727128384
 20
1.723016022127404
 30
0.0
 10
-27.83063316551791
 20
2.044132013550524
 30
0.0
 10
-28.62845492017125
 20
2.352673547274347
 30
0.0
 10
-29.42633238290298
 20
2.646739357617675
 30
0.0
 10
-30.22427312750846
 20
2.924515538554745
 30
0.0
 10
-31.0222807944649
 20
3.184295094851915
 30
0.0
 10
-31.82036523325907
 20
3.424461202268268
 30
0.0
 10
-32.61852533617469
 20
3.64354154218876
 30
0.0
 10
-33.41676692343935
 20
3.840167647320171
 30
0.0
 10
-34.2150907036544
 20
4.013128654026469
 30
0.0
 10
-35.01349095414421
 20
4.161344142316583
 30
0.0
 10
-35.81196128566861
 20
4.283890823194709
 30
0.0
 10
-36.61048660794529
 20
4.380017070929951
 30
0.0
 10
-37.40906167229919
 20
4.449101718229243
 30
0.0
 10
-38.20766959424434
 20
4.490730325024405
 30
0.0
 10
-39.00629506511421
 20
4.504637065103589
 30
0.0
 10
-39.80492053480903
 20
4.490730325002687
 30
0.0
 10
-40.60352846028619
 20
4.449101718316879
 30
0.0
 10
-41.40210351163609
 20
4.38001707060054
 30
0.0
 10
-42.2006288826678
 20
4.283890824433789
 30
0.0
 10
-42.99909513820855
 20
4.161344735093728
 30
0.0
 10
-43.79749224330527
 20
4.01313016945022
 30
0.0
 10
-44.5595179737341
 20
3.848018982002385
 30
0.0
 10
-45.05392894583199
 20
3.727271609714517
 30
0.0
 10
-45.28330682052981
 20
3.668425524787092
 30
0.0
  0
SPLINE
  5
5997
330
1F
100
AcDbEntity
  8
AM_0
 48
0.5
100
AcDbSpline
210
0.0
220
0.0
230
1.0
 70
     8
 71
     3
 72
    17
 73
    13
 74
     0
 42
0.0000000001
 43
0.0000000001
 40
0.0
 40
0.0
 40
0.0
 40
0.0
 40
1.010743614677189
 40
2.022833924044153
 40
3.037578959561199
 40
4.056212747067873
 40
5.079857613375832
 40
6.109500119648989
 40
7.14596120163808
 40
8.18989512056258
 40
9.241717674284874
 40
9.693948937866434
 40
9.693948937866434
 40
9.693948937866434
 40
9.693948937866434
 10
-7.082549938254391
 20
4.500003542942749
 30
0.0
 10
-7.348640250364402
 20
4.497328081420058
 30
0.0
 10
-7.881175408024115
 20
4.491973593642993
 30
0.0
 10
-8.679783334303104
 20
4.448767473770427
 30
0.0
 10
-9.478358382357333
 20
4.380107088056165
 30
0.0
 10
-10.27688376583967
 20
4.283866570957161
 30
0.0
 10
-11.07534997454415
 20
4.161351164791841
 30
0.0
 10
-11.87374725599537
 20
4.013128894829654
 30
0.0
 10
-12.67206489435994
 20
3.840153916841182
 30
0.0
 10
-13.47033386756678
 20
3.64359074292623
 30
0.0
 10
-14.11471739862256
 20
3.46651703602163
 30
0.0
 10
-14.49313718896068
 20
3.355820504892998
 30
0.0
 10
-14.60671850754746
 20
3.321937037749626
 30
0.0
  0
SPLINE
  5
5998
330
1F
100
AcDbEntity
  8
AM_0
100
AcDbSpline
210
0.0
220
0.0
230
1.0
 70
     8
 71
     3
 72
    23
 73
    19
 74
     0
 42
0.0000000001
 43
0.0000000001
 40
16.03460024169435
 40
16.03460024169435
 40
16.03460024169435
 40
16.03460024169435
 40
16.35212704903564
 40
17.38177054169784
 40
18.41822485651776
 40
19.46214173629503
 40
20.51396345435107
 40
21.57393551351153
 40
22.64208202342361
 40
23.7182574881101
 40
24.80209208578934
 40
25.89306333925047
 40
26.99048218457928
 40
28.09348763352352
 40
29.20111863782268
 40
30.31232390128032
 40
31.42594612798585
 40
32.5407912310448
 40
32.5407912310486
 40
32.5407912310486
 40
32.5407912310486
 10
-48.60660752702898
 20
4.500642849611563
 30
0.0
 10
-48.52456030798818
 20
4.485451642059828
 30
0.0
 10
-48.17680814084719
 20
4.419298208831003
 30
0.0
 10
-47.56423895339415
 20
4.28968065270582
 30
0.0
 10
-46.77096025202977
 20
4.096940764231472
 30
0.0
 10
-45.97841838523649
 20
3.880525995961644
 30
0.0
 10
-45.18656652108335
 20
3.641688846192046
 30
0.0
 10
-44.3953765553445
 20
3.381760837379498
 30
0.0
 10
-43.60480275913601
 20
3.102227827637443
 30
0.0
 10
-42.81479007990362
 20
2.804716628965683
 30
0.0
 10
-42.02529362628944
 20
2.490912029936309
 30
0.0
 10
-41.23625010150006
 20
2.16263998639295
 30
0.0
 10
-40.44759556238132
 20
1.821808557282077
 30
0.0
 10
-39.65927746313073
 20
1.470377380435389
 30
0.0
 10
-38.87122984613022
 20
1.110389980019706
 30
0.0
 10
-38.08337972148082
 20
0.7439484183461441
 30
0.0
 10
-37.29566293594246
 20
0.3731761250357265
 30
0.0
 10
-36.7706594658861
 20
0.1245935759905523
 30
0.0
 10
-36.50801455917305
 20
0.0002324247792627
 30
0.0
  0
SPLINE
  5
5999
330
1F
100
AcDbEntity
  8
AM_0
100
AcDbSpline
210
0.0
220
0.0
230
1.0
 70
     8
 71
     3
 72
    46
 73
    42
 74
     0
 42
0.0000000001
 43
0.0000000001
 40
0.0
 40
0.0
 40
0.0
 40
0.0
 40
0.5056245176053715
 40
0.759310862862336
 40
1.013969309739036
 40
1.269880374404297
 40
1.527291183660732
 40
1.786406454158005
 40
2.047386241038974
 40
2.310345544571907
 40
2.575337113970003
 40
2.842374715221223
 40
3.111417320030211
 40
3.382376832022752
 40
3.655120036292296
 40
3.929472521611371
 40
4.205224030350333
 40
4.482133246366229
 40
4.759933319229942
 40
5.038338087391601
 40
5.317048131389549
 40
5.595758175387723
 40
5.874162943549382
 40
6.151963016412868
 40
6.428872232428759
 40
6.704623741167953
 40
6.978976226486702
 40
7.251719430756334
 40
7.522680721168324
 40
7.791723325977308
 40
8.058760927228528
 40
8.323752496626548
 40
8.586708135057122
 40
8.84768792193809
 40
9.106803192435362
 40
9.364213819003406
 40
9.620125035580642
 40
9.874787266973068
 40
10.12847352585207
 40
10.38149610319407
 40
10.63418200686337
 40
10.63418200686337
 40
10.63418200686337
 40
10.63418200686337
 10
-33.27729714926229
 20
-4.499996457055902
 30
0.0
 10
-33.80985810052544
 20
-4.489745109201761
 30
0.0
 10
-34.60962017959854
 20
-4.474350365644826
 30
0.0
 10
-35.67309869235627
 20
-4.379567757729854
 30
0.0
 10
-36.47163235723791
 20
-4.2840016756602
 30
0.0
 10
-37.27009776650066
 20
-4.16131105969972
 30
0.0
 10
-38.06849281671318
 20
-4.01312737140848
 30
0.0
 10
-38.86681340636355
 20
-3.84015905505726
 30
0.0
 10
-39.66505819838477
 20
-3.643532889427453
 30
0.0
 10
-40.46322364030551
 20
-3.424456188282931
 30
0.0
 10
-41.26131132746712
 20
-3.184287746567374
 30
0.0
 10
-42.05931911325633
 20
-2.924508527222552
 30
0.0
 10
-42.85725981809516
 20
-2.646732238524062
 30
0.0
 10
-43.65513732013505
 20
-2.352666519437402
 30
0.0
 10
-44.45295895660366
 20
-2.044124727098478
 30
0.0
 10
-45.25073359339834
 20
-1.723010368177353
 30
0.0
 10
-46.04846822225659
 20
-1.391298120063437
 30
0.0
 10
-46.84617060714895
 20
-1.051028187696066
 30
0.0
 10
-47.64384920599485
 20
-0.7042947331245876
 30
0.0
 10
-48.44151130564026
 20
-0.3532299233623529
 30
0.0
 10
-49.23916669999726
 20
0.000003542873501
 30
0.0
 10
-50.03682209417895
 20
0.353237009538606
 30
0.0
 10
-50.83448419435002
 20
0.7043018180137172
 30
0.0
 10
-51.63216279127467
 20
1.051035277289059
 30
0.0
 10
-52.42986518329103
 20
1.391305192211525
 30
0.0
 10
-53.2275997857343
 20
1.723017505009367
 30
0.0
 10
-54.02537452035248
 20
2.044131624383168
 30
0.0
 10
-54.82319752940401
 20
2.352674973566557
 30
0.0
 10
-55.62107813161091
 20
2.646738020917097
 30
0.0
 10
-56.41902025985365
 20
2.924515733957264
 30
0.0
 10
-57.21702802706301
 20
3.184295030600228
 30
0.0
 10
-58.01511243577096
 20
3.42446126537305
 30
0.0
 10
-58.81327255967953
 20
3.643541355448557
 30
0.0
 10
-59.61151409331904
 20
3.840168324317771
 30
0.0
 10
-60.40983422094336
 20
4.013125324173665
 30
0.0
 10
-61.20822985649034
 20
4.161351991573848
 30
0.0
 10
-62.00670036162088
 20
4.283867403761514
 30
0.0
 10
-62.80522991186098
 20
4.380106253245786
 30
0.0
 10
-63.60380886673575
 20
4.448767604788425
 30
0.0
 10
-64.40241680943258
 20
4.49197356097876
 30
0.0
 10
-64.93495196490764
 20
4.497328070538892
 30
0.0
 10
-65.201042275926
 20
4.500003542945849
 30
0.0
  0
SPLINE
  5
599A
330
1F
100
AcDbEntity
  8
AM_0
100
AcDbSpline
210
0.0
220
0.0
230
1.0
 70
     8
 71
     3
 72
    42
 73
    38
 74
     0
 42
0.0000000001
 43
0.0000000001
 40
1.278384351700087
 40
1.278384351700087
 40
1.278384351700087
 40
1.278384351700087
 40
1.527291183660732
 40
1.786406454158005
 40
2.047386241038974
 40
2.310345544571907
 40
2.575337113970003
 40
2.842374715221223
 40
3.111417320030211
 40
3.382376832022752
 40
3.655120036292296
 40
3.929472521611371
 40
4.205224030350333
 40
4.482133246366229
 40
4.759933319229942
 40
5.038338087391601
 40
5.317048131389549
 40
5.595758175387723
 40
5.874162943549383
 40
6.151963016412869
 40
6.428872232428759
 40
6.704623741167955
 40
6.978976226486705
 40
7.251719430756336
 40
7.522680721168327
 40
7.791723325977311
 40
8.058760927228529
 40
8.32375249662655
 40
8.586708135057122
 40
8.84768792193809
 40
9.106803192435362
 40
9.364213819003406
 40
9.620125035580644
 40
9.87478726697307
 40
10.12847352585208
 40
10.38149610319407
 40
10.63418200686337
 40
10.63418200686337
 40
10.63418200686337
 40
10.63418200686337
 10
-6.760635446711996
 20
-4.499996457057354
 30
0.0
 10
-8.92243629395341
 20
-4.242961940986074
 30
0.0
 10
-9.449619296849052
 20
-4.14380536972845
 30
0.0
 10
-10.43650476757695
 20
-3.840159055058732
 30
0.0
 10
-11.23474955959814
 20
-3.643532889428921
 30
0.0
 10
-12.03291500151888
 20
-3.424456188284402
 30
0.0
 10
-12.83100268868048
 20
-3.184287746568846
 30
0.0
 10
-13.62901047446968
 20
-2.924508527224025
 30
0.0
 10
-14.42695117930855
 20
-2.646732238525536
 30
0.0
 10
-15.22482868134841
 20
-2.352666519438872
 30
0.0
 10
-16.02265031781702
 20
-2.044124727099951
 30
0.0
 10
-16.82042495461178
 20
-1.723010368178823
 30
0.0
 10
-17.61815958347002
 20
-1.391298120064907
 30
0.0
 10
-18.41586196836241
 20
-1.051028187697536
 30
0.0
 10
-19.21354056720825
 20
-0.7042947331260578
 30
0.0
 10
-20.01120266685366
 20
-0.3532299233638234
 30
0.0
 10
-20.80885806121064
 20
0.0000035428720314
 30
0.0
 10
-21.60651345539235
 20
0.3532370095371344
 30
0.0
 10
-22.40417555556339
 20
0.7043018180122479
 30
0.0
 10
-23.20185415248802
 20
1.051035277287588
 30
0.0
 10
-23.99955654450433
 20
1.391305192210056
 30
0.0
 10
-24.79729114694767
 20
1.723017505007894
 30
0.0
 10
-25.59506588156584
 20
2.044131624381696
 30
0.0
 10
-26.39288889061738
 20
2.352674973565089
 30
0.0
 10
-27.1907694928243
 20
2.646738020915624
 30
0.0
 10
-27.98871162106706
 20
2.924515733955793
 30
0.0
 10
-28.7867193882764
 20
3.184295030598759
 30
0.0
 10
-29.58480379698445
 20
3.424461265371578
 30
0.0
 10
-30.38296392089298
 20
3.643541355447088
 30
0.0
 10
-31.18120545453248
 20
3.840168324316301
 30
0.0
 10
-31.97952558215684
 20
4.013125324172194
 30
0.0
 10
-32.77792121770377
 20
4.161351991572382
 30
0.0
 10
-33.57639172283432
 20
4.283867403760042
 30
0.0
 10
-34.37492127307444
 20
4.380106253244318
 30
0.0
 10
-35.17350022794925
 20
4.448767604786951
 30
0.0
 10
-35.97210817064604
 20
4.491973560977288
 30
0.0
 10
-36.50464332612112
 20
4.497328070537426
 30
0.0
 10
-36.77073363713942
 20
4.500003542944381
 30
0.0
  0
SPLINE
  5
599B
330
1F
100
AcDbEntity
  8
AM_0
 48
0.5
100
AcDbSpline
210
0.0
220
0.0
230
1.0
 70
     8
 71
     3
 72
    20
 73
    16
 74
     0
 42
0.0000000001
 43
0.0000000001
 40
12.04260318190555
 40
12.04260318190555
 40
12.04260318190555
 40
12.04260318190555
 40
13.08720139956839
 40
14.16337181880432
 40
15.23152222380919
 40
16.29148850140128
 40
17.34331105512262
 40
18.38723020264746
 40
19.42369128463655
 40
20.45333379090873
 40
21.47697865721768
 40
22.49561244472435
 40
23.5103574802404
 40
24.52244778960836
 40
25.53320666051913
 40
25.53320666051913
 40
25.53320666051913
 40
25.53320666051913
 10
-9.800998741071005
 20
1.870484673523754
 30
0.0
 10
-10.83511114729182
 20
2.184398325243761
 30
0.0
 10
-11.58817484363488
 20
2.429250821170138
 30
0.0
 10
-13.34425754680812
 20
2.924515546159057
 30
0.0
 10
-14.14226521710336
 20
3.184295080167633
 30
0.0
 10
-14.94034965137305
 20
3.424461252894022
 30
0.0
 10
-15.73850976891563
 20
3.643541356343678
 30
0.0
 10
-16.53675130274774
 20
3.840168332964902
 30
0.0
 10
-17.33507143583826
 20
4.013125289055841
 30
0.0
 10
-18.1334670495453
 20
4.161352122220585
 30
0.0
 10
-18.93193370117254
 20
4.283866316255776
 30
0.0
 10
-19.73045896689948
 20
4.380107156448848
 30
0.0
 10
-20.52903404616728
 20
4.448767453411703
 30
0.0
 10
-21.32764597569603
 20
4.491973823958018
 30
0.0
 10
-21.86018515508055
 20
4.497328144685599
 30
0.0
 10
-22.1262794862438
 20
4.50000354294357
 30
0.0
  0
LINE
  5
599C
330
1F
100
AcDbEntity
  8
AM_11
100
AcDbLine
 10
-95.86702200067628
 20
4.500003542946128
 30
0.0
 11
-100.999999999995
 21
4.500000281767821
 31
0.0
  0
LINE
  5
599D
330
1F
100
AcDbEntity
  8
AM_0
100
AcDbLine
 10
-77.77279053535531
 20
4.500003542946206
 30
0.0
 11
-95.86702200067628
 21
4.500003542946128
 31
0.0
  0
SPLINE
  5
599E
330
1F
100
AcDbEntity
  8
AM_0
100
AcDbSpline
210
0.0
220
0.0
230
1.0
 70
     8
 71
     3
 72
    20
 73
    16
 74
     0
 42
0.0000000001
 43
0.0000000001
 40
19.06958205160103
 40
19.06958205160103
 40
19.06958205160103
 40
19.06958205160103
 40
19.46214173629503
 40
20.51396345435107
 40
21.57393551351153
 40
22.64208202342361
 40
23.7182574881101
 40
24.80209208578934
 40
25.89306333925047
 40
26.99048218457928
 40
28.09348763352352
 40
29.20111863782268
 40
30.31232390128032
 40
31.42594612798585
 40
32.5407912310448
 40
32.5407912310486
 40
32.5407912310486
 40
32.5407912310486
 10
-100.7971366739141
 20
4.315932787642611
 30
0.0
 10
-100.4885250641036
 20
4.056934265495345
 30
0.0
 10
-100.3175862178694
 20
3.830996182141429
 30
0.0
 10
-99.65585867821747
 20
3.641456421411895
 30
0.0
 10
-98.82271944094732
 20
3.381528412599389
 30
0.0
 10
-97.99022904281164
 20
3.101995402857363
 30
0.0
 10
-97.1583295123432
 20
2.804484204185646
 30
0.0
 10
-96.326973578023
 20
2.490679605156305
 30
0.0
 10
-95.49609458703107
 20
2.162407561612985
 30
0.0
 10
-94.66562520591669
 20
1.821576132502152
 30
0.0
 10
-93.8355101028736
 20
1.470144955655498
 30
0.0
 10
-93.00567982317931
 20
1.110157555239848
 30
0.0
 10
-92.17605750697531
 20
0.7437159935663268
 30
0.0
 10
-91.34657559958599
 20
0.3729437002559497
 30
0.0
 10
-90.79373619369379
 20
0.124361151210797
 30
0.0
 10
-90.51716572803139
 20
-0.000000000000478
 30
0.0
  0
SPLINE
  5
599F
330
1F
100
AcDbEntity
  8
AM_0
100
AcDbSpline
210
0.0
220
0.0
230
1.0
 70
     8
 71
     3
 72
    46
 73
    42
 74
     0
 42
0.0000000001
 43
0.0000000001
 40
0.0
 40
0.0
 40
0.0
 40
0.0
 40
0.5056245176053715
 40
0.759310862862336
 40
1.013969309739036
 40
1.269880374404297
 40
1.527291183660732
 40
1.786406454158005
 40
2.047386241038974
 40
2.310345544571907
 40
2.575337113970003
 40
2.842374715221223
 40
3.111417320030211
 40
3.382376832022752
 40
3.655120036292296
 40
3.929472521611371
 40
4.205224030350333
 40
4.482133246366229
 40
4.759933319229942
 40
5.038338087391601
 40
5.317048131389549
 40
5.595758175387723
 40
5.874162943549382
 40
6.151963016412868
 40
6.428872232428759
 40
6.704623741167953
 40
6.978976226486702
 40
7.251719430756334
 40
7.522680721168324
 40
7.791723325977308
 40
8.058760927228528
 40
8.323752496626548
 40
8.586708135057122
 40
8.84768792193809
 40
9.106803192435362
 40
9.364213819003406
 40
9.620125035580642
 40
9.874787266973068
 40
10.12847352585207
 40
10.38149610319407
 40
10.63418200686337
 40
10.63418200686337
 40
10.63418200686337
 40
10.63418200686337
 10
-61.70771544654543
 20
-4.49999645705564
 30
0.0
 10
-62.2402763978086
 20
-4.489745109201498
 30
0.0
 10
-63.04003847688171
 20
-4.474350365644566
 30
0.0
 10
-64.10351698963942
 20
-4.379567757729593
 30
0.0
 10
-64.90205065452106
 20
-4.284001675659939
 30
0.0
 10
-65.70051606378381
 20
-4.16131105969946
 30
0.0
 10
-66.49891111399632
 20
-4.013127371408219
 30
0.0
 10
-67.29723170364671
 20
-3.840159055057
 30
0.0
 10
-68.09547649566794
 20
-3.643532889427192
 30
0.0
 10
-68.89364193758864
 20
-3.42445618828267
 30
0.0
 10
-69.69172962475025
 20
-3.184287746567112
 30
0.0
 10
-70.48973741053945
 20
-2.924508527222291
 30
0.0
 10
-71.2876781153783
 20
-2.646732238523801
 30
0.0
 10
-72.08555561741817
 20
-2.352666519437142
 30
0.0
 10
-72.88337725388678
 20
-2.044124727098217
 30
0.0
 10
-73.68115189068152
 20
-1.723010368177092
 30
0.0
 10
-74.47888651953974
 20
-1.391298120063175
 30
0.0
 10
-75.27658890443213
 20
-1.051028187695805
 30
0.0
 10
-76.07426750327796
 20
-0.7042947331243261
 30
0.0
 10
-76.8719296029234
 20
-0.3532299233620917
 30
0.0
 10
-77.6695849972804
 20
0.0000035428737622
 30
0.0
 10
-78.46724039146209
 20
0.3532370095388675
 30
0.0
 10
-79.26490249163319
 20
0.7043018180139783
 30
0.0
 10
-80.06258108855782
 20
1.051035277289321
 30
0.0
 10
-80.86028348057418
 20
1.391305192211786
 30
0.0
 10
-81.65801808301745
 20
1.723017505009628
 30
0.0
 10
-82.45579281763566
 20
2.04413162438343
 30
0.0
 10
-83.25361582668717
 20
2.352674973566818
 30
0.0
 10
-84.05149642889407
 20
2.646738020917358
 30
0.0
 10
-84.84943855713678
 20
2.924515733957527
 30
0.0
 10
-85.64744632434619
 20
3.184295030600488
 30
0.0
 10
-86.44553073305415
 20
3.424461265373311
 30
0.0
 10
-87.24369085696269
 20
3.643541355448818
 30
0.0
 10
-88.04193239060214
 20
3.840168324318032
 30
0.0
 10
-88.84025251822651
 20
4.013125324173927
 30
0.0
 10
-89.63864815377352
 20
4.161351991574108
 30
0.0
 10
-90.43711865890402
 20
4.283867403761775
 30
0.0
 10
-91.23564820914415
 20
4.380106253246046
 30
0.0
 10
-92.0342271640189
 20
4.448767604788687
 30
0.0
 10
-92.83283510671575
 20
4.491973560979023
 30
0.0
 10
-93.36537026219081
 20
4.497328070539154
 30
0.0
 10
-93.63146057320916
 20
4.500003542946109
 30
0.0
  0
SPLINE
  5
59A0
330
1F
100
AcDbEntity
  8
AM_0
100
AcDbSpline
210
0.0
220
0.0
230
1.0
 70
     8
 71
     3
 72
    53
 73
    49
 74
     0
 42
0.0000000001
 43
0.0000000001
 40
0.0
 40
0.0
 40
0.0
 40
0.0
 40
1.010743684496582
 40
2.022833576467832
 40
3.037578957496688
 40
4.056212745003489
 40
5.079857003664532
 40
6.109500240690281
 40
7.145961322679372
 40
8.189895241603872
 40
9.241717795325891
 40
10.30168407291828
 40
11.36983447792315
 40
12.44600489715814
 40
13.52984294512926
 40
14.62081576220742
 40
15.7182257034828
 40
16.82123173843959
 40
17.92886860250316
 40
19.0400688939571
 40
20.15368796660465
 40
21.26852814259644
 40
22.38336992938901
 40
23.49698739941135
 40
24.6081876908653
 40
25.71582455492886
 40
26.81883757994213
 40
27.91624752121713
 40
29.00722033829659
 40
30.09105838626677
 40
31.16722880550176
 40
32.23537921050758
 40
33.29534548809967
 40
34.347168041821
 40
35.39108718934584
 40
36.42754827133493
 40
37.45720575381954
 40
38.48085062012849
 40
39.49948440763516
 40
40.51422944315121
 40
41.52631975251916
 40
42.53706336719636
 40
43.54780698187354
 40
44.55989729124051
 40
45.57464232675757
 40
46.59327611426424
 40
47.6169209805722
 40
48.03779390694803
 40
48.03779390694803
 40
48.03779390694803
 40
48.03779390694803
 10
-63.94327687432453
 20
-4.499996457055519
 30
0.0
 10
-64.20936713800927
 20
-4.497319066074666
 30
0.0
 10
-64.74190207046428
 20
-4.491960718101335
 30
0.0
 10
-65.54051066953434
 20
-4.448766417935784
 30
0.0
 10
-66.33908517901442
 20
-4.380098764282659
 30
0.0
 10
-67.13761026457252
 20
-4.283858436060298
 30
0.0
 10
-67.93607795818532
 20
-4.161349674233751
 30
0.0
 10
-68.73447250787046
 20
-4.013117255743757
 30
0.0
 10
-69.53279658422234
 20
-3.840159726995778
 30
0.0
 10
-70.33104310771969
 20
-3.64353619714204
 30
0.0
 10
-71.12920664084899
 20
-3.424453922727875
 30
0.0
 10
-71.92729116201421
 20
-3.184288060542964
 30
0.0
 10
-72.72529880864478
 20
-2.924508442128562
 30
0.0
 10
-73.52323955120707
 20
-2.646732261597827
 30
0.0
 10
-74.32111704297098
 20
-2.35266651309542
 30
0.0
 10
-75.1189386824454
 20
-2.044124729176026
 30
0.0
 10
-75.91671331758028
 20
-1.723010366249515
 30
0.0
 10
-76.71444795007175
 20
-1.391298125717523
 30
0.0
 10
-77.51215032202535
 20
-1.051028166898563
 30
0.0
 10
-78.30982896919538
 20
-0.7042948109630788
 30
0.0
 10
-79.10749088798294
 20
-0.3532296320884368
 30
0.0
 10
-79.90514734260982
 20
0.0000026247818926
 30
0.0
 10
-80.70280021642664
 20
0.3532412400529818
 30
0.0
 10
-81.50046480880311
 20
0.7043009519142022
 30
0.0
 10
-82.29814247122815
 20
1.051035357391816
 30
0.0
 10
-83.09584626547621
 20
1.39130661248765
 30
0.0
 10
-83.89358420735366
 20
1.723016022129137
 30
0.0
 10
-84.69136010158768
 20
2.044132013552257
 30
0.0
 10
-85.48918185624106
 20
2.352673547276078
 30
0.0
 10
-86.28705931897282
 20
2.646739357619405
 30
0.0
 10
-87.08500006357827
 20
2.924515538556475
 30
0.0
 10
-87.88300773053467
 20
3.184295094853652
 30
0.0
 10
-88.68109216932877
 20
3.424461202270004
 30
0.0
 10
-89.47925227224439
 20
3.643541542190491
 30
0.0
 10
-90.27749385950906
 20
3.840167647321905
 30
0.0
 10
-91.0758176397241
 20
4.013128654028204
 30
0.0
 10
-91.8742178902139
 20
4.161344142318318
 30
0.0
 10
-92.67268822173836
 20
4.283890823196438
 30
0.0
 10
-93.47121354401499
 20
4.380017070931685
 30
0.0
 10
-94.26978860836893
 20
4.449101718230979
 30
0.0
 10
-95.06839653031404
 20
4.490730325026135
 30
0.0
 10
-95.8670220011839
 20
4.50463706510532
 30
0.0
 10
-96.66564747087875
 20
4.490730325004418
 30
0.0
 10
-97.46425539635589
 20
4.449101718318616
 30
0.0
 10
-98.26283044770582
 20
4.380017070602272
 30
0.0
 10
-99.06135581873755
 20
4.283890824435523
 30
0.0
 10
-99.70158820640975
 20
4.185629971414313
 30
0.0
 10
-100.0755063386685
 20
4.119796164008632
 30
0.0
 10
-100.478327526377
 20
4.03546756598301
 30
0.0
  0
SPLINE
  5
59A1
330
1F
100
AcDbEntity
  8
AM_0
100
AcDbSpline
210
0.0
220
0.0
230
1.0
 70
     8
 71
     3
 72
    55
 73
    51
 74
     0
 42
0.0000000001
 43
0.0000000001
 40
0.0
 40
0.0
 40
0.0
 40
0.0
 40
1.010743684496582
 40
2.022833576467832
 40
3.037578957496688
 40
4.056212745003489
 40
5.079857003664532
 40
6.109500240690281
 40
7.145961322679372
 40
8.189895241603872
 40
9.241717795325891
 40
10.30168407291828
 40
11.36983447792315
 40
12.44600489715814
 40
13.52984294512926
 40
14.62081576220742
 40
15.7182257034828
 40
16.82123173843959
 40
17.92886860250316
 40
19.0400688939571
 40
20.15368796660465
 40
21.26852814259644
 40
22.38336992938901
 40
23.49698739941135
 40
24.6081876908653
 40
25.71582455492886
 40
26.81883757994213
 40
27.91624752121713
 40
29.00722033829659
 40
30.09105838626677
 40
31.16722880550176
 40
32.23537921050758
 40
33.29534548809967
 40
34.347168041821
 40
35.39108718934584
 40
36.42754827133493
 40
37.45720575381954
 40
38.48085062012849
 40
39.49948440763516
 40
40.51422944315121
 40
41.52631975251916
 40
42.53706336719636
 40
43.54780698187354
 40
44.55989729124051
 40
45.57464232675757
 40
46.59327611426424
 40
47.6169209805722
 40
48.64656348684535
 40
49.68302456883444
 40
50.58557219878025
 40
50.58557219878025
 40
50.58557219878025
 40
50.58557219878025
 10
-35.51285857704137
 20
-4.499996457055781
 30
0.0
 10
-35.77894884072613
 20
-4.497319066074927
 30
0.0
 10
-36.31148377318113
 20
-4.491960718101599
 30
0.0
 10
-37.11009237225119
 20
-4.448766417936045
 30
0.0
 10
-37.90866688173124
 20
-4.380098764282918
 30
0.0
 10
-38.70719196728935
 20
-4.283858436060559
 30
0.0
 10
-39.50565966090216
 20
-4.161349674234014
 30
0.0
 10
-40.30405421058729
 20
-4.013117255744019
 30
0.0
 10
-41.10237828693917
 20
-3.840159726996039
 30
0.0
 10
-41.90062481043654
 20
-3.643536197142301
 30
0.0
 10
-42.69878834356587
 20
-3.424453922728136
 30
0.0
 10
-43.49687286473108
 20
-3.184288060543225
 30
0.0
 10
-44.29488051136164
 20
-2.924508442128824
 30
0.0
 10
-45.09282125392391
 20
-2.646732261598089
 30
0.0
 10
-45.89069874568787
 20
-2.352666513095682
 30
0.0
 10
-46.68852038516229
 20
-2.044124729176287
 30
0.0
 10
-47.48629502029712
 20
-1.723010366249776
 30
0.0
 10
-48.2840296527886
 20
-1.391298125717784
 30
0.0
 10
-49.08173202474218
 20
-1.051028166898824
 30
0.0
 10
-49.87941067191222
 20
-0.7042948109633402
 30
0.0
 10
-50.6770725906998
 20
-0.3532296320886981
 30
0.0
 10
-51.47472904532667
 20
0.0000026247816314
 30
0.0
 10
-52.27238191914351
 20
0.3532412400527205
 30
0.0
 10
-53.07004651151996
 20
0.704300951913941
 30
0.0
 10
-53.86772417394502
 20
1.051035357391554
 30
0.0
 10
-54.66542796819308
 20
1.39130661248739
 30
0.0
 10
-55.4631659100705
 20
1.723016022128877
 30
0.0
 10
-56.26094180430453
 20
2.044132013551996
 30
0.0
 10
-57.05876355895786
 20
2.352673547275817
 30
0.0
 10
-57.85664102168962
 20
2.646739357619143
 30
0.0
 10
-58.65458176629507
 20
2.924515538556213
 30
0.0
 10
-59.45258943325151
 20
3.184295094853391
 30
0.0
 10
-60.25067387204559
 20
3.424461202269742
 30
0.0
 10
-61.04883397496122
 20
3.643541542190231
 30
0.0
 10
-61.84707556222591
 20
3.840167647321644
 30
0.0
 10
-62.64539934244092
 20
4.013128654027941
 30
0.0
 10
-63.44379959293075
 20
4.161344142318057
 30
0.0
 10
-64.2422699244552
 20
4.28389082319618
 30
0.0
 10
-65.04079524673182
 20
4.380017070931423
 30
0.0
 10
-65.83937031108577
 20
4.449101718230718
 30
0.0
 10
-66.63797823303089
 20
4.490730325025875
 30
0.0
 10
-67.43660370390074
 20
4.504637065105061
 30
0.0
 10
-68.23522917359555
 20
4.490730325004157
 30
0.0
 10
-69.03383709907273
 20
4.449101718318354
 30
0.0
 10
-69.83241215042264
 20
4.38001707060201
 30
0.0
 10
-70.63093752145435
 20
4.283890824435263
 30
0.0
 10
-71.42940377699509
 20
4.161344735095201
 30
0.0
 10
-72.22780088209187
 20
4.013130169451692
 30
0.0
 10
-72.98982661252066
 20
3.848018982003855
 30
0.0
 10
-73.48423758461862
 20
3.727271609715989
 30
0.0
 10
-73.71361545931645
 20
3.66842552478856
 30
0.0
  0
SPLINE
  5
59A2
330
1F
100
AcDbEntity
  8
AM_0
100
AcDbSpline
210
0.0
220
0.0
230
1.0
 70
     8
 71
     3
 72
    23
 73
    19
 74
     0
 42
0.0000000001
 43
0.0000000001
 40
16.03460024169435
 40
16.03460024169435
 40
16.03460024169435
 40
16.03460024169435
 40
16.35212704903564
 40
17.38177054169784
 40
18.41822485651776
 40
19.46214173629503
 40
20.51396345435107
 40
21.57393551351153
 40
22.64208202342361
 40
23.7182574881101
 40
24.80209208578934
 40
25.89306333925047
 40
26.99048218457928
 40
28.09348763352352
 40
29.20111863782268
 40
30.31232390128032
 40
31.42594612798585
 40
32.5407912310448
 40
32.5407912310486
 40
32.5407912310486
 40
32.5407912310486
 10
-77.77279053535529
 20
4.500003542946206
 30
0.0
 10
-76.96003798908087
 20
4.435678408642038
 30
0.0
 10
-76.57316334463361
 20
4.376956992320262
 30
0.0
 10
-75.99465725067725
 20
4.289680652707288
 30
0.0
 10
-75.20137854931284
 20
4.096940764232938
 30
0.0
 10
-74.40883668251958
 20
3.880525995963109
 30
0.0
 10
-73.61698481836651
 20
3.641688846193514
 30
0.0
 10
-72.82579485262762
 20
3.381760837380967
 30
0.0
 10
-72.03522105641923
 20
3.102227827638908
 30
0.0
 10
-71.24520837718683
 20
2.804716628967152
 30
0.0
 10
-70.45571192357271
 20
2.490912029937777
 30
0.0
 10
-69.66666839878332
 20
2.162639986394418
 30
0.0
 10
-68.87801385966458
 20
1.821808557283545
 30
0.0
 10
-68.08969576041388
 20
1.470377380436857
 30
0.0
 10
-67.30164814341337
 20
1.110389980021174
 30
0.0
 10
-66.51379801876398
 20
0.7439484183476122
 30
0.0
 10
-65.72608123322559
 20
0.3731761250371945
 30
0.0
 10
-65.20107776316923
 20
0.1245935759920199
 30
0.0
 10
-64.93843285645619
 20
0.0002324247807303
 30
0.0
  0
LINE
  5
59A3
330
1F
100
AcDbEntity
  8
AM_11
 48
0.5
100
AcDbLine
 10
-77.77279053535531
 20
4.500003542946206
 30
0.0
 11
-67.43670733694888
 21
4.500003542945974
 31
0.0
  0
VIEWPORT
  5
110
330
101
100
AcDbEntity
 67
     1
  8
0
100
AcDbViewport
 10
420.5
 20
297.0
 30
0.0
 40
948.9782706766916
 41
628.452
 68
     1
 69
     1
1001
ACAD
1000
MVIEW
1002
{
1070
    16
1010
0.0
1020
0.0
1030
0.0
1010
0.0
1020
0.0
1030
1.0
1040
0.0
1040
628.452
1040
420.5
1040
297.0
1040
50.0
1040
0.0
1040
0.0
1070
     0
1070
   100
1070
     1
1070
     1
1070
     0
1070
     0
1070
     0
1070
     0
1040
0.0
1040
0.0
1040
0.0
1040
10.0
1040
10.0
1040
10.0
1040
10.0
1070
     0
1002
{
1002
}
1002
}
  0
ENDSEC
  0
SECTION
  2
OBJECTS
  0
DICTIONARY
  5
C
330
0
100
AcDbDictionary
  3
ACAD_GROUP
350
D
  3
ACAD_LAYOUT
350
1A
  3
ACAD_MLINESTYLE
350
17
  3
ACAD_PLOTSETTINGS
350
19
  3
ACAD_PLOTSTYLENAME
350
E
  3
ACDBVARIABLEDICTIONARY
350
34
  3
ACMDICTIONARY
350
43
  3
AMG
350
2B
  3
AMGSNAPSETTINGS
350
6E
  3
DWGPROPS
350
5A9B
  3
ACDBHEADERROUNDTRIPXREC
350
5AA7
  0
DICTIONARY
  5
74
330
1F
100
AcDbDictionary
280
     1
  3
ACAD_INDEX
360
5A9D
  3
ACAD_LAYOUTSELFREF
360
5ACA
  0
DICTIONARY
  5
5ACF
330
101
100
AcDbDictionary
280
     1
  3
ACAD_LAYOUTSELFREF
360
5AD0
  0
DICTIONARY
  5
D
102
{ACAD_REACTORS
330
C
102
}
330
C
100
AcDbDictionary
  0
DICTIONARY
  5
1A
102
{ACAD_REACTORS
330
C
102
}
330
C
100
AcDbDictionary
  0
DICTIONARY
  5
17
102
{ACAD_REACTORS
330
C
102
}
330
C
100
AcDbDictionary
  3
STANDARD
350
18
  0
DICTIONARY
  5
19
102
{ACAD_REACTORS
330
C
102
}
330
C
100
AcDbDictionary
  0
ACDBDICTIONARYWDFLT
  5
E
102
{ACAD_REACTORS
330
C
102
}
330
C
100
AcDbDictionary
281
     1
  3
Normal
350
F
100
AcDbDictionaryWithDefault
340
F
  0
DICTIONARY
  5
34
102
{ACAD_REACTORS
330
C
102
}
330
C
100
AcDbDictionary
  3
INDEXCTL
350
35
  3
SORTENTS
350
B5E
  0
DICTIONARY
  5
43
102
{ACAD_REACTORS
330
C
102
}
330
C
100
AcDbDictionary
  3
ACMSTDDICTIONARY
350
260
  0
DICTIONARY
  5
2B
102
{ACAD_REACTORS
330
C
102
}
330
C
100
AcDbDictionary
  3
ACMGSETTINGS
350
2C
  0
DICTIONARY
  5
6E
102
{ACAD_REACTORS
330
C
102
}
330
C
100
AcDbDictionary
  0
XRECORD
  5
5A9B
102
{ACAD_REACTORS
330
C
102
}
330
C
100
AcDbXrecord
  1
DWGPROPS COOKIE
  2

  3

  4

  6

  7

  8

  9

300
AmdtFileType=82
301
=
302
=
303
=
304
=
305
=
306
=
307
=
308
=
309
=
 40
0.15797
 41
2452800.443498622
 42
2452946.584825115
  1

 90
        1
  0
DICTIONARY
  5
5AA7
102
{ACAD_REACTORS
330
C
102
}
330
C
100
AcDbDictionary
  3
TSTACKALIGN
350
5AA8
  3
TSTACKSIZE
350
5AA9
  3
HYPERLINKBASE
350
5AAA
  3
STYLESHEET
350
5AAB
  3
LAYOUTDICT
350
5AAC
  3
PLOTSETDICT
350
5AAD
  3
PLOTSTYLNAMDICT
350
5AAE
  3
LWETCUNION
350
5AAF
  3
INSUNITS
350
5AB0
  3
CEPSNTYPE
350
5AB1
  3
FINGERPRINTGUID
350
5AB2
  3
VERSIONGUID
350
5AB3
  3
PSVPSCALE
350
5AB4
  3
DIMSTYLEDATA
350
5AB5
  3
PUCSORTHOREF
350
5AB6
  3
PUCSORTHOVIEW
350
5AB7
  3
PUCSBASE
350
5AB8
  3
PUCSORGTOP
350
5AB9
  3
PUCSORGBOTTOM
350
5ABA
  3
PUCSORGLEFT
350
5ABB
  3
PUCSORGRIGHT
350
5ABC
  3
PUCSORGFRONT
350
5ABD
  3
PUCSORGBACK
350
5ABE
  3
UCSORTHOREF
350
5ABF
  3
UCSORTHOVIEW
350
5AC0
  3
UCSBASE
350
5AC1
  3
UCSORGTOP
350
5AC2
  3
UCSORGBOTTOM
350
5AC3
  3
UCSORGLEFT
350
5AC4
  3
UCSORGRIGHT
350
5AC5
  3
UCSORGFRONT
350
5AC6
  3
UCSORGBACK
350
5AC7
  0
DICTIONARY
  5
5A9D
102
{ACAD_REACTORS
330
74
102
}
330
74
100
AcDbDictionary
  3
*A1
350
5A9E
  0
XRECORD
  5
5ACA
102
{ACAD_REACTORS
330
74
102
}
330
74
100
AcDbXrecord
340
1F
  0
XRECORD
  5
5AD0
102
{ACAD_REACTORS
330
5ACF
102
}
330
5ACF
100
AcDbXrecord
340
101
  0
MLINESTYLE
  5
18
102
{ACAD_REACTORS
330
17
102
}
330
17
100
AcDbMlineStyle
  2
STANDARD
 70
     0
  3

 62
   256
 51
90.0
 52
90.0
 71
     2
 49
0.5
 62
   256
  6
BYLAYER
 49
-0.5
 62
   256
  6
BYLAYER
  0
ACDBPLACEHOLDER
  5
F
102
{ACAD_REACTORS
330
E
102
}
330
E
100
AcDbPlaceHolder
280
     0
  0
DICTIONARYVAR
  5
35
102
{ACAD_REACTORS
330
34
102
}
330
34
100
DictionaryVariables
280
     0
  1
1
  0
DICTIONARYVAR
  5
B5E
102
{ACAD_REACTORS
330
34
102
}
330
34
100
DictionaryVariables
280
     0
  1
96
  0
DICTIONARY
  5
260
102
{ACAD_REACTORS
330
43
102
}
330
43
100
AcDbDictionary
  0
DICTIONARY
  5
2C
102
{ACAD_REACTORS
330
2B
102
}
330
2B
100
AcDbDictionary
  3
DWGSETTINGS
350
2D
  0
XRECORD
  5
5AA8
102
{ACAD_REACTORS
330
5AA7
102
}
330
5AA7
100
AcDbXrecord
 90
        1
  0
XRECORD
  5
5AA9
102
{ACAD_REACTORS
330
5AA7
102
}
330
5AA7
100
AcDbXrecord
 90
       70
  0
XRECORD
  5
5AAA
102
{ACAD_REACTORS
330
5AA7
102
}
330
5AA7
100
AcDbXrecord
  1

  0
XRECORD
  5
5AAB
102
{ACAD_REACTORS
330
5AA7
102
}
330
5AA7
100
AcDbXrecord
  1
ASAMI.ctb
  0
XRECORD
  5
5AAC
102
{ACAD_REACTORS
330
5AA7
102
}
330
5AA7
100
AcDbXrecord
340
1A
  0
XRECORD
  5
5AAD
102
{ACAD_REACTORS
330
5AA7
102
}
330
5AA7
100
AcDbXrecord
340
19
  0
XRECORD
  5
5AAE
102
{ACAD_REACTORS
330
5AA7
102
}
330
5AA7
100
AcDbXrecord
340
E
  0
XRECORD
  5
5AAF
102
{ACAD_REACTORS
330
5AA7
102
}
330
5AA7
100
AcDbXrecord
 90
    10781
  0
XRECORD
  5
5AB0
102
{ACAD_REACTORS
330
5AA7
102
}
330
5AA7
100
AcDbXrecord
 90
        4
  0
XRECORD
  5
5AB1
102
{ACAD_REACTORS
330
5AA7
102
}
330
5AA7
100
AcDbXrecord
 90
        0
  0
XRECORD
  5
5AB2
102
{ACAD_REACTORS
330
5AA7
102
}
330
5AA7
100
AcDbXrecord
  1
{AFB28963-8C59-40AE-9337-C84526B81ACE}
  0
XRECORD
  5
5AB3
102
{ACAD_REACTORS
330
5AA7
102
}
330
5AA7
100
AcDbXrecord
  1
{3E9852FA-74D8-48F5-88F0-CC5C617CB295}
  0
XRECORD
  5
5AB4
102
{ACAD_REACTORS
330
5AA7
102
}
330
5AA7
100
AcDbXrecord
 40
0.0
  0
XRECORD
  5
5AB5
102
{ACAD_REACTORS
330
5AA7
102
}
330
5AA7
100
AcDbXrecord
1000
DSTYLE
1002
{
1070
    79
 70
     2
1070
   341
340
59
1070
   342
340
59
1070
   371
 70
    -1
1070
   372
 70
    -1
1002
}
  0
XRECORD
  5
5AB6
102
{ACAD_REACTORS
330
5AA7
102
}
330
5AA7
100
AcDbXrecord
340
0
  0
XRECORD
  5
5AB7
102
{ACAD_REACTORS
330
5AA7
102
}
330
5AA7
100
AcDbXrecord
 70
     0
  0
XRECORD
  5
5AB8
102
{ACAD_REACTORS
330
5AA7
102
}
330
5AA7
100
AcDbXrecord
340
0
  0
XRECORD
  5
5AB9
102
{ACAD_REACTORS
330
5AA7
102
}
330
5AA7
100
AcDbXrecord
 10
0.0
 20
0.0
 30
0.0
  0
XRECORD
  5
5ABA
102
{ACAD_REACTORS
330
5AA7
102
}
330
5AA7
100
AcDbXrecord
 10
0.0
 20
0.0
 30
0.0
  0
XRECORD
  5
5ABB
102
{ACAD_REACTORS
330
5AA7
102
}
330
5AA7
100
AcDbXrecord
 10
0.0
 20
0.0
 30
0.0
  0
XRECORD
  5
5ABC
102
{ACAD_REACTORS
330
5AA7
102
}
330
5AA7
100
AcDbXrecord
 10
0.0
 20
0.0
 30
0.0
  0
XRECORD
  5
5ABD
102
{ACAD_REACTORS
330
5AA7
102
}
330
5AA7
100
AcDbXrecord
 10
0.0
 20
0.0
 30
0.0
  0
XRECORD
  5
5ABE
102
{ACAD_REACTORS
330
5AA7
102
}
330
5AA7
100
AcDbXrecord
 10
0.0
 20
0.0
 30
0.0
  0
XRECORD
  5
5ABF
102
{ACAD_REACTORS
330
5AA7
102
}
330
5AA7
100
AcDbXrecord
340
0
  0
XRECORD
  5
5AC0
102
{ACAD_REACTORS
330
5AA7
102
}
330
5AA7
100
AcDbXrecord
 70
     0
  0
XRECORD
  5
5AC1
102
{ACAD_REACTORS
330
5AA7
102
}
330
5AA7
100
AcDbXrecord
340
0
  0
XRECORD
  5
5AC2
102
{ACAD_REACTORS
330
5AA7
102
}
330
5AA7
100
AcDbXrecord
 10
0.0
 20
0.0
 30
0.0
  0
XRECORD
  5
5AC3
102
{ACAD_REACTORS
330
5AA7
102
}
330
5AA7
100
AcDbXrecord
 10
0.0
 20
0.0
 30
0.0
  0
XRECORD
  5
5AC4
102
{ACAD_REACTORS
330
5AA7
102
}
330
5AA7
100
AcDbXrecord
 10
0.0
 20
0.0
 30
0.0
  0
XRECORD
  5
5AC5
102
{ACAD_REACTORS
330
5AA7
102
}
330
5AA7
100
AcDbXrecord
 10
0.0
 20
0.0
 30
0.0
  0
XRECORD
  5
5AC6
102
{ACAD_REACTORS
330
5AA7
102
}
330
5AA7
100
AcDbXrecord
 10
0.0
 20
0.0
 30
0.0
  0
XRECORD
  5
5AC7
102
{ACAD_REACTORS
330
5AA7
102
}
330
5AA7
100
AcDbXrecord
 10
0.0
 20
0.0
 30
0.0
  0
LAYER_INDEX
  5
5A9E
102
{ACAD_REACTORS
330
5A9D
102
}
330
5A9D
100
AcDbIndex
 40
2453151.723828113
100
AcDbLayerIndex
  8
0
360
5A9F
 90
        0
  8
AM_0
360
5AA0
 90
       67
  8
AM_7
360
5AA1
 90
        1
  8
AM_11
360
5AA2
 90
       27
  8
AM_5
360
5AA3
 90
        5
  8
Defpoints
360
5AA4
 90
        0
  8
AM_6
360
5AA5
 90
        1
  0
XRECORD
  5
2D
102
{ACAD_REACTORS
330
2C
102
}
330
2C
100
AcDbXrecord
  1
VERSION
140
15.0
  1
PRODUCT
  2
AutoCAD Mechanical 2000
  0
IDBUFFER
  5
5A9F
330
0
100
AcDbIdBuffer
  0
IDBUFFER
  5
5AA0
330
0
100
AcDbIdBuffer
330
598C
330
598D
330
598E
330
598F
330
5992
330
5993
330
5995
330
5996
330
5997
330
5998
330
5999
330
599A
330
599B
330
599D
330
599E
330
599F
330
59A0
330
59A1
330
59A2
330
C1D
330
4658
330
4BB1
330
4BB2
330
51E5
330
51E6
330
546A
330
546B
330
546D
330
546E
330
548B
330
548E
330
5671
330
569F
330
5967
330
5968
330
5969
330
596A
330
596B
330
596C
330
596D
330
596E
330
596F
330
5970
330
5971
330
5972
330
5973
330
5974
330
5975
330
5976
330
5977
330
5978
330
5979
330
597A
330
597B
330
597D
330
597E
330
5980
330
5981
330
5982
330
5983
330
5984
330
5985
330
5986
330
5987
330
5989
330
598A
330
598B
  0
IDBUFFER
  5
5AA1
330
0
100
AcDbIdBuffer
330
C9F
  0
IDBUFFER
  5
5AA2
330
0
100
AcDbIdBuffer
330
57F0
330
57F1
330
57F2
330
597C
330
597F
330
5988
330
5990
330
5991
330
5994
330
599C
330
59A3
330
57E0
330
57E1
330
57E2
330
57E3
330
57E4
330
57E5
330
57E6
330
57E7
330
57E8
330
57E9
330
57EA
330
57EB
330
57EC
330
57ED
330
57EE
330
57EF
  0
IDBUFFER
  5
5AA3
330
0
100
AcDbIdBuffer
330
CC6
330
46D1
330
546F
330
5542
330
5686
  0
IDBUFFER
  5
5AA4
330
0
100
AcDbIdBuffer
  0
IDBUFFER
  5
5AA5
330
0
100
AcDbIdBuffer
330
19BD
  0
ENDSEC
  0
EOF
