  0
SECTION
  2
HEADER
  9
$ACADVER
  1
AC1014
  9
$ACADMAINTVER
 70
     9
  9
$DWGCODEPAGE
  3
ANSI_932
  9
$INSBASE
 10
0.0
 20
0.0
 30
0.0
  9
$EXTMIN
 10
-150.1500009999999
 20
-28.25000402524005
 30
-0.00000001
  9
$EXTMAX
 10
14.34997105358081
 20
14.00595921881532
 30
0.00000001
  9
$LIMMIN
 10
-156.1444050923396
 20
-44.51020785580943
  9
$LIMMAX
 10
20.31336096277607
 20
28.16015358894219
  9
$ORTHOMODE
 70
     0
  9
$REGENMODE
 70
     1
  9
$FILLMODE
 70
     1
  9
$QTEXTMODE
 70
     0
  9
$MIRRTEXT
 70
     0
  9
$DRAGMODE
 70
     2
  9
$LTSCALE
 40
1.0
  9
$OSMODE
 70
    55
  9
$ATTMODE
 70
     1
  9
$TEXTSIZE
 40
2.5
  9
$TRACEWID
 40
1.0
  9
$TEXTSTYLE
  7
STANDARD
  9
$CLAYER
  8
AM_0
  9
$CELTYPE
  6
BYLAYER
  9
$CECOLOR
 62
   256
  9
$CELTSCALE
 40
1.0
  9
$DELOBJ
 70
     1
  9
$DISPSILH
 70
     0
  9
$DIMSCALE
 40
0.5
  9
$DIMASZ
 40
2.5
  9
$DIMEXO
 40
1.0
  9
$DIMDLI
 40
12.0
  9
$DIMRND
 40
0.0
  9
$DIMDLE
 40
0.0
  9
$DIMEXE
 40
1.0
  9
$DIMTP
 40
0.1
  9
$DIMTM
 40
0.1
  9
$DIMTXT
 40
3.2
  9
$DIMCEN
 40
0.0
  9
$DIMTSZ
 40
0.0
  9
$DIMTOL
 70
     0
  9
$DIMLIM
 70
     0
  9
$DIMTIH
 70
     0
  9
$DIMTOH
 70
     0
  9
$DIMSE1
 70
     0
  9
$DIMSE2
 70
     0
  9
$DIMTAD
 70
     3
  9
$DIMZIN
 70
     8
  9
$DIMBLK
  1
OPEN30
  9
$DIMASO
 70
     1
  9
$DIMSHO
 70
     1
  9
$DIMPOST
  1

  9
$DIMAPOST
  1
"
  9
$DIMALT
 70
     0
  9
$DIMALTD
 70
     2
  9
$DIMALTF
 40
0.0393701
  9
$DIMLFAC
 40
1.0
  9
$DIMTOFL
 70
     1
  9
$DIMTVP
 40
0.0
  9
$DIMTIX
 70
     0
  9
$DIMSOXD
 70
     0
  9
$DIMSAH
 70
     0
  9
$DIMBLK1
  1

  9
$DIMBLK2
  1

  9
$DIMSTYLE
  2
AM_JIS
  9
$DIMCLRD
 70
   256
  9
$DIMCLRE
 70
   256
  9
$DIMCLRT
 70
     2
  9
$DIMTFAC
 40
0.71
  9
$DIMGAP
 40
1.5
  9
$DIMJUST
 70
     0
  9
$DIMSD1
 70
     0
  9
$DIMSD2
 70
     0
  9
$DIMTOLJ
 70
     0
  9
$DIMTZIN
 70
     0
  9
$DIMALTZ
 70
     0
  9
$DIMALTTZ
 70
     0
  9
$DIMFIT
 70
     3
  9
$DIMUPT
 70
     0
  9
$DIMUNIT
 70
     2
  9
$DIMDEC
 70
     3
  9
$DIMTDEC
 70
     3
  9
$DIMALTU
 70
     2
  9
$DIMALTTD
 70
     2
  9
$DIMTXSTY
  7
ASAMI
  9
$DIMAUNIT
 70
     0
  9
$LUNITS
 70
     2
  9
$LUPREC
 70
     2
  9
$SKETCHINC
 40
1.0
  9
$FILLETRAD
 40
2.5
  9
$AUNITS
 70
     0
  9
$AUPREC
 70
     0
  9
$MENU
  1
.
  9
$ELEVATION
 40
0.0
  9
$PELEVATION
 40
0.0
  9
$THICKNESS
 40
0.0
  9
$LIMCHECK
 70
     0
  9
$BLIPMODE
 70
     0
  9
$CHAMFERA
 40
2.5
  9
$CHAMFERB
 40
2.5
  9
$CHAMFERC
 40
20.0
  9
$CHAMFERD
 40
0.0
  9
$SKPOLY
 70
     0
  9
$TDCREATE
 40
2452800.443498622
  9
$TDUPDATE
 40
2453151.680984328
  9
$TDINDWG
 40
0.0448073958
  9
$TDUSRTIMER
 40
0.0448073958
  9
$USRTIMER
 70
     1
  9
$ANGBASE
 50
0.0
  9
$ANGDIR
 70
     0
  9
$PDMODE
 70
     0
  9
$PDSIZE
 40
0.0
  9
$PLINEWID
 40
0.0
  9
$COORDS
 70
     1
  9
$SPLFRAME
 70
     0
  9
$SPLINETYPE
 70
     6
  9
$SPLINESEGS
 70
     8
  9
$ATTDIA
 70
     1
  9
$ATTREQ
 70
     1
  9
$HANDLING
 70
 12289
  9
$HANDSEED
  5
2B3D
  9
$SURFTAB1
 70
     6
  9
$SURFTAB2
 70
     6
  9
$SURFTYPE
 70
     6
  9
$SURFU
 70
     6
  9
$SURFV
 70
     6
  9
$UCSNAME
  2

  9
$UCSORG
 10
0.0
 20
0.0
 30
0.0
  9
$UCSXDIR
 10
1.0
 20
0.0000000000000027
 30
0.0
  9
$UCSYDIR
 10
-0.0000000000000027
 20
1.0
 30
0.0
  9
$PUCSNAME
  2

  9
$PUCSORG
 10
0.0
 20
0.0
 30
0.0
  9
$PUCSXDIR
 10
1.0
 20
0.0
 30
0.0
  9
$PUCSYDIR
 10
0.0
 20
1.0
 30
0.0
  9
$USERI1
 70
     0
  9
$USERI2
 70
     0
  9
$USERI3
 70
     0
  9
$USERI4
 70
     0
  9
$USERI5
 70
     0
  9
$USERR1
 40
0.0
  9
$USERR2
 40
0.0
  9
$USERR3
 40
0.0
  9
$USERR4
 40
0.0
  9
$USERR5
 40
0.0
  9
$WORLDVIEW
 70
     1
  9
$SHADEDGE
 70
     3
  9
$SHADEDIF
 70
    70
  9
$TILEMODE
 70
     1
  9
$MAXACTVP
 70
    64
  9
$PINSBASE
 10
0.0
 20
0.0
 30
0.0
  9
$PLIMCHECK
 70
     0
  9
$PEXTMIN
 10
1.000000000000000E+20
 20
1.000000000000000E+20
 30
1.000000000000000E+20
  9
$PEXTMAX
 10
-1.000000000000000E+20
 20
-1.000000000000000E+20
 30
-1.000000000000000E+20
  9
$PLIMMIN
 10
0.0
 20
0.0
  9
$PLIMMAX
 10
841.0
 20
594.0
  9
$UNITMODE
 70
     0
  9
$VISRETAIN
 70
     1
  9
$PLINEGEN
 70
     0
  9
$PSLTSCALE
 70
     0
  9
$TREEDEPTH
 70
  3020
  9
$PICKSTYLE
 70
     0
  9
$CMLSTYLE
  2
STANDARD
  9
$CMLJUST
 70
     0
  9
$CMLSCALE
 40
20.0
  9
$PROXYGRAPHICS
 70
     1
  9
$MEASUREMENT
 70
     1
  0
ENDSEC
  0
SECTION
  2
CLASSES
  0
CLASS
  1
ACDBDICTIONARYWDFLT
  2
AcDbDictionaryWithDefault
  3
AutoCAD 2000
 90
        0
280
     0
281
     0
  0
CLASS
  1
ACDBPLACEHOLDER
  2
AcDbPlaceHolder
  3
AutoCAD 2000
 90
        0
280
     0
281
     0
  0
CLASS
  1
LAYOUT
  2
AcDbLayout
  3
AutoCAD 2000
 90
        0
280
     0
281
     0
  0
CLASS
  1
AMGSETTINGSOBJ
  2
AmgSettingsObj
  3
"AcadM|Product Description: AutoCAD Mechanical 2000|Company: Autodesk"
 90
        0
280
     0
281
     0
  0
CLASS
  1
ACME_DOCUMENT
  2
AcMeDbDoc
  3
AcMeServices
 90
        0
280
     0
281
     0
  0
CLASS
  1
ACMESCOPE
  2
AcMeScope
  3
AcMeServices
 90
        0
280
     0
281
     0
  0
CLASS
  1
ACMECOMMANDHISTORY
  2
AcMeCommandHistory
  3
AcMeServices
 90
        0
280
     0
281
     0
  0
CLASS
  1
DICTIONARYVAR
  2
AcDbDictionaryVar
  3
AutoCAD 2000
 90
        0
280
     0
281
     0
  0
CLASS
  1
ACIMSYSVARMAN
  2
AcImSysVarManager
  3
AcMeServices
 90
        0
280
     0
281
     0
  0
CLASS
  1
ACIMREALSYSVAR
  2
AcImRealSysVar
  3
AcMeServices
 90
        0
280
     0
281
     0
  0
CLASS
  1
ACIMINTSYSVAR
  2
AcImIntSysVar
  3
AcMeServices
 90
        0
280
     0
281
     0
  0
CLASS
  1
ACMEDRAWINGMAN
  2
AcMeDrawingMan
  3
AcMeServices
 90
        0
280
     0
281
     0
  0
CLASS
  1
ACMEVIEW
  2
AcMeView
  3
AcMeServices
 90
        0
280
     0
281
     0
  0
CLASS
  1
ACDBENTITYCACHE
  2
AcMeEntityCache
  3
AcMeServices
 90
        0
280
     0
281
     0
  0
CLASS
  1
GSMANAGER
  2
AcMeGSManager
  3
AcMeServices
 90
        0
280
     0
281
     0
  0
CLASS
  1
AmdtInternalReactor
  2
AmdtInternalReactor
  3
AcMeServices
 90
        0
280
     0
281
     0
  0
CLASS
  1
ACMESTATEMGR
  2
AcMeStateMgr
  3
AcMeServices
 90
        0
280
     0
281
     0
  0
CLASS
  1
ACME_DATABASE
  2
AcMeDbDatabase
  3
AcMeServices
 90
        0
280
     0
281
     0
  0
CLASS
  1
ACRFINSADJUSTERMGR
  2
AcRfInsAdjusterMgr
  3
AcMeServices
 90
        0
280
     0
281
     0
  0
CLASS
  1
ACMDATADICTIONARY
  2
AcmDataDictionary
  3
"AcmSymBB|Product Description: AutoCAD Mechanical 2000|Company: Autodesk"
 90
        0
280
     0
281
     0
  0
CLASS
  1
ACMDATAENTRYBLOCK
  2
AcmDataEntryBlock
  3
"AcmSymBB|Product Description: AutoCAD Mechanical 2000|Company: Autodesk"
 90
        0
280
     0
281
     0
  0
CLASS
  1
AMGOBJPROPCFG
  2
AmgObjPropCfg
  3
"AmgLay|Product Description: AutoCAD Mechanical 2000|Company: Autodesk"
 90
        1
280
     0
281
     0
  0
CLASS
  1
ACAMGFILTERDAT
  2
AcAmgFilterDat
  3
"AcadM|Product Description: AutoCAD Mechanical 2000|Company: Autodesk"
 90
        0
280
     0
281
     0
  0
CLASS
  1
LAYER_INDEX
  2
AcDbLayerIndex
  3
AutoCAD 2000
 90
        0
280
     0
281
     0
  0
CLASS
  1
IDBUFFER
  2
AcDbIdBuffer
  3
AutoCAD 2000
 90
        0
280
     0
281
     0
  0
CLASS
  1
ACIMSTRSYSVAR
  2
AcImStrSysVar
  3
AcMeServices
 90
        0
280
     0
281
     0
  0
CLASS
  1
ACMSTANDARDJIS
  2
AcmStandardJIS
  3
"AcmSymBB|Product Description: AutoCAD Mechanical 2000|Company: Autodesk"
 90
        0
280
     0
281
     0
  0
CLASS
  1
ACMSURFSTANDARDJIS
  2
AcmSurfTextStdJIS
  3
"AcmSymBB|Product Description: AutoCAD Mechanical 2000|Company: Autodesk"
 90
        0
280
     0
281
     0
  0
CLASS
  1
ACMFCFSTANDARDJIS
  2
AcmFCFStdJIS
  3
"AcmSymBB|Product Description: AutoCAD Mechanical 2000|Company: Autodesk"
 90
        0
280
     0
281
     0
  0
CLASS
  1
ACMWELDSTANDARDJIS
  2
AcmWeldingStdJIS
  3
"AcmSymBB|Product Description: AutoCAD Mechanical 2000|Company: Autodesk"
 90
        0
280
     0
281
     0
  0
CLASS
  1
ACMIDSTANDARDJIS
  2
AcmIdStdJIS
  3
"AcmSymBB|Product Description: AutoCAD Mechanical 2000|Company: Autodesk"
 90
        0
280
     0
281
     0
  0
CLASS
  1
ACMDATUMSTANDARDJIS
  2
AcmDatumStdJIS
  3
"AcmSymBB|Product Description: AutoCAD Mechanical 2000|Company: Autodesk"
 90
        0
280
     0
281
     0
  0
CLASS
  1
ACMBOMSTANDARDJIS
  2
AcmBOMStdJIS
  3
"AcmSymBB|Product Description: AutoCAD Mechanical 2000|Company: Autodesk"
 90
        0
280
     0
281
     0
  0
CLASS
  1
ACMSTANDARDANSI
  2
AcmStandardANSI
  3
"AcmSymBB|Product Description: AutoCAD Mechanical 2000|Company: Autodesk"
 90
        0
280
     0
281
     0
  0
CLASS
  1
ACMSURFSTANDARDANSI
  2
AcmSurfTextStdANSI
  3
"AcmSymBB|Product Description: AutoCAD Mechanical 2000|Company: Autodesk"
 90
        0
280
     0
281
     0
  0
CLASS
  1
ACMFCFSTANDARDANSI
  2
AcmFCFStdANSI
  3
"AcmSymBB|Product Description: AutoCAD Mechanical 2000|Company: Autodesk"
 90
        0
280
     0
281
     0
  0
CLASS
  1
ACMWELDSTANDARDANSI
  2
AcmWeldingStdANSI
  3
"AcmSymBB|Product Description: AutoCAD Mechanical 2000|Company: Autodesk"
 90
        0
280
     0
281
     0
  0
CLASS
  1
ACMIDSTANDARDANSI
  2
AcmIdStdANSI
  3
"AcmSymBB|Product Description: AutoCAD Mechanical 2000|Company: Autodesk"
 90
        0
280
     0
281
     0
  0
CLASS
  1
ACMDATUMSTANDARDANSI
  2
AcmDatumStdANSI
  3
"AcmSymBB|Product Description: AutoCAD Mechanical 2000|Company: Autodesk"
 90
        0
280
     0
281
     0
  0
CLASS
  1
ACMBOMSTANDARDANSI
  2
AcmBOMStdANSI
  3
"AcmSymBB|Product Description: AutoCAD Mechanical 2000|Company: Autodesk"
 90
        0
280
     0
281
     0
  0
CLASS
  1
ACMSTANDARDBSI
  2
AcmStandardBSI
  3
"AcmSymBB|Product Description: AutoCAD Mechanical 2000|Company: Autodesk"
 90
        0
280
     0
281
     0
  0
CLASS
  1
ACMSURFSTANDARDBSI
  2
AcmSurfTextStdBSI
  3
"AcmSymBB|Product Description: AutoCAD Mechanical 2000|Company: Autodesk"
 90
        0
280
     0
281
     0
  0
CLASS
  1
ACMFCFSTANDARDBSI
  2
AcmFCFStdBSI
  3
"AcmSymBB|Product Description: AutoCAD Mechanical 2000|Company: Autodesk"
 90
        0
280
     0
281
     0
  0
CLASS
  1
ACMWELDSTANDARDBSI
  2
AcmWeldingStdBSI
  3
"AcmSymBB|Product Description: AutoCAD Mechanical 2000|Company: Autodesk"
 90
        0
280
     0
281
     0
  0
CLASS
  1
ACMIDSTANDARDBSI
  2
AcmIdStdBSI
  3
"AcmSymBB|Product Description: AutoCAD Mechanical 2000|Company: Autodesk"
 90
        0
280
     0
281
     0
  0
CLASS
  1
ACMDATUMSTANDARDBSI
  2
AcmDatumStdBSI
  3
"AcmSymBB|Product Description: AutoCAD Mechanical 2000|Company: Autodesk"
 90
        0
280
     0
281
     0
  0
CLASS
  1
ACMBOMSTANDARDBSI
  2
AcmBOMStdBSI
  3
"AcmSymBB|Product Description: AutoCAD Mechanical 2000|Company: Autodesk"
 90
        0
280
     0
281
     0
  0
CLASS
  1
LONG_TRANSACTION
  2
AcDbLongTransaction
  3
AutoCAD 2000
 90
        0
280
     0
281
     0
  0
CLASS
  1
LWPOLYLINE
  2
AcDbPolyline
  3
AutoCAD 2000
 90
        0
280
     0
281
     1
  0
CLASS
  1
HATCH
  2
AcDbHatch
  3
AutoCAD 2000
 90
        0
280
     0
281
     1
  0
CLASS
  1
XRECORD
  2
AcDbXrecord
  3
AutoCAD 2000
 90
        0
280
     0
281
     0
  0
ENDSEC
  0
SECTION
  2
TABLES
  0
TABLE
  2
VPORT
  5
8
330
0
100
AcDbSymbolTable
 70
     3
  0
VPORT
  5
2B12
330
8
100
AcDbSymbolTableRecord
100
AcDbViewportTableRecord
  2
*ACTIVE
 70
     0
 10
0.0
 20
0.0
 11
1.0
 21
1.0
 12
-64.82576561324487
 22
-7.121608332446371
 13
0.0
 23
0.0
 14
2.5
 24
2.5
 15
10.0
 25
10.0
 16
0.0
 26
0.0
 36
1.0
 17
0.0
 27
0.0
 37
0.0
 40
109.5252969428992
 41
1.56570841889117
 42
50.0
 43
0.0
 44
0.0
 50
0.0
 51
0.0
 71
     0
 72
   100
 73
     1
 74
     1
 75
     0
 76
     0
 77
     0
 78
     0
  0
ENDTAB
  0
TABLE
  2
LTYPE
  5
5
330
0
100
AcDbSymbolTable
 70
    10
  0
LTYPE
  5
14
330
5
100
AcDbSymbolTableRecord
100
AcDbLinetypeTableRecord
  2
BYBLOCK
 70
     0
  3

 72
    65
 73
     0
 40
0.0
  0
LTYPE
  5
15
330
5
100
AcDbSymbolTableRecord
100
AcDbLinetypeTableRecord
  2
BYLAYER
 70
     0
  3

 72
    65
 73
     0
 40
0.0
  0
LTYPE
  5
16
330
5
100
AcDbSymbolTableRecord
100
AcDbLinetypeTableRecord
  2
CONTINUOUS
 70
     0
  3
Solid line
 72
    65
 73
     0
 40
0.0
  0
LTYPE
  5
4B
330
5
100
AcDbSymbolTableRecord
100
AcDbLinetypeTableRecord
  2
AM_ISO02W050
 70
     0
  3
__ __ __ __ __ __ __ __ __ __ __ __ __ __ __
 72
    65
 73
     2
 40
7.5
 49
6.0
 74
     0
 49
-1.5
 74
     0
  0
LTYPE
  5
4C
330
5
100
AcDbSymbolTableRecord
100
AcDbLinetypeTableRecord
  2
AM_ISO08W050
 70
     0
  3
____ . ____ . ____ . ____ . ____ . ____ . ____
 72
    65
 73
     4
 40
18.0
 49
12.0
 74
     0
 49
-1.5
 74
     0
 49
3.0
 74
     0
 49
-1.5
 74
     0
  0
LTYPE
  5
4D
330
5
100
AcDbSymbolTableRecord
100
AcDbLinetypeTableRecord
  2
AM_ISO09W050
 70
     0
  3
_____ . . _____ . . _____ . . ____ .. ____
 72
    65
 73
     6
 40
22.5
 49
12.0
 74
     0
 49
-1.5
 74
     0
 49
3.0
 74
     0
 49
-1.5
 74
     0
 49
3.0
 74
     0
 49
-1.5
 74
     0
  0
LTYPE
  5
4E
330
5
100
AcDbSymbolTableRecord
100
AcDbLinetypeTableRecord
  2
AMCONSTR
 70
     0
  3
_______________________
 72
    65
 73
     2
 40
9999.0
 49
9999.0
 74
     0
 49
0.0
 74
     0
  0
LTYPE
  5
4F
330
5
100
AcDbSymbolTableRecord
100
AcDbLinetypeTableRecord
  2
AM_ISO02W050X2
 70
     0
  3
 _ _ _ _ _ _ _ _ _ _ _ _
 72
    65
 73
     2
 40
3.75
 49
3.0
 74
     0
 49
-0.75
 74
     0
  0
LTYPE
  5
50
330
5
100
AcDbSymbolTableRecord
100
AcDbLinetypeTableRecord
  2
AM_ISO08W050X2
 70
     0
  3
__ . __ . __ . __ . __ . __
 72
    65
 73
     4
 40
9.0
 49
6.0
 74
     0
 49
-0.75
 74
     0
 49
1.5
 74
     0
 49
-0.75
 74
     0
  0
LTYPE
  5
53
330
5
100
AcDbSymbolTableRecord
100
AcDbLinetypeTableRecord
  2
AMZIGZAG
 70
     0
  3
/\/-/\/-/\/-/\/-/\/-/\/
 72
    65
 73
     2
 40
11.00009999999999
 49
0.0001
 74
     4
 75
   135
340
52
 46
0.04
 50
0.0
 44
0.0
 45
0.0
 49
-11.0
 74
     0
  0
LTYPE
  5
166
330
5
100
AcDbSymbolTableRecord
100
AcDbLinetypeTableRecord
  2
ACJISTGL
 70
     0
  3
_ _ _ _ _
 72
    65
 73
     2
 40
3.0
 49
2.0
 74
     0
 49
-1.0
 74
     0
  0
LTYPE
  5
26A
330
5
100
AcDbSymbolTableRecord
100
AcDbLinetypeTableRecord
  2
ACJISTGB
 70
     0
  3
__ . . __ . .
 72
    65
 73
     6
 40
9.0
 49
4.0
 74
     0
 49
-1.0
 74
     0
 49
1.0
 74
     0
 49
-1.0
 74
     0
 49
1.0
 74
     0
 49
-1.0
 74
     0
  0
ENDTAB
  0
TABLE
  2
LAYER
  5
2
330
0
100
AcDbSymbolTable
 70
     8
  0
LAYER
  5
10
330
2
100
AcDbSymbolTableRecord
100
AcDbLayerTableRecord
  2
0
 70
     0
 62
     7
  6
CONTINUOUS
  0
LAYER
  5
3F9
330
2
100
AcDbSymbolTableRecord
100
AcDbLayerTableRecord
  2
AM_0
 70
     0
 62
     7
  6
CONTINUOUS
  0
LAYER
  5
C7C
330
2
100
AcDbSymbolTableRecord
100
AcDbLayerTableRecord
  2
AM_7
 70
     0
 62
     4
  6
AM_ISO08W050
  0
LAYER
  5
C97
330
2
100
AcDbSymbolTableRecord
100
AcDbLayerTableRecord
  2
AM_11
 70
     0
 62
     3
  6
AM_ISO09W050
  0
LAYER
  5
CC5
330
2
100
AcDbSymbolTableRecord
100
AcDbLayerTableRecord
  2
AM_5
 70
     0
 62
     3
  6
CONTINUOUS
  0
LAYER
  5
CC7
330
2
100
AcDbSymbolTableRecord
100
AcDbLayerTableRecord
  2
DEFPOINTS
 70
     0
 62
     7
  6
CONTINUOUS
  0
LAYER
  5
19BC
330
2
100
AcDbSymbolTableRecord
100
AcDbLayerTableRecord
  2
AM_6
 70
     0
 62
     2
  6
CONTINUOUS
  0
LAYER
  5
2774
330
2
100
AcDbSymbolTableRecord
100
AcDbLayerTableRecord
  2
AM_CL
 70
     0
 62
     1
  6
AMCONSTR
  0
ENDTAB
  0
TABLE
  2
STYLE
  5
3
330
0
100
AcDbSymbolTable
 70
     5
  0
STYLE
  5
11
330
3
100
AcDbSymbolTableRecord
100
AcDbTextStyleTableRecord
  2
STANDARD
 70
     0
 40
0.0
 41
1.0
 50
0.0
 71
     0
 42
2.5
  3
simplex.shx
  4
EXTFONT.SHX
  0
STYLE
  5
52
330
3
100
AcDbSymbolTableRecord
100
AcDbTextStyleTableRecord
  2

 70
     1
 40
0.0
 41
1.0
 50
0.0
 71
     0
 42
2.5
  3
ltypeshp.shx
  4

  0
STYLE
  5
6B
330
3
100
AcDbSymbolTableRecord
100
AcDbTextStyleTableRecord
  2
ASAMI
 70
     0
 40
0.0
 41
1.0
 50
0.0
 71
     0
 42
2.5
  3
simplex.shx
  4
EXTFONT.SHX
  0
STYLE
  5
262
330
3
100
AcDbSymbolTableRecord
100
AcDbTextStyleTableRecord
  2
ACJISTS
 70
     0
 40
1.0
 41
1.0
 50
0.0
 71
     0
 42
2.5
  3
simplex.shx
  4
bigfont.shx
  0
STYLE
  5
269
330
3
100
AcDbSymbolTableRecord
100
AcDbTextStyleTableRecord
  2
ACJISGDT
 70
     0
 40
0.0
 41
1.0
 50
0.0
 71
     0
 42
2.5
  3
amgdtans.shx
  4

  0
ENDTAB
  0
TABLE
  2
VIEW
  5
6
330
0
100
AcDbSymbolTable
 70
     0
  0
ENDTAB
  0
TABLE
  2
UCS
  5
7
330
0
100
AcDbSymbolTable
 70
     0
  0
ENDTAB
  0
TABLE
  2
APPID
  5
9
330
0
100
AcDbSymbolTable
 70
    14
  0
APPID
  5
12
330
9
100
AcDbSymbolTableRecord
100
AcDbRegAppTableRecord
  2
ACAD
 70
     0
  0
APPID
  5
30
330
9
100
AcDbSymbolTableRecord
100
AcDbRegAppTableRecord
  2
MCAD_NO_VIS
 70
     0
  0
APPID
  5
31
330
9
100
AcDbSymbolTableRecord
100
AcDbRegAppTableRecord
  2
ACAD_TEMP_GRAPHIC
 70
     0
  0
APPID
  5
2C2
330
9
100
AcDbSymbolTableRecord
100
AcDbRegAppTableRecord
  2
GENIUS_GENDTOL_13
 70
     0
  0
APPID
  5
339
330
9
100
AcDbSymbolTableRecord
100
AcDbRegAppTableRecord
  2
GENIUS_GENODEF_13
 70
     0
  0
APPID
  5
33A
330
9
100
AcDbSymbolTableRecord
100
AcDbRegAppTableRecord
  2
GENIUS_GENOBJ-N-RSBK_13
 70
     0
  0
APPID
  5
33B
330
9
100
AcDbSymbolTableRecord
100
AcDbRegAppTableRecord
  2
GENIUS_GENOBJ-N-LIB_13
 70
     0
  0
APPID
  5
33C
330
9
100
AcDbSymbolTableRecord
100
AcDbRegAppTableRecord
  2
GENIUS_GENSCALE_13
 70
     0
  0
APPID
  5
378
330
9
100
AcDbSymbolTableRecord
100
AcDbRegAppTableRecord
  2
GENIUS_GENDIMSH_14
 70
     0
  0
APPID
  5
C82
330
9
100
AcDbSymbolTableRecord
100
AcDbRegAppTableRecord
  2
GENIUS_GENOBJ-N-CRS_13
 70
     0
  0
APPID
  5
C83
330
9
100
AcDbSymbolTableRecord
100
AcDbRegAppTableRecord
  2
GENIUS_GENOENT_13
 70
     0
  0
APPID
  5
C84
330
9
100
AcDbSymbolTableRecord
100
AcDbRegAppTableRecord
  2
GENIUS_GENOREF_13
 70
     0
  0
APPID
  5
C85
330
9
100
AcDbSymbolTableRecord
100
AcDbRegAppTableRecord
  2
GENIUS_GENOLIS_13
 70
     0
  0
APPID
  5
CA0
330
9
100
AcDbSymbolTableRecord
100
AcDbRegAppTableRecord
  2
GENIUS_GENOBJ-N-CEN_13
 70
     0
  0
ENDTAB
  0
TABLE
  2
DIMSTYLE
  5
A
330
0
100
AcDbSymbolTable
 70
     9
  0
DIMSTYLE
105
58
330
A
100
AcDbSymbolTableRecord
100
AcDbDimStyleTableRecord
  2
AM_JIS
 70
     0
  3

  4
"
  5
OPEN30
  6

  7

 40
0.5
 41
2.5
 42
1.0
 43
12.0
 44
1.0
 45
0.0
 46
0.0
 47
0.1
 48
0.1
140
3.2
141
0.0
142
0.0
143
0.0393701
144
1.0
145
0.0
146
0.71
147
1.5
 71
     0
 72
     0
 73
     0
 74
     0
 75
     0
 76
     0
 77
     3
 78
     8
170
     0
171
     2
172
     1
173
     0
174
     0
175
     0
176
   256
177
   256
178
     2
270
     2
271
     3
272
     3
273
     2
274
     2
340
6B
275
     0
280
     0
281
     0
282
     0
283
     0
284
     0
285
     0
286
     0
287
     3
288
     0
  0
DIMSTYLE
105
5F
330
A
100
AcDbSymbolTableRecord
100
AcDbDimStyleTableRecord
  2
AM_JIS$3
 70
     0
  3

  4
"
  5
OPEN30
  6

  7

 40
0.5
 41
2.5
 42
1.0
 43
10.0
 44
1.0
 45
0.0
 46
0.0
 47
0.1
 48
0.1
140
3.2
141
0.0
142
0.0
143
0.0393701
144
1.0
145
0.0
146
0.71
147
1.5
 71
     0
 72
     0
 73
     0
 74
     1
 75
     0
 76
     0
 77
     3
 78
     8
170
     0
171
     2
172
     0
173
     0
174
     0
175
     0
176
   256
177
   256
178
     2
270
     2
271
     2
272
     3
273
     2
274
     2
340
6B
275
     0
280
     0
281
     0
282
     0
283
     0
284
     0
285
     0
286
     0
287
     0
288
     1
  0
DIMSTYLE
105
60
330
A
100
AcDbSymbolTableRecord
100
AcDbDimStyleTableRecord
  2
AM_JIS$4
 70
     0
  3

  4
"
  5
OPEN30
  6

  7

 40
0.5
 41
2.5
 42
1.0
 43
10.0
 44
1.0
 45
0.0
 46
0.0
 47
0.1
 48
0.1
140
3.2
141
0.0
142
0.0
143
0.0393701
144
1.0
145
0.0
146
0.71
147
1.5
 71
     0
 72
     0
 73
     0
 74
     1
 75
     0
 76
     0
 77
     3
 78
     8
170
     0
171
     2
172
     0
173
     0
174
     0
175
     0
176
   256
177
   256
178
     2
270
     2
271
     2
272
     3
273
     2
274
     2
340
6B
275
     0
280
     0
281
     0
282
     0
283
     0
284
     0
285
     0
286
     0
287
     0
288
     1
  0
DIMSTYLE
105
61
330
A
100
AcDbSymbolTableRecord
100
AcDbDimStyleTableRecord
  2
AM_JIS$6
 70
     0
  3

  4
"
  5
OPEN30
  6

  7

 40
0.5
 41
2.5
 42
1.0
 43
10.0
 44
1.0
 45
0.0
 46
0.0
 47
0.1
 48
0.1
140
3.2
141
0.0
142
0.0
143
0.0393701
144
1.0
145
0.0
146
0.71
147
1.5
 71
     0
 72
     0
 73
     0
 74
     0
 75
     0
 76
     0
 77
     0
 78
     8
170
     0
171
     2
172
     1
173
     0
174
     0
175
     0
176
   256
177
   256
178
     2
270
     2
271
     2
272
     2
273
     2
274
     2
340
6B
275
     0
280
     0
281
     0
282
     0
283
     0
284
     0
285
     0
286
     0
287
     3
288
     0
  0
DIMSTYLE
105
62
330
A
100
AcDbSymbolTableRecord
100
AcDbDimStyleTableRecord
  2
AM_JIS$7
 70
     0
  3

  4
"
  5
OPEN30
  6

  7

 40
0.5
 41
2.5
 42
1.0
 43
10.0
 44
1.0
 45
0.0
 46
0.0
 47
0.1
 48
0.1
140
3.2
141
0.0
142
0.0
143
0.0393701
144
1.0
145
0.0
146
0.71
147
1.5
 71
     0
 72
     0
 73
     0
 74
     0
 75
     0
 76
     0
 77
     3
 78
     8
170
     0
171
     2
172
     1
173
     0
174
     0
175
     0
176
   256
177
   256
178
     2
270
     2
271
     2
272
     3
273
     2
274
     2
340
6B
275
     0
280
     0
281
     0
282
     0
283
     0
284
     0
285
     0
286
     0
287
     3
288
     0
  0
DIMSTYLE
105
63
330
A
100
AcDbSymbolTableRecord
100
AcDbDimStyleTableRecord
  2
AM_JIS$SF
 70
     0
  3

  4
"
  5
OPEN30
  6

  7

 40
0.5
 41
2.5
 42
1.0
 43
10.0
 44
1.0
 45
0.0
 46
0.0
 47
0.1
 48
0.1
140
3.2
141
0.0
142
0.0
143
0.0393701
144
1.0
145
0.0
146
0.71
147
1.5
 71
     0
 72
     0
 73
     0
 74
     0
 75
     1
 76
     1
 77
     3
 78
     8
170
     0
171
     2
172
     1
173
     0
174
     0
175
     0
176
   256
177
   256
178
     2
270
     2
271
     2
272
     2
273
     2
274
     2
340
6B
275
     0
280
     0
281
     0
282
     0
283
     0
284
     0
285
     0
286
     0
287
     3
288
     0
  0
DIMSTYLE
105
68
330
A
100
AcDbSymbolTableRecord
100
AcDbDimStyleTableRecord
  2
AM_JIS$SH
 70
     0
  3

  4
"
  5

  6
GENAXEH
  7
OPEN30
 40
0.5
 41
2.5
 42
1.0
 43
10.0
 44
1.0
 45
0.0
 46
0.0
 47
0.1
 48
0.1
140
3.2
141
0.0
142
0.0
143
0.0393701
144
2.0
145
0.0
146
0.71
147
1.5
 71
     0
 72
     0
 73
     0
 74
     0
 75
     1
 76
     1
 77
     3
 78
     8
170
     0
171
     2
172
     1
173
     1
174
     0
175
     0
176
   256
177
   256
178
     2
270
     2
271
     2
272
     2
273
     2
274
     2
340
6B
275
     0
280
     0
281
     0
282
     0
283
     0
284
     0
285
     0
286
     0
287
     3
288
     0
  0
DIMSTYLE
105
B34
102
{ACAD_REACTORS
330
2894
102
}
330
A
100
AcDbSymbolTableRecord
100
AcDbDimStyleTableRecord
  2
AM_JIS$2
 70
     0
  3

  4
"
  5
OPEN30
  6

  7

 40
0.5
 41
2.5
 42
1.0
 43
12.0
 44
1.0
 45
0.0
 46
0.0
 47
0.1
 48
0.1
140
3.2
141
0.0
142
0.0
143
0.0393701
144
1.0
145
0.0
146
0.71
147
1.5
 71
     0
 72
     0
 73
     0
 74
     0
 75
     0
 76
     0
 77
     3
 78
     8
170
     0
171
     2
172
     1
173
     0
174
     0
175
     0
176
   256
177
   256
178
     2
270
     2
271
     3
272
     3
273
     2
274
     2
340
6B
275
     0
280
     0
281
     0
282
     0
283
     0
284
     0
285
     0
286
     0
287
     3
288
     0
  0
DIMSTYLE
105
BA5
102
{ACAD_REACTORS
330
CC6
330
2069
330
2498
330
2599
102
}
330
A
100
AcDbSymbolTableRecord
100
AcDbDimStyleTableRecord
  2
AM_JIS$0
 70
     0
  3

  4
"
  5
OPEN30
  6

  7

 40
0.5
 41
2.5
 42
0.0
 43
10.0
 44
1.0
 45
0.0
 46
0.0
 47
0.1
 48
0.1000000001
140
3.799999999999999
141
0.0
142
0.0
143
0.0393701
144
1.0
145
0.0
146
0.71
147
1.5
 71
     0
 72
     0
 73
     0
 74
     0
 75
     0
 76
     0
 77
     3
 78
     1
170
     0
171
     2
172
     1
173
     0
174
     0
175
     0
176
     3
177
     3
178
     2
270
     2
271
     2
272
     2
273
     2
274
     2
340
11
275
     1
280
     0
281
     0
282
     0
283
     0
284
     8
285
     0
286
     0
287
     0
288
     0
  0
ENDTAB
  0
TABLE
  2
BLOCK_RECORD
  5
1
330
0
100
AcDbSymbolTable
 70
    12
  0
BLOCK_RECORD
  5
1F
102
{ACAD_XDICTIONARY
360
74
102
}
330
1
100
AcDbSymbolTableRecord
100
AcDbBlockTableRecord
  2
*MODEL_SPACE
  0
BLOCK_RECORD
  5
101
102
{ACAD_XDICTIONARY
360
2B3B
102
}
330
1
100
AcDbSymbolTableRecord
100
AcDbBlockTableRecord
  2
*PAPER_SPACE
  0
BLOCK_RECORD
  5
59
330
1
100
AcDbSymbolTableRecord
100
AcDbBlockTableRecord
  2
_OPEN30
  0
BLOCK_RECORD
  5
64
330
1
100
AcDbSymbolTableRecord
100
AcDbBlockTableRecord
  2
GENAXEH
  0
BLOCK_RECORD
  5
CC8
330
1
100
AcDbSymbolTableRecord
100
AcDbBlockTableRecord
  2
*D5
  0
BLOCK_RECORD
  5
206A
330
1
100
AcDbSymbolTableRecord
100
AcDbBlockTableRecord
  2
*D7
  0
BLOCK_RECORD
  5
2499
330
1
100
AcDbSymbolTableRecord
100
AcDbBlockTableRecord
  2
*D8
  0
BLOCK_RECORD
  5
259A
330
1
100
AcDbSymbolTableRecord
100
AcDbBlockTableRecord
  2
*D9
  0
BLOCK_RECORD
  5
2895
330
1
100
AcDbSymbolTableRecord
100
AcDbBlockTableRecord
  2
*D10
  0
ENDTAB
  0
ENDSEC
  0
SECTION
  2
BLOCKS
  0
BLOCK
  5
20
330
1F
100
AcDbEntity
  8
0
100
AcDbBlockBegin
  2
*MODEL_SPACE
 70
     0
 10
0.0
 20
0.0
 30
0.0
  3
*MODEL_SPACE
  1

  0
ENDBLK
  5
21
330
1F
100
AcDbEntity
  8
0
100
AcDbBlockEnd
  0
BLOCK
  5
103
330
101
100
AcDbEntity
 67
     1
  8
0
100
AcDbBlockBegin
  2
*PAPER_SPACE
 70
     0
 10
0.0
 20
0.0
 30
0.0
  3
*PAPER_SPACE
  1

  0
ENDBLK
  5
104
330
101
100
AcDbEntity
 67
     1
  8
0
100
AcDbBlockEnd
  0
BLOCK
  5
5D
330
59
100
AcDbEntity
  8
0
100
AcDbBlockBegin
  2
_OPEN30
 70
     0
 10
0.0
 20
0.0
 30
0.0
  3
_OPEN30
  1

  0
LINE
  5
5A
330
59
100
AcDbEntity
  8
0
 62
     0
100
AcDbLine
 10
-1.0
 20
0.26794919
 30
0.0
 11
0.0
 21
0.0
 31
0.0
  0
LINE
  5
5B
330
59
100
AcDbEntity
  8
0
 62
     0
100
AcDbLine
 10
0.0
 20
0.0
 30
0.0
 11
-1.0
 21
-0.26794919
 31
0.0
  0
LINE
  5
5C
330
59
100
AcDbEntity
  8
0
 62
     0
100
AcDbLine
 10
0.0
 20
0.0
 30
0.0
 11
-1.0
 21
0.0
 31
0.0
  0
ENDBLK
  5
5E
330
59
100
AcDbEntity
  8
0
100
AcDbBlockEnd
  0
BLOCK
  5
66
330
64
100
AcDbEntity
  8
0
100
AcDbBlockBegin
  2
GENAXEH
 70
     0
 10
0.0
 20
0.0
 30
0.0
  3
GENAXEH
  1

  0
LINE
  5
65
330
64
100
AcDbEntity
  8
0
100
AcDbLine
 10
-1.0
 20
0.0
 30
0.0
 11
1.0
 21
0.0
 31
0.0
  0
ENDBLK
  5
67
330
64
100
AcDbEntity
  8
0
100
AcDbBlockEnd
  0
BLOCK
  5
CD2
330
CC8
100
AcDbEntity
  8
0
100
AcDbBlockBegin
  2
*D5
 70
     1
 10
0.0
 20
0.0
 30
0.0
  3
*D5
  1

  0
LINE
  5
2ACF
330
CC8
100
AcDbEntity
  8
AM_5
 62
     3
100
AcDbLine
 10
-138.0
 20
-4.754479572481244
 30
0.0
 11
-138.0
 21
-17.50000402524002
 31
0.0
  0
LINE
  5
2AD0
330
CC8
100
AcDbEntity
  8
AM_5
 62
     3
100
AcDbLine
 10
-1.999999999999999
 20
-4.550000000000022
 30
0.0
 11
-2.0
 21
-17.50000402524002
 31
0.0
  0
LINE
  5
2AD1
330
CC8
100
AcDbEntity
  8
AM_5
 62
     3
100
AcDbLine
 10
-136.7499999999999
 20
-17.00000402524002
 30
0.0
 11
-3.25
 21
-17.00000402524002
 31
0.0
  0
INSERT
  5
2AD2
330
CC8
100
AcDbEntity
  8
AM_5
 62
     3
100
AcDbBlockReference
  2
_OPEN30
 10
-138.0
 20
-17.00000402524002
 30
0.0
 41
1.25
 42
1.25
 43
1.25
 50
180.0
  0
INSERT
  5
2AD3
330
CC8
100
AcDbEntity
  8
AM_5
 62
     3
100
AcDbBlockReference
  2
_OPEN30
 10
-2.0
 20
-17.00000402524002
 30
0.0
 41
1.25
 42
1.25
 43
1.25
  0
MTEXT
  5
2AD4
330
CC8
100
AcDbEntity
  8
AM_5
 62
     2
100
AcDbMText
 10
-70.0
 20
-15.30000402524002
 30
0.0
 40
1.9
 41
0.0
 71
     5
 72
     1
  1
136
1001
ACAD
1000
MTEXTBEGIN
1070
    73
1070
     1
1070
    44
1040
1.0
1070
    74
1070
     0
1000
MTEXTEND
  0
POINT
  5
2AD5
330
CC8
100
AcDbEntity
  8
DEFPOINTS
 62
     0
100
AcDbPoint
 10
-138.0
 20
-4.754479572481244
 30
0.0
  0
POINT
  5
2AD6
330
CC8
100
AcDbEntity
  8
DEFPOINTS
 62
     0
100
AcDbPoint
 10
-1.999999999999999
 20
-4.550000000000022
 30
0.0
  0
POINT
  5
2AD7
330
CC8
100
AcDbEntity
  8
DEFPOINTS
 62
     0
100
AcDbPoint
 10
-2.0
 20
-17.00000402524002
 30
0.0
  0
ENDBLK
  5
CD3
330
CC8
100
AcDbEntity
  8
0
100
AcDbBlockEnd
  0
BLOCK
  5
2074
330
206A
100
AcDbEntity
  8
0
100
AcDbBlockBegin
  2
*D7
 70
     1
 10
0.0
 20
0.0
 30
0.0
  3
*D7
  1

  0
LINE
  5
2AC6
330
206A
100
AcDbEntity
  8
AM_5
 62
     3
100
AcDbLine
 10
-81.99999999999997
 20
-4.999986311027836
 30
0.0
 11
-81.99999999999993
 21
-12.50000402524016
 31
0.0
  0
LINE
  5
2AC7
330
206A
100
AcDbEntity
  8
AM_5
 62
     3
100
AcDbLine
 10
-1.999999999999986
 20
-4.550000000000028
 30
0.0
 11
-1.999999999999963
 21
-12.50000402523993
 31
0.0
  0
LINE
  5
2AC8
330
206A
100
AcDbEntity
  8
AM_5
 62
     3
100
AcDbLine
 10
-80.74999999999995
 20
-12.00000402524016
 30
0.0
 11
-3.249999999999964
 21
-12.00000402523993
 31
0.0
  0
INSERT
  5
2AC9
330
206A
100
AcDbEntity
  8
AM_5
 62
     3
100
AcDbBlockReference
  2
_OPEN30
 10
-81.99999999999995
 20
-12.00000402524016
 30
0.0
 41
1.25
 42
1.25
 43
1.25
 50
180.0000000000001
  0
INSERT
  5
2ACA
330
206A
100
AcDbEntity
  8
AM_5
 62
     3
100
AcDbBlockReference
  2
_OPEN30
 10
-1.999999999999965
 20
-12.00000402523993
 30
0.0
 41
1.25
 42
1.25
 43
1.25
 50
0.0000000000001527
  0
MTEXT
  5
2ACB
330
206A
100
AcDbEntity
  8
AM_5
 62
     2
100
AcDbMText
 10
-41.99999999999996
 20
-10.30000402524005
 30
0.0
 40
1.9
 41
0.0
 71
     5
 72
     1
  1
80
1001
ACAD
1000
MTEXTBEGIN
1070
    73
1070
     1
1070
    44
1040
1.0
1070
    74
1070
     0
1000
MTEXTEND
  0
POINT
  5
2ACC
330
206A
100
AcDbEntity
  8
DEFPOINTS
 62
     0
100
AcDbPoint
 10
-81.99999999999999
 20
-4.999986311027597
 30
0.0
  0
POINT
  5
2ACD
330
206A
100
AcDbEntity
  8
DEFPOINTS
 62
     0
100
AcDbPoint
 10
-1.999999999999999
 20
-4.550000000000022
 30
0.0
  0
POINT
  5
2ACE
330
206A
100
AcDbEntity
  8
DEFPOINTS
 62
     0
100
AcDbPoint
 10
-2.0
 20
-12.00000402523992
 30
0.0
  0
ENDBLK
  5
2075
330
206A
100
AcDbEntity
  8
0
100
AcDbBlockEnd
  0
BLOCK
  5
24A5
330
2499
100
AcDbEntity
  8
0
100
AcDbBlockBegin
  2
*D8
 70
     1
 10
0.0
 20
0.0
 30
0.0
  3
*D8
  1

  0
LINE
  5
2AEC
330
2499
100
AcDbEntity
  8
AM_5
 62
     3
100
AcDbLine
 10
-1.999999999999999
 20
-4.550000000000022
 30
0.0
 11
9.819901031072514
 21
-4.550000000000024
 31
0.0
  0
LINE
  5
2AED
330
2499
100
AcDbEntity
  8
AM_5
 62
     3
100
AcDbLine
 10
-2.0
 20
4.549999999999977
 30
0.0
 11
9.819901031072518
 21
4.549999999999974
 31
0.0
  0
LINE
  5
2AEE
330
2499
100
AcDbEntity
  8
AM_5
 62
     3
100
AcDbLine
 10
9.319901031072516
 20
-3.300000000000025
 30
0.0
 11
9.319901031072516
 21
3.299999999999973
 31
0.0
  0
INSERT
  5
2AEF
330
2499
100
AcDbEntity
  8
AM_5
 62
     3
100
AcDbBlockReference
  2
_OPEN30
 10
9.319901031072514
 20
-4.550000000000024
 30
0.0
 41
1.25
 42
1.25
 43
1.25
 50
270.0
  0
INSERT
  5
2AF0
330
2499
100
AcDbEntity
  8
AM_5
 62
     3
100
AcDbBlockReference
  2
_OPEN30
 10
9.319901031072518
 20
4.549999999999974
 30
0.0
 41
1.25
 42
1.25
 43
1.25
 50
90.0
  0
MTEXT
  5
2AF1
330
2499
100
AcDbEntity
  8
AM_5
 62
     2
100
AcDbMText
 10
7.619901031072516
 20
-0.0000038687494214
 30
0.0
 40
1.9
 41
0.0
 71
     5
 72
     1
  1
%%c9.1
 11
0.0000000000000001
 21
1.0
 31
0.0
1001
ACAD
1000
MTEXTBEGIN
1070
    73
1070
     1
1070
    44
1040
1.0
1070
    74
1070
     0
1000
MTEXTEND
  0
POINT
  5
2AF2
330
2499
100
AcDbEntity
  8
DEFPOINTS
 62
     0
100
AcDbPoint
 10
-1.999999999999999
 20
-4.550000000000022
 30
0.0
  0
POINT
  5
2AF3
330
2499
100
AcDbEntity
  8
DEFPOINTS
 62
     0
100
AcDbPoint
 10
-2.0
 20
4.549999999999977
 30
0.0
  0
POINT
  5
2AF4
330
2499
100
AcDbEntity
  8
DEFPOINTS
 62
     0
100
AcDbPoint
 10
9.319901031072518
 20
4.549999999999974
 30
0.0
  0
ENDBLK
  5
24A6
330
2499
100
AcDbEntity
  8
0
100
AcDbBlockEnd
  0
BLOCK
  5
25A4
330
259A
100
AcDbEntity
  8
0
100
AcDbBlockBegin
  2
*D9
 70
     1
 10
0.0
 20
0.0
 30
0.0
  3
*D9
  1

  0
LINE
  5
2AD8
330
259A
100
AcDbEntity
  8
AM_5
 62
     3
100
AcDbLine
 10
-137.7544818454374
 20
-5.000003025240719
 30
0.0
 11
-148.000001
 21
-5.000003025240747
 31
0.0
  0
LINE
  5
2AD9
330
259A
100
AcDbEntity
  8
AM_5
 62
     3
100
AcDbLine
 10
-137.7544818454375
 20
5.000024525350962
 30
0.0
 11
-148.000001
 21
5.000024525350934
 31
0.0
  0
LINE
  5
2ADA
330
259A
100
AcDbEntity
  8
AM_5
 62
     3
100
AcDbLine
 10
-147.500001
 20
-3.750003025240746
 30
0.0
 11
-147.500001
 21
3.750024525350935
 31
0.0
  0
INSERT
  5
2ADB
330
259A
100
AcDbEntity
  8
AM_5
 62
     3
100
AcDbBlockReference
  2
_OPEN30
 10
-147.500001
 20
-5.000003025240745
 30
0.0
 41
1.25
 42
1.25
 43
1.25
 50
270.0000000000001
  0
INSERT
  5
2ADC
330
259A
100
AcDbEntity
  8
AM_5
 62
     3
100
AcDbBlockReference
  2
_OPEN30
 10
-147.500001
 20
5.000024525350935
 30
0.0
 41
1.25
 42
1.25
 43
1.25
 50
90.00000000000015
  0
MTEXT
  5
2ADD
330
259A
100
AcDbEntity
  8
AM_5
 62
     2
100
AcDbMText
 10
-149.200001
 20
0.0000107500551106
 30
0.0
 40
1.9
 41
0.0
 71
     5
 72
     1
  1
%%c10
 11
-0.0000000000000028
 21
1.0
 31
0.0
1001
ACAD
1000
MTEXTBEGIN
1070
    73
1070
     1
1070
    44
1040
1.0
1070
    74
1070
     0
1000
MTEXTEND
  0
POINT
  5
2ADE
330
259A
100
AcDbEntity
  8
DEFPOINTS
 62
     0
100
AcDbPoint
 10
-137.7544818454374
 20
-5.000003025240291
 30
0.0
  0
POINT
  5
2ADF
330
259A
100
AcDbEntity
  8
DEFPOINTS
 62
     0
100
AcDbPoint
 10
-137.7544818454375
 20
5.00002452535139
 30
0.0
  0
POINT
  5
2AE0
330
259A
100
AcDbEntity
  8
DEFPOINTS
 62
     0
100
AcDbPoint
 10
-147.500001
 20
5.000024525351394
 30
0.0
  0
ENDBLK
  5
25A5
330
259A
100
AcDbEntity
  8
0
100
AcDbBlockEnd
  0
BLOCK
  5
28A5
330
2895
100
AcDbEntity
  8
0
100
AcDbBlockBegin
  2
*D10
 70
     1
 10
0.0
 20
0.0
 30
0.0
  3
*D10
  1

  0
LINE
  5
2AE1
330
2895
100
AcDbEntity
  8
AM_5
100
AcDbLine
 10
0.171010071662917
 20
-0.4698463103927166
 30
0.0
 11
5.097752257994957
 21
-14.00595921881473
 31
0.0
  0
LINE
  5
2AE2
330
2895
100
AcDbEntity
  8
AM_5
100
AcDbLine
 10
0.1710100716629057
 20
0.4698463103931979
 30
0.0
 11
5.097752257994619
 21
14.00595921881532
 31
0.0
  0
ARC
  5
2AE3
330
2895
100
AcDbEntity
  8
AM_5
100
AcDbCircle
 10
0.0000000000000853
 20
0.0000000000002386
 30
0.0
 40
14.40483048286695
100
AcDbArc
 50
294.9734854342943
 51
65.02651456570692
  0
INSERT
  5
2AE4
330
2895
100
AcDbEntity
  8
AM_5
100
AcDbBlockReference
  2
_OPEN30
 10
4.926742186332125
 20
-13.53611290842177
 30
0.0
 41
1.25
 42
1.25
 43
1.25
 50
202.486742717147
  0
INSERT
  5
2AE5
330
2895
100
AcDbEntity
  8
AM_5
100
AcDbBlockReference
  2
_OPEN30
 10
4.926742186331799
 20
13.53611290842237
 30
0.0
 41
1.25
 42
1.25
 43
1.25
 50
157.5132572828543
  0
MTEXT
  5
2AE6
330
2895
100
AcDbEntity
  8
AM_5
 62
     2
100
AcDbMText
 10
12.85483048286703
 20
0.0000000000004006
 30
0.0
 40
1.6
 41
0.0
 71
     5
 72
     1
  1
140°
  7
ASAMI
 11
-0.0000000000000028
 21
1.0
 31
0.0
1001
ACAD
1000
MTEXTBEGIN
1070
    73
1070
     1
1070
    44
1040
1.0
1070
    74
1070
     0
1000
MTEXTEND
  0
POINT
  5
2AE7
330
2895
100
AcDbEntity
  8
DEFPOINTS
 62
     0
100
AcDbPoint
 10
13.22674736624849
 20
-5.705461887487373
 30
0.0
  0
POINT
  5
2AE8
330
2895
100
AcDbEntity
  8
DEFPOINTS
 62
     0
100
AcDbPoint
 10
0.0000000000000853
 20
0.0000000000002386
 30
0.0
  0
POINT
  5
2AE9
330
2895
100
AcDbEntity
  8
DEFPOINTS
 62
     0
100
AcDbPoint
 10
-0.4344923399331933
 20
1.193757892892954
 30
0.0
  0
POINT
  5
2AEA
330
2895
100
AcDbEntity
  8
DEFPOINTS
 62
     0
100
AcDbPoint
 10
0.0000000000000853
 20
0.0000000000002386
 30
0.0
  0
POINT
  5
2AEB
330
2895
100
AcDbEntity
  8
DEFPOINTS
 62
     0
100
AcDbPoint
 10
-0.4344923399331684
 20
-1.193757892892479
 30
0.0
  0
ENDBLK
  5
28A6
330
2895
100
AcDbEntity
  8
0
100
AcDbBlockEnd
  0
ENDSEC
  0
SECTION
  2
ENTITIES
  0
DIMENSION
  5
CC6
330
1F
100
AcDbEntity
  8
AM_5
100
AcDbDimension
  2
*D5
 10
-2.0
 20
-17.00000402524002
 30
0.0
 11
-70.0
 21
-15.30000402524002
 31
0.0
 70
    32
  1
<>
  3
AM_JIS$0
100
AcDbAlignedDimension
 13
-138.0
 23
-4.754479572481244
 33
0.0
 14
-1.999999999999999
 24
-4.550000000000022
 34
0.0
 50
0.0000000000001132
100
AcDbRotatedDimension
1001
GENIUS_GENDTOL_13
1000

1000
h7
1000

1040
0.0
1001
ACAD
1000
DSTYLE
1002
{
1070
   271
1070
     0
1002
}
  0
TEXT
  5
19BD
330
1F
100
AcDbEntity
  8
AM_6
100
AcDbText
 10
-80.59520813397304
 20
-28.25000402524005
 30
0.0
 40
2.5
  1
MDW091LHK
 50
0.0000000000001527
 72
     4
 11
-69.99997003873494
 21
-27.00000402524002
 31
0.0
100
AcDbText
  0
DIMENSION
  5
2069
330
1F
100
AcDbEntity
  8
AM_5
100
AcDbDimension
  2
*D7
 10
-2.0
 20
-12.00000402523992
 30
0.0
 11
-41.99999999999999
 21
-10.30000402523993
 31
0.0
 70
    32
  1
<>
 51
359.9999999999998
  3
AM_JIS$0
100
AcDbAlignedDimension
 13
-81.99999999999999
 23
-4.999986311027597
 33
0.0
 14
-1.999999999999999
 24
-4.550000000000022
 34
0.0
 50
0.0000000000001527
100
AcDbRotatedDimension
1001
ACAD
1000
DSTYLE
1002
{
1070
   271
1070
     0
1070
   174
1070
     1
1002
}
1001
GENIUS_GENDTOL_13
1000

1000
h7
1000

1040
0.0
  0
LINE
  5
23EF
330
1F
100
AcDbEntity
  8
AM_7
100
AcDbLine
 10
-140.5
 20
0.0000000000006516
 30
0.0
 11
2.31990003107253
 21
-0.0000000000000108
 31
0.0
1001
GENIUS_GENODEF_13
1002
{
1000
HIER
1070
     0
1002
}
1002
{
1000
MANEDIT
1070
     0
1002
}
1002
{
1000
NOSEL
1070
     0
1002
}
1002
{
1000
BEHIND
1070
     0
1002
}
1002
{
1000
REACTOR
1002
}
1001
GENIUS_GENOBJ-N-CEN_13
1002
{
1000
OWNER
1000
GEN
1002
}
  0
DIMENSION
  5
2498
330
1F
100
AcDbEntity
  8
AM_5
100
AcDbDimension
  2
*D8
 10
9.319901031072518
 20
4.549999999999974
 30
0.0
 11
9.319901031072516
 21
-0.0000038687494216
 31
0.0
 70
   160
  1
%%c<>
  3
AM_JIS$0
100
AcDbAlignedDimension
 13
-1.999999999999999
 23
-4.550000000000022
 33
0.0
 14
-2.0
 24
4.549999999999977
 34
0.0
 50
89.99999999999909
100
AcDbRotatedDimension
1001
ACAD
1000
DSTYLE
1002
{
1070
   271
1070
     1
1002
}
1001
GENIUS_GENDTOL_13
1000

1000
h7
1000

1040
0.0
  0
LINE
  5
24A9
330
1F
100
AcDbEntity
  8
AM_0
 48
0.5
100
AcDbLine
 10
-4.472379094804669
 20
-4.549999529531506
 30
0.0
 11
-1.999999999999999
 21
-4.550000000000022
 31
0.0
  0
LINE
  5
24AA
330
1F
100
AcDbEntity
  8
AM_0
 48
0.5
100
AcDbLine
 10
-4.47237909480442
 20
4.550000470468495
 30
0.0
 11
-2.0
 21
4.549999999999977
 31
0.0
  0
LINE
  5
24AB
330
1F
100
AcDbEntity
  8
AM_0
 48
0.5
100
AcDbLine
 10
-32.97197925205216
 20
-4.549999529530864
 30
0.0
 11
-19.55277383967741
 21
-4.549999529531119
 31
0.0
  0
LINE
  5
24AC
330
1F
100
AcDbEntity
  8
AM_11
 48
0.5
100
AcDbLine
 10
-16.61478799212761
 20
4.550000470468808
 30
0.0
 11
-4.47237909480442
 21
4.550000470468495
 31
0.0
  0
LINE
  5
24AD
330
1F
100
AcDbEntity
  8
AM_11
 48
0.5
100
AcDbLine
 10
-19.55277383967741
 20
-4.549999529531119
 30
0.0
 11
-4.472379094804669
 21
-4.549999529531506
 31
0.0
  0
SPLINE
  5
24B2
330
1F
100
AcDbEntity
  8
AM_0
 48
0.5
100
AcDbSpline
210
0.0
220
0.0
230
1.0
 70
     8
 71
     3
 72
    16
 73
    12
 74
     0
 42
0.0000000001
 43
0.0000000001
 40
0.0
 40
0.0
 40
0.0
 40
0.0
 40
1.010743614677189
 40
2.022833924044153
 40
3.037578959561199
 40
4.056212747067873
 40
5.079857613375832
 40
6.109500119648989
 40
7.14596120163808
 40
8.18989512056258
 40
8.338453590106137
 40
8.338453590106137
 40
8.338453590106137
 40
8.338453590106137
 10
-4.47237909480442
 20
4.550000470468495
 30
0.0
 10
-4.739117933175896
 20
4.547295281595542
 30
0.0
 10
-5.272951007442032
 20
4.541881299509829
 30
0.0
 10
-6.073505333831192
 20
4.498195111638655
 30
0.0
 10
-6.874026701863425
 20
4.428771832749766
 30
0.0
 10
-7.674498284279237
 20
4.33146197657186
 30
0.0
 10
-8.474910547693994
 20
4.207585288115793
 30
0.0
 10
-9.275253715863133
 20
4.05771610404289
 30
0.0
 10
-10.07551704683622
 20
3.882819181854519
 30
0.0
 10
-10.6449669528514
 20
3.741386387382336
 30
0.0
 10
-10.94829112151753
 20
3.661095415338662
 30
0.0
 10
-10.98605822573879
 20
3.651022686835468
 30
0.0
  0
SPLINE
  5
24B5
330
1F
100
AcDbEntity
  8
AM_0
100
AcDbSpline
210
0.0
220
0.0
230
1.0
 70
     8
 71
     3
 72
    11
 73
     7
 74
     0
 42
0.0000000001
 43
0.0000000001
 40
11.27226913003534
 40
11.27226913003534
 40
11.27226913003534
 40
11.2722691300354
 40
12.28301561507924
 40
13.29510212255852
 40
14.30984805882082
 40
15.18258238371378
 40
15.18258238371378
 40
15.18258238371378
 40
15.18258238371378
 10
-19.55277383967739
 20
-4.54999952953112
 30
0.0
 10
-19.81849835380254
 20
-4.527730507309745
 30
0.0
 10
-20.34944617508993
 20
-4.473818173699224
 30
0.0
 10
-21.14312619145479
 20
-4.365063661622713
 30
0.0
 10
-21.89634252174299
 20
-4.235168321414504
 30
0.0
 10
-22.38347863126182
 20
-4.135313907463139
 30
0.0
 10
-22.60796482171613
 20
-4.085988585049463
 30
0.0
  0
SPLINE
  5
24B6
330
1F
100
AcDbEntity
  8
AM_0
100
AcDbSpline
210
0.0
220
0.0
230
1.0
 70
     8
 71
     3
 72
    17
 73
    13
 74
     0
 42
0.0000000001
 43
0.0000000001
 40
1.580019955310467
 40
1.580019955310467
 40
1.580019955310467
 40
1.580019955310467
 40
2.030549285115227
 40
3.082371838836284
 40
4.126290986361125
 40
5.162752068350215
 40
6.192395305374981
 40
7.216039564037012
 40
8.234688489606833
 40
9.249433870634691
 40
10.26152376260694
 40
11.27226744710342
 40
11.27226744710342
 40
11.27226744710342
 40
11.27226744710352
 10
-12.01198818556026
 20
-3.358033511517451
 30
0.0
 10
-12.12525335569865
 20
-3.39261847188582
 30
0.0
 10
-12.5035970767761
 20
-3.505975298974925
 30
0.0
 10
-13.14952363397166
 20
-3.683779538241839
 30
0.0
 10
-13.94959922987101
 20
-3.882896698874982
 30
0.0
 10
-14.74989508583285
 20
-4.05769512879786
 30
0.0
 10
-15.55022761107141
 20
-4.2075878155963
 30
0.0
 10
-16.35064733110424
 20
-4.331484432627783
 30
0.0
 10
-17.15112234983871
 20
-4.428677956529756
 30
0.0
 10
-17.95164721255559
 20
-4.498538540745992
 30
0.0
 10
-18.75220219639534
 20
-4.540616484582833
 30
0.0
 10
-19.28603505336822
 20
-4.549999555566469
 30
0.0
 10
-19.55277383967734
 20
-4.54999952953112
 30
0.0
  0
ELLIPSE
  5
24B7
330
1F
100
AcDbEntity
  8
AM_11
 48
0.5
100
AcDbEllipse
 10
-17.32962994420975
 20
20.09720314218303
 30
0.0
 11
-23.19725211461353
 21
0.0000000000001765
 31
0.0
210
0.0
220
0.0
230
1.0
 40
0.9578947368421058
 41
1.130070686340284
 42
2.011520147323574
  0
ELLIPSE
  5
24B8
330
1F
100
AcDbEntity
  8
AM_11
 48
0.5
100
AcDbEllipse
 10
-17.32962994421085
 20
-20.09718855347516
 30
0.0
 11
-23.1972521146135
 21
0.0000000000001044
 31
0.0
210
0.0
220
0.0
230
1.0
 40
0.9578947368421054
 41
4.271664206181664
 42
5.153113667164971
  0
ELLIPSE
  5
24B9
330
1F
100
AcDbEntity
  8
AM_11
 48
0.5
100
AcDbEllipse
 10
2.462036722456933
 20
20.09720314218251
 30
0.0
 11
-23.19725211461348
 21
0.0000000000018145
 31
0.0
210
0.0
220
0.0
230
1.0
 40
0.9578947368421141
 41
1.130070686340349
 42
1.291800737381041
  0
SPLINE
  5
24BB
330
1F
100
AcDbEntity
  8
AM_0
100
AcDbSpline
210
0.0
220
0.0
230
1.0
 70
     8
 71
     3
 72
    22
 73
    18
 74
     0
 42
0.0000000001
 43
0.0000000001
 40
17.17441611292
 40
17.17441611292
 40
17.17441611292
 40
17.17441611292
 40
17.38177636558528
 40
18.41823744757437
 40
19.46215659509824
 40
20.51397914882054
 40
21.57394542641293
 40
22.64209583141747
 40
23.71826625065247
 40
24.80210429862395
 40
25.8930771157021
 40
26.99048705697709
 40
28.09349309193389
 40
29.20112995599786
 40
30.31233024745139
 40
31.42594771747373
 40
32.5407895042663
 40
32.54078950426994
 40
32.54078950426994
 40
32.54078950426994
 10
-22.60831493201118
 20
-4.085932460834256
 30
0.0
 10
-22.66192123499573
 20
-4.075399657106308
 30
0.0
 10
-22.98326174528094
 20
-4.01124319833555
 30
0.0
 10
-23.57193945265779
 20
-3.882601148351157
 30
0.0
 10
-24.37212643275395
 20
-3.68378973753319
 30
0.0
 10
-25.17223187547652
 20
-3.4622753267065
 30
0.0
 10
-25.97226142952508
 20
-3.219440663748653
 30
0.0
 10
-26.77221403811621
 20
-2.956774684179137
 30
0.0
 10
-27.57209954773895
 20
-2.675912079765347
 30
0.0
 10
-28.37192166208801
 20
-2.378578941706264
 30
0.0
 10
-29.17168778141991
 20
-2.06660890717233
 30
0.0
 10
-29.97140679862679
 20
-1.741926633671505
 30
0.0
 10
-30.77108565478729
 20
-1.406528602322178
 30
0.0
 10
-31.5707323999619
 20
-1.062478238488667
 30
0.0
 10
-32.37035412232306
 20
-0.7118910624659353
 30
0.0
 10
-33.16996266757122
 20
-0.3569303866252115
 30
0.0
 10
-33.70293039534885
 20
-0.1188657908096758
 30
0.0
 10
-33.96956066930961
 20
0.0002318954372871
 30
0.0
  0
SPLINE
  5
24BD
330
1F
100
AcDbEntity
  8
AM_0
100
AcDbSpline
210
0.0
220
0.0
230
1.0
 70
     8
 71
     3
 72
    46
 73
    42
 74
     0
 42
0.0000000001
 43
0.0000000001
 40
0.0
 40
0.0
 40
0.0
 40
0.0
 40
1.685415058684571
 40
2.531036209541119
 40
3.379897699130121
 40
4.232934581347655
 40
5.090970612202441
 40
5.954688180526682
 40
6.824620803463246
 40
7.701151815239689
 40
8.584457046566678
 40
9.474582384070741
 40
10.37139106676737
 40
11.27458944007583
 40
12.18373345430765
 40
13.09824173870457
 40
14.01741343450111
 40
14.9404441545541
 40
15.86644439743314
 40
16.79446029130534
 40
17.7234937712985
 40
18.65252725129241
 40
19.58054314516461
 40
20.50654338804289
 40
21.42957410809586
 40
22.34874580389317
 40
23.26325408828901
 40
24.17239810252111
 40
25.07560240389441
 40
25.97241108659103
 40
26.8625364240951
 40
27.74584165542183
 40
28.62236045019041
 40
29.49229307312697
 40
30.35601064145121
 40
31.21404606334468
 40
32.06708345193547
 40
32.91595755657689
 40
33.76157841950693
 40
34.60498701064689
 40
35.44727335621125
 40
35.44727335621125
 40
35.44727335621125
 40
35.44727335621125
 10
-2.23136906469379
 20
-4.54999952953157
 30
0.0
 10
-2.765227995428585
 20
-4.539634277812391
 30
0.0
 10
-3.566939287560544
 20
-4.524068481549294
 30
0.0
 10
-4.633009753924405
 20
-4.428232733546416
 30
0.0
 10
-5.43348963792328
 20
-4.33160480612045
 30
0.0
 10
-6.233901099947845
 20
-4.207550961093765
 30
0.0
 10
-7.034242031440238
 20
-4.057720787377093
 30
0.0
 10
-7.83450832089214
 20
-3.882830600844218
 30
0.0
 10
-8.634698627977758
 20
-3.684019700040767
 30
0.0
 10
-9.434809391567588
 20
-3.462508813327999
 30
0.0
 10
-10.23484221089115
 20
-3.21967183337118
 30
0.0
 10
-11.03479493410344
 20
-2.957006178255884
 30
0.0
 10
-11.83468041287291
 20
-2.676143486349659
 30
0.0
 10
-12.63450253480293
 20
-2.378810370384278
 30
0.0
 10
-13.43426865500381
 20
-2.066840335908277
 30
0.0
 10
-14.23398766098133
 20
-1.742158039665831
 30
0.0
 10
-15.03366656151331
 20
-1.406760099906227
 30
0.0
 10
-15.83331313949315
 20
-1.062709390512578
 30
0.0
 10
-16.63293587345411
 20
-0.7121233420014366
 30
0.0
 10
-17.43254206800207
 20
-0.3571578121307583
 30
0.0
 10
-18.23214154091921
 20
0.0000004703965828
 30
0.0
 10
-19.03174101366068
 20
0.3571587533579435
 30
0.0
 10
-19.83134720873554
 20
0.7121242819271982
 30
0.0
 10
-20.63096994077061
 20
1.062710335194464
 30
0.0
 10
-21.43061652589175
 20
1.406761026949379
 30
0.0
 10
-22.23029539994445
 20
1.742159032111617
 30
0.0
 10
-23.03001450398376
 20
2.066841086145104
 30
0.0
 10
-23.82978200011291
 20
2.378812694763841
 30
0.0
 10
-24.62960722976583
 20
2.676143109307137
 30
0.0
 10
-25.42949413540843
 20
2.957007241381063
 30
0.0
 10
-26.22944683999552
 20
3.21967297465337
 30
0.0
 10
-27.02947637287516
 20
3.462507723145868
 30
0.0
 10
-27.82958180549149
 20
3.684022036444412
 30
0.0
 10
-28.62976884625396
 20
3.882833749412149
 30
0.0
 10
-29.43003467255377
 20
4.057712493710863
 30
0.0
 10
-30.23037619080715
 20
4.207586124082137
 30
0.0
 10
-31.03079276111942
 20
4.33146281862742
 30
0.0
 10
-31.83126852044839
 20
4.428770988661495
 30
0.0
 10
-32.63179380482302
 20
4.498195244110132
 30
0.0
 10
-33.43234814767003
 20
4.541881266480345
 30
0.0
 10
-33.96618121974622
 20
4.547295270591131
 30
0.0
 10
-34.23292005702333
 20
4.550000470469266
 30
0.0
  0
LINE
  5
24C0
330
1F
100
AcDbEntity
  8
AM_11
 48
0.5
100
AcDbLine
 10
-46.09764082594476
 20
4.55064688054351
 30
0.0
 11
-36.47391105854119
 21
4.550000470469325
 31
0.0
  0
LINE
  5
24C1
330
1F
100
AcDbEntity
  8
AM_11
 48
0.5
100
AcDbLine
 10
-76.18169216955284
 20
-4.549999529529743
 30
0.0
 11
-64.97363413020496
 21
-4.549999529530034
 31
0.0
  0
LINE
  5
24C2
330
1F
100
AcDbEntity
  8
AM_11
 48
0.5
100
AcDbLine
 10
-76.18169216955256
 20
4.550000470470259
 30
0.0
 11
-64.97363413020469
 21
4.550000470469968
 31
0.0
  0
LINE
  5
24C3
330
1F
100
AcDbEntity
  8
AM_0
 48
0.5
100
AcDbLine
 10
-67.49291011337945
 20
2.305401032756065
 30
0.0
 11
-78.0
 21
-0.2766409445348563
 31
0.0
  0
LINE
  5
24C4
330
1F
100
AcDbEntity
  8
AM_0
100
AcDbLine
 10
-64.97363413020469
 20
4.550000470469968
 30
0.0
 11
-46.09764082594476
 21
4.55064688054351
 31
0.0
  0
LINE
  5
24C5
330
1F
100
AcDbEntity
  8
AM_0
 48
0.5
100
AcDbLine
 10
-64.97364017017038
 20
-4.549999529529974
 30
0.0
 11
-48.05237399692602
 21
-4.549999529530377
 31
0.0
  0
ELLIPSE
  5
24C7
330
1F
100
AcDbEntity
  8
AM_11
 48
0.5
100
AcDbEllipse
 10
-76.70462994420418
 20
20.09720314218454
 30
0.0
 11
-23.19725211461353
 21
0.0000000000005165
 31
0.0
210
0.0
220
0.0
230
1.0
 40
0.9578947368421058
 41
1.130070686340301
 42
2.011520147323591
  0
ELLIPSE
  5
24C8
330
1F
100
AcDbEntity
  8
AM_11
 48
0.5
100
AcDbEllipse
 10
-76.70462994420532
 20
-20.09718855347365
 30
0.0
 11
23.1972521146135
 21
0.0000000000003877
 31
0.0
210
0.0
220
0.0
230
1.0
 40
0.957894736842107
 41
1.13007155259185
 42
2.011521013575156
  0
ELLIPSE
  5
24C9
330
1F
100
AcDbEntity
  8
AM_11
 48
0.5
100
AcDbEllipse
 10
-96.49629661087184
 20
-20.09718855347319
 30
0.0
 11
-23.19725211461353
 21
0.0000000000000787
 31
0.0
210
0.0
220
0.0
230
1.0
 40
0.9578947368421061
 41
4.271664206181663
 42
5.153113667164971
  0
ELLIPSE
  5
24CA
330
1F
100
AcDbEntity
  8
AM_11
 48
0.5
100
AcDbEllipse
 10
-96.4962966108707
 20
20.09720314218501
 30
0.0
 11
-23.19725211461357
 21
0.0000000000000117
 31
0.0
210
0.0
220
0.0
230
1.0
 40
0.9578947368421045
 41
1.130070686340277
 42
2.011520147323567
  0
SPLINE
  5
24CB
330
1F
100
AcDbEntity
  8
AM_0
100
AcDbSpline
210
0.0
220
0.0
230
1.0
 70
     8
 71
     3
 72
    11
 73
     7
 74
     0
 42
0.0000000001
 43
0.0000000001
 40
11.27226913003534
 40
11.27226913003534
 40
11.27226913003534
 40
11.2722691300354
 40
12.28301561507924
 40
13.29510212255852
 40
14.30984805882082
 40
15.18258238371378
 40
15.18258238371378
 40
15.18258238371378
 40
15.18258238371378
 10
-48.05237399692487
 20
-4.549999529530473
 30
0.0
 10
-48.31809851105004
 20
-4.527730507309104
 30
0.0
 10
-48.84904633233743
 20
-4.473818173698579
 30
0.0
 10
-49.6427263487023
 20
-4.365063661622069
 30
0.0
 10
-50.39594267899051
 20
-4.235168321413859
 30
0.0
 10
-50.88307878850933
 20
-4.135313907462496
 30
0.0
 10
-51.10756497896365
 20
-4.085988585048816
 30
0.0
  0
SPLINE
  5
24CC
330
1F
100
AcDbEntity
  8
AM_0
100
AcDbSpline
210
0.0
220
0.0
230
1.0
 70
     8
 71
     3
 72
    17
 73
    13
 74
     0
 42
0.0000000001
 43
0.0000000001
 40
1.580019955310467
 40
1.580019955310467
 40
1.580019955310467
 40
1.580019955310467
 40
2.030549285115227
 40
3.082371838836284
 40
4.126290986361125
 40
5.162752068350215
 40
6.192395305374981
 40
7.216039564037012
 40
8.234688489606833
 40
9.249433870634691
 40
10.26152376260694
 40
11.27226744710342
 40
11.27226744710342
 40
11.27226744710342
 40
11.27226744710352
 10
-40.51158834280773
 20
-3.358033511516806
 30
0.0
 10
-40.62485351294611
 20
-3.392618471885175
 30
0.0
 10
-41.00319723402355
 20
-3.505975298974279
 30
0.0
 10
-41.64912379121913
 20
-3.683779538241193
 30
0.0
 10
-42.44919938711851
 20
-3.882896698874336
 30
0.0
 10
-43.24949524308036
 20
-4.057695128797216
 30
0.0
 10
-44.04982776831893
 20
-4.207587815595654
 30
0.0
 10
-44.85024748835176
 20
-4.331484432627138
 30
0.0
 10
-45.6507225070862
 20
-4.428677956529114
 30
0.0
 10
-46.45124736980307
 20
-4.498538540745346
 30
0.0
 10
-47.25180235364283
 20
-4.540616484582191
 30
0.0
 10
-47.78563521061571
 20
-4.549999555565821
 30
0.0
 10
-48.05237399692483
 20
-4.549999529530473
 30
0.0
  0
SPLINE
  5
24CD
330
1F
100
AcDbEntity
  8
AM_0
100
AcDbSpline
210
0.0
220
0.0
230
1.0
 70
     8
 71
     3
 72
    22
 73
    18
 74
     0
 42
0.0000000001
 43
0.0000000001
 40
17.17441611292
 40
17.17441611292
 40
17.17441611292
 40
17.17441611292
 40
17.38177636558528
 40
18.41823744757437
 40
19.46215659509824
 40
20.51397914882054
 40
21.57394542641293
 40
22.64209583141747
 40
23.71826625065247
 40
24.80210429862395
 40
25.8930771157021
 40
26.99048705697709
 40
28.09349309193389
 40
29.20112995599786
 40
30.31233024745139
 40
31.42594771747373
 40
32.5407895042663
 40
32.54078950426994
 40
32.54078950426994
 40
32.54078950426994
 10
-51.1079150892587
 20
-4.085932460833608
 30
0.0
 10
-51.16152139224325
 20
-4.075399657105661
 30
0.0
 10
-51.48286190252846
 20
-4.011243198334901
 30
0.0
 10
-52.07153960990529
 20
-3.88260114835051
 30
0.0
 10
-52.87172659000141
 20
-3.683789737532544
 30
0.0
 10
-53.67183203272397
 20
-3.462275326705855
 30
0.0
 10
-54.47186158677254
 20
-3.219440663748008
 30
0.0
 10
-55.27181419536369
 20
-2.956774684178492
 30
0.0
 10
-56.07169970498643
 20
-2.675912079764701
 30
0.0
 10
-56.8715218193355
 20
-2.378578941705618
 30
0.0
 10
-57.67128793866739
 20
-2.066608907171686
 30
0.0
 10
-58.47100695587431
 20
-1.741926633670861
 30
0.0
 10
-59.27068581203479
 20
-1.406528602321533
 30
0.0
 10
-60.07033255720935
 20
-1.062478238488022
 30
0.0
 10
-60.86995427957056
 20
-0.7118910624652903
 30
0.0
 10
-61.66956282481869
 20
-0.3569303866245666
 30
0.0
 10
-62.20253055259632
 20
-0.1188657908090307
 30
0.0
 10
-62.46916082655708
 20
0.0002318954379322
 30
0.0
  0
SPLINE
  5
24CE
330
1F
100
AcDbEntity
  8
AM_0
 48
0.5
100
AcDbSpline
210
0.0
220
0.0
230
1.0
 70
     8
 71
     3
 72
    26
 73
    22
 74
     0
 42
0.0000000001
 43
0.0000000001
 40
0.0
 40
0.0
 40
0.0
 40
0.0
 40
0.8422864037471089
 40
1.685694647057321
 40
2.531315797913884
 40
3.380177287502886
 40
4.233214169721234
 40
5.09125020057522
 40
5.954967768899448
 40
6.824900391836836
 40
7.701419186604396
 40
8.584724417931369
 40
9.47485577056355
 40
10.37165251267315
 40
11.27486274211709
 40
12.18400675634887
 40
13.09851504074504
 40
14.01768673654235
 40
14.94071745659532
 40
15.8667176994736
 40
16.76607142455336
 40
16.76607142455336
 40
16.76607142455336
 40
16.76607142455336
 10
-62.7326301400318
 20
-4.549999529530088
 30
0.0
 10
-62.99936892989209
 20
-4.547292389878546
 30
0.0
 10
-63.53320177846913
 20
-4.541874504941597
 30
0.0
 10
-64.33375677880654
 20
-4.498200266333607
 30
0.0
 10
-65.1342776087933
 20
-4.42876964551996
 30
0.0
 10
-65.93474888563743
 20
-4.331459954873348
 30
0.0
 10
-66.73516266360663
 20
-4.207590080261931
 30
0.0
 10
-67.5355029953535
 20
-4.057710274642048
 30
0.0
 10
-68.33576934844723
 20
-3.882833184134203
 30
0.0
 10
-69.13595626508892
 20
-3.684020924110993
 30
0.0
 10
-69.93606185355924
 20
-3.46250709142803
 30
0.0
 10
-70.73609269875705
 20
-3.21967040660477
 30
0.0
 10
-71.5360454856158
 20
-2.957010307895438
 30
0.0
 10
-72.33592927782587
 20
-2.676138017478331
 30
0.0
 10
-73.13575477038472
 20
-2.378813448762674
 30
0.0
 10
-73.93552369141492
 20
-2.066840249203851
 30
0.0
 10
-74.73524200277347
 20
-1.74215663687883
 30
0.0
 10
-75.53492439034617
 20
-1.406765839575992
 30
0.0
 10
-76.33455763849387
 20
-1.062687718690143
 30
0.0
 10
-77.12597691588353
 20
-0.7158219781462268
 30
0.0
 10
-77.65032196344432
 20
-0.4827951405287099
 30
0.0
 10
-78.0
 20
-0.2766409445348565
 30
0.0
  0
SPLINE
  5
24CF
330
1F
100
AcDbEntity
  8
AM_0
 48
0.5
100
AcDbSpline
210
0.0
220
0.0
230
1.0
 70
     8
 71
     3
 72
    22
 73
    18
 74
     0
 42
0.0000000001
 43
0.0000000001
 40
0.0
 40
0.0
 40
0.0
 40
0.0
 40
1.010743684496582
 40
2.022833993863546
 40
3.037578683882831
 40
4.056212471389632
 40
5.079857945358201
 40
6.109499720892564
 40
7.145961650132166
 40
8.189873411961459
 40
9.241710626092514
 40
10.30166235592959
 40
11.36982472628033
 40
12.44598212828784
 40
13.52983440361964
 40
14.62080578343036
 40
14.90544694398022
 40
14.90544694398022
 40
14.90544694398022
 40
14.90544694398022
 10
-64.97364017014267
 20
-4.549999529530035
 30
0.0
 10
-65.2403790109401
 20
-4.547293198524013
 30
0.0
 10
-65.77421207161122
 20
-4.541876930837586
 30
0.0
 10
-66.57476623359989
 20
-4.498190528042178
 30
0.0
 10
-67.37528792799352
 20
-4.42877158935294
 30
0.0
 10
-68.17575963739759
 20
-4.331461834444918
 30
0.0
 10
-68.97617120927897
 20
-4.20758030762435
 30
0.0
 10
-69.7765142935046
 20
-4.057713460909707
 30
0.0
 10
-70.5767771622077
 20
-3.882830015548164
 30
0.0
 10
-71.37696531827501
 20
-3.684014877131013
 30
0.0
 10
-72.17707155483447
 20
-3.462509414145153
 30
0.0
 10
-72.9771000531627
 20
-3.219661733789456
 30
0.0
 10
-73.77705597050398
 20
-2.957017186885335
 30
0.0
 10
-74.57693870599754
 20
-2.67613718414555
 30
0.0
 10
-75.37676324450401
 20
-2.378811058356917
 30
0.0
 10
-75.97788728047152
 20
-2.144337238675584
 30
0.0
 10
-76.31285457035994
 20
-2.010319540303918
 30
0.0
 10
-76.38211466739851
 20
-1.982471855479649
 30
0.0
  0
SPLINE
  5
24D0
330
1F
100
AcDbEntity
  8
AM_0
100
AcDbSpline
210
0.0
220
0.0
230
1.0
 70
     8
 71
     3
 72
    13
 73
     9
 74
     0
 42
0.0000000001
 43
0.0000000001
 40
16.03460056234195
 40
16.03460056234195
 40
16.03460056234195
 40
16.03460056234195
 40
16.35212717791071
 40
17.38177067057215
 40
18.41822498539278
 40
19.46214186516937
 40
20.5139635832251
 40
21.34083983469381
 40
21.34083983469381
 40
21.34083983469381
 40
21.34083983469381
 10
-76.18133058138582
 20
-4.55041333197682
 30
0.0
 10
-76.09908336015549
 20
-4.535053785596038
 30
0.0
 10
-75.7504833486595
 20
-4.468167149424241
 30
0.0
 10
-75.13642151710302
 20
-4.337107868101034
 30
0.0
 10
-74.34120930416092
 20
-4.142226965669917
 30
0.0
 10
-73.54673584880934
 20
-3.92340744252529
 30
0.0
 10
-72.81158654524896
 20
-3.699754250238854
 30
0.0
 10
-72.34257423548649
 20
-3.545753110778041
 30
0.0
 10
-72.13682134618166
 20
-3.476143192483112
 30
0.0
  0
SPLINE
  5
24D1
330
1F
100
AcDbEntity
  8
AM_0
100
AcDbSpline
210
0.0
220
0.0
230
1.0
 70
     8
 71
     3
 72
    23
 73
    19
 74
     0
 42
0.0000000001
 43
0.0000000001
 40
16.03460024169435
 40
16.03460024169435
 40
16.03460024169435
 40
16.03460024169435
 40
16.35212704903564
 40
17.38177054169784
 40
18.41822485651776
 40
19.46214173629503
 40
20.51396345435107
 40
21.57393551351153
 40
22.64208202342361
 40
23.7182574881101
 40
24.80209208578934
 40
25.89306333925047
 40
26.99048218457928
 40
28.09348763352352
 40
29.20111863782268
 40
30.31232390128032
 40
31.42594612798585
 40
32.5407912310448
 40
32.5407912310486
 40
32.5407912310486
 40
32.5407912310486
 10
-74.59735090895296
 20
4.55064688054415
 30
0.0
 10
-74.5151037210527
 20
4.5352868817974
 30
0.0
 10
-74.16650399801581
 20
4.468398410421601
 30
0.0
 10
-73.55244183172459
 20
4.33734065922838
 30
0.0
 10
-72.75722971885634
 20
4.14245921643767
 30
0.0
 10
-71.96275623640274
 20
3.923639839631532
 30
0.0
 10
-71.16897443829214
 20
3.682148943753408
 30
0.0
 10
-70.37585615180185
 20
3.419332845954081
 30
0.0
 10
-69.5833555365957
 20
3.136693913881575
 30
0.0
 10
-68.79141740594303
 20
2.835877035224601
 30
0.0
 10
-67.99999675907502
 20
2.518585718428255
 30
0.0
 10
-67.20903014492847
 20
2.186666207734438
 30
0.0
 10
-66.41845346450442
 20
1.842047762744581
 30
0.0
 10
-65.62821404393358
 20
1.486711795044063
 30
0.0
 10
-64.83824576484335
 20
1.122724534623784
 30
0.0
 10
-64.04847545944071
 20
0.7522114000427621
 30
0.0
 10
-63.25883881812867
 20
0.3773194145844743
 30
0.0
 10
-62.73255578800494
 20
0.1259748372165905
 30
0.0
 10
-62.46927075231428
 20
0.0002318954362945
 30
0.0
  0
ELLIPSE
  5
24D2
330
1F
100
AcDbEntity
  8
AM_0
 48
0.5
100
AcDbEllipse
 10
-76.3253339593069
 20
-3.033332862863093
 30
0.0
 11
-1.634553517716212
 21
0.4278041733279624
 31
0.0
210
0.0
220
0.0
230
1.0
 40
0.8917303648391815
 41
0.2967145149700809
 42
1.800080268714434
  0
ELLIPSE
  5
24D3
330
1F
100
AcDbEntity
  8
AM_0
 48
0.5
100
AcDbEllipse
 10
-76.72145720963204
 20
-3.079542643238183
 30
0.0
 11
1.273111609774627
 21
0.1585879277152394
 31
0.0
210
0.0
220
0.0
230
1.0
 40
0.8775001983986971
 41
1.193750574995494
 42
2.974738811489352
  0
ELLIPSE
  5
24D4
330
1F
100
AcDbEntity
  8
AM_11
 48
0.5
100
AcDbEllipse
 10
-56.91296327753753
 20
20.09720314218407
 30
0.0
 11
-23.19725211461356
 21
0.0000000000001353
 31
0.0
210
0.0
220
0.0
230
1.0
 40
0.9578947368421049
 41
1.130070686340283
 42
2.011520147323574
  0
ELLIPSE
  5
24D5
330
1F
100
AcDbEntity
  8
AM_11
 48
0.5
100
AcDbEllipse
 10
-56.91296327753864
 20
-20.09718855347413
 30
0.0
 11
-23.19725211461346
 21
0.0000000000004186
 31
0.0
210
0.0
220
0.0
230
1.0
 40
0.9578947368421083
 41
4.271664206181676
 42
5.153113667164986
  0
ELLIPSE
  5
24DA
330
1F
100
AcDbEntity
  8
AM_11
 48
0.5
100
AcDbEllipse
 10
-136.0796265404638
 20
-20.09713351066407
 30
0.0
 11
23.19725211461342
 21
0.0000000000003671
 31
0.0
210
0.0
220
0.0
230
1.0
 40
0.9578947368421085
 41
1.13007155259185
 42
1.653675700510905
  0
ELLIPSE
  5
24DB
330
1F
100
AcDbEntity
  8
AM_11
 48
0.5
100
AcDbEllipse
 10
-136.0796265404627
 20
20.09725818499413
 30
0.0
 11
-23.19725211461347
 21
0.000000000000362
 31
0.0
210
0.0
220
0.0
230
1.0
 40
0.9578947368421086
 41
1.487916953078831
 42
2.011520147323584
  0
ELLIPSE
  5
24DC
330
1F
100
AcDbEntity
  8
AM_11
 48
0.5
100
AcDbEllipse
 10
-116.2880037070065
 20
-20.09717028717649
 30
0.0
 11
23.1972521146135
 21
0.0000000000003208
 31
0.0
210
0.0
220
0.0
230
1.0
 40
0.9578947368421049
 41
1.130071552591854
 42
2.011521013575157
  0
ELLIPSE
  5
24DD
330
1F
100
AcDbEntity
  8
AM_11
 48
0.5
100
AcDbEllipse
 10
-116.2880037070053
 20
20.09722140848172
 30
0.0
 11
-23.19725211461354
 21
0.0000000000004186
 31
0.0
210
0.0
220
0.0
230
1.0
 40
0.9578947368421047
 41
1.130070686340294
 42
2.011520147323585
  0
LINE
  5
24DE
330
1F
100
AcDbEntity
  8
AM_0
 48
0.5
100
AcDbLine
 10
-74.59408235878446
 20
4.55003624382478
 30
0.0
 11
-81.22063527411619
 21
4.550033903434991
 31
0.0
  0
LINE
  5
24DF
330
1F
100
AcDbEntity
  8
AM_0
 48
0.5
100
AcDbLine
 10
-74.59408235878448
 20
4.55003624382478
 30
0.0
 11
-81.22063527411617
 21
4.550033903434991
 31
0.0
  0
LINE
  5
24E0
330
1F
100
AcDbEntity
  8
AM_0
100
AcDbLine
 10
-76.26350916072254
 20
4.550000470470295
 30
0.0
 11
-81.22057987032855
 21
4.550001916018692
 31
0.0
  0
LINE
  5
24E1
330
1F
100
AcDbEntity
  8
AM_0
 48
0.5
100
AcDbLine
 10
-76.18169216955284
 20
-4.549999529529743
 30
0.0
 11
-81.22060401722116
 21
-4.550001263483407
 31
0.0
  0
SPLINE
  5
24E2
330
1F
100
AcDbEntity
  8
AM_0
100
AcDbSpline
210
0.0
220
0.0
230
1.0
 70
     8
 71
     3
 72
    23
 73
    19
 74
     0
 42
0.0000000001
 43
0.0000000001
 40
16.03460024169435
 40
16.03460024169435
 40
16.03460024169435
 40
16.03460024169435
 40
16.35212704903564
 40
17.38177054169784
 40
18.41822485651776
 40
19.46214173629503
 40
20.51396345435107
 40
21.57393551351153
 40
22.64208202342361
 40
23.7182574881101
 40
24.80209208578934
 40
25.89306333925047
 40
26.99048218457928
 40
28.09348763352352
 40
29.20111863782268
 40
30.31232390128032
 40
31.42594612798585
 40
32.5407912310448
 40
32.5407912310486
 40
32.5407912310486
 40
32.5407912310486
 10
-46.09764082594476
 20
4.550646880543509
 30
0.0
 10
-46.01539363804448
 20
4.53528688179676
 30
0.0
 10
-45.6667939150076
 20
4.468398410420959
 30
0.0
 10
-45.05273174871637
 20
4.33734065922774
 30
0.0
 10
-44.25751963584812
 20
4.142459216437027
 30
0.0
 10
-43.46304615339454
 20
3.923639839630892
 30
0.0
 10
-42.66926435528398
 20
3.682148943752765
 30
0.0
 10
-41.8761460687937
 20
3.419332845953439
 30
0.0
 10
-41.08364545358756
 20
3.136693913880932
 30
0.0
 10
-40.29170732293489
 20
2.835877035223959
 30
0.0
 10
-39.50028667606678
 20
2.518585718427612
 30
0.0
 10
-38.7093200619202
 20
2.186666207733796
 30
0.0
 10
-37.91874338149616
 20
1.842047762743939
 30
0.0
 10
-37.1285039609253
 20
1.48671179504342
 30
0.0
 10
-36.33853568183514
 20
1.122724534623142
 30
0.0
 10
-35.5487653764325
 20
0.7522114000421199
 30
0.0
 10
-34.75912873512047
 20
0.3773194145838321
 30
0.0
 10
-34.23284570499673
 20
0.1259748372159483
 30
0.0
 10
-33.96956066930608
 20
0.0002318954356523
 30
0.0
  0
LINE
  5
24E3
330
1F
100
AcDbEntity
  8
AM_11
 48
0.5
100
AcDbLine
 10
-48.05237399692298
 20
-4.549999529530472
 30
0.0
 11
-32.97197925205217
 21
-4.550645939604786
 31
0.0
  0
SPLINE
  5
24E4
330
1F
100
AcDbEntity
  8
AM_0
100
AcDbSpline
210
0.0
220
0.0
230
1.0
 70
     8
 71
     3
 72
    46
 73
    42
 74
     0
 42
0.0000000001
 43
0.0000000001
 40
0.0
 40
0.0
 40
0.0
 40
0.0
 40
1.685415058684573
 40
2.531036209541122
 40
3.379897699130124
 40
4.232934581347651
 40
5.090970612202446
 40
5.954688180526682
 40
6.824620803463244
 40
7.701151815239691
 40
8.584457046566678
 40
9.474582384070743
 40
10.37139106676737
 40
11.27458944007583
 40
12.18373345430765
 40
13.09824173870457
 40
14.0174134345011
 40
14.94044415455409
 40
15.86644439743313
 40
16.79446029130533
 40
17.72349377129849
 40
18.65252725129241
 40
19.5805431451646
 40
20.5065433880429
 40
21.42957410809586
 40
22.34874580389317
 40
23.26325408828901
 40
24.17239810252111
 40
25.07560240389441
 40
25.97241108659103
 40
26.8625364240951
 40
27.74584165542183
 40
28.62236045019041
 40
29.49229307312697
 40
30.35601064145121
 40
31.21404606334469
 40
32.06708345193547
 40
32.91595755657689
 40
33.76157841950692
 40
34.60498701064691
 40
35.44727335621125
 40
35.44727335621125
 40
35.44727335621125
 40
35.44727335621125
 10
-30.73096922194128
 20
-4.549999529530923
 30
0.0
 10
-31.26482815267608
 20
-4.539634277811749
 30
0.0
 10
-32.06653944480804
 20
-4.52406848154865
 30
0.0
 10
-33.13260991117189
 20
-4.428232733545767
 30
0.0
 10
-33.93308979517079
 20
-4.331604806119808
 30
0.0
 10
-34.73350125719535
 20
-4.207550961093118
 30
0.0
 10
-35.53384218868774
 20
-4.05772078737645
 30
0.0
 10
-36.33410847813964
 20
-3.882830600843573
 30
0.0
 10
-37.13429878522521
 20
-3.684019700040122
 30
0.0
 10
-37.93440954881505
 20
-3.462508813327354
 30
0.0
 10
-38.73444236813861
 20
-3.219671833370533
 30
0.0
 10
-39.53439509135091
 20
-2.95700617825524
 30
0.0
 10
-40.3342805701204
 20
-2.676143486349014
 30
0.0
 10
-41.13410269205039
 20
-2.37881037038363
 30
0.0
 10
-41.93386881225133
 20
-2.066840335907636
 30
0.0
 10
-42.73358781822881
 20
-1.742158039665184
 30
0.0
 10
-43.53326671876083
 20
-1.406760099905584
 30
0.0
 10
-44.33291329674061
 20
-1.062709390511931
 30
0.0
 10
-45.13253603070154
 20
-0.7121233420007929
 30
0.0
 10
-45.93214222524957
 20
-0.3571578121301128
 30
0.0
 10
-46.73174169816669
 20
0.0000004703972279
 30
0.0
 10
-47.53134117090816
 20
0.357158753358588
 30
0.0
 10
-48.33094736598305
 20
0.712124281927845
 30
0.0
 10
-49.13057009801813
 20
1.062710335195107
 30
0.0
 10
-49.93021668313919
 20
1.406761026950024
 30
0.0
 10
-50.72989555719193
 20
1.742159032112264
 30
0.0
 10
-51.52961466123125
 20
2.066841086145749
 30
0.0
 10
-52.32938215736038
 20
2.378812694764485
 30
0.0
 10
-53.12920738701333
 20
2.676143109307785
 30
0.0
 10
-53.92909429265591
 20
2.957007241381708
 30
0.0
 10
-54.72904699724302
 20
3.219672974654015
 30
0.0
 10
-55.52907653012268
 20
3.462507723146512
 30
0.0
 10
-56.329181962739
 20
3.684022036445056
 30
0.0
 10
-57.12936900350143
 20
3.882833749412796
 30
0.0
 10
-57.92963482980123
 20
4.05771249371151
 30
0.0
 10
-58.72997634805457
 20
4.207586124082785
 30
0.0
 10
-59.5303929183669
 20
4.331462818628063
 30
0.0
 10
-60.33086867769584
 20
4.428770988662136
 30
0.0
 10
-61.13139396207053
 20
4.498195244110782
 30
0.0
 10
-61.93194830491751
 20
4.541881266480987
 30
0.0
 10
-62.46578137699369
 20
4.547295270591775
 30
0.0
 10
-62.73252021427081
 20
4.550000470469911
 30
0.0
  0
SPLINE
  5
24E5
330
1F
100
AcDbEntity
  8
AM_0
100
AcDbSpline
210
0.0
220
0.0
230
1.0
 70
     8
 71
     3
 72
    55
 73
    51
 74
     0
 42
0.0000000001
 43
0.0000000001
 40
0.0
 40
0.0
 40
0.0
 40
0.0
 40
1.010743684496582
 40
2.022833576467832
 40
3.037578957496688
 40
4.056212745003489
 40
5.079857003664532
 40
6.109500240690281
 40
7.145961322679372
 40
8.189895241603872
 40
9.241717795325891
 40
10.30168407291828
 40
11.36983447792315
 40
12.44600489715814
 40
13.52984294512926
 40
14.62081576220742
 40
15.7182257034828
 40
16.82123173843959
 40
17.92886860250316
 40
19.0400688939571
 40
20.15368796660465
 40
21.26852814259644
 40
22.38336992938901
 40
23.49698739941135
 40
24.6081876908653
 40
25.71582455492886
 40
26.81883757994213
 40
27.91624752121713
 40
29.00722033829659
 40
30.09105838626677
 40
31.16722880550176
 40
32.23537921050758
 40
33.29534548809967
 40
34.347168041821
 40
35.39108718934584
 40
36.42754827133493
 40
37.45720575381954
 40
38.48085062012849
 40
39.49948440763516
 40
40.51422944315121
 40
41.52631975251916
 40
42.53706336719636
 40
43.54780698187354
 40
44.55989729124051
 40
45.57464232675757
 40
46.59327611426424
 40
47.6169209805722
 40
48.64656348684535
 40
49.68302456883444
 40
50.58557219878025
 40
50.58557219878025
 40
50.58557219878025
 40
50.58557219878025
 10
-32.97197925205216
 20
-4.549999529530865
 30
0.0
 10
-33.23871804188037
 20
-4.547292389761349
 30
0.0
 10
-33.77255089039293
 20
-4.541874504588322
 30
0.0
 10
-34.5731058912129
 20
-4.498200267754293
 30
0.0
 10
-35.37362671935834
 20
-4.428769640171704
 30
0.0
 10
-36.1740980031238
 20
-4.331459974969122
 30
0.0
 10
-36.97451175506595
 20
-4.207590004677864
 30
0.0
 10
-37.77485218481106
 20
-4.05771055931578
 30
0.0
 10
-38.57512196946235
 20
-3.882831280248407
 30
0.0
 10
-39.37531401224416
 20
-3.684023044507424
 30
0.0
 10
-40.17542286239035
 20
-3.462506522599792
 30
0.0
 10
-40.97545250800123
 20
-3.219672150835071
 30
0.0
 10
-41.7754050917157
 20
-2.95700609221609
 30
0.0
 10
-42.57529060830054
 20
-2.676143509679481
 30
0.0
 10
-43.3751127199296
 20
-2.378810363971516
 30
0.0
 10
-44.17487884314367
 20
-2.066840338008594
 30
0.0
 10
-44.97459784745728
 20
-1.742158037716258
 30
0.0
 10
-45.77427675163137
 20
-1.406760105622822
 30
0.0
 10
-46.57392331664079
 20
-1.062709369483676
 30
0.0
 10
-47.37354609904371
 20
-0.7121234207044873
 30
0.0
 10
-48.17315211229304
 20
-0.3571575176201494
 30
0.0
 10
-48.97275264806424
 20
-0.0000004578957291
 30
0.0
 10
-49.77234959429807
 20
0.3571630308783492
 30
0.0
 10
-50.57195828765247
 20
0.7121234062046695
 30
0.0
 10
-51.37158008291035
 20
1.062710416187566
 30
0.0
 10
-52.17122807368074
 20
1.406762463006667
 30
0.0
 10
-52.97091029530655
 20
1.742157532755255
 30
0.0
 10
-53.77063056178802
 20
2.06684147963861
 30
0.0
 10
-54.57039680046171
 20
2.378811252626005
 30
0.0
 10
-55.37021888298781
 20
2.676144460862013
 30
0.0
 10
-56.17010440162083
 20
2.95700704380947
 30
0.0
 10
-56.97005700571072
 20
3.219673039621037
 30
0.0
 10
-57.7700865687498
 20
3.462507659341991
 30
0.0
 10
-58.57019198032208
 20
3.684022225261569
 30
0.0
 10
-59.37037907484035
 20
3.882833064894423
 30
0.0
 10
-60.17064856263308
 20
4.057715860564097
 30
0.0
 10
-60.97099470707709
 20
4.207578187612967
 30
0.0
 10
-61.77141110336009
 20
4.331486498278604
 30
0.0
 10
-62.57188262442105
 20
4.428680815433105
 30
0.0
 10
-63.37240400879267
 20
4.498533069924592
 30
0.0
 10
-64.1729583308374
 20
4.540624216795225
 30
0.0
 10
-64.97353024457787
 20
4.554685476208602
 30
0.0
 10
-65.77410215714042
 20
4.540624216773218
 30
0.0
 10
-66.57465648272578
 20
4.498533070013104
 30
0.0
 10
-67.37517785406177
 20
4.428680815099891
 30
0.0
 10
-68.17564942399659
 20
4.331486499531268
 30
0.0
 10
-68.97606173436172
 20
4.207578786976289
 30
0.0
 10
-69.77640472574655
 20
4.057717392825608
 30
0.0
 10
-70.54028769665203
 20
3.890771636628326
 30
0.0
 10
-71.03590366752202
 20
3.76868262687058
 30
0.0
 10
-71.26584059141771
 20
3.709182696555066
 30
0.0
  0
ELLIPSE
  5
24E6
330
1F
100
AcDbEntity
  8
AM_11
 48
0.5
100
AcDbEllipse
 10
-37.12129661087752
 20
-20.09718855347466
 30
0.0
 11
-23.19725211461349
 21
0.0000000000006298
 31
0.0
210
0.0
220
0.0
230
1.0
 40
0.957894736842106
 41
4.271664206181685
 42
5.153113667164993
  0
ELLIPSE
  5
24E7
330
1F
100
AcDbEntity
  8
AM_11
 48
0.5
100
AcDbEllipse
 10
-37.12129661087641
 20
20.09720314218354
 30
0.0
 11
23.19725211461354
 21
0.0000000000000375
 31
0.0
210
0.0
220
0.0
230
1.0
 40
0.9578947368421051
 41
4.271663339930067
 42
5.153112800913361
  0
LINE
  5
24E8
330
1F
100
AcDbEntity
  8
AM_0
 48
0.5
100
AcDbLine
 10
-36.47392404719649
 20
4.550000470469325
 30
0.0
 11
-16.61478799212761
 21
4.550000470468808
 31
0.0
  0
SPLINE
  5
24E9
330
1F
100
AcDbEntity
  8
AM_0
100
AcDbSpline
210
0.0
220
0.0
230
1.0
 70
     8
 71
     3
 72
    55
 73
    51
 74
     0
 42
0.0000000001
 43
0.0000000001
 40
0.0
 40
0.0
 40
0.0
 40
0.0
 40
1.010743684496582
 40
2.022833576467832
 40
3.037578957496688
 40
4.056212745003489
 40
5.079857003664532
 40
6.109500240690281
 40
7.145961322679372
 40
8.189895241603872
 40
9.241717795325891
 40
10.30168407291828
 40
11.36983447792315
 40
12.44600489715814
 40
13.52984294512926
 40
14.62081576220742
 40
15.7182257034828
 40
16.82123173843959
 40
17.92886860250316
 40
19.0400688939571
 40
20.15368796660465
 40
21.26852814259644
 40
22.38336992938901
 40
23.49698739941135
 40
24.6081876908653
 40
25.71582455492886
 40
26.81883757994213
 40
27.91624752121713
 40
29.00722033829659
 40
30.09105838626677
 40
31.16722880550176
 40
32.23537921050758
 40
33.29534548809967
 40
34.347168041821
 40
35.39108718934584
 40
36.42754827133493
 40
37.45720575381954
 40
38.48085062012849
 40
39.49948440763516
 40
40.51422944315121
 40
41.52631975251916
 40
42.53706336719636
 40
43.54780698187354
 40
44.55989729124051
 40
45.57464232675757
 40
46.59327611426424
 40
47.6169209805722
 40
48.64656348684535
 40
49.68302456883444
 40
50.58557219878025
 40
50.58557219878025
 40
50.58557219878025
 40
50.58557219878025
 10
-4.472379094804669
 20
-4.549999529531507
 30
0.0
 10
-4.739117884632874
 20
-4.547292389761991
 30
0.0
 10
-5.27295073314544
 20
-4.541874504588969
 30
0.0
 10
-6.073505733965406
 20
-4.498200267754936
 30
0.0
 10
-6.874026562110847
 20
-4.42876964017235
 30
0.0
 10
-7.674497845876304
 20
-4.331459974969769
 30
0.0
 10
-8.474911597818447
 20
-4.207590004678507
 30
0.0
 10
-9.27525202756354
 20
-4.057710559316427
 30
0.0
 10
-10.07552181221484
 20
-3.88283128024905
 30
0.0
 10
-10.87571385499669
 20
-3.684023044508069
 30
0.0
 10
-11.6758227051429
 20
-3.462506522600436
 30
0.0
 10
-12.47585235075377
 20
-3.219672150835717
 30
0.0
 10
-13.27580493446823
 20
-2.957006092216735
 30
0.0
 10
-14.07569045105305
 20
-2.676143509680126
 30
0.0
 10
-14.87551256268211
 20
-2.378810363972161
 30
0.0
 10
-15.67527868589617
 20
-2.06684033800924
 30
0.0
 10
-16.47499769020975
 20
-1.742158037716903
 30
0.0
 10
-17.27467659438386
 20
-1.406760105623467
 30
0.0
 10
-18.07432315939335
 20
-1.062709369484321
 30
0.0
 10
-18.87394594179626
 20
-0.7121234207051321
 30
0.0
 10
-19.67355195504556
 20
-0.3571575176207945
 30
0.0
 10
-20.47315249081675
 20
-0.0000004578963742
 30
0.0
 10
-21.27274943705059
 20
0.3571630308777041
 30
0.0
 10
-22.07235813040495
 20
0.7121234062040243
 30
0.0
 10
-22.87197992566283
 20
1.06271041618692
 30
0.0
 10
-23.67162791643329
 20
1.406762463006021
 30
0.0
 10
-24.47131013805909
 20
1.742157532754609
 30
0.0
 10
-25.27103040454054
 20
2.066841479637965
 30
0.0
 10
-26.07079664321423
 20
2.37881125262536
 30
0.0
 10
-26.87061872574032
 20
2.676144460861368
 30
0.0
 10
-27.67050424437334
 20
2.957007043808824
 30
0.0
 10
-28.47045684846321
 20
3.219673039620391
 30
0.0
 10
-29.27048641150229
 20
3.462507659341345
 30
0.0
 10
-30.07059182307457
 20
3.684022225260925
 30
0.0
 10
-30.87077891759287
 20
3.882833064893777
 30
0.0
 10
-31.67104840538562
 20
4.057715860563451
 30
0.0
 10
-32.47139454982961
 20
4.207578187612324
 30
0.0
 10
-33.2718109461126
 20
4.331486498277961
 30
0.0
 10
-34.07228246717356
 20
4.428680815432462
 30
0.0
 10
-34.8728038515452
 20
4.498533069923944
 30
0.0
 10
-35.67335817358994
 20
4.540624216794578
 30
0.0
 10
-36.4739300873304
 20
4.554685476207959
 30
0.0
 10
-37.27450199989291
 20
4.540624216772571
 30
0.0
 10
-38.07505632547829
 20
4.498533070012461
 30
0.0
 10
-38.87557769681427
 20
4.428680815099243
 30
0.0
 10
-39.67604926674908
 20
4.331486499530621
 30
0.0
 10
-40.47646157711424
 20
4.207578786975646
 30
0.0
 10
-41.27680456849907
 20
4.057717392824962
 30
0.0
 10
-42.04068753940454
 20
3.890771636627682
 30
0.0
 10
-42.53630351027459
 20
3.768682626869936
 30
0.0
 10
-42.76624043417027
 20
3.70918269655442
 30
0.0
  0
LINE
  5
2567
330
1F
100
AcDbEntity
  8
AM_0
 48
0.5
100
AcDbLine
 10
-138.0
 20
-4.754479572481244
 30
0.0
 11
-138.0
 21
4.754501072592363
 31
0.0
  0
LINE
  5
2568
330
1F
100
AcDbEntity
  8
AM_0
 48
0.5
100
AcDbLine
 10
-137.7544818454375
 20
-5.000003025240291
 30
0.0
 11
-137.7544818454375
 21
5.00002452535139
 31
0.0
  0
LINE
  5
2569
330
1F
100
AcDbEntity
  8
AM_0
 48
0.5
100
AcDbLine
 10
-81.99999999999999
 20
-4.999992428858878
 30
0.0
 11
-82.00000000000001
 21
5.000024525351547
 31
0.0
  0
LINE
  5
256C
330
1F
100
AcDbEntity
  8
AM_0
100
AcDbLine
 10
-137.7544818454375
 20
-4.999992428859036
 30
0.0
 11
-81.99999999999999
 21
-4.999992428858878
 31
0.0
  0
LINE
  5
256D
330
1F
100
AcDbEntity
  8
AM_0
 48
0.5
100
AcDbLine
 10
-137.9999682108611
 20
-4.754458379718757
 30
0.0
 11
-137.7544394599097
 21
-4.999981832477782
 31
0.0
  0
LINE
  5
256E
330
1F
100
AcDbEntity
  8
AM_0
 48
0.5
100
AcDbLine
 10
-81.22057987032853
 20
-4.549987322250883
 30
0.0
 11
-82.00001059638124
 21
-4.999992428858878
 31
0.0
  0
LINE
  5
256F
330
1F
100
AcDbEntity
  8
AM_0
100
AcDbLine
 10
-82.00000000000001
 20
5.000011279874455
 30
0.0
 11
-137.7544818454375
 21
5.000011279874298
 31
0.0
  0
LINE
  5
2570
330
1F
100
AcDbEntity
  8
AM_0
 48
0.5
100
AcDbLine
 10
-137.9999682108611
 20
4.754456037972223
 30
0.0
 11
-137.7544394599097
 21
4.999979490730558
 31
0.0
  0
LINE
  5
2571
330
1F
100
AcDbEntity
  8
AM_0
 48
0.5
100
AcDbLine
 10
-81.22057987032853
 20
4.550001916018693
 30
0.0
 11
-82.00000000000001
 21
5.000000683493204
 31
0.0
  0
LINE
  5
2572
330
1F
100
AcDbEntity
  8
AM_0
100
AcDbLine
 10
-81.22057987032855
 20
4.550001916018693
 30
0.0
 11
-81.22057987032851
 21
-4.549987322250875
 31
0.0
  0
DIMENSION
  5
2599
330
1F
100
AcDbEntity
  8
AM_5
100
AcDbDimension
  2
*D9
 10
-147.500001
 20
5.000024525351394
 30
0.0
 11
-147.500001
 21
0.0000107500555445
 31
0.0
 70
   160
  1
%%c<>
 51
359.9999999999998
  3
AM_JIS$0
100
AcDbAlignedDimension
 13
-137.7544818454374
 23
-5.000003025240291
 33
0.0
 14
-137.7544818454375
 24
5.00002452535139
 34
0.0
 50
270.0000000000002
100
AcDbRotatedDimension
1001
ACAD
1000
DSTYLE
1002
{
1070
   271
1070
     0
1002
}
1001
GENIUS_GENDTOL_13
1000

1000
h7
1000

1040
0.0
  0
ELLIPSE
  5
27A6
330
1F
100
AcDbEntity
  8
AM_0
 48
0.5
100
AcDbEllipse
 10
-6.979548092655786
 20
7.636550090279739
 30
0.0
 11
8.222251882389972
 21
9.490635263345527
 31
0.0
210
0.0
220
0.0
230
1.0
 40
0.8358243761330362
 41
4.335410045535479
 42
4.395340564733358
  0
ELLIPSE
  5
27A7
330
1F
100
AcDbEntity
  8
AM_0
 48
0.5
100
AcDbEllipse
 10
4.51971492989541
 20
-2.211132226686304
 30
0.0
 11
7.157188856147855
 21
0.7132488730988457
 31
0.0
210
0.0
220
0.0
230
0.9999999999999998
 40
0.655140168088503
 41
2.998171472974892
 42
3.506322016601321
  0
ELLIPSE
  5
27A8
330
1F
100
AcDbEntity
  8
AM_0
 48
0.5
100
AcDbEllipse
 10
-1.705984283308353
 20
-1.617379310910533
 30
0.0
 11
-0.1119795561551479
 21
0.7479863663112905
 31
0.0
210
0.0
220
0.0
230
1.0
 40
0.4534573216539381
 41
1.826014466327523
 42
4.9613563560395
  0
ELLIPSE
  5
27A9
330
1F
100
AcDbEntity
  8
AM_0
 48
0.5
100
AcDbEllipse
 10
-1.705984283308353
 20
-1.617379310910533
 30
0.0
 11
-0.5802101586366091
 21
0.3995275051678614
 31
0.0
210
0.0
220
0.0
230
1.0
 40
0.5226858805480259
 41
4.548284319219733
 42
7.691724660549244
  0
ELLIPSE
  5
27AA
330
1F
100
AcDbEntity
  8
AM_0
 48
0.5
100
AcDbEllipse
 10
-7.233522058627073
 20
8.654601361227316
 30
0.0
 11
-5.756556421523725
 21
10.08005180751442
 31
0.0
210
0.0
220
0.0
230
0.9999999999999998
 40
0.5872369277719514
 41
3.153793563415282
 42
3.437756101354965
  0
ELLIPSE
  5
27AB
330
1F
100
AcDbEntity
  8
AM_0
 48
0.5
100
AcDbEllipse
 10
8.092420226088458
 20
7.536933027588083
 30
0.0
 11
-7.514789042215193
 21
7.514789042215123
 31
0.0
210
0.0
220
0.0
230
1.0
 40
0.999999999999998
 41
1.171329590070667
 42
1.424984195904709
  0
ELLIPSE
  5
27AC
330
1F
100
AcDbEntity
  8
AM_0
 48
0.5
100
AcDbEllipse
 10
8.09242022609065
 20
-7.536933027585754
 30
0.0
 11
-7.514789042213017
 21
-7.514789042217307
 31
0.0
210
0.0
220
0.0
230
-0.9999999999999998
 40
0.9999999999999978
 41
1.171329590070667
 42
1.424984195904709
  0
LINE
  5
27AD
330
1F
100
AcDbEntity
  8
AM_0
 48
0.5
100
AcDbLine
 10
-1.753423646303073
 20
3.536499658753671
 30
0.0
 11
-2.0
 21
4.549999999999977
 31
0.0
  0
LINE
  5
27AE
330
1F
100
AcDbEntity
  8
AM_0
 48
0.5
100
AcDbLine
 10
0.0000000000001386
 20
0.0000000000002226
 30
0.0
 11
-1.89147144780334
 21
1.722797623431489
 31
0.0
  0
LINE
  5
27AF
330
1F
100
AcDbEntity
  8
AM_0
100
AcDbLine
 10
0.0000000000000853
 20
0.0000000000002386
 30
0.0
 11
-0.4344923399331684
 21
-1.193757892892479
 31
0.0
  0
LINE
  5
27B0
330
1F
100
AcDbEntity
  8
AM_0
100
AcDbLine
 10
-0.4344923399331933
 20
1.193757892892954
 30
0.0
 11
0.0000000000000853
 21
0.0000000000002386
 31
0.0
  0
LINE
  5
27B1
330
1F
100
AcDbEntity
  8
AM_0
 48
0.5
100
AcDbLine
 10
-1.753423646302021
 20
-3.536499658754226
 30
0.0
 11
-1.999999999999999
 21
-4.550000000000022
 31
0.0
  0
SPLINE
  5
27B2
330
1F
100
AcDbEntity
  8
AM_0
 48
0.5
100
AcDbSpline
210
0.0
220
0.0
230
1.0
 70
     8
 71
     3
 72
    10
 73
     6
 74
     0
 42
0.0000000001
 43
0.0000000001
 40
0.0
 40
0.0
 40
0.0
 40
0.0
 40
2.69986029516136
 40
4.147722969032201
 40
6.285750005020438
 40
6.285750005020438
 40
6.285750005020438
 40
6.285750005020438
 10
-4.390006488760114
 20
0.8235263323453652
 30
0.0
 10
-3.897648004529287
 20
0.4007998904282696
 30
0.0
 10
-3.141250868832308
 20
-0.2486234059915956
 30
0.0
 10
-1.352473251564941
 20
0.0657737887415722
 30
0.0
 10
-1.689352106701214
 20
1.124705141543961
 30
0.0
 10
-1.911940130103172
 20
1.770156415284864
 30
0.0
  0
SPLINE
  5
27B3
330
1F
100
AcDbEntity
  8
AM_0
 48
0.5
100
AcDbSpline
210
0.0
220
0.0
230
1.0
 70
     8
 71
     3
 72
    25
 73
    21
 74
     0
 42
0.0000000001
 43
0.0000000001
 40
6.846175049578289
 40
6.846175049578289
 40
6.846175049578289
 40
6.846175049578289
 40
7.604337694224321
 40
8.711974558287883
 40
9.814980593243754
 40
10.91239053451967
 40
12.0033633515982
 40
13.08720139956839
 40
14.16337181880432
 40
15.23152222380919
 40
16.29148850140128
 40
17.34331105512262
 40
18.38723020264746
 40
19.42369128463655
 40
20.45333379090873
 40
21.47697865721768
 40
22.49561244472435
 40
23.5103574802404
 40
24.52244778960836
 40
25.53320666051913
 40
25.53320666051913
 40
25.53320666051913
 40
25.53320666051913
 10
-4.390117090205919
 20
0.8235803738533521
 30
0.0
 10
-4.547267323248348
 20
0.9034702817081546
 30
0.0
 10
-4.934336742600947
 20
1.099275822666099
 30
0.0
 10
-5.551900574583065
 20
1.406761008586328
 30
0.0
 10
-6.242930022492622
 20
1.742159134709768
 30
0.0
 10
-6.933994222721892
 20
2.066841382973793
 30
0.0
 10
-7.625099112800313
 20
2.378811424326317
 30
0.0
 10
-8.316252393341851
 20
2.676144560155274
 30
0.0
 10
-9.007460455343409
 20
2.957007166711632
 30
0.0
 10
-9.698726498734274
 20
3.219673139986943
 30
0.0
 10
-10.39005903813874
 20
3.462507825743598
 30
0.0
 10
-11.08145713741004
 20
3.684022152564902
 30
0.0
 10
-11.77292576271564
 20
3.882833873370769
 30
0.0
 10
-12.46446247383095
 20
4.057712573418249
 30
0.0
 10
-13.15606456926408
 20
4.207586371395911
 30
0.0
 10
-13.84772820057443
 20
4.331461834253683
 30
0.0
 10
-14.53944260575362
 20
4.428772017115536
 30
0.0
 10
-15.2312001614069
 20
4.498195206266848
 30
0.0
 10
-15.92298963822462
 20
4.541881647596986
 30
0.0
 10
-16.38429629627662
 20
4.54729546077707
 30
0.0
 10
-16.614797809381
 20
4.550000585682353
 30
0.0
  0
ELLIPSE
  5
27B4
330
1F
100
AcDbEntity
  8
AM_0
 48
0.5
100
AcDbEllipse
 10
3.874771282991432
 20
4.487956083523097
 30
0.0
 11
-0.0000000000002486
 21
9.867237964050959
 31
0.0
210
0.0
220
0.0
230
0.9999999999999998
 40
0.9021176470588194
 41
1.951257656000312
 42
2.322034022628298
  0
DIMENSION
  5
2894
330
1F
100
AcDbEntity
  8
AM_5
100
AcDbDimension
  2
*D10
 10
-0.4344923399331684
 20
-1.193757892892479
 30
0.0
 11
12.85483048286703
 21
0.0000000000003611
 31
0.0
 70
    34
  1
<>
 51
359.9999999999998
  3
AM_JIS$2
100
AcDb2LineAngularDimension
 13
-0.4344923399331933
 23
1.193757892892954
 33
0.0
 14
0.0000000000000853
 24
0.0000000000002386
 34
0.0
 15
0.0000000000000853
 25
0.0000000000002386
 35
0.0
 16
13.22674736624849
 26
-5.705461887487373
 36
0.0
1001
ACAD
1000
DSTYLE
1002
{
1070
   179
1070
     3
1002
}
1001
GENIUS_GENDTOL_13
1000

1000
h7
1000

1040
0.0
  0
VIEWPORT
  5
110
330
101
100
AcDbEntity
 67
     1
  8
0
100
AcDbViewport
 10
420.5
 20
297.0
 30
0.0
 40
948.9782706766916
 41
628.452
 68
     1
 69
     1
1001
ACAD
1000
MVIEW
1002
{
1070
    16
1010
0.0
1020
0.0
1030
0.0
1010
0.0
1020
0.0
1030
1.0
1040
0.0
1040
628.452
1040
420.5
1040
297.0
1040
50.0
1040
0.0
1040
0.0
1070
     0
1070
   100
1070
     1
1070
     1
1070
     0
1070
     0
1070
     0
1070
     0
1040
0.0
1040
0.0
1040
0.0
1040
10.0
1040
10.0
1040
10.0
1040
10.0
1070
     0
1002
{
1002
}
1002
}
  0
ENDSEC
  0
SECTION
  2
OBJECTS
  0
DICTIONARY
  5
C
330
0
100
AcDbDictionary
  3
ACAD_GROUP
350
D
  3
ACAD_LAYOUT
350
1A
  3
ACAD_MLINESTYLE
350
17
  3
ACAD_PLOTSETTINGS
350
19
  3
ACAD_PLOTSTYLENAME
350
E
  3
ACDBVARIABLEDICTIONARY
350
34
  3
ACMDICTIONARY
350
43
  3
AMG
350
2B
  3
AMGSNAPSETTINGS
350
6E
  3
DWGPROPS
350
2B06
  3
ACDBHEADERROUNDTRIPXREC
350
2B13
  0
DICTIONARY
  5
74
330
1F
100
AcDbDictionary
280
     1
  3
ACAD_INDEX
360
2B08
  3
ACAD_LAYOUTSELFREF
360
2B36
  0
DICTIONARY
  5
2B3B
330
101
100
AcDbDictionary
280
     1
  3
ACAD_LAYOUTSELFREF
360
2B3C
  0
DICTIONARY
  5
D
102
{ACAD_REACTORS
330
C
102
}
330
C
100
AcDbDictionary
  0
DICTIONARY
  5
1A
102
{ACAD_REACTORS
330
C
102
}
330
C
100
AcDbDictionary
  0
DICTIONARY
  5
17
102
{ACAD_REACTORS
330
C
102
}
330
C
100
AcDbDictionary
  3
STANDARD
350
18
  0
DICTIONARY
  5
19
102
{ACAD_REACTORS
330
C
102
}
330
C
100
AcDbDictionary
  0
ACDBDICTIONARYWDFLT
  5
E
102
{ACAD_REACTORS
330
C
102
}
330
C
100
AcDbDictionary
281
     1
  3
Normal
350
F
100
AcDbDictionaryWithDefault
340
F
  0
DICTIONARY
  5
34
102
{ACAD_REACTORS
330
C
102
}
330
C
100
AcDbDictionary
  3
INDEXCTL
350
35
  3
SORTENTS
350
B5E
  0
DICTIONARY
  5
43
102
{ACAD_REACTORS
330
C
102
}
330
C
100
AcDbDictionary
  3
ACMSTDDICTIONARY
350
260
  0
DICTIONARY
  5
2B
102
{ACAD_REACTORS
330
C
102
}
330
C
100
AcDbDictionary
  3
ACMGSETTINGS
350
2C
  0
DICTIONARY
  5
6E
102
{ACAD_REACTORS
330
C
102
}
330
C
100
AcDbDictionary
  0
XRECORD
  5
2B06
102
{ACAD_REACTORS
330
C
102
}
330
C
100
AcDbXrecord
  1
DWGPROPS COOKIE
  2

  3

  4

  6

  7

  8

  9

300
AmdtFileType=82
301
=
302
=
303
=
304
=
305
=
306
=
307
=
308
=
309
=
 40
0.0446500578703704
 41
2452800.443498622
 42
2452948.575706921
  1

 90
        1
  0
DICTIONARY
  5
2B13
102
{ACAD_REACTORS
330
C
102
}
330
C
100
AcDbDictionary
  3
TSTACKALIGN
350
2B14
  3
TSTACKSIZE
350
2B15
  3
HYPERLINKBASE
350
2B16
  3
STYLESHEET
350
2B17
  3
LAYOUTDICT
350
2B18
  3
PLOTSETDICT
350
2B19
  3
PLOTSTYLNAMDICT
350
2B1A
  3
LWETCUNION
350
2B1B
  3
INSUNITS
350
2B1C
  3
CEPSNTYPE
350
2B1D
  3
FINGERPRINTGUID
350
2B1E
  3
VERSIONGUID
350
2B1F
  3
PSVPSCALE
350
2B20
  3
DIMSTYLEDATA
350
2B21
  3
PUCSORTHOREF
350
2B22
  3
PUCSORTHOVIEW
350
2B23
  3
PUCSBASE
350
2B24
  3
PUCSORGTOP
350
2B25
  3
PUCSORGBOTTOM
350
2B26
  3
PUCSORGLEFT
350
2B27
  3
PUCSORGRIGHT
350
2B28
  3
PUCSORGFRONT
350
2B29
  3
PUCSORGBACK
350
2B2A
  3
UCSORTHOREF
350
2B2B
  3
UCSORTHOVIEW
350
2B2C
  3
UCSBASE
350
2B2D
  3
UCSORGTOP
350
2B2E
  3
UCSORGBOTTOM
350
2B2F
  3
UCSORGLEFT
350
2B30
  3
UCSORGRIGHT
350
2B31
  3
UCSORGFRONT
350
2B32
  3
UCSORGBACK
350
2B33
  0
DICTIONARY
  5
2B08
102
{ACAD_REACTORS
330
74
102
}
330
74
100
AcDbDictionary
  3
*A1
350
2B09
  0
XRECORD
  5
2B36
102
{ACAD_REACTORS
330
74
102
}
330
74
100
AcDbXrecord
340
1F
  0
XRECORD
  5
2B3C
102
{ACAD_REACTORS
330
2B3B
102
}
330
2B3B
100
AcDbXrecord
340
101
  0
MLINESTYLE
  5
18
102
{ACAD_REACTORS
330
17
102
}
330
17
100
AcDbMlineStyle
  2
STANDARD
 70
     0
  3

 62
   256
 51
90.0
 52
90.0
 71
     2
 49
0.5
 62
   256
  6
BYLAYER
 49
-0.5
 62
   256
  6
BYLAYER
  0
ACDBPLACEHOLDER
  5
F
102
{ACAD_REACTORS
330
E
102
}
330
E
100
AcDbPlaceHolder
280
     0
  0
DICTIONARYVAR
  5
35
102
{ACAD_REACTORS
330
34
102
}
330
34
100
DictionaryVariables
280
     0
  1
1
  0
DICTIONARYVAR
  5
B5E
102
{ACAD_REACTORS
330
34
102
}
330
34
100
DictionaryVariables
280
     0
  1
96
  0
DICTIONARY
  5
260
102
{ACAD_REACTORS
330
43
102
}
330
43
100
AcDbDictionary
  0
DICTIONARY
  5
2C
102
{ACAD_REACTORS
330
2B
102
}
330
2B
100
AcDbDictionary
  3
DWGSETTINGS
350
2D
  0
XRECORD
  5
2B14
102
{ACAD_REACTORS
330
2B13
102
}
330
2B13
100
AcDbXrecord
 90
        1
  0
XRECORD
  5
2B15
102
{ACAD_REACTORS
330
2B13
102
}
330
2B13
100
AcDbXrecord
 90
       70
  0
XRECORD
  5
2B16
102
{ACAD_REACTORS
330
2B13
102
}
330
2B13
100
AcDbXrecord
  1

  0
XRECORD
  5
2B17
102
{ACAD_REACTORS
330
2B13
102
}
330
2B13
100
AcDbXrecord
  1
ASAMI.ctb
  0
XRECORD
  5
2B18
102
{ACAD_REACTORS
330
2B13
102
}
330
2B13
100
AcDbXrecord
340
1A
  0
XRECORD
  5
2B19
102
{ACAD_REACTORS
330
2B13
102
}
330
2B13
100
AcDbXrecord
340
19
  0
XRECORD
  5
2B1A
102
{ACAD_REACTORS
330
2B13
102
}
330
2B13
100
AcDbXrecord
340
E
  0
XRECORD
  5
2B1B
102
{ACAD_REACTORS
330
2B13
102
}
330
2B13
100
AcDbXrecord
 90
    10781
  0
XRECORD
  5
2B1C
102
{ACAD_REACTORS
330
2B13
102
}
330
2B13
100
AcDbXrecord
 90
        4
  0
XRECORD
  5
2B1D
102
{ACAD_REACTORS
330
2B13
102
}
330
2B13
100
AcDbXrecord
 90
        0
  0
XRECORD
  5
2B1E
102
{ACAD_REACTORS
330
2B13
102
}
330
2B13
100
AcDbXrecord
  1
{AFB28963-8C59-40AE-9337-C84526B81ACE}
  0
XRECORD
  5
2B1F
102
{ACAD_REACTORS
330
2B13
102
}
330
2B13
100
AcDbXrecord
  1
{3ACCDD1E-7F3D-482E-88ED-A9F3B3673C9B}
  0
XRECORD
  5
2B20
102
{ACAD_REACTORS
330
2B13
102
}
330
2B13
100
AcDbXrecord
 40
0.0
  0
XRECORD
  5
2B21
102
{ACAD_REACTORS
330
2B13
102
}
330
2B13
100
AcDbXrecord
1000
DSTYLE
1002
{
1070
    79
 70
     2
1070
   341
340
59
1070
   342
340
59
1070
   371
 70
    -1
1070
   372
 70
    -1
1002
}
  0
XRECORD
  5
2B22
102
{ACAD_REACTORS
330
2B13
102
}
330
2B13
100
AcDbXrecord
340
0
  0
XRECORD
  5
2B23
102
{ACAD_REACTORS
330
2B13
102
}
330
2B13
100
AcDbXrecord
 70
     0
  0
XRECORD
  5
2B24
102
{ACAD_REACTORS
330
2B13
102
}
330
2B13
100
AcDbXrecord
340
0
  0
XRECORD
  5
2B25
102
{ACAD_REACTORS
330
2B13
102
}
330
2B13
100
AcDbXrecord
 10
0.0
 20
0.0
 30
0.0
  0
XRECORD
  5
2B26
102
{ACAD_REACTORS
330
2B13
102
}
330
2B13
100
AcDbXrecord
 10
0.0
 20
0.0
 30
0.0
  0
XRECORD
  5
2B27
102
{ACAD_REACTORS
330
2B13
102
}
330
2B13
100
AcDbXrecord
 10
0.0
 20
0.0
 30
0.0
  0
XRECORD
  5
2B28
102
{ACAD_REACTORS
330
2B13
102
}
330
2B13
100
AcDbXrecord
 10
0.0
 20
0.0
 30
0.0
  0
XRECORD
  5
2B29
102
{ACAD_REACTORS
330
2B13
102
}
330
2B13
100
AcDbXrecord
 10
0.0
 20
0.0
 30
0.0
  0
XRECORD
  5
2B2A
102
{ACAD_REACTORS
330
2B13
102
}
330
2B13
100
AcDbXrecord
 10
0.0
 20
0.0
 30
0.0
  0
XRECORD
  5
2B2B
102
{ACAD_REACTORS
330
2B13
102
}
330
2B13
100
AcDbXrecord
340
0
  0
XRECORD
  5
2B2C
102
{ACAD_REACTORS
330
2B13
102
}
330
2B13
100
AcDbXrecord
 70
     0
  0
XRECORD
  5
2B2D
102
{ACAD_REACTORS
330
2B13
102
}
330
2B13
100
AcDbXrecord
340
0
  0
XRECORD
  5
2B2E
102
{ACAD_REACTORS
330
2B13
102
}
330
2B13
100
AcDbXrecord
 10
0.0
 20
0.0
 30
0.0
  0
XRECORD
  5
2B2F
102
{ACAD_REACTORS
330
2B13
102
}
330
2B13
100
AcDbXrecord
 10
0.0
 20
0.0
 30
0.0
  0
XRECORD
  5
2B30
102
{ACAD_REACTORS
330
2B13
102
}
330
2B13
100
AcDbXrecord
 10
0.0
 20
0.0
 30
0.0
  0
XRECORD
  5
2B31
102
{ACAD_REACTORS
330
2B13
102
}
330
2B13
100
AcDbXrecord
 10
0.0
 20
0.0
 30
0.0
  0
XRECORD
  5
2B32
102
{ACAD_REACTORS
330
2B13
102
}
330
2B13
100
AcDbXrecord
 10
0.0
 20
0.0
 30
0.0
  0
XRECORD
  5
2B33
102
{ACAD_REACTORS
330
2B13
102
}
330
2B13
100
AcDbXrecord
 10
0.0
 20
0.0
 30
0.0
  0
LAYER_INDEX
  5
2B09
102
{ACAD_REACTORS
330
2B08
102
}
330
2B08
100
AcDbIndex
 40
2453151.680984328
100
AcDbLayerIndex
  8
0
360
2B0A
 90
        0
  8
AM_0
360
2B0B
 90
       54
  8
AM_7
360
2B0C
 90
        1
  8
AM_11
360
2B0D
 90
       21
  8
AM_5
360
2B0E
 90
        5
  8
Defpoints
360
2B0F
 90
        0
  8
AM_6
360
2B10
 90
        1
  8
AM_CL
360
2B11
 90
        0
  0
XRECORD
  5
2D
102
{ACAD_REACTORS
330
2C
102
}
330
2C
100
AcDbXrecord
  1
VERSION
140
15.0
  1
PRODUCT
  2
AutoCAD Mechanical 2000
  0
IDBUFFER
  5
2B0A
330
0
100
AcDbIdBuffer
  0
IDBUFFER
  5
2B0B
330
0
100
AcDbIdBuffer
330
27AF
330
27B0
330
27B1
330
27B2
330
27B3
330
27B4
330
24A9
330
24AA
330
24AB
330
24B2
330
24B5
330
24B6
330
24BB
330
24BD
330
24C3
330
24C4
330
24C5
330
24CB
330
24CC
330
24CD
330
24CE
330
24CF
330
24D0
330
24D1
330
24D2
330
24D3
330
24DE
330
24DF
330
24E0
330
24E1
330
24E2
330
24E4
330
24E5
330
24E8
330
24E9
330
2567
330
2568
330
2569
330
256C
330
256D
330
256E
330
256F
330
2570
330
2571
330
2572
330
27A6
330
27A7
330
27A8
330
27A9
330
27AA
330
27AB
330
27AC
330
27AD
330
27AE
  0
IDBUFFER
  5
2B0C
330
0
100
AcDbIdBuffer
330
23EF
  0
IDBUFFER
  5
2B0D
330
0
100
AcDbIdBuffer
330
24DC
330
24DD
330
24E3
330
24E6
330
24E7
330
24AC
330
24AD
330
24B7
330
24B8
330
24B9
330
24C0
330
24C1
330
24C2
330
24C7
330
24C8
330
24C9
330
24CA
330
24D4
330
24D5
330
24DA
330
24DB
  0
IDBUFFER
  5
2B0E
330
0
100
AcDbIdBuffer
330
CC6
330
2069
330
2498
330
2599
330
2894
  0
IDBUFFER
  5
2B0F
330
0
100
AcDbIdBuffer
  0
IDBUFFER
  5
2B10
330
0
100
AcDbIdBuffer
330
19BD
  0
IDBUFFER
  5
2B11
330
0
100
AcDbIdBuffer
  0
ENDSEC
  0
EOF
