  0
SECTION
  2
HEADER
  9
$ACADVER
  1
AC1014
  9
$ACADMAINTVER
 70
     9
  9
$DWGCODEPAGE
  3
ANSI_932
  9
$INSBASE
 10
0.0
 20
0.0
 30
0.0
  9
$EXTMIN
 10
-150.1500009999999
 20
-28.25000402524005
 30
-0.00000001
  9
$EXTMAX
 10
13.71377837947173
 20
13.405497656339
 30
0.00000001
  9
$LIMMIN
 10
-156.1444050923396
 20
-44.51020785580943
  9
$LIMMAX
 10
20.31336096277607
 20
28.16015358894219
  9
$ORTHOMODE
 70
     0
  9
$REGENMODE
 70
     1
  9
$FILLMODE
 70
     1
  9
$QTEXTMODE
 70
     0
  9
$MIRRTEXT
 70
     0
  9
$DRAGMODE
 70
     2
  9
$LTSCALE
 40
1.0
  9
$OSMODE
 70
    55
  9
$ATTMODE
 70
     1
  9
$TEXTSIZE
 40
2.5
  9
$TRACEWID
 40
1.0
  9
$TEXTSTYLE
  7
STANDARD
  9
$CLAYER
  8
AM_0
  9
$CELTYPE
  6
BYLAYER
  9
$CECOLOR
 62
   256
  9
$CELTSCALE
 40
1.0
  9
$DELOBJ
 70
     1
  9
$DISPSILH
 70
     0
  9
$DIMSCALE
 40
0.5
  9
$DIMASZ
 40
2.5
  9
$DIMEXO
 40
1.0
  9
$DIMDLI
 40
12.0
  9
$DIMRND
 40
0.0
  9
$DIMDLE
 40
0.0
  9
$DIMEXE
 40
1.0
  9
$DIMTP
 40
0.1
  9
$DIMTM
 40
0.1
  9
$DIMTXT
 40
3.2
  9
$DIMCEN
 40
0.0
  9
$DIMTSZ
 40
0.0
  9
$DIMTOL
 70
     0
  9
$DIMLIM
 70
     0
  9
$DIMTIH
 70
     0
  9
$DIMTOH
 70
     0
  9
$DIMSE1
 70
     0
  9
$DIMSE2
 70
     0
  9
$DIMTAD
 70
     3
  9
$DIMZIN
 70
     8
  9
$DIMBLK
  1
OPEN30
  9
$DIMASO
 70
     1
  9
$DIMSHO
 70
     1
  9
$DIMPOST
  1

  9
$DIMAPOST
  1
"
  9
$DIMALT
 70
     0
  9
$DIMALTD
 70
     2
  9
$DIMALTF
 40
0.0393701
  9
$DIMLFAC
 40
1.0
  9
$DIMTOFL
 70
     1
  9
$DIMTVP
 40
0.0
  9
$DIMTIX
 70
     0
  9
$DIMSOXD
 70
     0
  9
$DIMSAH
 70
     0
  9
$DIMBLK1
  1

  9
$DIMBLK2
  1

  9
$DIMSTYLE
  2
AM_JIS
  9
$DIMCLRD
 70
   256
  9
$DIMCLRE
 70
   256
  9
$DIMCLRT
 70
     2
  9
$DIMTFAC
 40
0.71
  9
$DIMGAP
 40
1.5
  9
$DIMJUST
 70
     0
  9
$DIMSD1
 70
     0
  9
$DIMSD2
 70
     0
  9
$DIMTOLJ
 70
     0
  9
$DIMTZIN
 70
     0
  9
$DIMALTZ
 70
     0
  9
$DIMALTTZ
 70
     0
  9
$DIMFIT
 70
     3
  9
$DIMUPT
 70
     0
  9
$DIMUNIT
 70
     2
  9
$DIMDEC
 70
     3
  9
$DIMTDEC
 70
     3
  9
$DIMALTU
 70
     2
  9
$DIMALTTD
 70
     2
  9
$DIMTXSTY
  7
ASAMI
  9
$DIMAUNIT
 70
     0
  9
$LUNITS
 70
     2
  9
$LUPREC
 70
     2
  9
$SKETCHINC
 40
1.0
  9
$FILLETRAD
 40
2.5
  9
$AUNITS
 70
     0
  9
$AUPREC
 70
     0
  9
$MENU
  1
.
  9
$ELEVATION
 40
0.0
  9
$PELEVATION
 40
0.0
  9
$THICKNESS
 40
0.0
  9
$LIMCHECK
 70
     0
  9
$BLIPMODE
 70
     0
  9
$CHAMFERA
 40
2.5
  9
$CHAMFERB
 40
2.5
  9
$CHAMFERC
 40
20.0
  9
$CHAMFERD
 40
0.0
  9
$SKPOLY
 70
     0
  9
$TDCREATE
 40
2452800.443498622
  9
$TDUPDATE
 40
2453151.681364641
  9
$TDINDWG
 40
0.0470538426
  9
$TDUSRTIMER
 40
0.0470538426
  9
$USRTIMER
 70
     1
  9
$ANGBASE
 50
0.0
  9
$ANGDIR
 70
     0
  9
$PDMODE
 70
     0
  9
$PDSIZE
 40
0.0
  9
$PLINEWID
 40
0.0
  9
$COORDS
 70
     1
  9
$SPLFRAME
 70
     0
  9
$SPLINETYPE
 70
     6
  9
$SPLINESEGS
 70
     8
  9
$ATTDIA
 70
     1
  9
$ATTREQ
 70
     1
  9
$HANDLING
 70
 12289
  9
$HANDSEED
  5
2DAC
  9
$SURFTAB1
 70
     6
  9
$SURFTAB2
 70
     6
  9
$SURFTYPE
 70
     6
  9
$SURFU
 70
     6
  9
$SURFV
 70
     6
  9
$UCSNAME
  2

  9
$UCSORG
 10
0.0
 20
0.0
 30
0.0
  9
$UCSXDIR
 10
1.0
 20
0.0000000000000027
 30
0.0
  9
$UCSYDIR
 10
-0.0000000000000027
 20
1.0
 30
0.0
  9
$PUCSNAME
  2

  9
$PUCSORG
 10
0.0
 20
0.0
 30
0.0
  9
$PUCSXDIR
 10
1.0
 20
0.0
 30
0.0
  9
$PUCSYDIR
 10
0.0
 20
1.0
 30
0.0
  9
$USERI1
 70
     0
  9
$USERI2
 70
     0
  9
$USERI3
 70
     0
  9
$USERI4
 70
     0
  9
$USERI5
 70
     0
  9
$USERR1
 40
0.0
  9
$USERR2
 40
0.0
  9
$USERR3
 40
0.0
  9
$USERR4
 40
0.0
  9
$USERR5
 40
0.0
  9
$WORLDVIEW
 70
     1
  9
$SHADEDGE
 70
     3
  9
$SHADEDIF
 70
    70
  9
$TILEMODE
 70
     1
  9
$MAXACTVP
 70
    64
  9
$PINSBASE
 10
0.0
 20
0.0
 30
0.0
  9
$PLIMCHECK
 70
     0
  9
$PEXTMIN
 10
1.000000000000000E+20
 20
1.000000000000000E+20
 30
1.000000000000000E+20
  9
$PEXTMAX
 10
-1.000000000000000E+20
 20
-1.000000000000000E+20
 30
-1.000000000000000E+20
  9
$PLIMMIN
 10
0.0
 20
0.0
  9
$PLIMMAX
 10
841.0
 20
594.0
  9
$UNITMODE
 70
     0
  9
$VISRETAIN
 70
     1
  9
$PLINEGEN
 70
     0
  9
$PSLTSCALE
 70
     0
  9
$TREEDEPTH
 70
  3020
  9
$PICKSTYLE
 70
     0
  9
$CMLSTYLE
  2
STANDARD
  9
$CMLJUST
 70
     0
  9
$CMLSCALE
 40
20.0
  9
$PROXYGRAPHICS
 70
     1
  9
$MEASUREMENT
 70
     1
  0
ENDSEC
  0
SECTION
  2
CLASSES
  0
CLASS
  1
ACDBDICTIONARYWDFLT
  2
AcDbDictionaryWithDefault
  3
AutoCAD 2000
 90
        0
280
     0
281
     0
  0
CLASS
  1
ACDBPLACEHOLDER
  2
AcDbPlaceHolder
  3
AutoCAD 2000
 90
        0
280
     0
281
     0
  0
CLASS
  1
LAYOUT
  2
AcDbLayout
  3
AutoCAD 2000
 90
        0
280
     0
281
     0
  0
CLASS
  1
AMGSETTINGSOBJ
  2
AmgSettingsObj
  3
"AcadM|Product Description: AutoCAD Mechanical 2000|Company: Autodesk"
 90
        0
280
     0
281
     0
  0
CLASS
  1
ACME_DOCUMENT
  2
AcMeDbDoc
  3
AcMeServices
 90
        0
280
     0
281
     0
  0
CLASS
  1
ACMESCOPE
  2
AcMeScope
  3
AcMeServices
 90
        0
280
     0
281
     0
  0
CLASS
  1
ACMECOMMANDHISTORY
  2
AcMeCommandHistory
  3
AcMeServices
 90
        0
280
     0
281
     0
  0
CLASS
  1
DICTIONARYVAR
  2
AcDbDictionaryVar
  3
AutoCAD 2000
 90
        0
280
     0
281
     0
  0
CLASS
  1
ACIMSYSVARMAN
  2
AcImSysVarManager
  3
AcMeServices
 90
        0
280
     0
281
     0
  0
CLASS
  1
ACIMREALSYSVAR
  2
AcImRealSysVar
  3
AcMeServices
 90
        0
280
     0
281
     0
  0
CLASS
  1
ACIMINTSYSVAR
  2
AcImIntSysVar
  3
AcMeServices
 90
        0
280
     0
281
     0
  0
CLASS
  1
ACMEDRAWINGMAN
  2
AcMeDrawingMan
  3
AcMeServices
 90
        0
280
     0
281
     0
  0
CLASS
  1
ACMEVIEW
  2
AcMeView
  3
AcMeServices
 90
        0
280
     0
281
     0
  0
CLASS
  1
ACDBENTITYCACHE
  2
AcMeEntityCache
  3
AcMeServices
 90
        0
280
     0
281
     0
  0
CLASS
  1
GSMANAGER
  2
AcMeGSManager
  3
AcMeServices
 90
        0
280
     0
281
     0
  0
CLASS
  1
AmdtInternalReactor
  2
AmdtInternalReactor
  3
AcMeServices
 90
        0
280
     0
281
     0
  0
CLASS
  1
ACMESTATEMGR
  2
AcMeStateMgr
  3
AcMeServices
 90
        0
280
     0
281
     0
  0
CLASS
  1
ACME_DATABASE
  2
AcMeDbDatabase
  3
AcMeServices
 90
        0
280
     0
281
     0
  0
CLASS
  1
ACRFINSADJUSTERMGR
  2
AcRfInsAdjusterMgr
  3
AcMeServices
 90
        0
280
     0
281
     0
  0
CLASS
  1
ACMDATADICTIONARY
  2
AcmDataDictionary
  3
"AcmSymBB|Product Description: AutoCAD Mechanical 2000|Company: Autodesk"
 90
        0
280
     0
281
     0
  0
CLASS
  1
ACMDATAENTRYBLOCK
  2
AcmDataEntryBlock
  3
"AcmSymBB|Product Description: AutoCAD Mechanical 2000|Company: Autodesk"
 90
        0
280
     0
281
     0
  0
CLASS
  1
AMGOBJPROPCFG
  2
AmgObjPropCfg
  3
"AmgLay|Product Description: AutoCAD Mechanical 2000|Company: Autodesk"
 90
        1
280
     0
281
     0
  0
CLASS
  1
ACAMGFILTERDAT
  2
AcAmgFilterDat
  3
"AcadM|Product Description: AutoCAD Mechanical 2000|Company: Autodesk"
 90
        0
280
     0
281
     0
  0
CLASS
  1
LAYER_INDEX
  2
AcDbLayerIndex
  3
AutoCAD 2000
 90
        0
280
     0
281
     0
  0
CLASS
  1
IDBUFFER
  2
AcDbIdBuffer
  3
AutoCAD 2000
 90
        0
280
     0
281
     0
  0
CLASS
  1
ACIMSTRSYSVAR
  2
AcImStrSysVar
  3
AcMeServices
 90
        0
280
     0
281
     0
  0
CLASS
  1
ACMSTANDARDJIS
  2
AcmStandardJIS
  3
"AcmSymBB|Product Description: AutoCAD Mechanical 2000|Company: Autodesk"
 90
        0
280
     0
281
     0
  0
CLASS
  1
ACMSURFSTANDARDJIS
  2
AcmSurfTextStdJIS
  3
"AcmSymBB|Product Description: AutoCAD Mechanical 2000|Company: Autodesk"
 90
        0
280
     0
281
     0
  0
CLASS
  1
ACMFCFSTANDARDJIS
  2
AcmFCFStdJIS
  3
"AcmSymBB|Product Description: AutoCAD Mechanical 2000|Company: Autodesk"
 90
        0
280
     0
281
     0
  0
CLASS
  1
ACMWELDSTANDARDJIS
  2
AcmWeldingStdJIS
  3
"AcmSymBB|Product Description: AutoCAD Mechanical 2000|Company: Autodesk"
 90
        0
280
     0
281
     0
  0
CLASS
  1
ACMIDSTANDARDJIS
  2
AcmIdStdJIS
  3
"AcmSymBB|Product Description: AutoCAD Mechanical 2000|Company: Autodesk"
 90
        0
280
     0
281
     0
  0
CLASS
  1
ACMDATUMSTANDARDJIS
  2
AcmDatumStdJIS
  3
"AcmSymBB|Product Description: AutoCAD Mechanical 2000|Company: Autodesk"
 90
        0
280
     0
281
     0
  0
CLASS
  1
ACMBOMSTANDARDJIS
  2
AcmBOMStdJIS
  3
"AcmSymBB|Product Description: AutoCAD Mechanical 2000|Company: Autodesk"
 90
        0
280
     0
281
     0
  0
CLASS
  1
ACMSTANDARDANSI
  2
AcmStandardANSI
  3
"AcmSymBB|Product Description: AutoCAD Mechanical 2000|Company: Autodesk"
 90
        0
280
     0
281
     0
  0
CLASS
  1
ACMSURFSTANDARDANSI
  2
AcmSurfTextStdANSI
  3
"AcmSymBB|Product Description: AutoCAD Mechanical 2000|Company: Autodesk"
 90
        0
280
     0
281
     0
  0
CLASS
  1
ACMFCFSTANDARDANSI
  2
AcmFCFStdANSI
  3
"AcmSymBB|Product Description: AutoCAD Mechanical 2000|Company: Autodesk"
 90
        0
280
     0
281
     0
  0
CLASS
  1
ACMWELDSTANDARDANSI
  2
AcmWeldingStdANSI
  3
"AcmSymBB|Product Description: AutoCAD Mechanical 2000|Company: Autodesk"
 90
        0
280
     0
281
     0
  0
CLASS
  1
ACMIDSTANDARDANSI
  2
AcmIdStdANSI
  3
"AcmSymBB|Product Description: AutoCAD Mechanical 2000|Company: Autodesk"
 90
        0
280
     0
281
     0
  0
CLASS
  1
ACMDATUMSTANDARDANSI
  2
AcmDatumStdANSI
  3
"AcmSymBB|Product Description: AutoCAD Mechanical 2000|Company: Autodesk"
 90
        0
280
     0
281
     0
  0
CLASS
  1
ACMBOMSTANDARDANSI
  2
AcmBOMStdANSI
  3
"AcmSymBB|Product Description: AutoCAD Mechanical 2000|Company: Autodesk"
 90
        0
280
     0
281
     0
  0
CLASS
  1
ACMSTANDARDBSI
  2
AcmStandardBSI
  3
"AcmSymBB|Product Description: AutoCAD Mechanical 2000|Company: Autodesk"
 90
        0
280
     0
281
     0
  0
CLASS
  1
ACMSURFSTANDARDBSI
  2
AcmSurfTextStdBSI
  3
"AcmSymBB|Product Description: AutoCAD Mechanical 2000|Company: Autodesk"
 90
        0
280
     0
281
     0
  0
CLASS
  1
ACMFCFSTANDARDBSI
  2
AcmFCFStdBSI
  3
"AcmSymBB|Product Description: AutoCAD Mechanical 2000|Company: Autodesk"
 90
        0
280
     0
281
     0
  0
CLASS
  1
ACMWELDSTANDARDBSI
  2
AcmWeldingStdBSI
  3
"AcmSymBB|Product Description: AutoCAD Mechanical 2000|Company: Autodesk"
 90
        0
280
     0
281
     0
  0
CLASS
  1
ACMIDSTANDARDBSI
  2
AcmIdStdBSI
  3
"AcmSymBB|Product Description: AutoCAD Mechanical 2000|Company: Autodesk"
 90
        0
280
     0
281
     0
  0
CLASS
  1
ACMDATUMSTANDARDBSI
  2
AcmDatumStdBSI
  3
"AcmSymBB|Product Description: AutoCAD Mechanical 2000|Company: Autodesk"
 90
        0
280
     0
281
     0
  0
CLASS
  1
ACMBOMSTANDARDBSI
  2
AcmBOMStdBSI
  3
"AcmSymBB|Product Description: AutoCAD Mechanical 2000|Company: Autodesk"
 90
        0
280
     0
281
     0
  0
CLASS
  1
LONG_TRANSACTION
  2
AcDbLongTransaction
  3
AutoCAD 2000
 90
        0
280
     0
281
     0
  0
CLASS
  1
LWPOLYLINE
  2
AcDbPolyline
  3
AutoCAD 2000
 90
        0
280
     0
281
     1
  0
CLASS
  1
HATCH
  2
AcDbHatch
  3
AutoCAD 2000
 90
        0
280
     0
281
     1
  0
CLASS
  1
XRECORD
  2
AcDbXrecord
  3
AutoCAD 2000
 90
        0
280
     0
281
     0
  0
ENDSEC
  0
SECTION
  2
TABLES
  0
TABLE
  2
VPORT
  5
8
330
0
100
AcDbSymbolTable
 70
     3
  0
VPORT
  5
2D81
330
8
100
AcDbSymbolTableRecord
100
AcDbViewportTableRecord
  2
*ACTIVE
 70
     0
 10
0.0
 20
0.0
 11
1.0
 21
1.0
 12
-65.15372210576915
 22
-7.421000996217799
 13
0.0
 23
0.0
 14
2.5
 24
2.5
 15
10.0
 25
10.0
 16
0.0
 26
0.0
 36
1.0
 17
0.0
 27
0.0
 37
0.0
 40
109.1092299945331
 41
1.56570841889117
 42
50.0
 43
0.0
 44
0.0
 50
0.0
 51
0.0
 71
     0
 72
   100
 73
     1
 74
     1
 75
     0
 76
     0
 77
     0
 78
     0
  0
ENDTAB
  0
TABLE
  2
LTYPE
  5
5
330
0
100
AcDbSymbolTable
 70
    10
  0
LTYPE
  5
14
330
5
100
AcDbSymbolTableRecord
100
AcDbLinetypeTableRecord
  2
BYBLOCK
 70
     0
  3

 72
    65
 73
     0
 40
0.0
  0
LTYPE
  5
15
330
5
100
AcDbSymbolTableRecord
100
AcDbLinetypeTableRecord
  2
BYLAYER
 70
     0
  3

 72
    65
 73
     0
 40
0.0
  0
LTYPE
  5
16
330
5
100
AcDbSymbolTableRecord
100
AcDbLinetypeTableRecord
  2
CONTINUOUS
 70
     0
  3
Solid line
 72
    65
 73
     0
 40
0.0
  0
LTYPE
  5
4B
330
5
100
AcDbSymbolTableRecord
100
AcDbLinetypeTableRecord
  2
AM_ISO02W050
 70
     0
  3
__ __ __ __ __ __ __ __ __ __ __ __ __ __ __
 72
    65
 73
     2
 40
7.5
 49
6.0
 74
     0
 49
-1.5
 74
     0
  0
LTYPE
  5
4C
330
5
100
AcDbSymbolTableRecord
100
AcDbLinetypeTableRecord
  2
AM_ISO08W050
 70
     0
  3
____ . ____ . ____ . ____ . ____ . ____ . ____
 72
    65
 73
     4
 40
18.0
 49
12.0
 74
     0
 49
-1.5
 74
     0
 49
3.0
 74
     0
 49
-1.5
 74
     0
  0
LTYPE
  5
4D
330
5
100
AcDbSymbolTableRecord
100
AcDbLinetypeTableRecord
  2
AM_ISO09W050
 70
     0
  3
_____ . . _____ . . _____ . . ____ .. ____
 72
    65
 73
     6
 40
22.5
 49
12.0
 74
     0
 49
-1.5
 74
     0
 49
3.0
 74
     0
 49
-1.5
 74
     0
 49
3.0
 74
     0
 49
-1.5
 74
     0
  0
LTYPE
  5
4E
330
5
100
AcDbSymbolTableRecord
100
AcDbLinetypeTableRecord
  2
AMCONSTR
 70
     0
  3
_______________________
 72
    65
 73
     2
 40
9999.0
 49
9999.0
 74
     0
 49
0.0
 74
     0
  0
LTYPE
  5
4F
330
5
100
AcDbSymbolTableRecord
100
AcDbLinetypeTableRecord
  2
AM_ISO02W050X2
 70
     0
  3
 _ _ _ _ _ _ _ _ _ _ _ _
 72
    65
 73
     2
 40
3.75
 49
3.0
 74
     0
 49
-0.75
 74
     0
  0
LTYPE
  5
50
330
5
100
AcDbSymbolTableRecord
100
AcDbLinetypeTableRecord
  2
AM_ISO08W050X2
 70
     0
  3
__ . __ . __ . __ . __ . __
 72
    65
 73
     4
 40
9.0
 49
6.0
 74
     0
 49
-0.75
 74
     0
 49
1.5
 74
     0
 49
-0.75
 74
     0
  0
LTYPE
  5
53
330
5
100
AcDbSymbolTableRecord
100
AcDbLinetypeTableRecord
  2
AMZIGZAG
 70
     0
  3
/\/-/\/-/\/-/\/-/\/-/\/
 72
    65
 73
     2
 40
11.00009999999999
 49
0.0001
 74
     4
 75
   135
340
52
 46
0.04
 50
0.0
 44
0.0
 45
0.0
 49
-11.0
 74
     0
  0
LTYPE
  5
166
330
5
100
AcDbSymbolTableRecord
100
AcDbLinetypeTableRecord
  2
ACJISTGL
 70
     0
  3
_ _ _ _ _
 72
    65
 73
     2
 40
3.0
 49
2.0
 74
     0
 49
-1.0
 74
     0
  0
LTYPE
  5
26A
330
5
100
AcDbSymbolTableRecord
100
AcDbLinetypeTableRecord
  2
ACJISTGB
 70
     0
  3
__ . . __ . .
 72
    65
 73
     6
 40
9.0
 49
4.0
 74
     0
 49
-1.0
 74
     0
 49
1.0
 74
     0
 49
-1.0
 74
     0
 49
1.0
 74
     0
 49
-1.0
 74
     0
  0
ENDTAB
  0
TABLE
  2
LAYER
  5
2
330
0
100
AcDbSymbolTable
 70
     7
  0
LAYER
  5
10
330
2
100
AcDbSymbolTableRecord
100
AcDbLayerTableRecord
  2
0
 70
     0
 62
     7
  6
CONTINUOUS
  0
LAYER
  5
3F9
330
2
100
AcDbSymbolTableRecord
100
AcDbLayerTableRecord
  2
AM_0
 70
     0
 62
     7
  6
CONTINUOUS
  0
LAYER
  5
C7C
330
2
100
AcDbSymbolTableRecord
100
AcDbLayerTableRecord
  2
AM_7
 70
     0
 62
     4
  6
AM_ISO08W050
  0
LAYER
  5
C97
330
2
100
AcDbSymbolTableRecord
100
AcDbLayerTableRecord
  2
AM_11
 70
     0
 62
     3
  6
AM_ISO09W050
  0
LAYER
  5
CC5
330
2
100
AcDbSymbolTableRecord
100
AcDbLayerTableRecord
  2
AM_5
 70
     0
 62
     3
  6
CONTINUOUS
  0
LAYER
  5
CC7
330
2
100
AcDbSymbolTableRecord
100
AcDbLayerTableRecord
  2
DEFPOINTS
 70
     0
 62
     7
  6
CONTINUOUS
  0
LAYER
  5
19BC
330
2
100
AcDbSymbolTableRecord
100
AcDbLayerTableRecord
  2
AM_6
 70
     0
 62
     2
  6
CONTINUOUS
  0
ENDTAB
  0
TABLE
  2
STYLE
  5
3
330
0
100
AcDbSymbolTable
 70
     5
  0
STYLE
  5
11
330
3
100
AcDbSymbolTableRecord
100
AcDbTextStyleTableRecord
  2
STANDARD
 70
     0
 40
0.0
 41
1.0
 50
0.0
 71
     0
 42
2.5
  3
simplex.shx
  4
EXTFONT.SHX
  0
STYLE
  5
52
330
3
100
AcDbSymbolTableRecord
100
AcDbTextStyleTableRecord
  2

 70
     1
 40
0.0
 41
1.0
 50
0.0
 71
     0
 42
2.5
  3
ltypeshp.shx
  4

  0
STYLE
  5
6B
330
3
100
AcDbSymbolTableRecord
100
AcDbTextStyleTableRecord
  2
ASAMI
 70
     0
 40
0.0
 41
1.0
 50
0.0
 71
     0
 42
2.5
  3
simplex.shx
  4
EXTFONT.SHX
  0
STYLE
  5
262
330
3
100
AcDbSymbolTableRecord
100
AcDbTextStyleTableRecord
  2
ACJISTS
 70
     0
 40
1.0
 41
1.0
 50
0.0
 71
     0
 42
2.5
  3
simplex.shx
  4
bigfont.shx
  0
STYLE
  5
269
330
3
100
AcDbSymbolTableRecord
100
AcDbTextStyleTableRecord
  2
ACJISGDT
 70
     0
 40
0.0
 41
1.0
 50
0.0
 71
     0
 42
2.5
  3
amgdtans.shx
  4

  0
ENDTAB
  0
TABLE
  2
VIEW
  5
6
330
0
100
AcDbSymbolTable
 70
     0
  0
ENDTAB
  0
TABLE
  2
UCS
  5
7
330
0
100
AcDbSymbolTable
 70
     0
  0
ENDTAB
  0
TABLE
  2
APPID
  5
9
330
0
100
AcDbSymbolTable
 70
    14
  0
APPID
  5
12
330
9
100
AcDbSymbolTableRecord
100
AcDbRegAppTableRecord
  2
ACAD
 70
     0
  0
APPID
  5
30
330
9
100
AcDbSymbolTableRecord
100
AcDbRegAppTableRecord
  2
MCAD_NO_VIS
 70
     0
  0
APPID
  5
31
330
9
100
AcDbSymbolTableRecord
100
AcDbRegAppTableRecord
  2
ACAD_TEMP_GRAPHIC
 70
     0
  0
APPID
  5
2C2
330
9
100
AcDbSymbolTableRecord
100
AcDbRegAppTableRecord
  2
GENIUS_GENDTOL_13
 70
     0
  0
APPID
  5
339
330
9
100
AcDbSymbolTableRecord
100
AcDbRegAppTableRecord
  2
GENIUS_GENODEF_13
 70
     0
  0
APPID
  5
33A
330
9
100
AcDbSymbolTableRecord
100
AcDbRegAppTableRecord
  2
GENIUS_GENOBJ-N-RSBK_13
 70
     0
  0
APPID
  5
33B
330
9
100
AcDbSymbolTableRecord
100
AcDbRegAppTableRecord
  2
GENIUS_GENOBJ-N-LIB_13
 70
     0
  0
APPID
  5
33C
330
9
100
AcDbSymbolTableRecord
100
AcDbRegAppTableRecord
  2
GENIUS_GENSCALE_13
 70
     0
  0
APPID
  5
378
330
9
100
AcDbSymbolTableRecord
100
AcDbRegAppTableRecord
  2
GENIUS_GENDIMSH_14
 70
     0
  0
APPID
  5
C82
330
9
100
AcDbSymbolTableRecord
100
AcDbRegAppTableRecord
  2
GENIUS_GENOBJ-N-CRS_13
 70
     0
  0
APPID
  5
C83
330
9
100
AcDbSymbolTableRecord
100
AcDbRegAppTableRecord
  2
GENIUS_GENOENT_13
 70
     0
  0
APPID
  5
C84
330
9
100
AcDbSymbolTableRecord
100
AcDbRegAppTableRecord
  2
GENIUS_GENOREF_13
 70
     0
  0
APPID
  5
C85
330
9
100
AcDbSymbolTableRecord
100
AcDbRegAppTableRecord
  2
GENIUS_GENOLIS_13
 70
     0
  0
APPID
  5
CA0
330
9
100
AcDbSymbolTableRecord
100
AcDbRegAppTableRecord
  2
GENIUS_GENOBJ-N-CEN_13
 70
     0
  0
ENDTAB
  0
TABLE
  2
DIMSTYLE
  5
A
330
0
100
AcDbSymbolTable
 70
     9
  0
DIMSTYLE
105
58
330
A
100
AcDbSymbolTableRecord
100
AcDbDimStyleTableRecord
  2
AM_JIS
 70
     0
  3

  4
"
  5
OPEN30
  6

  7

 40
0.5
 41
2.5
 42
1.0
 43
12.0
 44
1.0
 45
0.0
 46
0.0
 47
0.1
 48
0.1
140
3.2
141
0.0
142
0.0
143
0.0393701
144
1.0
145
0.0
146
0.71
147
1.5
 71
     0
 72
     0
 73
     0
 74
     0
 75
     0
 76
     0
 77
     3
 78
     8
170
     0
171
     2
172
     1
173
     0
174
     0
175
     0
176
   256
177
   256
178
     2
270
     2
271
     3
272
     3
273
     2
274
     2
340
6B
275
     0
280
     0
281
     0
282
     0
283
     0
284
     0
285
     0
286
     0
287
     3
288
     0
  0
DIMSTYLE
105
5F
330
A
100
AcDbSymbolTableRecord
100
AcDbDimStyleTableRecord
  2
AM_JIS$3
 70
     0
  3

  4
"
  5
OPEN30
  6

  7

 40
0.5
 41
2.5
 42
1.0
 43
10.0
 44
1.0
 45
0.0
 46
0.0
 47
0.1
 48
0.1
140
3.2
141
0.0
142
0.0
143
0.0393701
144
1.0
145
0.0
146
0.71
147
1.5
 71
     0
 72
     0
 73
     0
 74
     1
 75
     0
 76
     0
 77
     3
 78
     8
170
     0
171
     2
172
     0
173
     0
174
     0
175
     0
176
   256
177
   256
178
     2
270
     2
271
     2
272
     3
273
     2
274
     2
340
6B
275
     0
280
     0
281
     0
282
     0
283
     0
284
     0
285
     0
286
     0
287
     0
288
     1
  0
DIMSTYLE
105
60
330
A
100
AcDbSymbolTableRecord
100
AcDbDimStyleTableRecord
  2
AM_JIS$4
 70
     0
  3

  4
"
  5
OPEN30
  6

  7

 40
0.5
 41
2.5
 42
1.0
 43
10.0
 44
1.0
 45
0.0
 46
0.0
 47
0.1
 48
0.1
140
3.2
141
0.0
142
0.0
143
0.0393701
144
1.0
145
0.0
146
0.71
147
1.5
 71
     0
 72
     0
 73
     0
 74
     1
 75
     0
 76
     0
 77
     3
 78
     8
170
     0
171
     2
172
     0
173
     0
174
     0
175
     0
176
   256
177
   256
178
     2
270
     2
271
     2
272
     3
273
     2
274
     2
340
6B
275
     0
280
     0
281
     0
282
     0
283
     0
284
     0
285
     0
286
     0
287
     0
288
     1
  0
DIMSTYLE
105
61
330
A
100
AcDbSymbolTableRecord
100
AcDbDimStyleTableRecord
  2
AM_JIS$6
 70
     0
  3

  4
"
  5
OPEN30
  6

  7

 40
0.5
 41
2.5
 42
1.0
 43
10.0
 44
1.0
 45
0.0
 46
0.0
 47
0.1
 48
0.1
140
3.2
141
0.0
142
0.0
143
0.0393701
144
1.0
145
0.0
146
0.71
147
1.5
 71
     0
 72
     0
 73
     0
 74
     0
 75
     0
 76
     0
 77
     0
 78
     8
170
     0
171
     2
172
     1
173
     0
174
     0
175
     0
176
   256
177
   256
178
     2
270
     2
271
     2
272
     2
273
     2
274
     2
340
6B
275
     0
280
     0
281
     0
282
     0
283
     0
284
     0
285
     0
286
     0
287
     3
288
     0
  0
DIMSTYLE
105
62
330
A
100
AcDbSymbolTableRecord
100
AcDbDimStyleTableRecord
  2
AM_JIS$7
 70
     0
  3

  4
"
  5
OPEN30
  6

  7

 40
0.5
 41
2.5
 42
1.0
 43
10.0
 44
1.0
 45
0.0
 46
0.0
 47
0.1
 48
0.1
140
3.2
141
0.0
142
0.0
143
0.0393701
144
1.0
145
0.0
146
0.71
147
1.5
 71
     0
 72
     0
 73
     0
 74
     0
 75
     0
 76
     0
 77
     3
 78
     8
170
     0
171
     2
172
     1
173
     0
174
     0
175
     0
176
   256
177
   256
178
     2
270
     2
271
     2
272
     3
273
     2
274
     2
340
6B
275
     0
280
     0
281
     0
282
     0
283
     0
284
     0
285
     0
286
     0
287
     3
288
     0
  0
DIMSTYLE
105
63
330
A
100
AcDbSymbolTableRecord
100
AcDbDimStyleTableRecord
  2
AM_JIS$SF
 70
     0
  3

  4
"
  5
OPEN30
  6

  7

 40
0.5
 41
2.5
 42
1.0
 43
10.0
 44
1.0
 45
0.0
 46
0.0
 47
0.1
 48
0.1
140
3.2
141
0.0
142
0.0
143
0.0393701
144
1.0
145
0.0
146
0.71
147
1.5
 71
     0
 72
     0
 73
     0
 74
     0
 75
     1
 76
     1
 77
     3
 78
     8
170
     0
171
     2
172
     1
173
     0
174
     0
175
     0
176
   256
177
   256
178
     2
270
     2
271
     2
272
     2
273
     2
274
     2
340
6B
275
     0
280
     0
281
     0
282
     0
283
     0
284
     0
285
     0
286
     0
287
     3
288
     0
  0
DIMSTYLE
105
68
330
A
100
AcDbSymbolTableRecord
100
AcDbDimStyleTableRecord
  2
AM_JIS$SH
 70
     0
  3

  4
"
  5

  6
GENAXEH
  7
OPEN30
 40
0.5
 41
2.5
 42
1.0
 43
10.0
 44
1.0
 45
0.0
 46
0.0
 47
0.1
 48
0.1
140
3.2
141
0.0
142
0.0
143
0.0393701
144
2.0
145
0.0
146
0.71
147
1.5
 71
     0
 72
     0
 73
     0
 74
     0
 75
     1
 76
     1
 77
     3
 78
     8
170
     0
171
     2
172
     1
173
     1
174
     0
175
     0
176
   256
177
   256
178
     2
270
     2
271
     2
272
     2
273
     2
274
     2
340
6B
275
     0
280
     0
281
     0
282
     0
283
     0
284
     0
285
     0
286
     0
287
     3
288
     0
  0
DIMSTYLE
105
B34
102
{ACAD_REACTORS
330
2894
102
}
330
A
100
AcDbSymbolTableRecord
100
AcDbDimStyleTableRecord
  2
AM_JIS$2
 70
     0
  3

  4
"
  5
OPEN30
  6

  7

 40
0.5
 41
2.5
 42
1.0
 43
12.0
 44
1.0
 45
0.0
 46
0.0
 47
0.1
 48
0.1
140
3.2
141
0.0
142
0.0
143
0.0393701
144
1.0
145
0.0
146
0.71
147
1.5
 71
     0
 72
     0
 73
     0
 74
     0
 75
     0
 76
     0
 77
     3
 78
     8
170
     0
171
     2
172
     1
173
     0
174
     0
175
     0
176
   256
177
   256
178
     2
270
     2
271
     3
272
     3
273
     2
274
     2
340
6B
275
     0
280
     0
281
     0
282
     0
283
     0
284
     0
285
     0
286
     0
287
     3
288
     0
  0
DIMSTYLE
105
BA5
102
{ACAD_REACTORS
330
CC6
330
2069
330
2599
330
2CD8
102
}
330
A
100
AcDbSymbolTableRecord
100
AcDbDimStyleTableRecord
  2
AM_JIS$0
 70
     0
  3

  4
"
  5
OPEN30
  6

  7

 40
0.5
 41
2.5
 42
0.0
 43
10.0
 44
1.0
 45
0.0
 46
0.0
 47
0.1
 48
0.1000000001
140
3.799999999999999
141
0.0
142
0.0
143
0.0393701
144
1.0
145
0.0
146
0.71
147
1.5
 71
     0
 72
     0
 73
     0
 74
     0
 75
     0
 76
     0
 77
     3
 78
     1
170
     0
171
     2
172
     1
173
     0
174
     0
175
     0
176
     3
177
     3
178
     2
270
     2
271
     2
272
     2
273
     2
274
     2
340
11
275
     1
280
     0
281
     0
282
     0
283
     0
284
     8
285
     0
286
     0
287
     0
288
     0
  0
ENDTAB
  0
TABLE
  2
BLOCK_RECORD
  5
1
330
0
100
AcDbSymbolTable
 70
    10
  0
BLOCK_RECORD
  5
1F
102
{ACAD_XDICTIONARY
360
74
102
}
330
1
100
AcDbSymbolTableRecord
100
AcDbBlockTableRecord
  2
*MODEL_SPACE
  0
BLOCK_RECORD
  5
101
102
{ACAD_XDICTIONARY
360
2DAA
102
}
330
1
100
AcDbSymbolTableRecord
100
AcDbBlockTableRecord
  2
*PAPER_SPACE
  0
BLOCK_RECORD
  5
59
330
1
100
AcDbSymbolTableRecord
100
AcDbBlockTableRecord
  2
_OPEN30
  0
BLOCK_RECORD
  5
64
330
1
100
AcDbSymbolTableRecord
100
AcDbBlockTableRecord
  2
GENAXEH
  0
BLOCK_RECORD
  5
CC8
330
1
100
AcDbSymbolTableRecord
100
AcDbBlockTableRecord
  2
*D5
  0
BLOCK_RECORD
  5
206A
330
1
100
AcDbSymbolTableRecord
100
AcDbBlockTableRecord
  2
*D6
  0
BLOCK_RECORD
  5
259A
330
1
100
AcDbSymbolTableRecord
100
AcDbBlockTableRecord
  2
*D7
  0
BLOCK_RECORD
  5
2895
330
1
100
AcDbSymbolTableRecord
100
AcDbBlockTableRecord
  2
*D8
  0
BLOCK_RECORD
  5
2CD9
330
1
100
AcDbSymbolTableRecord
100
AcDbBlockTableRecord
  2
*D9
  0
ENDTAB
  0
ENDSEC
  0
SECTION
  2
BLOCKS
  0
BLOCK
  5
20
330
1F
100
AcDbEntity
  8
0
100
AcDbBlockBegin
  2
*MODEL_SPACE
 70
     0
 10
0.0
 20
0.0
 30
0.0
  3
*MODEL_SPACE
  1

  0
ENDBLK
  5
21
330
1F
100
AcDbEntity
  8
0
100
AcDbBlockEnd
  0
BLOCK
  5
103
330
101
100
AcDbEntity
 67
     1
  8
0
100
AcDbBlockBegin
  2
*PAPER_SPACE
 70
     0
 10
0.0
 20
0.0
 30
0.0
  3
*PAPER_SPACE
  1

  0
ENDBLK
  5
104
330
101
100
AcDbEntity
 67
     1
  8
0
100
AcDbBlockEnd
  0
BLOCK
  5
5D
330
59
100
AcDbEntity
  8
0
100
AcDbBlockBegin
  2
_OPEN30
 70
     0
 10
0.0
 20
0.0
 30
0.0
  3
_OPEN30
  1

  0
LINE
  5
5A
330
59
100
AcDbEntity
  8
0
 62
     0
100
AcDbLine
 10
-1.0
 20
0.26794919
 30
0.0
 11
0.0
 21
0.0
 31
0.0
  0
LINE
  5
5B
330
59
100
AcDbEntity
  8
0
 62
     0
100
AcDbLine
 10
0.0
 20
0.0
 30
0.0
 11
-1.0
 21
-0.26794919
 31
0.0
  0
LINE
  5
5C
330
59
100
AcDbEntity
  8
0
 62
     0
100
AcDbLine
 10
0.0
 20
0.0
 30
0.0
 11
-1.0
 21
0.0
 31
0.0
  0
ENDBLK
  5
5E
330
59
100
AcDbEntity
  8
0
100
AcDbBlockEnd
  0
BLOCK
  5
66
330
64
100
AcDbEntity
  8
0
100
AcDbBlockBegin
  2
GENAXEH
 70
     0
 10
0.0
 20
0.0
 30
0.0
  3
GENAXEH
  1

  0
LINE
  5
65
330
64
100
AcDbEntity
  8
0
100
AcDbLine
 10
-1.0
 20
0.0
 30
0.0
 11
1.0
 21
0.0
 31
0.0
  0
ENDBLK
  5
67
330
64
100
AcDbEntity
  8
0
100
AcDbBlockEnd
  0
BLOCK
  5
CD2
330
CC8
100
AcDbEntity
  8
0
100
AcDbBlockBegin
  2
*D5
 70
     1
 10
0.0
 20
0.0
 30
0.0
  3
*D5
  1

  0
LINE
  5
2D23
330
CC8
100
AcDbEntity
  8
AM_5
 62
     3
100
AcDbLine
 10
-138.0
 20
-4.754479572481244
 30
0.0
 11
-138.0
 21
-17.50000402524002
 31
0.0
  0
LINE
  5
2D24
330
CC8
100
AcDbEntity
  8
AM_5
 62
     3
100
AcDbLine
 10
-1.999999999999971
 20
-4.650000000000088
 30
0.0
 11
-1.999999999999972
 21
-17.50000402524002
 31
0.0
  0
LINE
  5
2D25
330
CC8
100
AcDbEntity
  8
AM_5
 62
     3
100
AcDbLine
 10
-136.7499999999999
 20
-17.00000402524002
 30
0.0
 11
-3.249999999999972
 21
-17.00000402524002
 31
0.0
  0
INSERT
  5
2D26
330
CC8
100
AcDbEntity
  8
AM_5
 62
     3
100
AcDbBlockReference
  2
_OPEN30
 10
-138.0
 20
-17.00000402524002
 30
0.0
 41
1.25
 42
1.25
 43
1.25
 50
180.0
  0
INSERT
  5
2D27
330
CC8
100
AcDbEntity
  8
AM_5
 62
     3
100
AcDbBlockReference
  2
_OPEN30
 10
-1.999999999999972
 20
-17.00000402524002
 30
0.0
 41
1.25
 42
1.25
 43
1.25
  0
MTEXT
  5
2D28
330
CC8
100
AcDbEntity
  8
AM_5
 62
     2
100
AcDbMText
 10
-69.99999999999999
 20
-15.30000402524002
 30
0.0
 40
1.9
 41
0.0
 71
     5
 72
     1
  1
136
1001
ACAD
1000
MTEXTBEGIN
1070
    73
1070
     1
1070
    44
1040
1.0
1070
    74
1070
     0
1000
MTEXTEND
  0
POINT
  5
2D29
330
CC8
100
AcDbEntity
  8
DEFPOINTS
 62
     0
100
AcDbPoint
 10
-138.0
 20
-4.754479572481244
 30
0.0
  0
POINT
  5
2D2A
330
CC8
100
AcDbEntity
  8
DEFPOINTS
 62
     0
100
AcDbPoint
 10
-1.999999999999971
 20
-4.650000000000088
 30
0.0
  0
POINT
  5
2D2B
330
CC8
100
AcDbEntity
  8
DEFPOINTS
 62
     0
100
AcDbPoint
 10
-1.999999999999972
 20
-17.00000402524002
 30
0.0
  0
ENDBLK
  5
CD3
330
CC8
100
AcDbEntity
  8
0
100
AcDbBlockEnd
  0
BLOCK
  5
2074
330
206A
100
AcDbEntity
  8
0
100
AcDbBlockBegin
  2
*D6
 70
     1
 10
0.0
 20
0.0
 30
0.0
  3
*D6
  1

  0
LINE
  5
2D1A
330
206A
100
AcDbEntity
  8
AM_5
 62
     3
100
AcDbLine
 10
-81.99999999999997
 20
-4.999986311027836
 30
0.0
 11
-81.99999999999993
 21
-12.50000402524016
 31
0.0
  0
LINE
  5
2D1B
330
206A
100
AcDbEntity
  8
AM_5
 62
     3
100
AcDbLine
 10
-1.999999999999958
 20
-4.650000000000094
 30
0.0
 11
-1.999999999999936
 21
-12.50000402523993
 31
0.0
  0
LINE
  5
2D1C
330
206A
100
AcDbEntity
  8
AM_5
 62
     3
100
AcDbLine
 10
-80.74999999999995
 20
-12.00000402524016
 30
0.0
 11
-3.249999999999937
 21
-12.00000402523993
 31
0.0
  0
INSERT
  5
2D1D
330
206A
100
AcDbEntity
  8
AM_5
 62
     3
100
AcDbBlockReference
  2
_OPEN30
 10
-81.99999999999995
 20
-12.00000402524016
 30
0.0
 41
1.25
 42
1.25
 43
1.25
 50
180.0000000000001
  0
INSERT
  5
2D1E
330
206A
100
AcDbEntity
  8
AM_5
 62
     3
100
AcDbBlockReference
  2
_OPEN30
 10
-1.999999999999937
 20
-12.00000402523993
 30
0.0
 41
1.25
 42
1.25
 43
1.25
 50
0.0000000000001527
  0
MTEXT
  5
2D1F
330
206A
100
AcDbEntity
  8
AM_5
 62
     2
100
AcDbMText
 10
-41.99999999999994
 20
-10.30000402524005
 30
0.0
 40
1.9
 41
0.0
 71
     5
 72
     1
  1
80
1001
ACAD
1000
MTEXTBEGIN
1070
    73
1070
     1
1070
    44
1040
1.0
1070
    74
1070
     0
1000
MTEXTEND
  0
POINT
  5
2D20
330
206A
100
AcDbEntity
  8
DEFPOINTS
 62
     0
100
AcDbPoint
 10
-81.99999999999999
 20
-4.999986311027597
 30
0.0
  0
POINT
  5
2D21
330
206A
100
AcDbEntity
  8
DEFPOINTS
 62
     0
100
AcDbPoint
 10
-1.999999999999971
 20
-4.650000000000088
 30
0.0
  0
POINT
  5
2D22
330
206A
100
AcDbEntity
  8
DEFPOINTS
 62
     0
100
AcDbPoint
 10
-1.999999999999972
 20
-12.00000402523992
 30
0.0
  0
ENDBLK
  5
2075
330
206A
100
AcDbEntity
  8
0
100
AcDbBlockEnd
  0
BLOCK
  5
25A4
330
259A
100
AcDbEntity
  8
0
100
AcDbBlockBegin
  2
*D7
 70
     1
 10
0.0
 20
0.0
 30
0.0
  3
*D7
  1

  0
LINE
  5
2AD8
330
259A
100
AcDbEntity
  8
AM_5
 62
     3
100
AcDbLine
 10
-137.7544818454374
 20
-5.000003025240719
 30
0.0
 11
-148.000001
 21
-5.000003025240747
 31
0.0
  0
LINE
  5
2AD9
330
259A
100
AcDbEntity
  8
AM_5
 62
     3
100
AcDbLine
 10
-137.7544818454375
 20
5.000024525350962
 30
0.0
 11
-148.000001
 21
5.000024525350934
 31
0.0
  0
LINE
  5
2ADA
330
259A
100
AcDbEntity
  8
AM_5
 62
     3
100
AcDbLine
 10
-147.500001
 20
-3.750003025240746
 30
0.0
 11
-147.500001
 21
3.750024525350935
 31
0.0
  0
INSERT
  5
2ADB
330
259A
100
AcDbEntity
  8
AM_5
 62
     3
100
AcDbBlockReference
  2
_OPEN30
 10
-147.500001
 20
-5.000003025240745
 30
0.0
 41
1.25
 42
1.25
 43
1.25
 50
270.0000000000001
  0
INSERT
  5
2ADC
330
259A
100
AcDbEntity
  8
AM_5
 62
     3
100
AcDbBlockReference
  2
_OPEN30
 10
-147.500001
 20
5.000024525350935
 30
0.0
 41
1.25
 42
1.25
 43
1.25
 50
90.00000000000015
  0
MTEXT
  5
2ADD
330
259A
100
AcDbEntity
  8
AM_5
 62
     2
100
AcDbMText
 10
-149.200001
 20
0.0000107500551106
 30
0.0
 40
1.9
 41
0.0
 71
     5
 72
     1
  1
%%c10
 11
-0.0000000000000028
 21
1.0
 31
0.0
1001
ACAD
1000
MTEXTBEGIN
1070
    73
1070
     1
1070
    44
1040
1.0
1070
    74
1070
     0
1000
MTEXTEND
  0
POINT
  5
2ADE
330
259A
100
AcDbEntity
  8
DEFPOINTS
 62
     0
100
AcDbPoint
 10
-137.7544818454374
 20
-5.000003025240291
 30
0.0
  0
POINT
  5
2ADF
330
259A
100
AcDbEntity
  8
DEFPOINTS
 62
     0
100
AcDbPoint
 10
-137.7544818454375
 20
5.00002452535139
 30
0.0
  0
POINT
  5
2AE0
330
259A
100
AcDbEntity
  8
DEFPOINTS
 62
     0
100
AcDbPoint
 10
-147.500001
 20
5.000024525351394
 30
0.0
  0
ENDBLK
  5
25A5
330
259A
100
AcDbEntity
  8
0
100
AcDbBlockEnd
  0
BLOCK
  5
28A5
330
2895
100
AcDbEntity
  8
0
100
AcDbBlockBegin
  2
*D8
 70
     1
 10
0.0
 20
0.0
 30
0.0
  3
*D8
  1

  0
LINE
  5
2D41
330
2895
100
AcDbEntity
  8
AM_5
100
AcDbLine
 10
0.171010071662917
 20
-0.4698463103927166
 30
0.0
 11
4.879202122432606
 21
-13.40549765633841
 31
0.0
  0
LINE
  5
2D42
330
2895
100
AcDbEntity
  8
AM_5
100
AcDbLine
 10
0.1710100716629057
 20
0.4698463103931979
 30
0.0
 11
4.879202122432282
 21
13.405497656339
 31
0.0
  0
ARC
  5
2D43
330
2895
100
AcDbEntity
  8
AM_5
100
AcDbCircle
 10
0.0000000000000853
 20
0.0000000000002386
 30
0.0
 40
13.7658326348535
100
AcDbArc
 50
295.2045055962891
 51
64.79549440371221
  0
INSERT
  5
2D44
330
2895
100
AcDbEntity
  8
AM_5
100
AcDbBlockReference
  2
_OPEN30
 10
4.708192050769774
 20
-12.93565134594546
 30
0.0
 41
1.25
 42
1.25
 43
1.25
 50
202.6022527981444
  0
INSERT
  5
2D45
330
2895
100
AcDbEntity
  8
AM_5
100
AcDbBlockReference
  2
_OPEN30
 10
4.708192050769462
 20
12.93565134594605
 30
0.0
 41
1.25
 42
1.25
 43
1.25
 50
157.3977472018569
  0
MTEXT
  5
2D46
330
2895
100
AcDbEntity
  8
AM_5
 62
     2
100
AcDbMText
 10
12.21583263485358
 20
0.0000000000003932
 30
0.0
 40
1.6
 41
0.0
 71
     5
 72
     1
  1
140°
  7
ASAMI
 11
-0.0000000000000028
 21
1.0
 31
0.0
1001
ACAD
1000
MTEXTBEGIN
1070
    73
1070
     1
1070
    44
1040
1.0
1070
    74
1070
     0
1000
MTEXTEND
  0
POINT
  5
2D47
330
2895
100
AcDbEntity
  8
DEFPOINTS
 62
     0
100
AcDbPoint
 10
12.6400092499407
 20
-5.452367769346682
 30
0.0
  0
POINT
  5
2D48
330
2895
100
AcDbEntity
  8
DEFPOINTS
 62
     0
100
AcDbPoint
 10
0.0000000000000853
 20
0.0000000000002386
 30
0.0
  0
POINT
  5
2D49
330
2895
100
AcDbEntity
  8
DEFPOINTS
 62
     0
100
AcDbPoint
 10
-0.4344923399331933
 20
1.193757892892954
 30
0.0
  0
POINT
  5
2D4A
330
2895
100
AcDbEntity
  8
DEFPOINTS
 62
     0
100
AcDbPoint
 10
0.0000000000000853
 20
0.0000000000002386
 30
0.0
  0
POINT
  5
2D4B
330
2895
100
AcDbEntity
  8
DEFPOINTS
 62
     0
100
AcDbPoint
 10
-0.4344923399331684
 20
-1.193757892892479
 30
0.0
  0
ENDBLK
  5
28A6
330
2895
100
AcDbEntity
  8
0
100
AcDbBlockEnd
  0
BLOCK
  5
2CE3
330
2CD9
100
AcDbEntity
  8
0
100
AcDbBlockBegin
  2
*D9
 70
     1
 10
0.0
 20
0.0
 30
0.0
  3
*D9
  1

  0
LINE
  5
2D2D
330
2CD9
100
AcDbEntity
  8
AM_5
 62
     3
100
AcDbLine
 10
-1.99999999999999
 20
4.649999999999979
 30
0.0
 11
9.819899261168069
 21
4.650000000000011
 31
0.0
  0
LINE
  5
2D2E
330
2CD9
100
AcDbEntity
  8
AM_5
 62
     3
100
AcDbLine
 10
-1.999999999999953
 20
-4.649999999999933
 30
0.0
 11
9.819899261168098
 21
-4.6499999999999
 31
0.0
  0
LINE
  5
2D2F
330
2CD9
100
AcDbEntity
  8
AM_5
 62
     3
100
AcDbLine
 10
9.319899261168073
 20
3.40000000000001
 30
0.0
 11
9.319899261168094
 21
-3.399999999999902
 31
0.0
  0
INSERT
  5
2D30
330
2CD9
100
AcDbEntity
  8
AM_5
 62
     3
100
AcDbBlockReference
  2
_OPEN30
 10
9.319899261168069
 20
4.65000000000001
 30
0.0
 41
1.25
 42
1.25
 43
1.25
 50
90.00000000000017
  0
INSERT
  5
2D31
330
2CD9
100
AcDbEntity
  8
AM_5
 62
     3
100
AcDbBlockReference
  2
_OPEN30
 10
9.319899261168098
 20
-4.649999999999902
 30
0.0
 41
1.25
 42
1.25
 43
1.25
 50
270.0000000000001
  0
MTEXT
  5
2D32
330
2CD9
100
AcDbEntity
  8
AM_5
 62
     2
100
AcDbMText
 10
7.619899261168083
 20
0.0000000000000489
 30
0.0
 40
1.9
 41
0.0
 71
     5
 72
     1
  1
%%c9.3
 11
-0.0000000000000028
 21
1.0
 31
0.0
1001
ACAD
1000
MTEXTBEGIN
1070
    73
1070
     1
1070
    44
1040
1.0
1070
    74
1070
     0
1000
MTEXTEND
  0
POINT
  5
2D33
330
2CD9
100
AcDbEntity
  8
DEFPOINTS
 62
     0
100
AcDbPoint
 10
-1.999999999999975
 20
4.649999999999984
 30
0.0
  0
POINT
  5
2D34
330
2CD9
100
AcDbEntity
  8
DEFPOINTS
 62
     0
100
AcDbPoint
 10
-1.999999999999968
 20
-4.649999999999928
 30
0.0
  0
POINT
  5
2D35
330
2CD9
100
AcDbEntity
  8
DEFPOINTS
 62
     0
100
AcDbPoint
 10
9.319899261168082
 20
-4.649999999999931
 30
0.0
  0
ENDBLK
  5
2CE4
330
2CD9
100
AcDbEntity
  8
0
100
AcDbBlockEnd
  0
ENDSEC
  0
SECTION
  2
ENTITIES
  0
DIMENSION
  5
CC6
330
1F
100
AcDbEntity
  8
AM_5
100
AcDbDimension
  2
*D5
 10
-1.999999999999972
 20
-17.00000402524002
 30
0.0
 11
-69.99999999999999
 21
-15.30000402524002
 31
0.0
 70
    32
  1
<>
  3
AM_JIS$0
100
AcDbAlignedDimension
 13
-138.0
 23
-4.754479572481244
 33
0.0
 14
-1.999999999999971
 24
-4.650000000000088
 34
0.0
 50
0.0000000000001132
100
AcDbRotatedDimension
1001
GENIUS_GENDTOL_13
1000

1000
h7
1000

1040
0.0
1001
ACAD
1000
DSTYLE
1002
{
1070
   271
1070
     0
1002
}
  0
TEXT
  5
19BD
330
1F
100
AcDbEntity
  8
AM_6
100
AcDbText
 10
-80.83330337206827
 20
-28.25000402524005
 30
0.0
 40
2.5
  1
MDW093LHK
 50
0.0000000000001527
 72
     4
 11
-69.99997003873494
 21
-27.00000402524002
 31
0.0
100
AcDbText
  0
DIMENSION
  5
2069
330
1F
100
AcDbEntity
  8
AM_5
100
AcDbDimension
  2
*D6
 10
-1.999999999999972
 20
-12.00000402523992
 30
0.0
 11
-41.99999999999998
 21
-10.30000402523993
 31
0.0
 70
    32
  1
<>
 51
359.9999999999998
  3
AM_JIS$0
100
AcDbAlignedDimension
 13
-81.99999999999999
 23
-4.999986311027597
 33
0.0
 14
-1.999999999999971
 24
-4.650000000000088
 34
0.0
 50
0.0000000000001527
100
AcDbRotatedDimension
1001
ACAD
1000
DSTYLE
1002
{
1070
   271
1070
     0
1070
   174
1070
     1
1002
}
1001
GENIUS_GENDTOL_13
1000

1000
h7
1000

1040
0.0
  0
LINE
  5
23EF
330
1F
100
AcDbEntity
  8
AM_7
100
AcDbLine
 10
-140.5
 20
0.0000000000006516
 30
0.0
 11
2.31990003107253
 21
-0.0000000000000108
 31
0.0
1001
GENIUS_GENODEF_13
1002
{
1000
HIER
1070
     0
1002
}
1002
{
1000
MANEDIT
1070
     0
1002
}
1002
{
1000
NOSEL
1070
     0
1002
}
1002
{
1000
BEHIND
1070
     0
1002
}
1002
{
1000
REACTOR
1002
}
1001
GENIUS_GENOBJ-N-CEN_13
1002
{
1000
OWNER
1000
GEN
1002
}
  0
ELLIPSE
  5
24C7
330
1F
100
AcDbEntity
  8
AM_11
 48
0.5
100
AcDbEllipse
 10
-76.70462994420418
 20
20.09720314218454
 30
0.0
 11
-23.19725211461353
 21
0.0000000000005165
 31
0.0
210
0.0
220
0.0
230
1.0
 40
0.9578947368421058
 41
1.130070686340301
 42
2.011520147323591
  0
ELLIPSE
  5
24C8
330
1F
100
AcDbEntity
  8
AM_11
 48
0.5
100
AcDbEllipse
 10
-76.70462994420532
 20
-20.09718855347365
 30
0.0
 11
23.1972521146135
 21
0.0000000000003877
 31
0.0
210
0.0
220
0.0
230
1.0
 40
0.957894736842107
 41
1.13007155259185
 42
2.011521013575156
  0
ELLIPSE
  5
24C9
330
1F
100
AcDbEntity
  8
AM_11
 48
0.5
100
AcDbEllipse
 10
-96.49629661087184
 20
-20.09718855347319
 30
0.0
 11
-23.19725211461353
 21
0.0000000000000787
 31
0.0
210
0.0
220
0.0
230
1.0
 40
0.9578947368421061
 41
4.271664206181663
 42
5.153113667164971
  0
ELLIPSE
  5
24CA
330
1F
100
AcDbEntity
  8
AM_11
 48
0.5
100
AcDbEllipse
 10
-96.4962966108707
 20
20.09720314218501
 30
0.0
 11
-23.19725211461357
 21
0.0000000000000117
 31
0.0
210
0.0
220
0.0
230
1.0
 40
0.9578947368421045
 41
1.130070686340277
 42
2.011520147323567
  0
ELLIPSE
  5
24DA
330
1F
100
AcDbEntity
  8
AM_11
 48
0.5
100
AcDbEllipse
 10
-136.0796265404638
 20
-20.09713351066407
 30
0.0
 11
23.19725211461342
 21
0.0000000000003671
 31
0.0
210
0.0
220
0.0
230
1.0
 40
0.9578947368421085
 41
1.13007155259185
 42
1.653675700510905
  0
ELLIPSE
  5
24DB
330
1F
100
AcDbEntity
  8
AM_11
 48
0.5
100
AcDbEllipse
 10
-136.0796265404627
 20
20.09725818499413
 30
0.0
 11
-23.19725211461347
 21
0.000000000000362
 31
0.0
210
0.0
220
0.0
230
1.0
 40
0.9578947368421086
 41
1.487916953078831
 42
2.011520147323584
  0
ELLIPSE
  5
24DC
330
1F
100
AcDbEntity
  8
AM_11
 48
0.5
100
AcDbEllipse
 10
-116.2880037070065
 20
-20.09717028717649
 30
0.0
 11
23.1972521146135
 21
0.0000000000003208
 31
0.0
210
0.0
220
0.0
230
1.0
 40
0.9578947368421049
 41
1.130071552591854
 42
2.011521013575157
  0
ELLIPSE
  5
24DD
330
1F
100
AcDbEntity
  8
AM_11
 48
0.5
100
AcDbEllipse
 10
-116.2880037070053
 20
20.09722140848172
 30
0.0
 11
-23.19725211461354
 21
0.0000000000004186
 31
0.0
210
0.0
220
0.0
230
1.0
 40
0.9578947368421047
 41
1.130070686340294
 42
2.011520147323585
  0
LINE
  5
2567
330
1F
100
AcDbEntity
  8
AM_0
 48
0.5
100
AcDbLine
 10
-138.0
 20
-4.754479572481244
 30
0.0
 11
-138.0
 21
4.754501072592363
 31
0.0
  0
LINE
  5
2568
330
1F
100
AcDbEntity
  8
AM_0
 48
0.5
100
AcDbLine
 10
-137.7544818454375
 20
-5.000003025240291
 30
0.0
 11
-137.7544818454375
 21
5.00002452535139
 31
0.0
  0
LINE
  5
2569
330
1F
100
AcDbEntity
  8
AM_0
 48
0.5
100
AcDbLine
 10
-81.99999999999999
 20
-4.999992428858878
 30
0.0
 11
-82.00000000000001
 21
5.000024525351547
 31
0.0
  0
LINE
  5
256C
330
1F
100
AcDbEntity
  8
AM_0
100
AcDbLine
 10
-137.7544818454375
 20
-4.999992428859036
 30
0.0
 11
-81.99999999999999
 21
-4.999992428858878
 31
0.0
  0
LINE
  5
256D
330
1F
100
AcDbEntity
  8
AM_0
 48
0.5
100
AcDbLine
 10
-137.9999682108611
 20
-4.754458379718757
 30
0.0
 11
-137.7544394599097
 21
-4.999981832477782
 31
0.0
  0
LINE
  5
256E
330
1F
100
AcDbEntity
  8
AM_0
 48
0.5
100
AcDbLine
 10
-81.3938090332998
 20
-4.650001352163821
 30
0.0
 11
-82.00001059638124
 21
-4.999992428858878
 31
0.0
  0
LINE
  5
256F
330
1F
100
AcDbEntity
  8
AM_0
100
AcDbLine
 10
-82.00000000000001
 20
5.000011279874455
 30
0.0
 11
-137.7544818454375
 21
5.000011279874298
 31
0.0
  0
LINE
  5
2570
330
1F
100
AcDbEntity
  8
AM_0
 48
0.5
100
AcDbLine
 10
-137.9999682108611
 20
4.754456037972223
 30
0.0
 11
-137.7544394599097
 21
4.999979490730558
 31
0.0
  0
LINE
  5
2571
330
1F
100
AcDbEntity
  8
AM_0
 48
0.5
100
AcDbLine
 10
-81.39384140409465
 20
4.65003458604783
 30
0.0
 11
-82.00000000000001
 21
5.000000683493204
 31
0.0
  0
LINE
  5
2572
330
1F
100
AcDbEntity
  8
AM_0
100
AcDbLine
 10
-81.39384140409465
 20
4.65003458604783
 30
0.0
 11
-81.39384140409465
 21
-4.65002004147449
 31
0.0
  0
DIMENSION
  5
2599
330
1F
100
AcDbEntity
  8
AM_5
100
AcDbDimension
  2
*D7
 10
-147.500001
 20
5.000024525351394
 30
0.0
 11
-147.500001
 21
0.0000107500555445
 31
0.0
 70
   160
  1
%%c<>
 51
359.9999999999998
  3
AM_JIS$0
100
AcDbAlignedDimension
 13
-137.7544818454374
 23
-5.000003025240291
 33
0.0
 14
-137.7544818454375
 24
5.00002452535139
 34
0.0
 50
270.0000000000002
100
AcDbRotatedDimension
1001
ACAD
1000
DSTYLE
1002
{
1070
   271
1070
     0
1002
}
1001
GENIUS_GENDTOL_13
1000

1000
h7
1000

1040
0.0
  0
ELLIPSE
  5
27AB
330
1F
100
AcDbEntity
  8
AM_0
 48
0.5
100
AcDbEllipse
 10
8.092420226088458
 20
7.536933027588083
 30
0.0
 11
-7.514789042215193
 21
7.514789042215123
 31
0.0
210
0.0
220
0.0
230
1.0
 40
0.999999999999998
 41
1.171329590070667
 42
1.424984195904709
  0
ELLIPSE
  5
27AC
330
1F
100
AcDbEntity
  8
AM_0
 48
0.5
100
AcDbEllipse
 10
8.09242022609065
 20
-7.536933027585754
 30
0.0
 11
-7.514789042213017
 21
-7.514789042217307
 31
0.0
210
0.0
220
0.0
230
-0.9999999999999998
 40
0.9999999999999978
 41
1.171329590070667
 42
1.424984195904709
  0
LINE
  5
27AD
330
1F
100
AcDbEntity
  8
AM_0
 48
0.5
100
AcDbLine
 10
-1.753423646303073
 20
3.536499658753671
 30
0.0
 11
-1.99999999999999
 21
4.649999999999979
 31
0.0
  0
LINE
  5
27AF
330
1F
100
AcDbEntity
  8
AM_0
100
AcDbLine
 10
0.0000000000000853
 20
0.0000000000002386
 30
0.0
 11
-0.4344923399331684
 21
-1.193757892892479
 31
0.0
  0
LINE
  5
27B0
330
1F
100
AcDbEntity
  8
AM_0
100
AcDbLine
 10
-0.4344923399331933
 20
1.193757892892954
 30
0.0
 11
0.0000000000000853
 21
0.0000000000002386
 31
0.0
  0
LINE
  5
27B1
330
1F
100
AcDbEntity
  8
AM_0
 48
0.5
100
AcDbLine
 10
-1.753423646302021
 20
-3.536499658754226
 30
0.0
 11
-1.999999999999971
 21
-4.650000000000088
 31
0.0
  0
DIMENSION
  5
2894
330
1F
100
AcDbEntity
  8
AM_5
100
AcDbDimension
  2
*D8
 10
-0.4344923399331684
 20
-1.193757892892479
 30
0.0
 11
12.21583263485358
 21
0.0000000000003557
 31
0.0
 70
    34
  1
<>
 51
359.9999999999998
  3
AM_JIS$2
100
AcDb2LineAngularDimension
 13
-0.4344923399331933
 23
1.193757892892954
 33
0.0
 14
0.0000000000000853
 24
0.0000000000002386
 34
0.0
 15
0.0000000000000853
 25
0.0000000000002386
 35
0.0
 16
12.6400092499407
 26
-5.452367769346682
 36
0.0
1001
ACAD
1000
DSTYLE
1002
{
1070
   179
1070
     3
1002
}
1001
GENIUS_GENDTOL_13
1000

1000
h7
1000

1040
0.0
  0
LINE
  5
2CD3
330
1F
100
AcDbEntity
  8
AM_0
 48
0.5
100
AcDbLine
 10
0.0000000000001386
 20
0.0000000000002243
 30
0.0
 11
-1.891471447803331
 21
1.760661307462958
 31
0.0
  0
LINE
  5
2CD4
330
1F
100
AcDbEntity
  8
AM_0
 48
0.5
100
AcDbLine
 10
-76.18169216955287
 20
-4.649999519189327
 30
0.0
 11
-81.39380903329978
 21
-4.65000135216382
 31
0.0
  0
LINE
  5
2CD5
330
1F
100
AcDbEntity
  8
AM_0
 48
0.5
100
AcDbLine
 10
-74.59408235878443
 20
4.650037040392759
 30
0.0
 11
-81.39384140409465
 21
4.65003458604783
 31
0.0
  0
LINE
  5
2CD6
330
1F
100
AcDbEntity
  8
AM_0
 48
0.5
100
AcDbLine
 10
-4.472379094804395
 20
4.650000480808484
 30
0.0
 11
-1.999999999999976
 21
4.649999999999984
 31
0.0
  0
LINE
  5
2CD7
330
1F
100
AcDbEntity
  8
AM_0
 48
0.5
100
AcDbLine
 10
-4.472379094804694
 20
-4.649999519191519
 30
0.0
 11
-2.000000000000023
 21
-4.650000000000015
 31
0.0
  0
DIMENSION
  5
2CD8
330
1F
100
AcDbEntity
  8
AM_5
100
AcDbDimension
  2
*D9
 10
9.319899261168082
 20
-4.649999999999931
 30
0.0
 11
7.619899261168083
 21
0.0000000000000267
 31
0.0
 70
    32
  1
%%c<>
 51
359.9999999999998
  3
AM_JIS$0
100
AcDbAlignedDimension
 13
-1.999999999999975
 23
4.649999999999984
 33
0.0
 14
-1.999999999999968
 24
-4.649999999999928
 34
0.0
 50
89.99998909590908
100
AcDbRotatedDimension
1001
ACAD
1000
DSTYLE
1002
{
1070
   271
1070
     1
1002
}
1001
GENIUS_GENDTOL_13
1000

1000
h7
1000

1040
0.0
  0
LINE
  5
2CE5
330
1F
100
AcDbEntity
  8
AM_0
 48
0.5
100
AcDbLine
 10
-36.47392404719646
 20
4.650000480809504
 30
0.0
 11
-16.61478799212758
 21
4.650000480808869
 31
0.0
  0
LINE
  5
2CE6
330
1F
100
AcDbEntity
  8
AM_0
 48
0.5
100
AcDbLine
 10
-32.97197925205219
 20
-4.649999519190707
 30
0.0
 11
-19.55277383967743
 21
-4.649999519191041
 31
0.0
  0
LINE
  5
2CE7
330
1F
100
AcDbEntity
  8
AM_0
100
AcDbLine
 10
-64.97363413020465
 20
4.650000480810317
 30
0.0
 11
-46.09764082594472
 21
4.650661097698558
 31
0.0
  0
LINE
  5
2CE8
330
1F
100
AcDbEntity
  8
AM_0
 48
0.5
100
AcDbLine
 10
-64.97364017017041
 20
-4.649999519189624
 30
0.0
 11
-48.05237399692605
 21
-4.649999519190128
 31
0.0
  0
LINE
  5
2CE9
330
1F
100
AcDbEntity
  8
AM_11
 48
0.5
100
AcDbLine
 10
-46.09764082594472
 20
4.650661097698558
 30
0.0
 11
-36.47391105854117
 21
4.650000480809504
 31
0.0
  0
LINE
  5
2CEA
330
1F
100
AcDbEntity
  8
AM_11
 48
0.5
100
AcDbLine
 10
-48.05237399692301
 20
-4.649999519190226
 30
0.0
 11
-32.9719792520522
 21
-4.650660136079441
 31
0.0
  0
LINE
  5
2CEB
330
1F
100
AcDbEntity
  8
AM_11
 48
0.5
100
AcDbLine
 10
-19.55277383967743
 20
-4.649999519191041
 30
0.0
 11
-4.472379094804694
 21
-4.649999519191519
 31
0.0
  0
LINE
  5
2CEC
330
1F
100
AcDbEntity
  8
AM_11
 48
0.5
100
AcDbLine
 10
-16.61478799212758
 20
4.650000480808869
 30
0.0
 11
-4.472379094804395
 21
4.650000480808484
 31
0.0
  0
SPLINE
  5
2CED
330
1F
100
AcDbEntity
  8
AM_0
100
AcDbSpline
210
0.0
220
0.0
230
1.0
 70
     8
 71
     3
 72
    11
 73
     7
 74
     0
 42
0.0000000001
 43
0.0000000001
 40
11.27226913003534
 40
11.27226913003534
 40
11.27226913003534
 40
11.2722691300354
 40
12.28301561507924
 40
13.29510212255852
 40
14.30984805882082
 40
15.18258238371378
 40
15.18258238371378
 40
15.18258238371378
 40
15.18258238371378
 10
-19.55277383967741
 20
-4.649999519191042
 30
0.0
 10
-19.81849835380256
 20
-4.627241067909856
 30
0.0
 10
-20.34944617508995
 20
-4.572143847846352
 30
0.0
 10
-21.14312619145481
 20
-4.460999126713211
 30
0.0
 10
-21.89634252174301
 20
-4.328248943863059
 30
0.0
 10
-22.38347863126184
 20
-4.226199927407266
 30
0.0
 10
-22.60796482171615
 20
-4.175790531973508
 30
0.0
  0
SPLINE
  5
2CEE
330
1F
100
AcDbEntity
  8
AM_0
100
AcDbSpline
210
0.0
220
0.0
230
1.0
 70
     8
 71
     3
 72
    17
 73
    13
 74
     0
 42
0.0000000001
 43
0.0000000001
 40
1.580019955310467
 40
1.580019955310467
 40
1.580019955310467
 40
1.580019955310467
 40
2.030549285115227
 40
3.082371838836284
 40
4.126290986361125
 40
5.162752068350215
 40
6.192395305374981
 40
7.216039564037012
 40
8.234688489606833
 40
9.249433870634691
 40
10.26152376260694
 40
11.27226744710342
 40
11.27226744710342
 40
11.27226744710342
 40
11.27226744710352
 10
-12.01198818556028
 20
-3.431836445836454
 30
0.0
 10
-12.12525335569867
 20
-3.467181515223908
 30
0.0
 10
-12.50359707677612
 20
-3.583029701150134
 30
0.0
 10
-13.14952363397168
 20
-3.764741725895437
 30
0.0
 10
-13.94959922987103
 20
-3.968235087861172
 30
0.0
 10
-14.74989508583287
 20
-4.146875241518616
 30
0.0
 10
-15.55022761107144
 20
-4.300062273081851
 30
0.0
 10
-16.35064733110426
 20
-4.426681892685451
 30
0.0
 10
-17.15112234983874
 20
-4.52601153799186
 30
0.0
 10
-17.95164721255561
 20
-4.597407519663392
 30
0.0
 10
-18.75220219639536
 20
-4.640410253474665
 30
0.0
 10
-19.28603505336824
 20
-4.649999545798598
 30
0.0
 10
-19.55277383967736
 20
-4.649999519191042
 30
0.0
  0
ELLIPSE
  5
2CEF
330
1F
100
AcDbEntity
  8
AM_11
 48
0.5
100
AcDbEllipse
 10
-17.32962994420964
 20
20.5388999145388
 30
0.0
 11
-23.19725211461352
 21
0.0000000000005577
 31
0.0
210
0.0
220
0.0
230
1.0
 40
0.9789473684210538
 41
1.130070686340294
 42
2.011520147323584
  0
ELLIPSE
  5
2CF0
330
1F
100
AcDbEntity
  8
AM_11
 48
0.5
100
AcDbEllipse
 10
-17.32962994421096
 20
-20.5388850051998
 30
0.0
 11
-23.1972521146135
 21
0.0000000000005577
 31
0.0
210
0.0
220
0.0
230
1.0
 40
0.9789473684210532
 41
4.271664206181677
 42
5.153113667164985
  0
ELLIPSE
  5
2CF1
330
1F
100
AcDbEntity
  8
AM_11
 48
0.5
100
AcDbEllipse
 10
2.462036722457041
 20
20.53889991453815
 30
0.0
 11
-23.19725211461487
 21
0.0000000000284752
 31
0.0
210
0.0
220
0.0
230
1.0
 40
0.9789473684210106
 41
1.130070686341498
 42
1.29180073738218
  0
SPLINE
  5
2CF2
330
1F
100
AcDbEntity
  8
AM_0
100
AcDbSpline
210
0.0
220
0.0
230
1.0
 70
     8
 71
     3
 72
    22
 73
    18
 74
     0
 42
0.0000000001
 43
0.0000000001
 40
17.17441611292
 40
17.17441611292
 40
17.17441611292
 40
17.17441611292
 40
17.38177636558528
 40
18.41823744757437
 40
19.46215659509824
 40
20.51397914882054
 40
21.57394542641293
 40
22.64209583141747
 40
23.71826625065247
 40
24.80210429862395
 40
25.8930771157021
 40
26.99048705697709
 40
28.09349309193389
 40
29.20112995599786
 40
30.31233024745139
 40
31.42594771747373
 40
32.5407895042663
 40
32.54078950426994
 40
32.54078950426994
 40
32.54078950426994
 10
-22.60831493201119
 20
-4.175733174259065
 30
0.0
 10
-22.66192123499575
 20
-4.164968880339295
 30
0.0
 10
-22.98326174528096
 20
-4.099402389507639
 30
0.0
 10
-23.57193945265781
 20
-3.967933041721389
 30
0.0
 10
-24.37212643275397
 20
-3.764752149346978
 30
0.0
 10
-25.17223187547655
 20
-3.538369289930686
 30
0.0
 10
-25.97226142952509
 20
-3.29019760141332
 30
0.0
 10
-26.77221403811623
 20
-3.021758743171943
 30
0.0
 10
-27.57209954773896
 20
-2.734723334265538
 30
0.0
 10
-28.37192166208803
 20
-2.430855401963394
 30
0.0
 10
-29.17168778141993
 20
-2.112028883153984
 30
0.0
 10
-29.9714067986268
 20
-1.78021073551028
 30
0.0
 10
-30.7710856547873
 20
-1.437441318856568
 30
0.0
 10
-31.5707323999619
 20
-1.085829408565173
 30
0.0
 10
-32.37035412232306
 20
-0.7275370198825969
 30
0.0
 10
-33.16996266757122
 20
-0.3647750105069078
 30
0.0
 10
-33.70293039534885
 20
-0.1214782257723465
 30
0.0
 10
-33.96956066930961
 20
0.0002369920404852
 30
0.0
  0
SPLINE
  5
2CF3
330
1F
100
AcDbEntity
  8
AM_0
100
AcDbSpline
210
0.0
220
0.0
230
1.0
 70
     8
 71
     3
 72
    46
 73
    42
 74
     0
 42
0.0000000001
 43
0.0000000001
 40
0.0
 40
0.0
 40
0.0
 40
0.0
 40
1.685415058684571
 40
2.531036209541119
 40
3.379897699130121
 40
4.232934581347655
 40
5.090970612202441
 40
5.954688180526682
 40
6.824620803463246
 40
7.701151815239689
 40
8.584457046566678
 40
9.474582384070741
 40
10.37139106676737
 40
11.27458944007583
 40
12.18373345430765
 40
13.09824173870457
 40
14.01741343450111
 40
14.9404441545541
 40
15.86644439743314
 40
16.79446029130534
 40
17.7234937712985
 40
18.65252725129241
 40
19.58054314516461
 40
20.50654338804289
 40
21.42957410809586
 40
22.34874580389317
 40
23.26325408828901
 40
24.17239810252111
 40
25.07560240389441
 40
25.97241108659103
 40
26.8625364240951
 40
27.74584165542183
 40
28.62236045019041
 40
29.49229307312697
 40
30.35601064145121
 40
31.21404606334468
 40
32.06708345193547
 40
32.91595755657689
 40
33.76157841950693
 40
34.60498701064689
 40
35.44727335621125
 40
35.44727335621125
 40
35.44727335621125
 40
35.44727335621125
 10
-2.231369064693814
 20
-4.649999519191594
 30
0.0
 10
-2.76522799542861
 20
-4.639406459742322
 30
0.0
 10
-3.566939287560568
 20
-4.623498558066844
 30
0.0
 10
-4.633009753924428
 20
-4.525556529888073
 30
0.0
 10
-5.433489637923303
 20
-4.426804911749445
 30
0.0
 10
-6.233901099947868
 20
-4.300024608590301
 30
0.0
 10
-7.03424203144026
 20
-4.146901464022708
 30
0.0
 10
-7.834508320892162
 20
-3.968167537126469
 30
0.0
 10
-8.63469862797778
 20
-3.764987165975685
 30
0.0
 10
-9.434809391567606
 20
-3.538607908126369
 30
0.0
 10
-10.23484221089117
 20
-3.290433851686978
 30
0.0
 10
-11.03479493410345
 20
-3.021995325030682
 30
0.0
 10
-11.83468041287292
 20
-2.734959826708931
 30
0.0
 10
-12.63450253480294
 20
-2.431091916986064
 30
0.0
 10
-13.43426865500382
 20
-2.112265398235862
 30
0.0
 10
-14.23398766098134
 20
-1.780447227350721
 30
0.0
 10
-15.03366656151332
 20
-1.437677904299692
 30
0.0
 10
-15.83331313949315
 20
-1.086065640853431
 30
0.0
 10
-16.63293587345411
 20
-0.7277744044629198
 30
0.0
 10
-17.43254206800207
 20
-0.3650074343752991
 30
0.0
 10
-18.23214154091921
 20
0.0000004807350648
 30
0.0
 10
-19.03174101366068
 20
0.3650083962889873
 30
0.0
 10
-19.83134720873553
 20
0.7277753650465814
 30
0.0
 10
-20.63096994077061
 20
1.086066606297747
 30
0.0
 10
-21.43061652589174
 20
1.437678851717611
 30
0.0
 10
-22.23029539994445
 20
1.780448241608693
 30
0.0
 10
-23.03001450398375
 20
2.112266164961602
 30
0.0
 10
-23.82978200011289
 20
2.431094292451084
 30
0.0
 10
-24.62960722976582
 20
2.734959441379952
 30
0.0
 10
-25.42949413540841
 20
3.021996411521442
 30
0.0
 10
-26.2294468399955
 20
3.290435018052483
 30
0.0
 10
-27.02947637287513
 20
3.538606793984381
 30
0.0
 10
-27.82958180549147
 20
3.764989553729052
 30
0.0
 10
-28.62976884625394
 20
3.968170754893887
 30
0.0
 10
-29.43003467255374
 20
4.14689298807829
 30
0.0
 10
-30.23037619080713
 20
4.300060544391796
 30
0.0
 10
-31.0307927611194
 20
4.426659803652364
 30
0.0
 10
-31.83126852044837
 20
4.526106614786093
 30
0.0
 10
-32.63179380482299
 20
4.597056678046791
 30
0.0
 10
-33.43234814767
 20
4.641702832776794
 30
0.0
 10
-33.96618121974618
 20
4.64723582598892
 30
0.0
 10
-34.23292005702331
 20
4.650000480809433
 30
0.0
  0
SPLINE
  5
2CF4
330
1F
100
AcDbEntity
  8
AM_0
100
AcDbSpline
210
0.0
220
0.0
230
1.0
 70
     8
 71
     3
 72
    11
 73
     7
 74
     0
 42
0.0000000001
 43
0.0000000001
 40
11.27226913003534
 40
11.27226913003534
 40
11.27226913003534
 40
11.2722691300354
 40
12.28301561507924
 40
13.29510212255852
 40
14.30984805882082
 40
15.18258238371378
 40
15.18258238371378
 40
15.18258238371378
 40
15.18258238371378
 10
-48.0523739969249
 20
-4.649999519190227
 30
0.0
 10
-48.31809851105006
 20
-4.627241067909046
 30
0.0
 10
-48.84904633233746
 20
-4.572143847845539
 30
0.0
 10
-49.64272634870233
 20
-4.460999126712398
 30
0.0
 10
-50.39594267899054
 20
-4.328248943862246
 30
0.0
 10
-50.88307878850937
 20
-4.226199927406454
 30
0.0
 10
-51.10756497896367
 20
-4.175790531972692
 30
0.0
  0
SPLINE
  5
2CF5
330
1F
100
AcDbEntity
  8
AM_0
100
AcDbSpline
210
0.0
220
0.0
230
1.0
 70
     8
 71
     3
 72
    17
 73
    13
 74
     0
 42
0.0000000001
 43
0.0000000001
 40
1.580019955310467
 40
1.580019955310467
 40
1.580019955310467
 40
1.580019955310467
 40
2.030549285115227
 40
3.082371838836284
 40
4.126290986361125
 40
5.162752068350215
 40
6.192395305374981
 40
7.216039564037012
 40
8.234688489606833
 40
9.249433870634691
 40
10.26152376260694
 40
11.27226744710342
 40
11.27226744710342
 40
11.27226744710342
 40
11.27226744710352
 10
-40.51158834280775
 20
-3.431836445835641
 30
0.0
 10
-40.62485351294613
 20
-3.467181515223094
 30
0.0
 10
-41.00319723402356
 20
-3.583029701149319
 30
0.0
 10
-41.64912379121914
 20
-3.764741725894624
 30
0.0
 10
-42.44919938711852
 20
-3.968235087860358
 30
0.0
 10
-43.24949524308038
 20
-4.146875241517802
 30
0.0
 10
-44.04982776831896
 20
-4.300062273081038
 30
0.0
 10
-44.85024748835178
 20
-4.426681892684636
 30
0.0
 10
-45.65072250708623
 20
-4.526011537991048
 30
0.0
 10
-46.4512473698031
 20
-4.597407519662578
 30
0.0
 10
-47.25180235364286
 20
-4.640410253473854
 30
0.0
 10
-47.78563521061574
 20
-4.649999545797782
 30
0.0
 10
-48.05237399692486
 20
-4.649999519190227
 30
0.0
  0
SPLINE
  5
2CF6
330
1F
100
AcDbEntity
  8
AM_0
100
AcDbSpline
210
0.0
220
0.0
230
1.0
 70
     8
 71
     3
 72
    22
 73
    18
 74
     0
 42
0.0000000001
 43
0.0000000001
 40
17.17441611292
 40
17.17441611292
 40
17.17441611292
 40
17.17441611292
 40
17.38177636558528
 40
18.41823744757437
 40
19.46215659509824
 40
20.51397914882054
 40
21.57394542641293
 40
22.64209583141747
 40
23.71826625065247
 40
24.80210429862395
 40
25.8930771157021
 40
26.99048705697709
 40
28.09349309193389
 40
29.20112995599786
 40
30.31233024745139
 40
31.42594771747373
 40
32.5407895042663
 40
32.54078950426994
 40
32.54078950426994
 40
32.54078950426994
 10
-51.10791508925872
 20
-4.175733174258249
 30
0.0
 10
-51.16152139224329
 20
-4.16496888033848
 30
0.0
 10
-51.48286190252849
 20
-4.099402389506822
 30
0.0
 10
-52.07153960990531
 20
-3.967933041720573
 30
0.0
 10
-52.87172659000142
 20
-3.764752149346163
 30
0.0
 10
-53.67183203272399
 20
-3.538369289929872
 30
0.0
 10
-54.47186158677255
 20
-3.290197601412507
 30
0.0
 10
-55.27181419536371
 20
-3.021758743171129
 30
0.0
 10
-56.07169970498644
 20
-2.734723334264725
 30
0.0
 10
-56.87152181933551
 20
-2.43085540196258
 30
0.0
 10
-57.67128793866741
 20
-2.112028883153172
 30
0.0
 10
-58.47100695587432
 20
-1.780210735509467
 30
0.0
 10
-59.27068581203481
 20
-1.437441318855754
 30
0.0
 10
-60.07033255720935
 20
-1.085829408564359
 30
0.0
 10
-60.86995427957056
 20
-0.7275370198817832
 30
0.0
 10
-61.66956282481869
 20
-0.3647750105060943
 30
0.0
 10
-62.20253055259632
 20
-0.1214782257715327
 30
0.0
 10
-62.46916082655708
 20
0.0002369920412988
 30
0.0
  0
ELLIPSE
  5
2CF7
330
1F
100
AcDbEntity
  8
AM_11
 48
0.5
100
AcDbEllipse
 10
-56.91296327753741
 20
20.53889991454007
 30
0.0
 11
-23.19725211461356
 21
0.0000000000006144
 31
0.0
210
0.0
220
0.0
230
1.0
 40
0.978947368421053
 41
1.130070686340299
 42
2.011520147323589
  0
ELLIPSE
  5
2CF8
330
1F
100
AcDbEntity
  8
AM_11
 48
0.5
100
AcDbEllipse
 10
-56.91296327753875
 20
-20.53888500519853
 30
0.0
 11
-23.19725211461346
 21
0.0000000000012325
 31
0.0
210
0.0
220
0.0
230
1.0
 40
0.9789473684210554
 41
4.271664206181705
 42
5.153113667165015
  0
SPLINE
  5
2CF9
330
1F
100
AcDbEntity
  8
AM_0
100
AcDbSpline
210
0.0
220
0.0
230
1.0
 70
     8
 71
     3
 72
    23
 73
    19
 74
     0
 42
0.0000000001
 43
0.0000000001
 40
16.03460024169435
 40
16.03460024169435
 40
16.03460024169435
 40
16.03460024169435
 40
16.35212704903564
 40
17.38177054169784
 40
18.41822485651776
 40
19.46214173629503
 40
20.51396345435107
 40
21.57393551351153
 40
22.64208202342361
 40
23.7182574881101
 40
24.80209208578934
 40
25.89306333925047
 40
26.99048218457928
 40
28.09348763352352
 40
29.20111863782268
 40
30.31232390128032
 40
31.42594612798585
 40
32.5407912310448
 40
32.5407912310486
 40
32.5407912310486
 40
32.5407912310486
 10
-46.09764082594472
 20
4.650661097698558
 30
0.0
 10
-46.01539363804445
 20
4.63496351656177
 30
0.0
 10
-45.66679391500757
 20
4.566604968891994
 30
0.0
 10
-45.05273174871634
 20
4.432666827562656
 30
0.0
 10
-44.2575196358481
 20
4.233502276139177
 30
0.0
 10
-43.46304615339452
 20
4.009873682260375
 30
0.0
 10
-42.66926435528397
 20
3.763075294165142
 30
0.0
 10
-41.87614606879368
 20
3.494483018392199
 30
0.0
 10
-41.08364545358755
 20
3.205632241658755
 30
0.0
 10
-40.29170732293488
 20
2.898204003031294
 30
0.0
 10
-39.50028667606677
 20
2.573939250700957
 30
0.0
 10
-38.70932006192019
 20
2.234724805706173
 30
0.0
 10
-37.91874338149614
 20
1.882532328958293
 30
0.0
 10
-37.12850396092528
 20
1.519386779550067
 30
0.0
 10
-36.33853568183514
 20
1.147399799120548
 30
0.0
 10
-35.5487653764325
 20
0.7687435187245536
 30
0.0
 10
-34.75912873512047
 20
0.3856121489704749
 30
0.0
 10
-34.23284570499673
 20
0.1287435149571404
 30
0.0
 10
-33.96956066930608
 20
0.0002369920388145
 30
0.0
  0
SPLINE
  5
2CFA
330
1F
100
AcDbEntity
  8
AM_0
100
AcDbSpline
210
0.0
220
0.0
230
1.0
 70
     8
 71
     3
 72
    46
 73
    42
 74
     0
 42
0.0000000001
 43
0.0000000001
 40
0.0
 40
0.0
 40
0.0
 40
0.0
 40
1.685415058684573
 40
2.531036209541122
 40
3.379897699130124
 40
4.232934581347651
 40
5.090970612202446
 40
5.954688180526682
 40
6.824620803463244
 40
7.701151815239691
 40
8.584457046566678
 40
9.474582384070743
 40
10.37139106676737
 40
11.27458944007583
 40
12.18373345430765
 40
13.09824173870457
 40
14.0174134345011
 40
14.94044415455409
 40
15.86644439743313
 40
16.79446029130533
 40
17.72349377129849
 40
18.65252725129241
 40
19.5805431451646
 40
20.5065433880429
 40
21.42957410809586
 40
22.34874580389317
 40
23.26325408828901
 40
24.17239810252111
 40
25.07560240389441
 40
25.97241108659103
 40
26.8625364240951
 40
27.74584165542183
 40
28.62236045019041
 40
29.49229307312697
 40
30.35601064145121
 40
31.21404606334469
 40
32.06708345193547
 40
32.91595755657689
 40
33.76157841950692
 40
34.60498701064691
 40
35.44727335621125
 40
35.44727335621125
 40
35.44727335621125
 40
35.44727335621125
 10
-30.7309692219413
 20
-4.64999951919078
 30
0.0
 10
-31.2648281526761
 20
-4.639406459741511
 30
0.0
 10
-32.06653944480807
 20
-4.623498558066033
 30
0.0
 10
-33.13260991117191
 20
-4.525556529887257
 30
0.0
 10
-33.93308979517082
 20
-4.426804911748634
 30
0.0
 10
-34.73350125719537
 20
-4.300024608589485
 30
0.0
 10
-35.53384218868778
 20
-4.146901464021896
 30
0.0
 10
-36.33410847813965
 20
-3.968167537125656
 30
0.0
 10
-37.13429878522523
 20
-3.764987165974872
 30
0.0
 10
-37.93440954881507
 20
-3.538607908125555
 30
0.0
 10
-38.73444236813863
 20
-3.290433851686163
 30
0.0
 10
-39.53439509135093
 20
-3.02199532502987
 30
0.0
 10
-40.33428057012041
 20
-2.734959826708118
 30
0.0
 10
-41.13410269205041
 20
-2.431091916985248
 30
0.0
 10
-41.93386881225134
 20
-2.112265398235052
 30
0.0
 10
-42.73358781822883
 20
-1.780447227349904
 30
0.0
 10
-43.53326671876085
 20
-1.43767790429888
 30
0.0
 10
-44.33291329674061
 20
-1.086065640852616
 30
0.0
 10
-45.13253603070154
 20
-0.7277744044621075
 30
0.0
 10
-45.93214222524957
 20
-0.365007434374485
 30
0.0
 10
-46.73174169816669
 20
0.0000004807358784
 30
0.0
 10
-47.53134117090816
 20
0.3650083962898003
 30
0.0
 10
-48.33094736598305
 20
0.727775365047397
 30
0.0
 10
-49.13057009801813
 20
1.08606660629856
 30
0.0
 10
-49.93021668313918
 20
1.437678851718423
 30
0.0
 10
-50.72989555719191
 20
1.780448241609508
 30
0.0
 10
-51.52961466123123
 20
2.112266164962415
 30
0.0
 10
-52.32938215736037
 20
2.431094292451897
 30
0.0
 10
-53.12920738701331
 20
2.734959441380768
 30
0.0
 10
-53.92909429265589
 20
3.021996411522255
 30
0.0
 10
-54.729046997243
 20
3.290435018053297
 30
0.0
 10
-55.52907653012266
 20
3.538606793985195
 30
0.0
 10
-56.32918196273898
 20
3.764989553729864
 30
0.0
 10
-57.12936900350142
 20
3.968170754894703
 30
0.0
 10
-57.9296348298012
 20
4.146892988079106
 30
0.0
 10
-58.72997634805455
 20
4.300060544392612
 30
0.0
 10
-59.53039291836687
 20
4.426659803653175
 30
0.0
 10
-60.33086867769581
 20
4.526106614786901
 30
0.0
 10
-61.13139396207049
 20
4.597056678047609
 30
0.0
 10
-61.93194830491749
 20
4.641702832777606
 30
0.0
 10
-62.46578137699366
 20
4.647235825989731
 30
0.0
 10
-62.73252021427079
 20
4.650000480810246
 30
0.0
  0
ELLIPSE
  5
2CFB
330
1F
100
AcDbEntity
  8
AM_11
 48
0.5
100
AcDbEllipse
 10
-37.12129661087763
 20
-20.53888500519919
 30
0.0
 11
-23.19725211461348
 21
0.000000000001423
 31
0.0
210
0.0
220
0.0
230
1.0
 40
0.9789473684210541
 41
4.271664206181712
 42
5.153113667165022
  0
ELLIPSE
  5
2CFC
330
1F
100
AcDbEntity
  8
AM_11
 48
0.5
100
AcDbEllipse
 10
-37.12129661087629
 20
20.53889991453942
 30
0.0
 11
-23.19725211461353
 21
0.0000000000000375
 31
0.0
210
0.0
220
0.0
230
1.0
 40
0.9789473684210527
 41
1.130070686340272
 42
2.011520147323565
  0
SPLINE
  5
2CFD
330
1F
100
AcDbEntity
  8
AM_0
100
AcDbSpline
210
0.0
220
0.0
230
1.0
 70
     8
 71
     3
 72
    55
 73
    51
 74
     0
 42
0.0000000001
 43
0.0000000001
 40
0.0
 40
0.0
 40
0.0
 40
0.0
 40
1.010743684496582
 40
2.022833576467832
 40
3.037578957496688
 40
4.056212745003489
 40
5.079857003664532
 40
6.109500240690281
 40
7.145961322679372
 40
8.189895241603872
 40
9.241717795325891
 40
10.30168407291828
 40
11.36983447792315
 40
12.44600489715814
 40
13.52984294512926
 40
14.62081576220742
 40
15.7182257034828
 40
16.82123173843959
 40
17.92886860250316
 40
19.0400688939571
 40
20.15368796660465
 40
21.26852814259644
 40
22.38336992938901
 40
23.49698739941135
 40
24.6081876908653
 40
25.71582455492886
 40
26.81883757994213
 40
27.91624752121713
 40
29.00722033829659
 40
30.09105838626677
 40
31.16722880550176
 40
32.23537921050758
 40
33.29534548809967
 40
34.347168041821
 40
35.39108718934584
 40
36.42754827133493
 40
37.45720575381954
 40
38.48085062012849
 40
39.49948440763516
 40
40.51422944315121
 40
41.52631975251916
 40
42.53706336719636
 40
43.54780698187354
 40
44.55989729124051
 40
45.57464232675757
 40
46.59327611426424
 40
47.6169209805722
 40
48.64656348684535
 40
49.68302456883444
 40
50.58557219878025
 40
50.58557219878025
 40
50.58557219878025
 40
50.58557219878025
 10
-4.472379094804694
 20
-4.64999951919152
 30
0.0
 10
-4.739117884632899
 20
-4.64723288184465
 30
0.0
 10
-5.272950733145465
 20
-4.641695922272218
 30
0.0
 10
-6.07350573396543
 20
-4.597061812101169
 30
0.0
 10
-6.87402656211087
 20
-4.52610523665962
 30
0.0
 10
-7.674497845876327
 20
-4.426656897496539
 30
0.0
 10
-8.474911597818469
 20
-4.300064510275794
 30
0.0
 10
-9.275252027563562
 20
-4.146891011169488
 30
0.0
 10
-10.07552181221486
 20
-3.968168231463264
 30
0.0
 10
-10.87571385499671
 20
-3.764990583947751
 30
0.0
 10
-11.67582270514291
 20
-3.538605567053133
 30
0.0
 10
-12.47585235075378
 20
-3.290434176128745
 30
0.0
 10
-13.27580493446825
 20
-3.021995237100551
 30
0.0
 10
-14.07569045105307
 20
-2.734959850552144
 30
0.0
 10
-14.87551256268212
 20
-2.431091910433011
 30
0.0
 10
-15.67527868589618
 20
-2.112265400382987
 30
0.0
 10
-16.47499769020975
 20
-1.780447225358947
 30
0.0
 10
-17.27467659438387
 20
-1.437677910142574
 30
0.0
 10
-18.07432315939335
 20
-1.086065619363002
 30
0.0
 10
-18.87394594179627
 20
-0.7277744848963545
 30
0.0
 10
-19.67355195504556
 20
-0.3650071333925767
 30
0.0
 10
-20.47315249081675
 20
-0.0000004679599231
 30
0.0
 10
-21.27274943705059
 20
0.3650127678201833
 30
0.0
 10
-22.07235813040494
 20
0.7277744700767565
 30
0.0
 10
-22.87197992566282
 20
1.08606668907027
 30
0.0
 10
-23.67162791643328
 20
1.437680319335949
 30
0.0
 10
-24.47131013805908
 20
1.780446709298796
 30
0.0
 10
-25.27103040454052
 20
2.11226656710267
 30
0.0
 10
-26.07079664321422
 20
2.431092818617264
 30
0.0
 10
-26.8706187257403
 20
2.734960822638683
 30
0.0
 10
-27.67050424437333
 20
3.021996209606967
 30
0.0
 10
-28.4704568484632
 20
3.290435084447364
 30
0.0
 10
-29.27048641150226
 20
3.538606728777575
 30
0.0
 10
-30.07059182307456
 20
3.76498974669539
 30
0.0
 10
-30.87077891759284
 20
3.968170055331166
 30
0.0
 10
-31.6710484053856
 20
4.146896428927651
 30
0.0
 10
-32.47139454982958
 20
4.300052433494085
 30
0.0
 10
-33.27181094611257
 20
4.426684003734797
 30
0.0
 10
-34.07228246717354
 20
4.526014459727861
 30
0.0
 10
-34.87280385154518
 20
4.597401928603778
 30
0.0
 10
-35.67335817358991
 20
4.640418155625417
 30
0.0
 10
-36.47393008733037
 20
4.654788453707229
 30
0.0
 10
-37.27450199989289
 20
4.640418155602937
 30
0.0
 10
-38.07505632547826
 20
4.597401928694257
 30
0.0
 10
-38.87557769681425
 20
4.526014459387346
 30
0.0
 10
-39.67604926674906
 20
4.426684005015022
 30
0.0
 10
-40.47646157711421
 20
4.300053046030271
 30
0.0
 10
-41.27680456849904
 20
4.146897994865292
 30
0.0
 10
-42.04068753940453
 20
3.976283101169174
 30
0.0
 10
-42.53630351027458
 20
3.8515108164717
 30
0.0
 10
-42.76624043417025
 20
3.790703195380021
 30
0.0
  0
ELLIPSE
  5
2CFE
330
1F
100
AcDbEntity
  8
AM_0
 48
0.5
100
AcDbEllipse
 10
-6.979548092655745
 20
7.804386356000208
 30
0.0
 11
7.745460055445302
 21
10.09244974310592
 31
0.0
210
0.0
220
0.0
230
1.0
 40
0.8321749995506253
 41
4.277036287154437
 42
4.336966806352323
  0
ELLIPSE
  5
2CFF
330
1F
100
AcDbEntity
  8
AM_0
 48
0.5
100
AcDbEllipse
 10
-1.705984283308362
 20
-1.652926108952517
 30
0.0
 11
-0.1107840911128515
 21
0.7646036823537056
 31
0.0
210
0.0
220
0.0
230
1.0
 40
0.4441153617583471
 41
1.829537000531092
 42
4.964878890243068
  0
ELLIPSE
  5
2D00
330
1F
100
AcDbEntity
  8
AM_0
 48
0.5
100
AcDbEllipse
 10
-1.705984283308362
 20
-1.652926108952517
 30
0.0
 11
-0.577055970255444
 21
0.4128506086925461
 31
0.0
210
0.0
220
0.0
230
1.0
 40
0.5265624083948533
 41
4.563084836451914
 42
7.706525177781424
  0
SPLINE
  5
2D01
330
1F
100
AcDbEntity
  8
AM_0
 48
0.5
100
AcDbSpline
210
0.0
220
0.0
230
1.0
 70
     8
 71
     3
 72
    10
 73
     6
 74
     0
 42
0.0000000001
 43
0.0000000001
 40
0.0
 40
0.0
 40
0.0
 40
0.0
 40
2.69986029516136
 40
4.147722969032201
 40
6.285750005020438
 40
6.285750005020438
 40
6.285750005020438
 40
6.285750005020438
 10
-4.390006488760111
 20
0.8416258121771521
 30
0.0
 10
-3.897648004529285
 20
0.4096086792289089
 30
0.0
 10
-3.141250868832309
 20
-0.2540876566727157
 30
0.0
 10
-1.35247325156494
 20
0.0672193665161164
 30
0.0
 10
-1.689352106701208
 20
1.149423935863614
 30
0.0
 10
-1.911940130103162
 20
1.809060951884539
 30
0.0
  0
SPLINE
  5
2D02
330
1F
100
AcDbEntity
  8
AM_0
 48
0.5
100
AcDbSpline
210
0.0
220
0.0
230
1.0
 70
     8
 71
     3
 72
    25
 73
    21
 74
     0
 42
0.0000000001
 43
0.0000000001
 40
6.846175049578289
 40
6.846175049578289
 40
6.846175049578289
 40
6.846175049578289
 40
7.604337694224321
 40
8.711974558287883
 40
9.814980593243754
 40
10.91239053451967
 40
12.0033633515982
 40
13.08720139956839
 40
14.16337181880432
 40
15.23152222380919
 40
16.29148850140128
 40
17.34331105512262
 40
18.38723020264746
 40
19.42369128463655
 40
20.45333379090873
 40
21.47697865721768
 40
22.49561244472435
 40
23.5103574802404
 40
24.52244778960836
 40
25.53320666051913
 40
25.53320666051913
 40
25.53320666051913
 40
25.53320666051913
 10
-4.390117090205915
 20
0.8416810414105892
 30
0.0
 10
-4.547267323248343
 20
0.9233267714160476
 30
0.0
 10
-4.934336742600942
 20
1.123435730856586
 30
0.0
 10
-5.551900574583058
 20
1.437678832950889
 30
0.0
 10
-6.242930022492613
 20
1.780448346461662
 30
0.0
 10
-6.933994222721882
 20
2.112266468313911
 30
0.0
 10
-7.625099112800301
 20
2.431092994091768
 30
0.0
 10
-8.316252393341837
 20
2.734960924114772
 30
0.0
 10
-9.007460455343395
 20
3.021996335210834
 30
0.0
 10
-9.698726498734256
 20
3.290435187019672
 30
0.0
 10
-10.39005903813873
 20
3.538606898836917
 30
0.0
 10
-11.08145713741002
 20
3.764989672401549
 30
0.0
 10
-11.77292576271562
 20
3.968170881576781
 30
0.0
 10
-12.46446247383093
 20
4.146893069537395
 30
0.0
 10
-13.15606456926406
 20
4.300060797140943
 30
0.0
 10
-13.8477282005744
 20
4.426658797643946
 30
0.0
 10
-14.5394426057536
 20
4.526107665843427
 30
0.0
 10
-15.23120016140687
 20
4.597056639371694
 30
0.0
 10
-15.9229896382246
 20
4.641703222269531
 30
0.0
 10
-16.3842962962766
 20
4.647236020354673
 30
0.0
 10
-16.61479780938099
 20
4.65000059855458
 30
0.0
  0
ELLIPSE
  5
2D03
330
1F
100
AcDbEntity
  8
AM_0
 48
0.5
100
AcDbEllipse
 10
3.874771282991456
 20
4.586592480963139
 30
0.0
 11
-0.0000000000000436
 21
10.08410033688722
 31
0.0
210
0.0
220
0.0
230
1.0
 40
0.882717267552179
 41
1.951257656000326
 42
2.322034022628313
  0
SPLINE
  5
2D04
330
1F
100
AcDbEntity
  8
AM_0
 48
0.5
100
AcDbSpline
210
0.0
220
0.0
230
1.0
 70
     8
 71
     3
 72
    16
 73
    12
 74
     0
 42
0.0000000001
 43
0.0000000001
 40
0.0
 40
0.0
 40
0.0
 40
0.0
 40
1.010743614677189
 40
2.022833924044153
 40
3.037578959561199
 40
4.056212747067873
 40
5.079857613375832
 40
6.109500119648989
 40
7.14596120163808
 40
8.18989512056258
 40
8.338453590106137
 40
8.338453590106137
 40
8.338453590106137
 40
8.338453590106137
 10
-4.472379094804395
 20
4.650000480808484
 30
0.0
 10
-4.739117933175871
 20
4.647235837235027
 30
0.0
 10
-5.272951007442007
 20
4.641702866532049
 30
0.0
 10
-6.073505333831168
 20
4.59705654266371
 30
0.0
 10
-6.874026701863402
 20
4.526107477425619
 30
0.0
 10
-7.674498284279214
 20
4.426658943089961
 30
0.0
 10
-8.474910547693973
 20
4.300059690052445
 30
0.0
 10
-9.275253715863112
 20
4.146896677758165
 30
0.0
 10
-10.07551704683619
 20
3.968155867170054
 30
0.0
 10
-10.64496695285137
 20
3.823614659632552
 30
0.0
 10
-10.94829112151751
 20
3.741559050840667
 30
0.0
 10
-10.98605822573877
 20
3.731264943689051
 30
0.0
  0
ELLIPSE
  5
2D05
330
1F
100
AcDbEntity
  8
AM_0
 48
0.5
100
AcDbEllipse
 10
4.519714929895398
 20
-2.259728539360756
 30
0.0
 11
7.154661780291911
 21
0.7538377090572276
 31
0.0
210
0.0
220
0.0
230
1.0
 40
0.6692364047912158
 41
2.992970528855813
 42
3.501121072482242
  0
ELLIPSE
  5
2D06
330
1F
100
AcDbEntity
  8
AM_0
 48
0.5
100
AcDbEllipse
 10
-7.233522058627027
 20
8.844812380155426
 30
0.0
 11
-5.658693652494007
 21
10.35686987592512
 31
0.0
210
0.0
220
0.0
230
1.0
 40
0.580580840737214
 41
3.170196089003327
 42
3.454158626943007
  0
SPLINE
  5
2D07
330
1F
100
AcDbEntity
  8
AM_0
100
AcDbSpline
210
0.0
220
0.0
230
1.0
 70
     8
 71
     3
 72
    13
 73
     9
 74
     0
 42
0.0000000001
 43
0.0000000001
 40
16.03460056234195
 40
16.03460056234195
 40
16.03460056234195
 40
16.03460056234195
 40
16.35212717791071
 40
17.38177067057215
 40
18.41822498539278
 40
19.46214186516937
 40
20.5139635832251
 40
21.34083983469381
 40
21.34083983469381
 40
21.34083983469381
 40
21.34083983469381
 10
-76.18133058138585
 20
-4.650422416195681
 30
0.0
 10
-76.09908336015552
 20
-4.634725297366971
 30
0.0
 10
-75.75048334865953
 20
-4.566368625235356
 30
0.0
 10
-75.13642151710304
 20
-4.432428920146807
 30
0.0
 10
-74.34120930416096
 20
-4.233264920958967
 30
0.0
 10
-73.54673584880938
 20
-4.00963617752545
 30
0.0
 10
-72.81158654524898
 20
-3.781067530463492
 30
0.0
 10
-72.34257423548652
 20
-3.623681750574972
 30
0.0
 10
-72.13682134618169
 20
-3.55254194396587
 30
0.0
  0
ELLIPSE
  5
2D08
330
1F
100
AcDbEntity
  8
AM_0
 48
0.5
100
AcDbEllipse
 10
-76.32533395930693
 20
-3.099999519189344
 30
0.0
 11
-1.610937307309534
 21
0.518971606607601
 31
0.0
210
0.0
220
0.0
230
1.0
 40
0.9082526532166767
 41
0.3520826619646833
 42
1.855448415709041
  0
ELLIPSE
  5
2D09
330
1F
100
AcDbEntity
  8
AM_0
 48
0.5
100
AcDbEllipse
 10
-76.72145720963206
 20
-3.147224899133115
 30
0.0
 11
1.269360497439158
 21
0.1897259972396482
 31
0.0
210
0.0
220
0.0
230
1.0
 40
0.8960734385433138
 41
1.16948602154073
 42
2.950474258034589
  0
LINE
  5
2D0A
330
1F
100
AcDbEntity
  8
AM_11
 48
0.5
100
AcDbLine
 10
-76.18169216955287
 20
-4.649999519189327
 30
0.0
 11
-64.97363413020498
 21
-4.649999519189686
 31
0.0
  0
LINE
  5
2D0B
330
1F
100
AcDbEntity
  8
AM_11
 48
0.5
100
AcDbLine
 10
-76.18169216955253
 20
4.650000480810676
 30
0.0
 11
-64.97363413020465
 21
4.650000480810317
 31
0.0
  0
SPLINE
  5
2D0C
330
1F
100
AcDbEntity
  8
AM_0
 48
0.5
100
AcDbSpline
210
0.0
220
0.0
230
1.0
 70
     8
 71
     3
 72
    22
 73
    18
 74
     0
 42
0.0000000001
 43
0.0000000001
 40
0.0
 40
0.0
 40
0.0
 40
0.0
 40
1.010743684496582
 40
2.022833993863546
 40
3.037578683882831
 40
4.056212471389632
 40
5.079857945358201
 40
6.109499720892564
 40
7.145961650132166
 40
8.189873411961459
 40
9.241710626092514
 40
10.30166235592959
 40
11.36982472628033
 40
12.44598212828784
 40
13.52983440361964
 40
14.62080578343036
 40
14.90544694398022
 40
14.90544694398022
 40
14.90544694398022
 40
14.90544694398022
 10
-64.9736401701427
 20
-4.649999519189687
 30
0.0
 10
-65.24037901094013
 20
-4.647233708381333
 30
0.0
 10
-65.77421207161124
 20
-4.641698401844654
 30
0.0
 10
-66.57476623359992
 20
-4.597051858328462
 30
0.0
 10
-67.37528792799356
 20
-4.526107228679017
 30
0.0
 10
-68.17575963739762
 20
-4.426658797838944
 30
0.0
 10
-68.976171209279
 20
-4.30005460009924
 30
0.0
 10
-69.77651429350463
 20
-4.146893976533722
 30
0.0
 10
-70.57677716220773
 20
-3.968166938966426
 30
0.0
 10
-71.37696531827504
 20
-3.764982237067575
 30
0.0
 10
-72.17707155483449
 20
-3.538608522147956
 30
0.0
 10
-72.97710005316273
 20
-3.290423530136085
 30
0.0
 10
-73.777055970504
 20
-3.022006575607692
 30
0.0
 10
-74.57693870599758
 20
-2.734953385994502
 30
0.0
 10
-75.37676324450401
 20
-2.431092620078642
 30
0.0
 10
-75.97788728047152
 20
-2.191465529635078
 30
0.0
 10
-76.31285457035994
 20
-2.054502387343154
 30
0.0
 10
-76.38211466739851
 20
-2.02604266548978
 30
0.0
  0
SPLINE
  5
2D0D
330
1F
100
AcDbEntity
  8
AM_0
100
AcDbSpline
210
0.0
220
0.0
230
1.0
 70
     8
 71
     3
 72
    23
 73
    19
 74
     0
 42
0.0000000001
 43
0.0000000001
 40
16.03460024169435
 40
16.03460024169435
 40
16.03460024169435
 40
16.03460024169435
 40
16.35212704903564
 40
17.38177054169784
 40
18.41822485651776
 40
19.46214173629503
 40
20.51396345435107
 40
21.57393551351153
 40
22.64208202342361
 40
23.7182574881101
 40
24.80209208578934
 40
25.89306333925047
 40
26.99048218457928
 40
28.09348763352352
 40
29.20111863782268
 40
30.31232390128032
 40
31.42594612798585
 40
32.5407912310448
 40
32.5407912310486
 40
32.5407912310486
 40
32.5407912310486
 10
-74.59735090895293
 20
4.650661097699368
 30
0.0
 10
-74.51510372105267
 20
4.63496351656258
 30
0.0
 10
-74.16650399801579
 20
4.566604968892803
 30
0.0
 10
-73.55244183172456
 20
4.432666827563465
 30
0.0
 10
-72.75722971885631
 20
4.233502276139986
 30
0.0
 10
-71.96275623640271
 20
4.009873682261184
 30
0.0
 10
-71.16897443829211
 20
3.763075294165953
 30
0.0
 10
-70.37585615180183
 20
3.49448301839301
 30
0.0
 10
-69.58335553659567
 20
3.205632241659567
 30
0.0
 10
-68.79141740594301
 20
2.898204003032105
 30
0.0
 10
-67.99999675907502
 20
2.573939250701769
 30
0.0
 10
-67.20903014492847
 20
2.234724805706984
 30
0.0
 10
-66.41845346450442
 20
1.882532328959104
 30
0.0
 10
-65.62821404393358
 20
1.519386779550879
 30
0.0
 10
-64.83824576484335
 20
1.147399799121358
 30
0.0
 10
-64.04847545944071
 20
0.7687435187253643
 30
0.0
 10
-63.25883881812867
 20
0.3856121489712857
 30
0.0
 10
-62.73255578800494
 20
0.1287435149579511
 30
0.0
 10
-62.46927075231428
 20
0.0002369920396252
 30
0.0
  0
SPLINE
  5
2D0E
330
1F
100
AcDbEntity
  8
AM_0
100
AcDbSpline
210
0.0
220
0.0
230
1.0
 70
     8
 71
     3
 72
    55
 73
    51
 74
     0
 42
0.0000000001
 43
0.0000000001
 40
0.0
 40
0.0
 40
0.0
 40
0.0
 40
1.010743684496582
 40
2.022833576467832
 40
3.037578957496688
 40
4.056212745003489
 40
5.079857003664532
 40
6.109500240690281
 40
7.145961322679372
 40
8.189895241603872
 40
9.241717795325891
 40
10.30168407291828
 40
11.36983447792315
 40
12.44600489715814
 40
13.52984294512926
 40
14.62081576220742
 40
15.7182257034828
 40
16.82123173843959
 40
17.92886860250316
 40
19.0400688939571
 40
20.15368796660465
 40
21.26852814259644
 40
22.38336992938901
 40
23.49698739941135
 40
24.6081876908653
 40
25.71582455492886
 40
26.81883757994213
 40
27.91624752121713
 40
29.00722033829659
 40
30.09105838626677
 40
31.16722880550176
 40
32.23537921050758
 40
33.29534548809967
 40
34.347168041821
 40
35.39108718934584
 40
36.42754827133493
 40
37.45720575381954
 40
38.48085062012849
 40
39.49948440763516
 40
40.51422944315121
 40
41.52631975251916
 40
42.53706336719636
 40
43.54780698187354
 40
44.55989729124051
 40
45.57464232675757
 40
46.59327611426424
 40
47.6169209805722
 40
48.64656348684535
 40
49.68302456883444
 40
50.58557219878025
 40
50.58557219878025
 40
50.58557219878025
 40
50.58557219878025
 10
-32.97197925205219
 20
-4.649999519190709
 30
0.0
 10
-33.23871804188039
 20
-4.647232881843838
 30
0.0
 10
-33.77255089039296
 20
-4.641695922271403
 30
0.0
 10
-34.57310589121293
 20
-4.597061812100356
 30
0.0
 10
-35.37362671935837
 20
-4.526105236658807
 30
0.0
 10
-36.17409800312383
 20
-4.426656897495722
 30
0.0
 10
-36.97451175506597
 20
-4.300064510274983
 30
0.0
 10
-37.77485218481109
 20
-4.146891011168674
 30
0.0
 10
-38.57512196946236
 20
-3.968168231462453
 30
0.0
 10
-39.37531401224417
 20
-3.764990583946938
 30
0.0
 10
-40.17542286239037
 20
-3.53860556705232
 30
0.0
 10
-40.97545250800124
 20
-3.290434176127931
 30
0.0
 10
-41.77540509171572
 20
-3.021995237099736
 30
0.0
 10
-42.57529060830056
 20
-2.73495985055133
 30
0.0
 10
-43.37511271992961
 20
-2.431091910432197
 30
0.0
 10
-44.17487884314367
 20
-2.112265400382173
 30
0.0
 10
-44.97459784745728
 20
-1.780447225358133
 30
0.0
 10
-45.77427675163138
 20
-1.43767791014176
 30
0.0
 10
-46.57392331664079
 20
-1.086065619362189
 30
0.0
 10
-47.37354609904371
 20
-0.7277744848955412
 30
0.0
 10
-48.17315211229304
 20
-0.3650071333917631
 30
0.0
 10
-48.97275264806424
 20
-0.0000004679591094
 30
0.0
 10
-49.77234959429807
 20
0.3650127678209969
 30
0.0
 10
-50.57195828765247
 20
0.7277744700775703
 30
0.0
 10
-51.37158008291035
 20
1.086066689071084
 30
0.0
 10
-52.17122807368073
 20
1.437680319336763
 30
0.0
 10
-52.97091029530653
 20
1.78044670929961
 30
0.0
 10
-53.77063056178801
 20
2.112266567103483
 30
0.0
 10
-54.57039680046169
 20
2.431092818618077
 30
0.0
 10
-55.37021888298779
 20
2.734960822639497
 30
0.0
 10
-56.17010440162081
 20
3.021996209607781
 30
0.0
 10
-56.97005700571071
 20
3.290435084448179
 30
0.0
 10
-57.77008656874979
 20
3.538606728778388
 30
0.0
 10
-58.57019198032207
 20
3.764989746696203
 30
0.0
 10
-59.37037907484033
 20
3.968170055331982
 30
0.0
 10
-60.17064856263306
 20
4.146896428928466
 30
0.0
 10
-60.97099470707706
 20
4.300052433494898
 30
0.0
 10
-61.77141110336006
 20
4.426684003735608
 30
0.0
 10
-62.57188262442102
 20
4.526014459728674
 30
0.0
 10
-63.37240400879265
 20
4.597401928604593
 30
0.0
 10
-64.17295833083738
 20
4.640418155626234
 30
0.0
 10
-64.97353024457784
 20
4.654788453708041
 30
0.0
 10
-65.77410215714039
 20
4.640418155603751
 30
0.0
 10
-66.57465648272576
 20
4.597401928695068
 30
0.0
 10
-67.37517785406175
 20
4.526014459388163
 30
0.0
 10
-68.17564942399656
 20
4.426684005015839
 30
0.0
 10
-68.97606173436169
 20
4.300053046031083
 30
0.0
 10
-69.77640472574653
 20
4.146897994866106
 30
0.0
 10
-70.540287696652
 20
3.976283101169986
 30
0.0
 10
-71.03590366752199
 20
3.851510816472513
 30
0.0
 10
-71.26584059141769
 20
3.790703195380836
 30
0.0
  0
LINE
  5
2D0F
330
1F
100
AcDbEntity
  8
AM_0
 48
0.5
100
AcDbLine
 10
-67.49291011337945
 20
2.356069187322495
 30
0.0
 11
-78.0
 21
-0.2827209652934449
 31
0.0
  0
SPLINE
  5
2D10
330
1F
100
AcDbEntity
  8
AM_0
 48
0.5
100
AcDbSpline
210
0.0
220
0.0
230
1.0
 70
     8
 71
     3
 72
    26
 73
    22
 74
     0
 42
0.0000000001
 43
0.0000000001
 40
0.0
 40
0.0
 40
0.0
 40
0.0
 40
0.8422864037471089
 40
1.685694647057321
 40
2.531315797913884
 40
3.380177287502886
 40
4.233214169721234
 40
5.09125020057522
 40
5.954967768899448
 40
6.824900391836836
 40
7.701419186604396
 40
8.584724417931369
 40
9.47485577056355
 40
10.37165251267315
 40
11.27486274211709
 40
12.18400675634887
 40
13.09851504074504
 40
14.01768673654235
 40
14.94071745659532
 40
15.8667176994736
 40
16.76607142455336
 40
16.76607142455336
 40
16.76607142455336
 40
16.76607142455336
 10
-62.73263014003184
 20
-4.649999519189754
 30
0.0
 10
-62.99936892989212
 20
-4.647232881963451
 30
0.0
 10
-63.53320177846915
 20
-4.64169592263228
 30
0.0
 10
-64.33375677880658
 20
-4.597061810648286
 30
0.0
 10
-65.13427760879332
 20
-4.526105242124445
 30
0.0
 10
-65.93474888563746
 20
-4.426656876958122
 30
0.0
 10
-66.73516266360666
 20
-4.300064587520078
 30
0.0
 10
-67.53550299535352
 20
-4.146890720238213
 30
0.0
 10
-68.33576934844725
 20
-3.968170177191731
 30
0.0
 10
-69.13595626508895
 20
-3.764988416948226
 30
0.0
 10
-69.93606185355926
 20
-3.538606148382117
 30
0.0
 10
-70.73609269875707
 20
-3.290432393562737
 30
0.0
 10
-71.53604548561583
 20
-3.021999545431218
 30
0.0
 10
-72.3359292778259
 20
-2.734954237642301
 30
0.0
 10
-73.13575477038472
 20
-2.431095063020801
 30
0.0
 10
-73.93552369141492
 20
-2.112265309625516
 30
0.0
 10
-74.73524200277347
 20
-1.780445793732908
 30
0.0
 10
-75.53492439034617
 20
-1.437683770115718
 30
0.0
 10
-76.33455763849387
 20
-1.086043492726878
 30
0.0
 10
-77.12597691588353
 20
-0.7315543293138611
 30
0.0
 10
-77.65032196344432
 20
-0.4934060227377147
 30
0.0
 10
-78.0
 20
-0.282720965293445
 30
0.0
  0
VIEWPORT
  5
110
330
101
100
AcDbEntity
 67
     1
  8
0
100
AcDbViewport
 10
420.5
 20
297.0
 30
0.0
 40
948.9782706766916
 41
628.452
 68
     1
 69
     1
1001
ACAD
1000
MVIEW
1002
{
1070
    16
1010
0.0
1020
0.0
1030
0.0
1010
0.0
1020
0.0
1030
1.0
1040
0.0
1040
628.452
1040
420.5
1040
297.0
1040
50.0
1040
0.0
1040
0.0
1070
     0
1070
   100
1070
     1
1070
     1
1070
     0
1070
     0
1070
     0
1070
     0
1040
0.0
1040
0.0
1040
0.0
1040
10.0
1040
10.0
1040
10.0
1040
10.0
1070
     0
1002
{
1002
}
1002
}
  0
ENDSEC
  0
SECTION
  2
OBJECTS
  0
DICTIONARY
  5
C
330
0
100
AcDbDictionary
  3
ACAD_GROUP
350
D
  3
ACAD_LAYOUT
350
1A
  3
ACAD_MLINESTYLE
350
17
  3
ACAD_PLOTSETTINGS
350
19
  3
ACAD_PLOTSTYLENAME
350
E
  3
ACDBVARIABLEDICTIONARY
350
34
  3
ACMDICTIONARY
350
43
  3
AMG
350
2B
  3
AMGSNAPSETTINGS
350
6E
  3
DWGPROPS
350
2D76
  3
ACDBHEADERROUNDTRIPXREC
350
2D82
  0
DICTIONARY
  5
74
330
1F
100
AcDbDictionary
280
     1
  3
ACAD_INDEX
360
2D78
  3
ACAD_LAYOUTSELFREF
360
2DA5
  0
DICTIONARY
  5
2DAA
330
101
100
AcDbDictionary
280
     1
  3
ACAD_LAYOUTSELFREF
360
2DAB
  0
DICTIONARY
  5
D
102
{ACAD_REACTORS
330
C
102
}
330
C
100
AcDbDictionary
  0
DICTIONARY
  5
1A
102
{ACAD_REACTORS
330
C
102
}
330
C
100
AcDbDictionary
  0
DICTIONARY
  5
17
102
{ACAD_REACTORS
330
C
102
}
330
C
100
AcDbDictionary
  3
STANDARD
350
18
  0
DICTIONARY
  5
19
102
{ACAD_REACTORS
330
C
102
}
330
C
100
AcDbDictionary
  0
ACDBDICTIONARYWDFLT
  5
E
102
{ACAD_REACTORS
330
C
102
}
330
C
100
AcDbDictionary
281
     1
  3
Normal
350
F
100
AcDbDictionaryWithDefault
340
F
  0
DICTIONARY
  5
34
102
{ACAD_REACTORS
330
C
102
}
330
C
100
AcDbDictionary
  3
INDEXCTL
350
35
  3
SORTENTS
350
B5E
  0
DICTIONARY
  5
43
102
{ACAD_REACTORS
330
C
102
}
330
C
100
AcDbDictionary
  3
ACMSTDDICTIONARY
350
260
  0
DICTIONARY
  5
2B
102
{ACAD_REACTORS
330
C
102
}
330
C
100
AcDbDictionary
  3
ACMGSETTINGS
350
2C
  0
DICTIONARY
  5
6E
102
{ACAD_REACTORS
330
C
102
}
330
C
100
AcDbDictionary
  0
XRECORD
  5
2D76
102
{ACAD_REACTORS
330
C
102
}
330
C
100
AcDbXrecord
  1
DWGPROPS COOKIE
  2

  3

  4

  6

  7

  8

  9

300
AmdtFileType=82
301
=
302
=
303
=
304
=
305
=
306
=
307
=
308
=
309
=
 40
0.0468972337962963
 41
2452800.443498622
 42
2452948.691997789
  1

 90
        1
  0
DICTIONARY
  5
2D82
102
{ACAD_REACTORS
330
C
102
}
330
C
100
AcDbDictionary
  3
TSTACKALIGN
350
2D83
  3
TSTACKSIZE
350
2D84
  3
HYPERLINKBASE
350
2D85
  3
STYLESHEET
350
2D86
  3
LAYOUTDICT
350
2D87
  3
PLOTSETDICT
350
2D88
  3
PLOTSTYLNAMDICT
350
2D89
  3
LWETCUNION
350
2D8A
  3
INSUNITS
350
2D8B
  3
CEPSNTYPE
350
2D8C
  3
FINGERPRINTGUID
350
2D8D
  3
VERSIONGUID
350
2D8E
  3
PSVPSCALE
350
2D8F
  3
DIMSTYLEDATA
350
2D90
  3
PUCSORTHOREF
350
2D91
  3
PUCSORTHOVIEW
350
2D92
  3
PUCSBASE
350
2D93
  3
PUCSORGTOP
350
2D94
  3
PUCSORGBOTTOM
350
2D95
  3
PUCSORGLEFT
350
2D96
  3
PUCSORGRIGHT
350
2D97
  3
PUCSORGFRONT
350
2D98
  3
PUCSORGBACK
350
2D99
  3
UCSORTHOREF
350
2D9A
  3
UCSORTHOVIEW
350
2D9B
  3
UCSBASE
350
2D9C
  3
UCSORGTOP
350
2D9D
  3
UCSORGBOTTOM
350
2D9E
  3
UCSORGLEFT
350
2D9F
  3
UCSORGRIGHT
350
2DA0
  3
UCSORGFRONT
350
2DA1
  3
UCSORGBACK
350
2DA2
  0
DICTIONARY
  5
2D78
102
{ACAD_REACTORS
330
74
102
}
330
74
100
AcDbDictionary
  3
*A1
350
2D79
  0
XRECORD
  5
2DA5
102
{ACAD_REACTORS
330
74
102
}
330
74
100
AcDbXrecord
340
1F
  0
XRECORD
  5
2DAB
102
{ACAD_REACTORS
330
2DAA
102
}
330
2DAA
100
AcDbXrecord
340
101
  0
MLINESTYLE
  5
18
102
{ACAD_REACTORS
330
17
102
}
330
17
100
AcDbMlineStyle
  2
STANDARD
 70
     0
  3

 62
   256
 51
90.0
 52
90.0
 71
     2
 49
0.5
 62
   256
  6
BYLAYER
 49
-0.5
 62
   256
  6
BYLAYER
  0
ACDBPLACEHOLDER
  5
F
102
{ACAD_REACTORS
330
E
102
}
330
E
100
AcDbPlaceHolder
280
     0
  0
DICTIONARYVAR
  5
35
102
{ACAD_REACTORS
330
34
102
}
330
34
100
DictionaryVariables
280
     0
  1
1
  0
DICTIONARYVAR
  5
B5E
102
{ACAD_REACTORS
330
34
102
}
330
34
100
DictionaryVariables
280
     0
  1
96
  0
DICTIONARY
  5
260
102
{ACAD_REACTORS
330
43
102
}
330
43
100
AcDbDictionary
  0
DICTIONARY
  5
2C
102
{ACAD_REACTORS
330
2B
102
}
330
2B
100
AcDbDictionary
  3
DWGSETTINGS
350
2D
  0
XRECORD
  5
2D83
102
{ACAD_REACTORS
330
2D82
102
}
330
2D82
100
AcDbXrecord
 90
        1
  0
XRECORD
  5
2D84
102
{ACAD_REACTORS
330
2D82
102
}
330
2D82
100
AcDbXrecord
 90
       70
  0
XRECORD
  5
2D85
102
{ACAD_REACTORS
330
2D82
102
}
330
2D82
100
AcDbXrecord
  1

  0
XRECORD
  5
2D86
102
{ACAD_REACTORS
330
2D82
102
}
330
2D82
100
AcDbXrecord
  1
ASAMI.ctb
  0
XRECORD
  5
2D87
102
{ACAD_REACTORS
330
2D82
102
}
330
2D82
100
AcDbXrecord
340
1A
  0
XRECORD
  5
2D88
102
{ACAD_REACTORS
330
2D82
102
}
330
2D82
100
AcDbXrecord
340
19
  0
XRECORD
  5
2D89
102
{ACAD_REACTORS
330
2D82
102
}
330
2D82
100
AcDbXrecord
340
E
  0
XRECORD
  5
2D8A
102
{ACAD_REACTORS
330
2D82
102
}
330
2D82
100
AcDbXrecord
 90
    10781
  0
XRECORD
  5
2D8B
102
{ACAD_REACTORS
330
2D82
102
}
330
2D82
100
AcDbXrecord
 90
        4
  0
XRECORD
  5
2D8C
102
{ACAD_REACTORS
330
2D82
102
}
330
2D82
100
AcDbXrecord
 90
        0
  0
XRECORD
  5
2D8D
102
{ACAD_REACTORS
330
2D82
102
}
330
2D82
100
AcDbXrecord
  1
{AFB28963-8C59-40AE-9337-C84526B81ACE}
  0
XRECORD
  5
2D8E
102
{ACAD_REACTORS
330
2D82
102
}
330
2D82
100
AcDbXrecord
  1
{5937C951-5B2A-4B62-8AB8-45833FF6D784}
  0
XRECORD
  5
2D8F
102
{ACAD_REACTORS
330
2D82
102
}
330
2D82
100
AcDbXrecord
 40
0.0
  0
XRECORD
  5
2D90
102
{ACAD_REACTORS
330
2D82
102
}
330
2D82
100
AcDbXrecord
1000
DSTYLE
1002
{
1070
    79
 70
     2
1070
   341
340
59
1070
   342
340
59
1070
   371
 70
    -1
1070
   372
 70
    -1
1002
}
  0
XRECORD
  5
2D91
102
{ACAD_REACTORS
330
2D82
102
}
330
2D82
100
AcDbXrecord
340
0
  0
XRECORD
  5
2D92
102
{ACAD_REACTORS
330
2D82
102
}
330
2D82
100
AcDbXrecord
 70
     0
  0
XRECORD
  5
2D93
102
{ACAD_REACTORS
330
2D82
102
}
330
2D82
100
AcDbXrecord
340
0
  0
XRECORD
  5
2D94
102
{ACAD_REACTORS
330
2D82
102
}
330
2D82
100
AcDbXrecord
 10
0.0
 20
0.0
 30
0.0
  0
XRECORD
  5
2D95
102
{ACAD_REACTORS
330
2D82
102
}
330
2D82
100
AcDbXrecord
 10
0.0
 20
0.0
 30
0.0
  0
XRECORD
  5
2D96
102
{ACAD_REACTORS
330
2D82
102
}
330
2D82
100
AcDbXrecord
 10
0.0
 20
0.0
 30
0.0
  0
XRECORD
  5
2D97
102
{ACAD_REACTORS
330
2D82
102
}
330
2D82
100
AcDbXrecord
 10
0.0
 20
0.0
 30
0.0
  0
XRECORD
  5
2D98
102
{ACAD_REACTORS
330
2D82
102
}
330
2D82
100
AcDbXrecord
 10
0.0
 20
0.0
 30
0.0
  0
XRECORD
  5
2D99
102
{ACAD_REACTORS
330
2D82
102
}
330
2D82
100
AcDbXrecord
 10
0.0
 20
0.0
 30
0.0
  0
XRECORD
  5
2D9A
102
{ACAD_REACTORS
330
2D82
102
}
330
2D82
100
AcDbXrecord
340
0
  0
XRECORD
  5
2D9B
102
{ACAD_REACTORS
330
2D82
102
}
330
2D82
100
AcDbXrecord
 70
     0
  0
XRECORD
  5
2D9C
102
{ACAD_REACTORS
330
2D82
102
}
330
2D82
100
AcDbXrecord
340
0
  0
XRECORD
  5
2D9D
102
{ACAD_REACTORS
330
2D82
102
}
330
2D82
100
AcDbXrecord
 10
0.0
 20
0.0
 30
0.0
  0
XRECORD
  5
2D9E
102
{ACAD_REACTORS
330
2D82
102
}
330
2D82
100
AcDbXrecord
 10
0.0
 20
0.0
 30
0.0
  0
XRECORD
  5
2D9F
102
{ACAD_REACTORS
330
2D82
102
}
330
2D82
100
AcDbXrecord
 10
0.0
 20
0.0
 30
0.0
  0
XRECORD
  5
2DA0
102
{ACAD_REACTORS
330
2D82
102
}
330
2D82
100
AcDbXrecord
 10
0.0
 20
0.0
 30
0.0
  0
XRECORD
  5
2DA1
102
{ACAD_REACTORS
330
2D82
102
}
330
2D82
100
AcDbXrecord
 10
0.0
 20
0.0
 30
0.0
  0
XRECORD
  5
2DA2
102
{ACAD_REACTORS
330
2D82
102
}
330
2D82
100
AcDbXrecord
 10
0.0
 20
0.0
 30
0.0
  0
LAYER_INDEX
  5
2D79
102
{ACAD_REACTORS
330
2D78
102
}
330
2D78
100
AcDbIndex
 40
2453151.681364641
100
AcDbLayerIndex
  8
0
360
2D7A
 90
        0
  8
AM_0
360
2D7B
 90
       52
  8
AM_7
360
2D7C
 90
        1
  8
AM_11
360
2D7D
 90
       21
  8
AM_5
360
2D7E
 90
        5
  8
Defpoints
360
2D7F
 90
        0
  8
AM_6
360
2D80
 90
        1
  0
XRECORD
  5
2D
102
{ACAD_REACTORS
330
2C
102
}
330
2C
100
AcDbXrecord
  1
VERSION
140
15.0
  1
PRODUCT
  2
AutoCAD Mechanical 2000
  0
IDBUFFER
  5
2D7A
330
0
100
AcDbIdBuffer
  0
IDBUFFER
  5
2D7B
330
0
100
AcDbIdBuffer
330
2D0D
330
2D0E
330
2D0F
330
2D10
330
2567
330
2568
330
2569
330
256C
330
256D
330
256E
330
256F
330
2570
330
2571
330
2572
330
27AB
330
27AC
330
27AD
330
27AF
330
27B0
330
27B1
330
2CD3
330
2CD4
330
2CD5
330
2CD6
330
2CD7
330
2CE5
330
2CE6
330
2CE7
330
2CE8
330
2CED
330
2CEE
330
2CF2
330
2CF3
330
2CF4
330
2CF5
330
2CF6
330
2CF9
330
2CFA
330
2CFD
330
2CFE
330
2CFF
330
2D00
330
2D01
330
2D02
330
2D03
330
2D04
330
2D05
330
2D06
330
2D07
330
2D08
330
2D09
330
2D0C
  0
IDBUFFER
  5
2D7C
330
0
100
AcDbIdBuffer
330
23EF
  0
IDBUFFER
  5
2D7D
330
0
100
AcDbIdBuffer
330
2CF8
330
2CFB
330
2CFC
330
2D0A
330
2D0B
330
24C7
330
24C8
330
24C9
330
24CA
330
24DA
330
24DB
330
24DC
330
24DD
330
2CE9
330
2CEA
330
2CEB
330
2CEC
330
2CEF
330
2CF0
330
2CF1
330
2CF7
  0
IDBUFFER
  5
2D7E
330
0
100
AcDbIdBuffer
330
CC6
330
2069
330
2599
330
2894
330
2CD8
  0
IDBUFFER
  5
2D7F
330
0
100
AcDbIdBuffer
  0
IDBUFFER
  5
2D80
330
0
100
AcDbIdBuffer
330
19BD
  0
ENDSEC
  0
EOF
