  0
SECTION
  2
HEADER
  9
$ACADVER
  1
AC1014
  9
$ACADMAINTVER
 70
     9
  9
$DWGCODEPAGE
  3
ANSI_932
  9
$INSBASE
 10
0.0
 20
0.0
 30
0.0
  9
$EXTMIN
 10
-120.150001
 20
-28.25000402524006
 30
-0.00000001
  9
$EXTMAX
 10
13.73115421205164
 20
13.37289982946268
 30
0.00000001
  9
$LIMMIN
 10
-156.1444050923396
 20
-44.51020785580943
  9
$LIMMAX
 10
20.31336096277607
 20
28.16015358894219
  9
$ORTHOMODE
 70
     0
  9
$REGENMODE
 70
     1
  9
$FILLMODE
 70
     1
  9
$QTEXTMODE
 70
     0
  9
$MIRRTEXT
 70
     0
  9
$DRAGMODE
 70
     2
  9
$LTSCALE
 40
1.0
  9
$OSMODE
 70
    55
  9
$ATTMODE
 70
     1
  9
$TEXTSIZE
 40
2.5
  9
$TRACEWID
 40
1.0
  9
$TEXTSTYLE
  7
STANDARD
  9
$CLAYER
  8
AM_0
  9
$CELTYPE
  6
BYLAYER
  9
$CECOLOR
 62
   256
  9
$CELTSCALE
 40
1.0
  9
$DELOBJ
 70
     1
  9
$DISPSILH
 70
     0
  9
$DIMSCALE
 40
0.5
  9
$DIMASZ
 40
2.5
  9
$DIMEXO
 40
1.0
  9
$DIMDLI
 40
12.0
  9
$DIMRND
 40
0.0
  9
$DIMDLE
 40
0.0
  9
$DIMEXE
 40
1.0
  9
$DIMTP
 40
0.1
  9
$DIMTM
 40
0.1
  9
$DIMTXT
 40
3.2
  9
$DIMCEN
 40
0.0
  9
$DIMTSZ
 40
0.0
  9
$DIMTOL
 70
     0
  9
$DIMLIM
 70
     0
  9
$DIMTIH
 70
     0
  9
$DIMTOH
 70
     0
  9
$DIMSE1
 70
     0
  9
$DIMSE2
 70
     0
  9
$DIMTAD
 70
     3
  9
$DIMZIN
 70
     8
  9
$DIMBLK
  1
OPEN30
  9
$DIMASO
 70
     1
  9
$DIMSHO
 70
     1
  9
$DIMPOST
  1

  9
$DIMAPOST
  1
"
  9
$DIMALT
 70
     0
  9
$DIMALTD
 70
     2
  9
$DIMALTF
 40
0.0393701
  9
$DIMLFAC
 40
1.0
  9
$DIMTOFL
 70
     1
  9
$DIMTVP
 40
0.0
  9
$DIMTIX
 70
     0
  9
$DIMSOXD
 70
     0
  9
$DIMSAH
 70
     0
  9
$DIMBLK1
  1

  9
$DIMBLK2
  1

  9
$DIMSTYLE
  2
AM_JIS
  9
$DIMCLRD
 70
   256
  9
$DIMCLRE
 70
   256
  9
$DIMCLRT
 70
     2
  9
$DIMTFAC
 40
0.71
  9
$DIMGAP
 40
1.5
  9
$DIMJUST
 70
     0
  9
$DIMSD1
 70
     0
  9
$DIMSD2
 70
     0
  9
$DIMTOLJ
 70
     0
  9
$DIMTZIN
 70
     0
  9
$DIMALTZ
 70
     0
  9
$DIMALTTZ
 70
     0
  9
$DIMFIT
 70
     3
  9
$DIMUPT
 70
     0
  9
$DIMUNIT
 70
     2
  9
$DIMDEC
 70
     3
  9
$DIMTDEC
 70
     3
  9
$DIMALTU
 70
     2
  9
$DIMALTTD
 70
     2
  9
$DIMTXSTY
  7
ASAMI
  9
$DIMAUNIT
 70
     0
  9
$LUNITS
 70
     2
  9
$LUPREC
 70
     2
  9
$SKETCHINC
 40
1.0
  9
$FILLETRAD
 40
2.5
  9
$AUNITS
 70
     0
  9
$AUPREC
 70
     0
  9
$MENU
  1
.
  9
$ELEVATION
 40
0.0
  9
$PELEVATION
 40
0.0
  9
$THICKNESS
 40
0.0
  9
$LIMCHECK
 70
     0
  9
$BLIPMODE
 70
     0
  9
$CHAMFERA
 40
0.5
  9
$CHAMFERB
 40
0.5
  9
$CHAMFERC
 40
20.0
  9
$CHAMFERD
 40
0.0
  9
$SKPOLY
 70
     0
  9
$TDCREATE
 40
2452800.443498622
  9
$TDUPDATE
 40
2453151.572030150
  9
$TDINDWG
 40
0.0526674421
  9
$TDUSRTIMER
 40
0.0526674421
  9
$USRTIMER
 70
     1
  9
$ANGBASE
 50
0.0
  9
$ANGDIR
 70
     0
  9
$PDMODE
 70
     0
  9
$PDSIZE
 40
0.0
  9
$PLINEWID
 40
0.0
  9
$COORDS
 70
     1
  9
$SPLFRAME
 70
     0
  9
$SPLINETYPE
 70
     6
  9
$SPLINESEGS
 70
     8
  9
$ATTDIA
 70
     1
  9
$ATTREQ
 70
     1
  9
$HANDLING
 70
 12289
  9
$HANDSEED
  5
2E10
  9
$SURFTAB1
 70
     6
  9
$SURFTAB2
 70
     6
  9
$SURFTYPE
 70
     6
  9
$SURFU
 70
     6
  9
$SURFV
 70
     6
  9
$UCSNAME
  2

  9
$UCSORG
 10
0.0
 20
0.0
 30
0.0
  9
$UCSXDIR
 10
1.0
 20
0.0000000000000027
 30
0.0
  9
$UCSYDIR
 10
-0.0000000000000027
 20
1.0
 30
0.0
  9
$PUCSNAME
  2

  9
$PUCSORG
 10
0.0
 20
0.0
 30
0.0
  9
$PUCSXDIR
 10
1.0
 20
0.0
 30
0.0
  9
$PUCSYDIR
 10
0.0
 20
1.0
 30
0.0
  9
$USERI1
 70
     0
  9
$USERI2
 70
     0
  9
$USERI3
 70
     0
  9
$USERI4
 70
     0
  9
$USERI5
 70
     0
  9
$USERR1
 40
0.0
  9
$USERR2
 40
0.0
  9
$USERR3
 40
0.0
  9
$USERR4
 40
0.0
  9
$USERR5
 40
0.0
  9
$WORLDVIEW
 70
     1
  9
$SHADEDGE
 70
     3
  9
$SHADEDIF
 70
    70
  9
$TILEMODE
 70
     1
  9
$MAXACTVP
 70
    64
  9
$PINSBASE
 10
0.0
 20
0.0
 30
0.0
  9
$PLIMCHECK
 70
     0
  9
$PEXTMIN
 10
1.000000000000000E+20
 20
1.000000000000000E+20
 30
1.000000000000000E+20
  9
$PEXTMAX
 10
-1.000000000000000E+20
 20
-1.000000000000000E+20
 30
-1.000000000000000E+20
  9
$PLIMMIN
 10
0.0
 20
0.0
  9
$PLIMMAX
 10
841.0
 20
594.0
  9
$UNITMODE
 70
     0
  9
$VISRETAIN
 70
     1
  9
$PLINEGEN
 70
     0
  9
$PSLTSCALE
 70
     0
  9
$TREEDEPTH
 70
  3020
  9
$PICKSTYLE
 70
     0
  9
$CMLSTYLE
  2
STANDARD
  9
$CMLJUST
 70
     0
  9
$CMLSCALE
 40
20.0
  9
$PROXYGRAPHICS
 70
     1
  9
$MEASUREMENT
 70
     1
  0
ENDSEC
  0
SECTION
  2
CLASSES
  0
CLASS
  1
ACDBDICTIONARYWDFLT
  2
AcDbDictionaryWithDefault
  3
AutoCAD 2000
 90
        0
280
     0
281
     0
  0
CLASS
  1
ACDBPLACEHOLDER
  2
AcDbPlaceHolder
  3
AutoCAD 2000
 90
        0
280
     0
281
     0
  0
CLASS
  1
LAYOUT
  2
AcDbLayout
  3
AutoCAD 2000
 90
        0
280
     0
281
     0
  0
CLASS
  1
AMGSETTINGSOBJ
  2
AmgSettingsObj
  3
"AcadM|Product Description: AutoCAD Mechanical 2000|Company: Autodesk"
 90
        0
280
     0
281
     0
  0
CLASS
  1
ACME_DOCUMENT
  2
AcMeDbDoc
  3
AcMeServices
 90
        0
280
     0
281
     0
  0
CLASS
  1
ACMESCOPE
  2
AcMeScope
  3
AcMeServices
 90
        0
280
     0
281
     0
  0
CLASS
  1
ACMECOMMANDHISTORY
  2
AcMeCommandHistory
  3
AcMeServices
 90
        0
280
     0
281
     0
  0
CLASS
  1
DICTIONARYVAR
  2
AcDbDictionaryVar
  3
AutoCAD 2000
 90
        0
280
     0
281
     0
  0
CLASS
  1
ACIMSYSVARMAN
  2
AcImSysVarManager
  3
AcMeServices
 90
        0
280
     0
281
     0
  0
CLASS
  1
ACIMREALSYSVAR
  2
AcImRealSysVar
  3
AcMeServices
 90
        0
280
     0
281
     0
  0
CLASS
  1
ACIMINTSYSVAR
  2
AcImIntSysVar
  3
AcMeServices
 90
        0
280
     0
281
     0
  0
CLASS
  1
ACMEDRAWINGMAN
  2
AcMeDrawingMan
  3
AcMeServices
 90
        0
280
     0
281
     0
  0
CLASS
  1
ACMEVIEW
  2
AcMeView
  3
AcMeServices
 90
        0
280
     0
281
     0
  0
CLASS
  1
ACDBENTITYCACHE
  2
AcMeEntityCache
  3
AcMeServices
 90
        0
280
     0
281
     0
  0
CLASS
  1
GSMANAGER
  2
AcMeGSManager
  3
AcMeServices
 90
        0
280
     0
281
     0
  0
CLASS
  1
AmdtInternalReactor
  2
AmdtInternalReactor
  3
AcMeServices
 90
        0
280
     0
281
     0
  0
CLASS
  1
ACMESTATEMGR
  2
AcMeStateMgr
  3
AcMeServices
 90
        0
280
     0
281
     0
  0
CLASS
  1
ACME_DATABASE
  2
AcMeDbDatabase
  3
AcMeServices
 90
        0
280
     0
281
     0
  0
CLASS
  1
ACRFINSADJUSTERMGR
  2
AcRfInsAdjusterMgr
  3
AcMeServices
 90
        0
280
     0
281
     0
  0
CLASS
  1
ACMDATADICTIONARY
  2
AcmDataDictionary
  3
"AcmSymBB|Product Description: AutoCAD Mechanical 2000|Company: Autodesk"
 90
        0
280
     0
281
     0
  0
CLASS
  1
ACMDATAENTRYBLOCK
  2
AcmDataEntryBlock
  3
"AcmSymBB|Product Description: AutoCAD Mechanical 2000|Company: Autodesk"
 90
        0
280
     0
281
     0
  0
CLASS
  1
AMGOBJPROPCFG
  2
AmgObjPropCfg
  3
"AmgLay|Product Description: AutoCAD Mechanical 2000|Company: Autodesk"
 90
        1
280
     0
281
     0
  0
CLASS
  1
ACAMGFILTERDAT
  2
AcAmgFilterDat
  3
"AcadM|Product Description: AutoCAD Mechanical 2000|Company: Autodesk"
 90
        0
280
     0
281
     0
  0
CLASS
  1
LAYER_INDEX
  2
AcDbLayerIndex
  3
AutoCAD 2000
 90
        0
280
     0
281
     0
  0
CLASS
  1
IDBUFFER
  2
AcDbIdBuffer
  3
AutoCAD 2000
 90
        0
280
     0
281
     0
  0
CLASS
  1
ACIMSTRSYSVAR
  2
AcImStrSysVar
  3
AcMeServices
 90
        0
280
     0
281
     0
  0
CLASS
  1
ACMSTANDARDJIS
  2
AcmStandardJIS
  3
"AcmSymBB|Product Description: AutoCAD Mechanical 2000|Company: Autodesk"
 90
        0
280
     0
281
     0
  0
CLASS
  1
ACMSURFSTANDARDJIS
  2
AcmSurfTextStdJIS
  3
"AcmSymBB|Product Description: AutoCAD Mechanical 2000|Company: Autodesk"
 90
        0
280
     0
281
     0
  0
CLASS
  1
ACMFCFSTANDARDJIS
  2
AcmFCFStdJIS
  3
"AcmSymBB|Product Description: AutoCAD Mechanical 2000|Company: Autodesk"
 90
        0
280
     0
281
     0
  0
CLASS
  1
ACMWELDSTANDARDJIS
  2
AcmWeldingStdJIS
  3
"AcmSymBB|Product Description: AutoCAD Mechanical 2000|Company: Autodesk"
 90
        0
280
     0
281
     0
  0
CLASS
  1
ACMIDSTANDARDJIS
  2
AcmIdStdJIS
  3
"AcmSymBB|Product Description: AutoCAD Mechanical 2000|Company: Autodesk"
 90
        0
280
     0
281
     0
  0
CLASS
  1
ACMDATUMSTANDARDJIS
  2
AcmDatumStdJIS
  3
"AcmSymBB|Product Description: AutoCAD Mechanical 2000|Company: Autodesk"
 90
        0
280
     0
281
     0
  0
CLASS
  1
ACMBOMSTANDARDJIS
  2
AcmBOMStdJIS
  3
"AcmSymBB|Product Description: AutoCAD Mechanical 2000|Company: Autodesk"
 90
        0
280
     0
281
     0
  0
CLASS
  1
ACMSTANDARDANSI
  2
AcmStandardANSI
  3
"AcmSymBB|Product Description: AutoCAD Mechanical 2000|Company: Autodesk"
 90
        0
280
     0
281
     0
  0
CLASS
  1
ACMSURFSTANDARDANSI
  2
AcmSurfTextStdANSI
  3
"AcmSymBB|Product Description: AutoCAD Mechanical 2000|Company: Autodesk"
 90
        0
280
     0
281
     0
  0
CLASS
  1
ACMFCFSTANDARDANSI
  2
AcmFCFStdANSI
  3
"AcmSymBB|Product Description: AutoCAD Mechanical 2000|Company: Autodesk"
 90
        0
280
     0
281
     0
  0
CLASS
  1
ACMWELDSTANDARDANSI
  2
AcmWeldingStdANSI
  3
"AcmSymBB|Product Description: AutoCAD Mechanical 2000|Company: Autodesk"
 90
        0
280
     0
281
     0
  0
CLASS
  1
ACMIDSTANDARDANSI
  2
AcmIdStdANSI
  3
"AcmSymBB|Product Description: AutoCAD Mechanical 2000|Company: Autodesk"
 90
        0
280
     0
281
     0
  0
CLASS
  1
ACMDATUMSTANDARDANSI
  2
AcmDatumStdANSI
  3
"AcmSymBB|Product Description: AutoCAD Mechanical 2000|Company: Autodesk"
 90
        0
280
     0
281
     0
  0
CLASS
  1
ACMBOMSTANDARDANSI
  2
AcmBOMStdANSI
  3
"AcmSymBB|Product Description: AutoCAD Mechanical 2000|Company: Autodesk"
 90
        0
280
     0
281
     0
  0
CLASS
  1
ACMSTANDARDBSI
  2
AcmStandardBSI
  3
"AcmSymBB|Product Description: AutoCAD Mechanical 2000|Company: Autodesk"
 90
        0
280
     0
281
     0
  0
CLASS
  1
ACMSURFSTANDARDBSI
  2
AcmSurfTextStdBSI
  3
"AcmSymBB|Product Description: AutoCAD Mechanical 2000|Company: Autodesk"
 90
        0
280
     0
281
     0
  0
CLASS
  1
ACMFCFSTANDARDBSI
  2
AcmFCFStdBSI
  3
"AcmSymBB|Product Description: AutoCAD Mechanical 2000|Company: Autodesk"
 90
        0
280
     0
281
     0
  0
CLASS
  1
ACMWELDSTANDARDBSI
  2
AcmWeldingStdBSI
  3
"AcmSymBB|Product Description: AutoCAD Mechanical 2000|Company: Autodesk"
 90
        0
280
     0
281
     0
  0
CLASS
  1
ACMIDSTANDARDBSI
  2
AcmIdStdBSI
  3
"AcmSymBB|Product Description: AutoCAD Mechanical 2000|Company: Autodesk"
 90
        0
280
     0
281
     0
  0
CLASS
  1
ACMDATUMSTANDARDBSI
  2
AcmDatumStdBSI
  3
"AcmSymBB|Product Description: AutoCAD Mechanical 2000|Company: Autodesk"
 90
        0
280
     0
281
     0
  0
CLASS
  1
ACMBOMSTANDARDBSI
  2
AcmBOMStdBSI
  3
"AcmSymBB|Product Description: AutoCAD Mechanical 2000|Company: Autodesk"
 90
        0
280
     0
281
     0
  0
CLASS
  1
LONG_TRANSACTION
  2
AcDbLongTransaction
  3
AutoCAD 2000
 90
        0
280
     0
281
     0
  0
CLASS
  1
LWPOLYLINE
  2
AcDbPolyline
  3
AutoCAD 2000
 90
        0
280
     0
281
     1
  0
CLASS
  1
HATCH
  2
AcDbHatch
  3
AutoCAD 2000
 90
        0
280
     0
281
     1
  0
CLASS
  1
XRECORD
  2
AcDbXrecord
  3
AutoCAD 2000
 90
        0
280
     0
281
     0
  0
ENDSEC
  0
SECTION
  2
TABLES
  0
TABLE
  2
VPORT
  5
8
330
0
100
AcDbSymbolTable
 70
     3
  0
VPORT
  5
2DDA
330
8
100
AcDbSymbolTableRecord
100
AcDbViewportTableRecord
  2
*ACTIVE
 70
     0
 10
0.0
 20
0.0
 11
1.0
 21
1.0
 12
-50.72671201406722
 22
-7.437633921982879
 13
0.0
 23
0.0
 14
2.5
 24
2.5
 15
10.0
 25
10.0
 16
0.0
 26
0.0
 36
1.0
 17
0.0
 27
0.0
 37
0.0
 40
89.10578188690735
 41
1.56570841889117
 42
50.0
 43
0.0
 44
0.0
 50
0.0
 51
0.0
 71
     0
 72
   100
 73
     1
 74
     1
 75
     0
 76
     0
 77
     0
 78
     0
  0
ENDTAB
  0
TABLE
  2
LTYPE
  5
5
330
0
100
AcDbSymbolTable
 70
    10
  0
LTYPE
  5
14
330
5
100
AcDbSymbolTableRecord
100
AcDbLinetypeTableRecord
  2
BYBLOCK
 70
     0
  3

 72
    65
 73
     0
 40
0.0
  0
LTYPE
  5
15
330
5
100
AcDbSymbolTableRecord
100
AcDbLinetypeTableRecord
  2
BYLAYER
 70
     0
  3

 72
    65
 73
     0
 40
0.0
  0
LTYPE
  5
16
330
5
100
AcDbSymbolTableRecord
100
AcDbLinetypeTableRecord
  2
CONTINUOUS
 70
     0
  3
Solid line
 72
    65
 73
     0
 40
0.0
  0
LTYPE
  5
4B
330
5
100
AcDbSymbolTableRecord
100
AcDbLinetypeTableRecord
  2
AM_ISO02W050
 70
     0
  3
__ __ __ __ __ __ __ __ __ __ __ __ __ __ __
 72
    65
 73
     2
 40
7.5
 49
6.0
 74
     0
 49
-1.5
 74
     0
  0
LTYPE
  5
4C
330
5
100
AcDbSymbolTableRecord
100
AcDbLinetypeTableRecord
  2
AM_ISO08W050
 70
     0
  3
____ . ____ . ____ . ____ . ____ . ____ . ____
 72
    65
 73
     4
 40
18.0
 49
12.0
 74
     0
 49
-1.5
 74
     0
 49
3.0
 74
     0
 49
-1.5
 74
     0
  0
LTYPE
  5
4D
330
5
100
AcDbSymbolTableRecord
100
AcDbLinetypeTableRecord
  2
AM_ISO09W050
 70
     0
  3
_____ . . _____ . . _____ . . ____ .. ____
 72
    65
 73
     6
 40
22.5
 49
12.0
 74
     0
 49
-1.5
 74
     0
 49
3.0
 74
     0
 49
-1.5
 74
     0
 49
3.0
 74
     0
 49
-1.5
 74
     0
  0
LTYPE
  5
4E
330
5
100
AcDbSymbolTableRecord
100
AcDbLinetypeTableRecord
  2
AMCONSTR
 70
     0
  3
_______________________
 72
    65
 73
     2
 40
9999.0
 49
9999.0
 74
     0
 49
0.0
 74
     0
  0
LTYPE
  5
4F
330
5
100
AcDbSymbolTableRecord
100
AcDbLinetypeTableRecord
  2
AM_ISO02W050X2
 70
     0
  3
 _ _ _ _ _ _ _ _ _ _ _ _
 72
    65
 73
     2
 40
3.75
 49
3.0
 74
     0
 49
-0.75
 74
     0
  0
LTYPE
  5
50
330
5
100
AcDbSymbolTableRecord
100
AcDbLinetypeTableRecord
  2
AM_ISO08W050X2
 70
     0
  3
__ . __ . __ . __ . __ . __
 72
    65
 73
     4
 40
9.0
 49
6.0
 74
     0
 49
-0.75
 74
     0
 49
1.5
 74
     0
 49
-0.75
 74
     0
  0
LTYPE
  5
53
330
5
100
AcDbSymbolTableRecord
100
AcDbLinetypeTableRecord
  2
AMZIGZAG
 70
     0
  3
/\/-/\/-/\/-/\/-/\/-/\/
 72
    65
 73
     2
 40
11.00009999999999
 49
0.0001
 74
     4
 75
   135
340
52
 46
0.04
 50
0.0
 44
0.0
 45
0.0
 49
-11.0
 74
     0
  0
LTYPE
  5
166
330
5
100
AcDbSymbolTableRecord
100
AcDbLinetypeTableRecord
  2
ACJISTGL
 70
     0
  3
_ _ _ _ _
 72
    65
 73
     2
 40
3.0
 49
2.0
 74
     0
 49
-1.0
 74
     0
  0
LTYPE
  5
26A
330
5
100
AcDbSymbolTableRecord
100
AcDbLinetypeTableRecord
  2
ACJISTGB
 70
     0
  3
__ . . __ . .
 72
    65
 73
     6
 40
9.0
 49
4.0
 74
     0
 49
-1.0
 74
     0
 49
1.0
 74
     0
 49
-1.0
 74
     0
 49
1.0
 74
     0
 49
-1.0
 74
     0
  0
ENDTAB
  0
TABLE
  2
LAYER
  5
2
330
0
100
AcDbSymbolTable
 70
     7
  0
LAYER
  5
10
330
2
100
AcDbSymbolTableRecord
100
AcDbLayerTableRecord
  2
0
 70
     0
 62
     7
  6
CONTINUOUS
  0
LAYER
  5
3F9
330
2
100
AcDbSymbolTableRecord
100
AcDbLayerTableRecord
  2
AM_0
 70
     0
 62
     7
  6
CONTINUOUS
  0
LAYER
  5
C7C
330
2
100
AcDbSymbolTableRecord
100
AcDbLayerTableRecord
  2
AM_7
 70
     0
 62
     4
  6
AM_ISO08W050
  0
LAYER
  5
C97
330
2
100
AcDbSymbolTableRecord
100
AcDbLayerTableRecord
  2
AM_11
 70
     0
 62
     3
  6
AM_ISO09W050
  0
LAYER
  5
CC5
330
2
100
AcDbSymbolTableRecord
100
AcDbLayerTableRecord
  2
AM_5
 70
     0
 62
     3
  6
CONTINUOUS
  0
LAYER
  5
CC7
330
2
100
AcDbSymbolTableRecord
100
AcDbLayerTableRecord
  2
DEFPOINTS
 70
     0
 62
     7
  6
CONTINUOUS
  0
LAYER
  5
19BC
330
2
100
AcDbSymbolTableRecord
100
AcDbLayerTableRecord
  2
AM_6
 70
     0
 62
     2
  6
CONTINUOUS
  0
ENDTAB
  0
TABLE
  2
STYLE
  5
3
330
0
100
AcDbSymbolTable
 70
     5
  0
STYLE
  5
11
330
3
100
AcDbSymbolTableRecord
100
AcDbTextStyleTableRecord
  2
STANDARD
 70
     0
 40
0.0
 41
1.0
 50
0.0
 71
     0
 42
2.5
  3
simplex.shx
  4
EXTFONT.SHX
  0
STYLE
  5
52
330
3
100
AcDbSymbolTableRecord
100
AcDbTextStyleTableRecord
  2

 70
     1
 40
0.0
 41
1.0
 50
0.0
 71
     0
 42
2.5
  3
ltypeshp.shx
  4

  0
STYLE
  5
6B
330
3
100
AcDbSymbolTableRecord
100
AcDbTextStyleTableRecord
  2
ASAMI
 70
     0
 40
0.0
 41
1.0
 50
0.0
 71
     0
 42
2.5
  3
simplex.shx
  4
EXTFONT.SHX
  0
STYLE
  5
262
330
3
100
AcDbSymbolTableRecord
100
AcDbTextStyleTableRecord
  2
ACJISTS
 70
     0
 40
1.0
 41
1.0
 50
0.0
 71
     0
 42
2.5
  3
simplex.shx
  4
bigfont.shx
  0
STYLE
  5
269
330
3
100
AcDbSymbolTableRecord
100
AcDbTextStyleTableRecord
  2
ACJISGDT
 70
     0
 40
0.0
 41
1.0
 50
0.0
 71
     0
 42
2.5
  3
amgdtans.shx
  4

  0
ENDTAB
  0
TABLE
  2
VIEW
  5
6
330
0
100
AcDbSymbolTable
 70
     0
  0
ENDTAB
  0
TABLE
  2
UCS
  5
7
330
0
100
AcDbSymbolTable
 70
     0
  0
ENDTAB
  0
TABLE
  2
APPID
  5
9
330
0
100
AcDbSymbolTable
 70
    16
  0
APPID
  5
12
330
9
100
AcDbSymbolTableRecord
100
AcDbRegAppTableRecord
  2
ACAD
 70
     0
  0
APPID
  5
30
330
9
100
AcDbSymbolTableRecord
100
AcDbRegAppTableRecord
  2
MCAD_NO_VIS
 70
     0
  0
APPID
  5
31
330
9
100
AcDbSymbolTableRecord
100
AcDbRegAppTableRecord
  2
ACAD_TEMP_GRAPHIC
 70
     0
  0
APPID
  5
2C2
330
9
100
AcDbSymbolTableRecord
100
AcDbRegAppTableRecord
  2
GENIUS_GENDTOL_13
 70
     0
  0
APPID
  5
339
330
9
100
AcDbSymbolTableRecord
100
AcDbRegAppTableRecord
  2
GENIUS_GENODEF_13
 70
     0
  0
APPID
  5
33A
330
9
100
AcDbSymbolTableRecord
100
AcDbRegAppTableRecord
  2
GENIUS_GENOBJ-N-RSBK_13
 70
     0
  0
APPID
  5
33B
330
9
100
AcDbSymbolTableRecord
100
AcDbRegAppTableRecord
  2
GENIUS_GENOBJ-N-LIB_13
 70
     0
  0
APPID
  5
33C
330
9
100
AcDbSymbolTableRecord
100
AcDbRegAppTableRecord
  2
GENIUS_GENSCALE_13
 70
     0
  0
APPID
  5
378
330
9
100
AcDbSymbolTableRecord
100
AcDbRegAppTableRecord
  2
GENIUS_GENDIMSH_14
 70
     0
  0
APPID
  5
C82
330
9
100
AcDbSymbolTableRecord
100
AcDbRegAppTableRecord
  2
GENIUS_GENOBJ-N-CRS_13
 70
     0
  0
APPID
  5
C83
330
9
100
AcDbSymbolTableRecord
100
AcDbRegAppTableRecord
  2
GENIUS_GENOENT_13
 70
     0
  0
APPID
  5
C84
330
9
100
AcDbSymbolTableRecord
100
AcDbRegAppTableRecord
  2
GENIUS_GENOREF_13
 70
     0
  0
APPID
  5
C85
330
9
100
AcDbSymbolTableRecord
100
AcDbRegAppTableRecord
  2
GENIUS_GENOLIS_13
 70
     0
  0
APPID
  5
CA0
330
9
100
AcDbSymbolTableRecord
100
AcDbRegAppTableRecord
  2
GENIUS_GENOBJ-N-CEN_13
 70
     0
  0
APPID
  5
2796
330
9
100
AcDbSymbolTableRecord
100
AcDbRegAppTableRecord
  2
GENIUS_GENFIL_13
 70
     0
  0
APPID
  5
2797
330
9
100
AcDbSymbolTableRecord
100
AcDbRegAppTableRecord
  2
GENIUS_GENOBJ-N-CHA_13
 70
     0
  0
ENDTAB
  0
TABLE
  2
DIMSTYLE
  5
A
330
0
100
AcDbSymbolTable
 70
     9
  0
DIMSTYLE
105
58
330
A
100
AcDbSymbolTableRecord
100
AcDbDimStyleTableRecord
  2
AM_JIS
 70
     0
  3

  4
"
  5
OPEN30
  6

  7

 40
0.5
 41
2.5
 42
1.0
 43
12.0
 44
1.0
 45
0.0
 46
0.0
 47
0.1
 48
0.1
140
3.2
141
0.0
142
0.0
143
0.0393701
144
1.0
145
0.0
146
0.71
147
1.5
 71
     0
 72
     0
 73
     0
 74
     0
 75
     0
 76
     0
 77
     3
 78
     8
170
     0
171
     2
172
     1
173
     0
174
     0
175
     0
176
   256
177
   256
178
     2
270
     2
271
     3
272
     3
273
     2
274
     2
340
6B
275
     0
280
     0
281
     0
282
     0
283
     0
284
     0
285
     0
286
     0
287
     3
288
     0
  0
DIMSTYLE
105
5F
330
A
100
AcDbSymbolTableRecord
100
AcDbDimStyleTableRecord
  2
AM_JIS$3
 70
     0
  3

  4
"
  5
OPEN30
  6

  7

 40
0.5
 41
2.5
 42
1.0
 43
10.0
 44
1.0
 45
0.0
 46
0.0
 47
0.1
 48
0.1
140
3.2
141
0.0
142
0.0
143
0.0393701
144
1.0
145
0.0
146
0.71
147
1.5
 71
     0
 72
     0
 73
     0
 74
     1
 75
     0
 76
     0
 77
     3
 78
     8
170
     0
171
     2
172
     0
173
     0
174
     0
175
     0
176
   256
177
   256
178
     2
270
     2
271
     2
272
     3
273
     2
274
     2
340
6B
275
     0
280
     0
281
     0
282
     0
283
     0
284
     0
285
     0
286
     0
287
     0
288
     1
  0
DIMSTYLE
105
60
330
A
100
AcDbSymbolTableRecord
100
AcDbDimStyleTableRecord
  2
AM_JIS$4
 70
     0
  3

  4
"
  5
OPEN30
  6

  7

 40
0.5
 41
2.5
 42
1.0
 43
10.0
 44
1.0
 45
0.0
 46
0.0
 47
0.1
 48
0.1
140
3.2
141
0.0
142
0.0
143
0.0393701
144
1.0
145
0.0
146
0.71
147
1.5
 71
     0
 72
     0
 73
     0
 74
     1
 75
     0
 76
     0
 77
     3
 78
     8
170
     0
171
     2
172
     0
173
     0
174
     0
175
     0
176
   256
177
   256
178
     2
270
     2
271
     2
272
     3
273
     2
274
     2
340
6B
275
     0
280
     0
281
     0
282
     0
283
     0
284
     0
285
     0
286
     0
287
     0
288
     1
  0
DIMSTYLE
105
61
330
A
100
AcDbSymbolTableRecord
100
AcDbDimStyleTableRecord
  2
AM_JIS$6
 70
     0
  3

  4
"
  5
OPEN30
  6

  7

 40
0.5
 41
2.5
 42
1.0
 43
10.0
 44
1.0
 45
0.0
 46
0.0
 47
0.1
 48
0.1
140
3.2
141
0.0
142
0.0
143
0.0393701
144
1.0
145
0.0
146
0.71
147
1.5
 71
     0
 72
     0
 73
     0
 74
     0
 75
     0
 76
     0
 77
     0
 78
     8
170
     0
171
     2
172
     1
173
     0
174
     0
175
     0
176
   256
177
   256
178
     2
270
     2
271
     2
272
     2
273
     2
274
     2
340
6B
275
     0
280
     0
281
     0
282
     0
283
     0
284
     0
285
     0
286
     0
287
     3
288
     0
  0
DIMSTYLE
105
62
330
A
100
AcDbSymbolTableRecord
100
AcDbDimStyleTableRecord
  2
AM_JIS$7
 70
     0
  3

  4
"
  5
OPEN30
  6

  7

 40
0.5
 41
2.5
 42
1.0
 43
10.0
 44
1.0
 45
0.0
 46
0.0
 47
0.1
 48
0.1
140
3.2
141
0.0
142
0.0
143
0.0393701
144
1.0
145
0.0
146
0.71
147
1.5
 71
     0
 72
     0
 73
     0
 74
     0
 75
     0
 76
     0
 77
     3
 78
     8
170
     0
171
     2
172
     1
173
     0
174
     0
175
     0
176
   256
177
   256
178
     2
270
     2
271
     2
272
     3
273
     2
274
     2
340
6B
275
     0
280
     0
281
     0
282
     0
283
     0
284
     0
285
     0
286
     0
287
     3
288
     0
  0
DIMSTYLE
105
63
330
A
100
AcDbSymbolTableRecord
100
AcDbDimStyleTableRecord
  2
AM_JIS$SF
 70
     0
  3

  4
"
  5
OPEN30
  6

  7

 40
0.5
 41
2.5
 42
1.0
 43
10.0
 44
1.0
 45
0.0
 46
0.0
 47
0.1
 48
0.1
140
3.2
141
0.0
142
0.0
143
0.0393701
144
1.0
145
0.0
146
0.71
147
1.5
 71
     0
 72
     0
 73
     0
 74
     0
 75
     1
 76
     1
 77
     3
 78
     8
170
     0
171
     2
172
     1
173
     0
174
     0
175
     0
176
   256
177
   256
178
     2
270
     2
271
     2
272
     2
273
     2
274
     2
340
6B
275
     0
280
     0
281
     0
282
     0
283
     0
284
     0
285
     0
286
     0
287
     3
288
     0
  0
DIMSTYLE
105
68
330
A
100
AcDbSymbolTableRecord
100
AcDbDimStyleTableRecord
  2
AM_JIS$SH
 70
     0
  3

  4
"
  5

  6
GENAXEH
  7
OPEN30
 40
0.5
 41
2.5
 42
1.0
 43
10.0
 44
1.0
 45
0.0
 46
0.0
 47
0.1
 48
0.1
140
3.2
141
0.0
142
0.0
143
0.0393701
144
2.0
145
0.0
146
0.71
147
1.5
 71
     0
 72
     0
 73
     0
 74
     0
 75
     1
 76
     1
 77
     3
 78
     8
170
     0
171
     2
172
     1
173
     1
174
     0
175
     0
176
   256
177
   256
178
     2
270
     2
271
     2
272
     2
273
     2
274
     2
340
6B
275
     0
280
     0
281
     0
282
     0
283
     0
284
     0
285
     0
286
     0
287
     3
288
     0
  0
DIMSTYLE
105
B34
102
{ACAD_REACTORS
330
29BA
102
}
330
A
100
AcDbSymbolTableRecord
100
AcDbDimStyleTableRecord
  2
AM_JIS$2
 70
     0
  3

  4
"
  5
OPEN30
  6

  7

 40
0.5
 41
2.5
 42
1.0
 43
12.0
 44
1.0
 45
0.0
 46
0.0
 47
0.1
 48
0.1
140
3.2
141
0.0
142
0.0
143
0.0393701
144
1.0
145
0.0
146
0.71
147
1.5
 71
     0
 72
     0
 73
     0
 74
     0
 75
     0
 76
     0
 77
     3
 78
     8
170
     0
171
     2
172
     1
173
     0
174
     0
175
     0
176
   256
177
   256
178
     2
270
     2
271
     3
272
     3
273
     2
274
     2
340
6B
275
     0
280
     0
281
     0
282
     0
283
     0
284
     0
285
     0
286
     0
287
     3
288
     0
  0
DIMSTYLE
105
BA5
102
{ACAD_REACTORS
330
CC6
330
2069
330
2599
330
2C54
102
}
330
A
100
AcDbSymbolTableRecord
100
AcDbDimStyleTableRecord
  2
AM_JIS$0
 70
     0
  3

  4
"
  5
OPEN30
  6

  7

 40
0.5
 41
2.5
 42
0.0
 43
10.0
 44
1.0
 45
0.0
 46
0.0
 47
0.1
 48
0.1000000001
140
3.799999999999999
141
0.0
142
0.0
143
0.0393701
144
1.0
145
0.0
146
0.71
147
1.5
 71
     0
 72
     0
 73
     0
 74
     0
 75
     0
 76
     0
 77
     3
 78
     1
170
     0
171
     2
172
     1
173
     0
174
     0
175
     0
176
     3
177
     3
178
     2
270
     2
271
     2
272
     2
273
     2
274
     2
340
11
275
     1
280
     0
281
     0
282
     0
283
     0
284
     8
285
     0
286
     0
287
     0
288
     0
  0
ENDTAB
  0
TABLE
  2
BLOCK_RECORD
  5
1
330
0
100
AcDbSymbolTable
 70
    10
  0
BLOCK_RECORD
  5
1F
102
{ACAD_XDICTIONARY
360
74
102
}
330
1
100
AcDbSymbolTableRecord
100
AcDbBlockTableRecord
  2
*MODEL_SPACE
  0
BLOCK_RECORD
  5
101
102
{ACAD_XDICTIONARY
360
2E03
102
}
330
1
100
AcDbSymbolTableRecord
100
AcDbBlockTableRecord
  2
*PAPER_SPACE
  0
BLOCK_RECORD
  5
59
330
1
100
AcDbSymbolTableRecord
100
AcDbBlockTableRecord
  2
_OPEN30
  0
BLOCK_RECORD
  5
64
330
1
100
AcDbSymbolTableRecord
100
AcDbBlockTableRecord
  2
GENAXEH
  0
BLOCK_RECORD
  5
CC8
330
1
100
AcDbSymbolTableRecord
100
AcDbBlockTableRecord
  2
*D5
  0
BLOCK_RECORD
  5
206A
330
1
100
AcDbSymbolTableRecord
100
AcDbBlockTableRecord
  2
*D6
  0
BLOCK_RECORD
  5
259A
330
1
100
AcDbSymbolTableRecord
100
AcDbBlockTableRecord
  2
*D7
  0
BLOCK_RECORD
  5
29BB
330
1
100
AcDbSymbolTableRecord
100
AcDbBlockTableRecord
  2
*D8
  0
BLOCK_RECORD
  5
2C55
330
1
100
AcDbSymbolTableRecord
100
AcDbBlockTableRecord
  2
*D9
  0
ENDTAB
  0
ENDSEC
  0
SECTION
  2
BLOCKS
  0
BLOCK
  5
20
330
1F
100
AcDbEntity
  8
0
100
AcDbBlockBegin
  2
*MODEL_SPACE
 70
     0
 10
0.0
 20
0.0
 30
0.0
  3
*MODEL_SPACE
  1

  0
ENDBLK
  5
21
330
1F
100
AcDbEntity
  8
0
100
AcDbBlockEnd
  0
BLOCK
  5
103
330
101
100
AcDbEntity
 67
     1
  8
0
100
AcDbBlockBegin
  2
*PAPER_SPACE
 70
     0
 10
0.0
 20
0.0
 30
0.0
  3
*PAPER_SPACE
  1

  0
ENDBLK
  5
104
330
101
100
AcDbEntity
 67
     1
  8
0
100
AcDbBlockEnd
  0
BLOCK
  5
5D
330
59
100
AcDbEntity
  8
0
100
AcDbBlockBegin
  2
_OPEN30
 70
     0
 10
0.0
 20
0.0
 30
0.0
  3
_OPEN30
  1

  0
LINE
  5
5A
330
59
100
AcDbEntity
  8
0
 62
     0
100
AcDbLine
 10
-1.0
 20
0.26794919
 30
0.0
 11
0.0
 21
0.0
 31
0.0
  0
LINE
  5
5B
330
59
100
AcDbEntity
  8
0
 62
     0
100
AcDbLine
 10
0.0
 20
0.0
 30
0.0
 11
-1.0
 21
-0.26794919
 31
0.0
  0
LINE
  5
5C
330
59
100
AcDbEntity
  8
0
 62
     0
100
AcDbLine
 10
0.0
 20
0.0
 30
0.0
 11
-1.0
 21
0.0
 31
0.0
  0
ENDBLK
  5
5E
330
59
100
AcDbEntity
  8
0
100
AcDbBlockEnd
  0
BLOCK
  5
66
330
64
100
AcDbEntity
  8
0
100
AcDbBlockBegin
  2
GENAXEH
 70
     0
 10
0.0
 20
0.0
 30
0.0
  3
GENAXEH
  1

  0
LINE
  5
65
330
64
100
AcDbEntity
  8
0
100
AcDbLine
 10
-1.0
 20
0.0
 30
0.0
 11
1.0
 21
0.0
 31
0.0
  0
ENDBLK
  5
67
330
64
100
AcDbEntity
  8
0
100
AcDbBlockEnd
  0
BLOCK
  5
CD2
330
CC8
100
AcDbEntity
  8
0
100
AcDbBlockBegin
  2
*D5
 70
     1
 10
0.0
 20
0.0
 30
0.0
  3
*D5
  1

  0
LINE
  5
2D88
330
CC8
100
AcDbEntity
  8
AM_5
 62
     3
100
AcDbLine
 10
-108.0
 20
-4.499992428858987
 30
0.0
 11
-108.0
 21
-17.4999934288588
 31
0.0
  0
LINE
  5
2D89
330
CC8
100
AcDbEntity
  8
AM_5
 62
     3
100
AcDbLine
 10
-2.000000000000026
 20
-4.650008388149477
 30
0.0
 11
-2.000000000000027
 21
-17.4999934288588
 31
0.0
  0
LINE
  5
2D8A
330
CC8
100
AcDbEntity
  8
AM_5
 62
     3
100
AcDbLine
 10
-106.75
 20
-16.9999934288588
 30
0.0
 11
-3.250000000000027
 21
-16.9999934288588
 31
0.0
  0
INSERT
  5
2D8B
330
CC8
100
AcDbEntity
  8
AM_5
 62
     3
100
AcDbBlockReference
  2
_OPEN30
 10
-108.0
 20
-16.9999934288588
 30
0.0
 41
1.25
 42
1.25
 43
1.25
 50
180.0
  0
INSERT
  5
2D8C
330
CC8
100
AcDbEntity
  8
AM_5
 62
     3
100
AcDbBlockReference
  2
_OPEN30
 10
-2.000000000000027
 20
-16.9999934288588
 30
0.0
 41
1.25
 42
1.25
 43
1.25
  0
MTEXT
  5
2D8D
330
CC8
100
AcDbEntity
  8
AM_5
 62
     2
100
AcDbMText
 10
-55.00000000000001
 20
-15.2999934288588
 30
0.0
 40
1.9
 41
0.0
 71
     5
 72
     1
  1
106
1001
ACAD
1000
MTEXTBEGIN
1070
    73
1070
     1
1070
    44
1040
1.0
1070
    74
1070
     0
1000
MTEXTEND
  0
POINT
  5
2D8E
330
CC8
100
AcDbEntity
  8
DEFPOINTS
 62
     0
100
AcDbPoint
 10
-108.0
 20
-4.499992428858987
 30
0.0
  0
POINT
  5
2D8F
330
CC8
100
AcDbEntity
  8
DEFPOINTS
 62
     0
100
AcDbPoint
 10
-2.000000000000026
 20
-4.650008388149477
 30
0.0
  0
POINT
  5
2D90
330
CC8
100
AcDbEntity
  8
DEFPOINTS
 62
     0
100
AcDbPoint
 10
-2.000000000000027
 20
-16.9999934288588
 30
0.0
  0
ENDBLK
  5
CD3
330
CC8
100
AcDbEntity
  8
0
100
AcDbBlockEnd
  0
BLOCK
  5
2074
330
206A
100
AcDbEntity
  8
0
100
AcDbBlockBegin
  2
*D6
 70
     1
 10
0.0
 20
0.0
 30
0.0
  3
*D6
  1

  0
LINE
  5
2DA5
330
206A
100
AcDbEntity
  8
AM_5
 62
     3
100
AcDbLine
 10
-51.99999999999997
 20
-4.999992428858945
 30
0.0
 11
-51.99999999999995
 21
-12.49999342885892
 31
0.0
  0
LINE
  5
2DA6
330
206A
100
AcDbEntity
  8
AM_5
 62
     3
100
AcDbLine
 10
-2.000000000000013
 20
-4.650008388149483
 30
0.0
 11
-1.99999999999999
 21
-12.49999342885877
 31
0.0
  0
LINE
  5
2DA7
330
206A
100
AcDbEntity
  8
AM_5
 62
     3
100
AcDbLine
 10
-50.74999999999995
 20
-11.99999342885891
 30
0.0
 11
-3.249999999999992
 21
-11.99999342885877
 31
0.0
  0
INSERT
  5
2DA8
330
206A
100
AcDbEntity
  8
AM_5
 62
     3
100
AcDbBlockReference
  2
_OPEN30
 10
-51.99999999999995
 20
-11.99999342885892
 30
0.0
 41
1.25
 42
1.25
 43
1.25
 50
180.0000000000001
  0
INSERT
  5
2DA9
330
206A
100
AcDbEntity
  8
AM_5
 62
     3
100
AcDbBlockReference
  2
_OPEN30
 10
-1.999999999999992
 20
-11.99999342885877
 30
0.0
 41
1.25
 42
1.25
 43
1.25
 50
0.0000000000001527
  0
MTEXT
  5
2DAA
330
206A
100
AcDbEntity
  8
AM_5
 62
     2
100
AcDbMText
 10
-26.99999999999997
 20
-10.29999342885884
 30
0.0
 40
1.9
 41
0.0
 71
     5
 72
     1
  1
50
1001
ACAD
1000
MTEXTBEGIN
1070
    73
1070
     1
1070
    44
1040
1.0
1070
    74
1070
     0
1000
MTEXTEND
  0
POINT
  5
2DAB
330
206A
100
AcDbEntity
  8
DEFPOINTS
 62
     0
100
AcDbPoint
 10
-51.99999999999999
 20
-4.999992428858794
 30
0.0
  0
POINT
  5
2DAC
330
206A
100
AcDbEntity
  8
DEFPOINTS
 62
     0
100
AcDbPoint
 10
-2.000000000000026
 20
-4.650008388149477
 30
0.0
  0
POINT
  5
2DAD
330
206A
100
AcDbEntity
  8
DEFPOINTS
 62
     0
100
AcDbPoint
 10
-2.000000000000027
 20
-11.99999342885877
 30
0.0
  0
ENDBLK
  5
2075
330
206A
100
AcDbEntity
  8
0
100
AcDbBlockEnd
  0
BLOCK
  5
25A4
330
259A
100
AcDbEntity
  8
0
100
AcDbBlockBegin
  2
*D7
 70
     1
 10
0.0
 20
0.0
 30
0.0
  3
*D7
  1

  0
LINE
  5
2D91
330
259A
100
AcDbEntity
  8
AM_5
 62
     3
100
AcDbLine
 10
-107.4999999999999
 20
-4.999992428859319
 30
0.0
 11
-118.000001
 21
-4.999992428859349
 31
0.0
  0
LINE
  5
2D92
330
259A
100
AcDbEntity
  8
AM_5
 62
     3
100
AcDbLine
 10
-107.5
 20
5.000024525351108
 30
0.0
 11
-118.000001
 21
5.000024525351077
 31
0.0
  0
LINE
  5
2D93
330
259A
100
AcDbEntity
  8
AM_5
 62
     3
100
AcDbLine
 10
-117.500001
 20
-3.749992428859347
 30
0.0
 11
-117.500001
 21
3.750024525351079
 31
0.0
  0
INSERT
  5
2D94
330
259A
100
AcDbEntity
  8
AM_5
 62
     3
100
AcDbBlockReference
  2
_OPEN30
 10
-117.500001
 20
-4.999992428859347
 30
0.0
 41
1.25
 42
1.25
 43
1.25
 50
270.0000000000001
  0
INSERT
  5
2D95
330
259A
100
AcDbEntity
  8
AM_5
 62
     3
100
AcDbBlockReference
  2
_OPEN30
 10
-117.500001
 20
5.000024525351079
 30
0.0
 41
1.25
 42
1.25
 43
1.25
 50
90.00000000000015
  0
MTEXT
  5
2D96
330
259A
100
AcDbEntity
  8
AM_5
 62
     2
100
AcDbMText
 10
-119.200001
 20
0.0000107500552488
 30
0.0
 40
1.9
 41
0.0
 71
     5
 72
     1
  1
%%c10
 11
-0.0000000000000028
 21
1.0
 31
0.0
1001
ACAD
1000
MTEXTBEGIN
1070
    73
1070
     1
1070
    44
1040
1.0
1070
    74
1070
     0
1000
MTEXTEND
  0
POINT
  5
2D97
330
259A
100
AcDbEntity
  8
DEFPOINTS
 62
     0
100
AcDbPoint
 10
-107.4999999999999
 20
-4.999992428858985
 30
0.0
  0
POINT
  5
2D98
330
259A
100
AcDbEntity
  8
DEFPOINTS
 62
     0
100
AcDbPoint
 10
-107.5
 20
5.000024525351442
 30
0.0
  0
POINT
  5
2D99
330
259A
100
AcDbEntity
  8
DEFPOINTS
 62
     0
100
AcDbPoint
 10
-117.500001
 20
5.000024525351444
 30
0.0
  0
ENDBLK
  5
25A5
330
259A
100
AcDbEntity
  8
0
100
AcDbBlockEnd
  0
BLOCK
  5
29C9
330
29BB
100
AcDbEntity
  8
0
100
AcDbBlockBegin
  2
*D8
 70
     1
 10
0.0
 20
0.0
 30
0.0
  3
*D8
  1

  0
LINE
  5
2E05
330
29BB
100
AcDbEntity
  8
AM_5
100
AcDbLine
 10
0.1710100704080562
 20
-0.4698463108496678
 30
0.0
 11
4.867341367584939
 21
-13.37291061133782
 31
0.0
  0
LINE
  5
2E06
330
29BB
100
AcDbEntity
  8
AM_5
100
AcDbLine
 10
0.1710111111829698
 20
0.4698459320372547
 30
0.0
 11
4.867370990441536
 21
13.37289982946268
 31
0.0
  0
ARC
  5
2E07
330
29BB
100
AcDbEntity
  8
AM_5
100
AcDbCircle
 10
-0.0000000000000144
 20
-0.0000000000000106
 30
0.0
 40
13.73115421206008
100
AcDbArc
 50
295.217658650686
 51
64.78221443114371
  0
INSERT
  5
2E08
330
29BB
100
AcDbEntity
  8
AM_5
100
AcDbBlockReference
  2
_OPEN30
 10
4.69633129717687
 20
-12.90306430048817
 30
0.0
 41
1.25
 42
1.25
 43
1.25
 50
202.6088292488362
  0
INSERT
  5
2E09
330
29BB
100
AcDbEntity
  8
AM_5
100
AcDbBlockReference
  2
_OPEN30
 10
4.696359879258554
 20
12.90305389742542
 30
0.0
 41
1.25
 42
1.25
 43
1.25
 50
157.3910438329935
  0
MTEXT
  5
2E0A
330
29BB
100
AcDbEntity
  8
AM_5
 62
     2
100
AcDbMText
 10
12.18115421205259
 20
-0.0000134914806858
 30
0.0
 40
1.6
 41
0.0
 71
     5
 72
     1
  1
140°
  7
ASAMI
 11
0.0000011075699751
 21
0.9999999999993868
 31
0.0
  0
POINT
  5
2E0B
330
29BB
100
AcDbEntity
  8
DEFPOINTS
 62
     0
100
AcDbPoint
 10
12.60816294294829
 20
-5.438641668600757
 30
0.0
  0
POINT
  5
2E0C
330
29BB
100
AcDbEntity
  8
DEFPOINTS
 62
     0
100
AcDbPoint
 10
-0.0000000000000125
 20
-0.0000000000000054
 30
0.0
  0
POINT
  5
2E0D
330
29BB
100
AcDbEntity
  8
DEFPOINTS
 62
     0
100
AcDbPoint
 10
-0.0000000000000124
 20
-0.0000000000000162
 30
0.0
  0
POINT
  5
2E0E
330
29BB
100
AcDbEntity
  8
DEFPOINTS
 62
     0
100
AcDbPoint
 10
-0.5665999554321747
 20
1.556720596349264
 30
0.0
  0
POINT
  5
2E0F
330
29BB
100
AcDbEntity
  8
DEFPOINTS
 62
     0
100
AcDbPoint
 10
-0.5666112811907215
 20
-1.556740984093232
 30
0.0
  0
ENDBLK
  5
29CA
330
29BB
100
AcDbEntity
  8
0
100
AcDbBlockEnd
  0
BLOCK
  5
2C5F
330
2C55
100
AcDbEntity
  8
0
100
AcDbBlockBegin
  2
*D9
 70
     1
 10
0.0
 20
0.0
 30
0.0
  3
*D9
  1

  0
LINE
  5
2DAE
330
2C55
100
AcDbEntity
  8
AM_5
 62
     3
100
AcDbLine
 10
-2.000000000000002
 20
4.650000480808385
 30
0.0
 11
9.81990103107222
 21
4.650000480808418
 31
0.0
  0
LINE
  5
2DAF
330
2C55
100
AcDbEntity
  8
AM_5
 62
     3
100
AcDbLine
 10
-1.999999999999954
 20
-4.650008388362129
 30
0.0
 11
9.819901031072248
 21
-4.650008388362096
 31
0.0
  0
LINE
  5
2DB0
330
2C55
100
AcDbEntity
  8
AM_5
 62
     3
100
AcDbLine
 10
9.319901031072223
 20
3.400000480808416
 30
0.0
 11
9.319901031072244
 21
-3.400008388362098
 31
0.0
  0
INSERT
  5
2DB1
330
2C55
100
AcDbEntity
  8
AM_5
 62
     3
100
AcDbBlockReference
  2
_OPEN30
 10
9.31990103107222
 20
4.650000480808416
 30
0.0
 41
1.25
 42
1.25
 43
1.25
 50
90.00000000000017
  0
INSERT
  5
2DB2
330
2C55
100
AcDbEntity
  8
AM_5
 62
     3
100
AcDbBlockReference
  2
_OPEN30
 10
9.319901031072248
 20
-4.650008388362098
 30
0.0
 41
1.25
 42
1.25
 43
1.25
 50
270.0000000000001
  0
MTEXT
  5
2DB3
330
2C55
100
AcDbEntity
  8
AM_5
 62
     2
100
AcDbMText
 10
7.619901031072234
 20
-0.0000039537768459
 30
0.0
 40
1.9
 41
0.0
 71
     5
 72
     1
  1
%%c9.3
 11
-0.0000000000000028
 21
1.0
 31
0.0
1001
ACAD
1000
MTEXTBEGIN
1070
    73
1070
     1
1070
    44
1040
1.0
1070
    74
1070
     0
1000
MTEXTEND
  0
POINT
  5
2DB4
330
2C55
100
AcDbEntity
  8
DEFPOINTS
 62
     0
100
AcDbPoint
 10
-1.999999999999987
 20
4.65000048080839
 30
0.0
  0
POINT
  5
2DB5
330
2C55
100
AcDbEntity
  8
DEFPOINTS
 62
     0
100
AcDbPoint
 10
-1.999999999999968
 20
-4.650008388362124
 30
0.0
  0
POINT
  5
2DB6
330
2C55
100
AcDbEntity
  8
DEFPOINTS
 62
     0
100
AcDbPoint
 10
9.319901031072232
 20
-4.650008388362127
 30
0.0
  0
ENDBLK
  5
2C60
330
2C55
100
AcDbEntity
  8
0
100
AcDbBlockEnd
  0
ENDSEC
  0
SECTION
  2
ENTITIES
  0
LINE
  5
C1D
330
1F
100
AcDbEntity
  8
AM_0
 48
0.5
100
AcDbLine
 10
-0.0000000000000124
 20
-0.0000000000000162
 30
0.0
 11
-0.5665999554321747
 21
1.556720596349264
 31
0.0
  0
LINE
  5
C20
330
1F
100
AcDbEntity
  8
AM_0
 48
0.5
100
AcDbLine
 10
-0.0000000000000125
 20
-0.0000000000000054
 30
0.0
 11
-0.5666112811907215
 21
-1.556740984093232
 31
0.0
  0
DIMENSION
  5
CC6
330
1F
100
AcDbEntity
  8
AM_5
100
AcDbDimension
  2
*D5
 10
-2.000000000000027
 20
-16.9999934288588
 30
0.0
 11
-55.00000000000001
 21
-15.2999934288588
 31
0.0
 70
    32
  1
<>
  3
AM_JIS$0
100
AcDbAlignedDimension
 13
-108.0
 23
-4.499992428858987
 33
0.0
 14
-2.000000000000026
 24
-4.650008388149477
 34
0.0
 50
0.0000000000001132
100
AcDbRotatedDimension
1001
GENIUS_GENDTOL_13
1000

1000
h7
1000

1040
0.0
1001
ACAD
1000
DSTYLE
1002
{
1070
   271
1070
     0
1002
}
  0
TEXT
  5
19BD
330
1F
100
AcDbEntity
  8
AM_6
100
AcDbText
 10
-66.24999999999997
 20
-28.25000402524006
 30
0.0
 40
2.5
  1
MDW093MHK
 50
0.0000000000001527
 72
     4
 11
-54.99999999999996
 21
-27.00000402524003
 31
0.0
100
AcDbText
  0
DIMENSION
  5
2069
330
1F
100
AcDbEntity
  8
AM_5
100
AcDbDimension
  2
*D6
 10
-2.000000000000027
 20
-11.99999342885877
 30
0.0
 11
-27.00000000000001
 21
-10.29999342885877
 31
0.0
 70
    32
  1
<>
 51
359.9999999999998
  3
AM_JIS$0
100
AcDbAlignedDimension
 13
-51.99999999999999
 23
-4.999992428858794
 33
0.0
 14
-2.000000000000026
 24
-4.650008388149477
 34
0.0
 50
0.0000000000001527
100
AcDbRotatedDimension
1001
ACAD
1000
DSTYLE
1002
{
1070
   271
1070
     0
1070
   174
1070
     1
1002
}
1001
GENIUS_GENDTOL_13
1000

1000
h7
1000

1040
0.0
  0
LINE
  5
23EF
330
1F
100
AcDbEntity
  8
AM_7
100
AcDbLine
 10
-110.4999999999999
 20
0.0000000000007026
 30
0.0
 11
2.319900031072532
 21
-0.000000000000022
 31
0.0
1001
GENIUS_GENODEF_13
1002
{
1000
HIER
1070
     0
1002
}
1002
{
1000
MANEDIT
1070
     0
1002
}
1002
{
1000
NOSEL
1070
     0
1002
}
1002
{
1000
BEHIND
1070
     0
1002
}
1002
{
1000
REACTOR
1002
}
1001
GENIUS_GENOBJ-N-CEN_13
1002
{
1000
OWNER
1000
GEN
1002
}
  0
LINE
  5
24A7
330
1F
100
AcDbEntity
  8
AM_0
 48
0.5
100
AcDbLine
 10
-1.584795172291398
 20
4.170854053486484
 30
0.0
 11
-1.999999999999987
 21
4.65000048080839
 31
0.0
  0
ELLIPSE
  5
24B7
330
1F
100
AcDbEntity
  8
AM_11
 48
0.5
100
AcDbEllipse
 10
-17.32962994420975
 20
20.09720314218302
 30
0.0
 11
-23.19725211461353
 21
0.0000000000001765
 31
0.0
210
0.0
220
0.0
230
1.0
 40
0.9578947368421058
 41
1.130070686340284
 42
2.011520147323574
  0
ELLIPSE
  5
24B8
330
1F
100
AcDbEntity
  8
AM_11
 48
0.5
100
AcDbEllipse
 10
-17.32962994421085
 20
-20.09718855347518
 30
0.0
 11
-23.1972521146135
 21
0.0000000000001044
 31
0.0
210
0.0
220
0.0
230
1.0
 40
0.9578947368421054
 41
4.271664206181664
 42
5.153113667164971
  0
ELLIPSE
  5
24B9
330
1F
100
AcDbEntity
  8
AM_11
 48
0.5
100
AcDbEllipse
 10
2.462036722456935
 20
20.0972031421825
 30
0.0
 11
-23.19725211461348
 21
0.0000000000018145
 31
0.0
210
0.0
220
0.0
230
1.0
 40
0.9578947368421141
 41
1.130070686340349
 42
1.291800737381041
  0
ELLIPSE
  5
24BE
330
1F
100
AcDbEntity
  8
AM_0
 48
0.5
100
AcDbEllipse
 10
6.650934204183219
 20
5.625174833922273
 30
0.0
 11
-8.374499956766587
 21
0.0000000000003389
 31
0.0
210
0.0
220
0.0
230
1.0
 40
0.9578947368421003
 41
0.1823039054871158
 42
0.5318968824397438
  0
ELLIPSE
  5
24C7
330
1F
100
AcDbEntity
  8
AM_11
 48
0.5
100
AcDbEllipse
 10
-76.70462994420418
 20
20.09720314218454
 30
0.0
 11
-23.19725211461353
 21
0.0000000000005165
 31
0.0
210
0.0
220
0.0
230
1.0
 40
0.9578947368421058
 41
1.130070686340301
 42
2.011520147323591
  0
ELLIPSE
  5
24C8
330
1F
100
AcDbEntity
  8
AM_11
 48
0.5
100
AcDbEllipse
 10
-76.70462994420532
 20
-20.09718855347366
 30
0.0
 11
23.1972521146135
 21
0.0000000000003877
 31
0.0
210
0.0
220
0.0
230
1.0
 40
0.957894736842107
 41
1.13007155259185
 42
2.011521013575156
  0
ELLIPSE
  5
24C9
330
1F
100
AcDbEntity
  8
AM_11
 48
0.5
100
AcDbEllipse
 10
-96.49629661087184
 20
-20.0971885534732
 30
0.0
 11
-23.19725211461353
 21
0.0000000000000787
 31
0.0
210
0.0
220
0.0
230
1.0
 40
0.9578947368421061
 41
4.271664206181663
 42
5.153113667164971
  0
ELLIPSE
  5
24CA
330
1F
100
AcDbEntity
  8
AM_11
 48
0.5
100
AcDbEllipse
 10
-96.4962966108707
 20
20.09720314218499
 30
0.0
 11
-23.19725211461357
 21
0.0000000000000117
 31
0.0
210
0.0
220
0.0
230
1.0
 40
0.9578947368421045
 41
1.130070686340277
 42
2.011520147323567
  0
ELLIPSE
  5
24D4
330
1F
100
AcDbEntity
  8
AM_11
 48
0.5
100
AcDbEllipse
 10
-56.91296327753753
 20
20.09720314218405
 30
0.0
 11
-23.19725211461356
 21
0.0000000000001353
 31
0.0
210
0.0
220
0.0
230
1.0
 40
0.9578947368421049
 41
1.130070686340283
 42
2.011520147323574
  0
ELLIPSE
  5
24D5
330
1F
100
AcDbEntity
  8
AM_11
 48
0.5
100
AcDbEllipse
 10
-56.91296327753864
 20
-20.09718855347415
 30
0.0
 11
-23.19725211461346
 21
0.0000000000004186
 31
0.0
210
0.0
220
0.0
230
1.0
 40
0.9578947368421083
 41
4.271664206181676
 42
5.153113667164986
  0
ELLIPSE
  5
24E6
330
1F
100
AcDbEntity
  8
AM_11
 48
0.5
100
AcDbEllipse
 10
-37.12129661087752
 20
-20.09718855347467
 30
0.0
 11
-23.19725211461349
 21
0.0000000000006298
 31
0.0
210
0.0
220
0.0
230
1.0
 40
0.957894736842106
 41
4.271664206181685
 42
5.153113667164993
  0
ELLIPSE
  5
24E7
330
1F
100
AcDbEntity
  8
AM_11
 48
0.5
100
AcDbEllipse
 10
-37.12129661087641
 20
20.09720314218353
 30
0.0
 11
23.19725211461354
 21
0.0000000000000375
 31
0.0
210
0.0
220
0.0
230
1.0
 40
0.9578947368421051
 41
4.271663339930067
 42
5.153112800913361
  0
LINE
  5
2567
330
1F
100
AcDbEntity
  8
AM_0
 48
0.5
100
AcDbLine
 10
-108.0
 20
-4.499992428858987
 30
0.0
 11
-108.0
 21
4.500011279874348
 31
0.0
  0
LINE
  5
2568
330
1F
100
AcDbEntity
  8
AM_0
 48
0.5
100
AcDbLine
 10
-107.4999999999999
 20
-4.999992428859012
 30
0.0
 11
-107.5
 21
5.00001127987435
 31
0.0
  0
LINE
  5
2569
330
1F
100
AcDbEntity
  8
AM_0
 48
0.5
100
AcDbLine
 10
-51.99999999999999
 20
-4.999992428858794
 30
0.0
 11
-52.00000000000001
 21
5.000024525351633
 31
0.0
  0
LINE
  5
256C
330
1F
100
AcDbEntity
  8
AM_0
100
AcDbLine
 10
-107.4999999999999
 20
-4.999992428858985
 30
0.0
 11
-51.99999999999999
 21
-4.999992428858778
 31
0.0
  0
LINE
  5
256E
330
1F
100
AcDbEntity
  8
AM_0
 48
0.5
100
AcDbLine
 10
-51.39382200551556
 20
-4.65000884168543
 30
0.0
 11
-52.00001059638124
 21
-4.999992428858794
 31
0.0
  0
LINE
  5
256F
330
1F
100
AcDbEntity
  8
AM_0
100
AcDbLine
 10
-52.00000000000002
 20
5.000011279874554
 30
0.0
 11
-107.5
 21
5.00001127987435
 31
0.0
  0
LINE
  5
2571
330
1F
100
AcDbEntity
  8
AM_0
 48
0.5
100
AcDbLine
 10
-51.39474170920539
 20
4.649997391642819
 30
0.0
 11
-52.00000000000002
 21
4.999443697290721
 31
0.0
  0
LINE
  5
2572
330
1F
100
AcDbEntity
  8
AM_0
100
AcDbLine
 10
-51.39474170920538
 20
4.649997391642808
 30
0.0
 11
-51.39474170920538
 21
-4.650539833527497
 31
0.0
  0
DIMENSION
  5
2599
330
1F
100
AcDbEntity
  8
AM_5
100
AcDbDimension
  2
*D7
 10
-117.500001
 20
5.000024525351444
 30
0.0
 11
-117.500001
 21
0.0000107500555954
 31
0.0
 70
   160
  1
%%c<>
 51
359.9999999999998
  3
AM_JIS$0
100
AcDbAlignedDimension
 13
-107.4999999999999
 23
-4.999992428858985
 33
0.0
 14
-107.5
 24
5.000024525351442
 34
0.0
 50
270.0000000000002
100
AcDbRotatedDimension
1001
ACAD
1000
DSTYLE
1002
{
1070
   271
1070
     0
1002
}
1001
GENIUS_GENDTOL_13
1000

1000
h7
1000

1040
0.0
  0
ELLIPSE
  5
278C
330
1F
100
AcDbEntity
  8
AM_11
 48
0.5
100
AcDbEllipse
 10
-116.287959372568
 20
-20.09716981670651
 30
0.0
 11
-23.19725211461353
 21
0.0000000000000787
 31
0.0
210
0.0
220
0.0
230
1.0
 40
0.9578947368421061
 41
4.271664206181663
 42
4.347032845605132
  0
ELLIPSE
  5
278D
330
1F
100
AcDbEntity
  8
AM_11
 48
0.5
100
AcDbEllipse
 10
-116.2879593725669
 20
20.09722187895168
 30
0.0
 11
-23.19725211461357
 21
0.0000000000000117
 31
0.0
210
0.0
220
0.0
230
1.0
 40
0.9578947368421045
 41
1.936152461574404
 42
2.011520147323567
  0
LINE
  5
279A
330
1F
100
AcDbEntity
  8
AM_0
 48
0.5
100
AcDbLine
 10
-107.4999999999999
 20
-4.999992428858985
 30
0.0
 11
-108.0
 21
-4.499992428858987
 31
0.0
1001
GENIUS_GENFIL_13
1070
     0
1040
0.5
1040
0.5
1040
20.0
1040
0.0
1002
{
1002
}
1001
GENIUS_GENODEF_13
1002
{
1000
HIER
1070
     0
1002
}
1002
{
1000
MANEDIT
1070
     0
1002
}
1002
{
1000
NOSEL
1070
     0
1002
}
1002
{
1000
BEHIND
1070
     0
1002
}
1002
{
1000
REACTOR
1002
}
1001
GENIUS_GENOBJ-N-CHA_13
1002
{
1000
OWNER
1000
GEN
1002
}
  0
LINE
  5
279D
330
1F
100
AcDbEntity
  8
AM_0
 48
0.5
100
AcDbLine
 10
-107.5
 20
5.00001127987435
 30
0.0
 11
-108.0
 21
4.500011279874348
 31
0.0
1001
GENIUS_GENFIL_13
1070
     0
1040
0.5
1040
0.5
1040
20.0
1040
0.0
1002
{
1002
}
1001
GENIUS_GENODEF_13
1002
{
1000
HIER
1070
     0
1002
}
1002
{
1000
MANEDIT
1070
     0
1002
}
1002
{
1000
NOSEL
1070
     0
1002
}
1002
{
1000
BEHIND
1070
     0
1002
}
1002
{
1000
REACTOR
1002
}
1001
GENIUS_GENOBJ-N-CHA_13
1002
{
1000
OWNER
1000
GEN
1002
}
  0
DIMENSION
  5
29BA
330
1F
100
AcDbEntity
  8
AM_5
100
AcDbDimension
  2
*D8
 10
-0.5666112811907215
 20
-1.556740984093232
 30
0.0
 11
12.18115421205259
 21
-0.0000134914807219
 31
0.0
 70
    34
  1
<>
 51
359.9999999999998
  3
AM_JIS$2
100
AcDb2LineAngularDimension
 13
-0.0000000000000124
 23
-0.0000000000000162
 33
0.0
 14
-0.5665999554321747
 24
1.556720596349264
 34
0.0
 15
-0.0000000000000125
 25
-0.0000000000000054
 35
0.0
 16
12.60816294294829
 26
-5.438641668600757
 36
0.0
1001
GENIUS_GENDTOL_13
1000

1000
h7
1000

1040
0.0
1001
ACAD
1000
DSTYLE
1002
{
1070
   271
1070
     1
1070
   179
1070
     1
1002
}
  0
LINE
  5
2C01
330
1F
100
AcDbEntity
  8
AM_0
 48
0.5
100
AcDbLine
 10
-39.08424886067707
 20
2.330500666300759
 30
0.0
 11
-49.50000000000001
 21
-0.3722578684480704
 31
0.0
  0
ELLIPSE
  5
2C43
330
1F
100
AcDbEntity
  8
AM_0
 48
0.5
100
AcDbEllipse
 10
6.650934204183191
 20
-5.625174833922338
 30
0.0
 11
-8.374499956766587
 21
-0.0000000000002981
 31
0.0
210
0.0
220
0.0
230
-1.0
 40
0.9578947368421003
 41
0.1823039054871158
 42
0.5318968824397438
  0
LINE
  5
2C44
330
1F
100
AcDbEntity
  8
AM_0
 48
0.5
100
AcDbLine
 10
-1.584795172291419
 20
-4.170854053486509
 30
0.0
 11
-2.000000000000041
 21
-4.650008388147161
 31
0.0
  0
DIMENSION
  5
2C54
330
1F
100
AcDbEntity
  8
AM_5
100
AcDbDimension
  2
*D9
 10
9.319901031072232
 20
-4.650008388362127
 30
0.0
 11
7.619901031072234
 21
-0.000003953776868
 31
0.0
 70
    32
  1
%%c<>
 51
359.9999999999998
  3
AM_JIS$0
100
AcDbAlignedDimension
 13
-1.999999999999987
 23
4.65000048080839
 33
0.0
 14
-1.999999999999968
 24
-4.650008388362124
 34
0.0
 50
89.9999999999982
100
AcDbRotatedDimension
1001
ACAD
1000
DSTYLE
1002
{
1070
   271
1070
     1
1002
}
1001
GENIUS_GENDTOL_13
1000

1000
h7
1000

1040
0.0
  0
LINE
  5
2D31
330
1F
100
AcDbEntity
  8
AM_0
 48
0.5
100
AcDbLine
 10
-51.39382200551555
 20
-4.65000884168543
 30
0.0
 11
-47.86062356561784
 21
-4.649999594419741
 31
0.0
  0
SPLINE
  5
2D32
330
1F
100
AcDbEntity
  8
AM_0
 48
0.5
100
AcDbSpline
210
0.0
220
0.0
230
1.0
 70
     8
 71
     3
 72
    26
 73
    22
 74
     0
 42
0.0000000001
 43
0.0000000001
 40
0.0
 40
0.0
 40
0.0
 40
0.0
 40
0.8422864037471089
 40
1.685694647057321
 40
2.531315797913884
 40
3.380177287502886
 40
4.233214169721234
 40
5.09125020057522
 40
5.954967768899448
 40
6.824900391836836
 40
7.701419186604396
 40
8.584724417931369
 40
9.47485577056355
 40
10.37165251267315
 40
11.27486274211709
 40
12.18400675634887
 40
13.09851504074504
 40
14.01768673654235
 40
14.94071745659532
 40
15.8667176994736
 40
16.76607142455336
 40
16.76607142455336
 40
16.76607142455336
 40
16.76607142455336
 10
-34.32396888732945
 20
-4.650236511229855
 30
0.0
 10
-34.59070767718974
 20
-4.647469874003551
 30
0.0
 10
-35.12454052576677
 20
-4.641932914672381
 30
0.0
 10
-35.9250955261042
 20
-4.597298802688387
 30
0.0
 10
-36.72561635609095
 20
-4.526342234164544
 30
0.0
 10
-37.52608763293508
 20
-4.426893868998223
 30
0.0
 10
-38.32650141090428
 20
-4.300301579560178
 30
0.0
 10
-39.12684174265115
 20
-4.147127712278314
 30
0.0
 10
-39.92710809574487
 20
-3.968407169231831
 30
0.0
 10
-40.72729501238656
 20
-3.765225408988326
 30
0.0
 10
-41.52740060085688
 20
-3.538843140422217
 30
0.0
 10
-42.32743144605469
 20
-3.290669385602836
 30
0.0
 10
-43.12738423291344
 20
-3.022236537471317
 30
0.0
 10
-43.92726802512351
 20
-2.735191229682401
 30
0.0
 10
-44.72709351768236
 20
-2.431332055060901
 30
0.0
 10
-45.52686243871256
 20
-2.112502301665616
 30
0.0
 10
-46.32658075007111
 20
-1.780682785773008
 30
0.0
 10
-47.12626313764381
 20
-1.437920762155818
 30
0.0
 10
-47.9258963857915
 20
-1.086280484766978
 30
0.0
 10
-48.71731566318115
 20
-0.7317913213539611
 30
0.0
 10
-49.24166071074195
 20
-0.4936430147778145
 30
0.0
 10
-49.50000603993773
 20
-0.3763071060169032
 30
0.0
  0
ELLIPSE
  5
2D33
330
1F
100
AcDbEntity
  8
AM_0
 48
0.5
100
AcDbEllipse
 10
-47.91676680352923
 20
-3.100236511229444
 30
0.0
 11
-1.372649504666774
 21
0.8342483455484424
 31
0.0
210
0.0
220
0.0
230
1.0
 40
0.9515394001278707
 41
0.5796510127610901
 42
2.131267321211447
  0
ELLIPSE
  5
2D34
330
1F
100
AcDbEntity
  8
AM_0
 48
0.5
100
AcDbEllipse
 10
-48.31289005385436
 20
-3.147461891173215
 30
0.0
 11
1.166921828222033
 21
0.2254752983896199
 31
0.0
210
0.0
220
0.0
230
1.0
 40
0.9817626341140487
 41
1.093499506830338
 42
2.921745689092144
  0
LINE
  5
2D35
330
1F
100
AcDbEntity
  8
AM_0
 48
0.5
100
AcDbLine
 10
-46.09764082594473
 20
4.65009187004098
 30
0.0
 11
-51.39474170920539
 21
4.649997391642819
 31
0.0
  0
LINE
  5
2D36
330
1F
100
AcDbEntity
  8
AM_0
 48
0.5
100
AcDbLine
 10
-4.472379094804393
 20
4.650000480808476
 30
0.0
 11
-1.999999999999987
 21
4.65000048080839
 31
0.0
  0
LINE
  5
2D37
330
1F
100
AcDbEntity
  8
AM_0
 48
0.5
100
AcDbLine
 10
-0.0000000000000268
 20
-0.0000000000000054
 30
0.0
 11
-2.334417835153642
 21
1.785459236301242
 31
0.0
  0
LINE
  5
2D38
330
1F
100
AcDbEntity
  8
AM_0
 48
0.5
100
AcDbLine
 10
-4.472379094804693
 20
-4.649999519191526
 30
0.0
 11
-2.000000000000036
 21
-4.650008388362124
 31
0.0
  0
LINE
  5
2D39
330
1F
100
AcDbEntity
  8
AM_0
 48
0.5
100
AcDbLine
 10
-36.47392404719646
 20
4.650000480809496
 30
0.0
 11
-19.55277383967712
 21
4.650000480808953
 31
0.0
  0
LINE
  5
2D3A
330
1F
100
AcDbEntity
  8
AM_0
 48
0.5
100
AcDbLine
 10
-32.97197925205219
 20
-4.649999519190717
 30
0.0
 11
-19.55276882917988
 21
-4.650008388362112
 31
0.0
  0
LINE
  5
2D3B
330
1F
100
AcDbEntity
  8
AM_11
 48
0.5
100
AcDbLine
 10
-46.09764082594472
 20
4.65066109769855
 30
0.0
 11
-36.47391105854116
 21
4.650000480809496
 31
0.0
  0
LINE
  5
2D3C
330
1F
100
AcDbEntity
  8
AM_11
 48
0.5
100
AcDbLine
 10
-47.68146292999633
 20
-4.650236511229428
 30
0.0
 11
-36.47340489064843
 21
-4.650236511229787
 31
0.0
  0
LINE
  5
2D3D
330
1F
100
AcDbEntity
  8
AM_11
 48
0.5
100
AcDbLine
 10
-47.87664436696973
 20
-4.650007217262032
 30
0.0
 11
-32.97197925205219
 21
-4.650660136079451
 31
0.0
  0
LINE
  5
2D3E
330
1F
100
AcDbEntity
  8
AM_11
 48
0.5
100
AcDbLine
 10
-19.55277383967712
 20
4.650000480808953
 30
0.0
 11
-4.472379094804393
 21
4.650000480808476
 31
0.0
  0
LINE
  5
2D3F
330
1F
100
AcDbEntity
  8
AM_11
 48
0.5
100
AcDbLine
 10
-19.55276882917988
 20
-4.650008388362112
 30
0.0
 11
-4.472379094804693
 21
-4.649999519191526
 31
0.0
  0
SPLINE
  5
2D40
330
1F
100
AcDbEntity
  8
AM_0
 48
0.5
100
AcDbSpline
210
0.0
220
0.0
230
1.0
 70
     8
 71
     3
 72
    17
 73
    13
 74
     0
 42
0.0000000001
 43
0.0000000001
 40
0.0
 40
0.0
 40
0.0
 40
0.0
 40
1.010743614677189
 40
2.022833924044153
 40
3.037578959561199
 40
4.056212747067873
 40
5.079857613375832
 40
6.109500119648989
 40
7.14596120163808
 40
8.18989512056258
 40
9.241717674284874
 40
9.693948937866434
 40
9.693948937866434
 40
9.693948937866434
 40
9.693948937866434
 10
-4.472379094804393
 20
4.650000480808476
 30
0.0
 10
-4.73911793317587
 20
4.647235837235019
 30
0.0
 10
-5.272951007442006
 20
4.641702866532039
 30
0.0
 10
-6.073505333831167
 20
4.597056542663702
 30
0.0
 10
-6.8740267018634
 20
4.52610747742561
 30
0.0
 10
-7.674498284279212
 20
4.426658943089952
 30
0.0
 10
-8.474910547693971
 20
4.300059690052438
 30
0.0
 10
-9.27525371586311
 20
4.146896677758157
 30
0.0
 10
-10.07551704683619
 20
3.968155867170046
 30
0.0
 10
-10.87573159404282
 20
3.765040587457912
 30
0.0
 10
-11.52168564316455
 20
3.582064423656476
 30
0.0
 10
-11.90102773379219
 20
3.467678008156878
 30
0.0
 10
-12.01488587744385
 20
3.432665092108728
 30
0.0
  0
SPLINE
  5
2D41
330
1F
100
AcDbEntity
  8
AM_0
 48
0.5
100
AcDbSpline
210
0.0
220
0.0
230
1.0
 70
     8
 71
     3
 72
    16
 73
    12
 74
     0
 42
0.0000000001
 43
0.0000000001
 40
0.0
 40
0.0
 40
0.0
 40
0.0
 40
1.010743614677189
 40
2.022833924044153
 40
3.037578959561199
 40
4.056212747067873
 40
5.079857613375832
 40
6.109500119648989
 40
7.14596120163808
 40
8.18989512056258
 40
8.545190612624931
 40
8.545190612624931
 40
8.545190612624931
 40
8.545190612624931
 10
-4.472379094804393
 20
4.650000480808476
 30
0.0
 10
-4.739103104233072
 20
4.649972538264401
 30
0.0
 10
-5.272957900378218
 20
4.640431145154665
 30
0.0
 10
-6.073503474139769
 20
4.597398420837476
 30
0.0
 10
-6.874027227342704
 20
4.526015462967882
 30
0.0
 10
-7.674498050176737
 20
4.426683513553371
 30
0.0
 10
-8.47491095823101
 20
4.300054008936295
 30
0.0
 10
-9.275252296827497
 20
4.146894607904299
 30
0.0
 10
-10.07552236252718
 20
3.968170025993958
 30
0.0
 10
-10.69776942994675
 20
3.810168625671422
 30
0.0
 10
-11.05343313125425
 20
3.71299385237424
 30
0.0
 10
-11.14362745956196
 20
3.687917196830148
 30
0.0
  0
SPLINE
  5
2D42
330
1F
100
AcDbEntity
  8
AM_0
 48
0.5
100
AcDbSpline
210
0.0
220
0.0
230
1.0
 70
     8
 71
     3
 72
    25
 73
    21
 74
     0
 42
0.0000000001
 43
0.0000000001
 40
6.846175049578289
 40
6.846175049578289
 40
6.846175049578289
 40
6.846175049578289
 40
7.604337694224321
 40
8.711974558287883
 40
9.814980593243754
 40
10.91239053451967
 40
12.0033633515982
 40
13.08720139956839
 40
14.16337181880432
 40
15.23152222380919
 40
16.29148850140128
 40
17.34331105512262
 40
18.38723020264746
 40
19.42369128463655
 40
20.45333379090873
 40
21.47697865721768
 40
22.49561244472435
 40
23.5103574802404
 40
24.52244778960836
 40
25.53320666051913
 40
25.53320666051913
 40
25.53320666051913
 40
25.53320666051913
 10
-5.406027720893399
 20
0.8416809236649005
 30
0.0
 10
-5.587886413192153
 20
0.9233266536703526
 30
0.0
 10
-6.035814087682431
 20
1.123435613110906
 30
0.0
 10
-6.750476412522576
 20
1.43767871520521
 30
0.0
 10
-7.550155224979878
 20
1.78044822871598
 30
0.0
 10
-8.34987425380403
 20
2.112266350568236
 30
0.0
 10
-9.14964037007188
 20
2.431092876346095
 30
0.0
 10
-9.949462485151675
 20
2.734960806369101
 30
0.0
 10
-10.74934799488565
 20
3.021996217465171
 30
0.0
 10
-11.54930060232248
 20
3.290435069274011
 30
0.0
 10
-12.34933016082607
 20
3.538606781091263
 30
0.0
 10
-13.14943558706093
 20
3.764989554655889
 30
0.0
 10
-13.94962262801645
 20
3.968170763831124
 30
0.0
 10
-14.74988845979574
 20
4.146892951791749
 30
0.0
 10
-15.55022995615603
 20
4.3000606793953
 30
0.0
 10
-16.35064266357305
 20
4.426658679898312
 30
0.0
 10
-17.15111412794646
 20
4.526107548097797
 30
0.0
 10
-17.95163552726834
 20
4.597056521626055
 30
0.0
 10
-18.75219386666413
 20
4.641703104523901
 30
0.0
 10
-19.286030972457
 20
4.647235902609046
 30
0.0
 10
-19.55277383967712
 20
4.650000480808953
 30
0.0
  0
SPLINE
  5
2D43
330
1F
100
AcDbEntity
  8
AM_0
100
AcDbSpline
210
0.0
220
0.0
230
1.0
 70
     8
 71
     3
 72
    22
 73
    18
 74
     0
 42
0.0000000001
 43
0.0000000001
 40
17.17441611292
 40
17.17441611292
 40
17.17441611292
 40
17.17441611292
 40
17.38177636558528
 40
18.41823744757437
 40
19.46215659509824
 40
20.51397914882054
 40
21.57394542641293
 40
22.64209583141747
 40
23.71826625065247
 40
24.80210429862395
 40
25.8930771157021
 40
26.99048705697709
 40
28.09349309193389
 40
29.20112995599786
 40
30.31233024745139
 40
31.42594771747373
 40
32.5407895042663
 40
32.54078950426994
 40
32.54078950426994
 40
32.54078950426994
 10
-22.60831493201119
 20
-4.175733174259074
 30
0.0
 10
-22.66192123499575
 20
-4.164968880339304
 30
0.0
 10
-22.98326174528096
 20
-4.099402389507647
 30
0.0
 10
-23.5719394526578
 20
-3.967933041721396
 30
0.0
 10
-24.37212643275397
 20
-3.764752149346986
 30
0.0
 10
-25.17223187547655
 20
-3.538369289930694
 30
0.0
 10
-25.97226142952509
 20
-3.290197601413328
 30
0.0
 10
-26.77221403811622
 20
-3.021758743171951
 30
0.0
 10
-27.57209954773895
 20
-2.734723334265546
 30
0.0
 10
-28.37192166208803
 20
-2.430855401963402
 30
0.0
 10
-29.17168778141992
 20
-2.112028883153992
 30
0.0
 10
-29.9714067986268
 20
-1.780210735510289
 30
0.0
 10
-30.7710856547873
 20
-1.437441318856576
 30
0.0
 10
-31.5707323999619
 20
-1.085829408565181
 30
0.0
 10
-32.37035412232306
 20
-0.727537019882605
 30
0.0
 10
-33.16996266757122
 20
-0.3647750105069158
 30
0.0
 10
-33.70293039534885
 20
-0.1214782257723546
 30
0.0
 10
-33.9695606693096
 20
0.000236992040477
 30
0.0
  0
SPLINE
  5
2D44
330
1F
100
AcDbEntity
  8
AM_0
100
AcDbSpline
210
0.0
220
0.0
230
1.0
 70
     8
 71
     3
 72
    46
 73
    42
 74
     0
 42
0.0000000001
 43
0.0000000001
 40
0.0
 40
0.0
 40
0.0
 40
0.0
 40
1.685415058684571
 40
2.531036209541119
 40
3.379897699130121
 40
4.232934581347655
 40
5.090970612202441
 40
5.954688180526682
 40
6.824620803463246
 40
7.701151815239689
 40
8.584457046566678
 40
9.474582384070741
 40
10.37139106676737
 40
11.27458944007583
 40
12.18373345430765
 40
13.09824173870457
 40
14.01741343450111
 40
14.9404441545541
 40
15.86644439743314
 40
16.79446029130534
 40
17.7234937712985
 40
18.65252725129241
 40
19.58054314516461
 40
20.50654338804289
 40
21.42957410809586
 40
22.34874580389317
 40
23.26325408828901
 40
24.17239810252111
 40
25.07560240389441
 40
25.97241108659103
 40
26.8625364240951
 40
27.74584165542183
 40
28.62236045019041
 40
29.49229307312697
 40
30.35601064145121
 40
31.21404606334468
 40
32.06708345193547
 40
32.91595755657689
 40
33.76157841950693
 40
34.60498701064689
 40
35.44727335621125
 40
35.44727335621125
 40
35.44727335621125
 40
35.44727335621125
 10
-2.231369064693812
 20
-4.649999519191604
 30
0.0
 10
-2.765227995428608
 20
-4.63940645974233
 30
0.0
 10
-3.566939287560566
 20
-4.623498558066854
 30
0.0
 10
-4.633009753924426
 20
-4.525556529888082
 30
0.0
 10
-5.433489637923301
 20
-4.426804911749453
 30
0.0
 10
-6.233901099947866
 20
-4.30002460859031
 30
0.0
 10
-7.034242031440258
 20
-4.146901464022716
 30
0.0
 10
-7.83450832089216
 20
-3.968167537126477
 30
0.0
 10
-8.634698627977778
 20
-3.764987165975693
 30
0.0
 10
-9.434809391567604
 20
-3.538607908126377
 30
0.0
 10
-10.23484221089117
 20
-3.290433851686986
 30
0.0
 10
-11.03479493410345
 20
-3.02199532503069
 30
0.0
 10
-11.83468041287292
 20
-2.734959826708939
 30
0.0
 10
-12.63450253480294
 20
-2.431091916986073
 30
0.0
 10
-13.43426865500382
 20
-2.11226539823587
 30
0.0
 10
-14.23398766098134
 20
-1.780447227350729
 30
0.0
 10
-15.03366656151332
 20
-1.4376779042997
 30
0.0
 10
-15.83331313949315
 20
-1.086065640853439
 30
0.0
 10
-16.63293587345411
 20
-0.727774404462928
 30
0.0
 10
-17.43254206800207
 20
-0.3650074343753072
 30
0.0
 10
-18.23214154091921
 20
0.0000004807350566
 30
0.0
 10
-19.03174101366067
 20
0.3650083962889791
 30
0.0
 10
-19.83134720873553
 20
0.7277753650465733
 30
0.0
 10
-20.63096994077061
 20
1.086066606297739
 30
0.0
 10
-21.43061652589174
 20
1.437678851717602
 30
0.0
 10
-22.23029539994445
 20
1.780448241608685
 30
0.0
 10
-23.03001450398375
 20
2.112266164961594
 30
0.0
 10
-23.82978200011289
 20
2.431094292451076
 30
0.0
 10
-24.62960722976581
 20
2.734959441379944
 30
0.0
 10
-25.42949413540841
 20
3.021996411521433
 30
0.0
 10
-26.2294468399955
 20
3.290435018052475
 30
0.0
 10
-27.02947637287513
 20
3.538606793984373
 30
0.0
 10
-27.82958180549147
 20
3.764989553729044
 30
0.0
 10
-28.62976884625394
 20
3.968170754893879
 30
0.0
 10
-29.43003467255374
 20
4.146892988078283
 30
0.0
 10
-30.23037619080713
 20
4.300060544391786
 30
0.0
 10
-31.0307927611194
 20
4.426659803652356
 30
0.0
 10
-31.83126852044837
 20
4.526106614786084
 30
0.0
 10
-32.63179380482299
 20
4.597056678046782
 30
0.0
 10
-33.43234814766999
 20
4.641702832776786
 30
0.0
 10
-33.96618121974618
 20
4.64723582598891
 30
0.0
 10
-34.23292005702331
 20
4.650000480809424
 30
0.0
  0
SPLINE
  5
2D45
330
1F
100
AcDbEntity
  8
AM_0
100
AcDbSpline
210
0.0
220
0.0
230
1.0
 70
     8
 71
     3
 72
    23
 73
    19
 74
     0
 42
0.0000000001
 43
0.0000000001
 40
16.03460024169435
 40
16.03460024169435
 40
16.03460024169435
 40
16.03460024169435
 40
16.35212704903564
 40
17.38177054169784
 40
18.41822485651776
 40
19.46214173629503
 40
20.51396345435107
 40
21.57393551351153
 40
22.64208202342361
 40
23.7182574881101
 40
24.80209208578934
 40
25.89306333925047
 40
26.99048218457928
 40
28.09348763352352
 40
29.20111863782268
 40
30.31232390128032
 40
31.42594612798585
 40
32.5407912310448
 40
32.5407912310486
 40
32.5407912310486
 40
32.5407912310486
 10
-46.09764082594472
 20
4.65066109769855
 30
0.0
 10
-46.01539363804445
 20
4.634963516561762
 30
0.0
 10
-45.66679391500757
 20
4.566604968891984
 30
0.0
 10
-45.05273174871634
 20
4.432666827562648
 30
0.0
 10
-44.2575196358481
 20
4.233502276139168
 30
0.0
 10
-43.46304615339451
 20
4.009873682260367
 30
0.0
 10
-42.66926435528397
 20
3.763075294165134
 30
0.0
 10
-41.87614606879368
 20
3.494483018392191
 30
0.0
 10
-41.08364545358755
 20
3.205632241658746
 30
0.0
 10
-40.29170732293488
 20
2.898204003031287
 30
0.0
 10
-39.50028667606676
 20
2.573939250700949
 30
0.0
 10
-38.70932006192018
 20
2.234724805706165
 30
0.0
 10
-37.91874338149614
 20
1.882532328958285
 30
0.0
 10
-37.12850396092528
 20
1.519386779550059
 30
0.0
 10
-36.33853568183514
 20
1.147399799120539
 30
0.0
 10
-35.5487653764325
 20
0.7687435187245454
 30
0.0
 10
-34.75912873512047
 20
0.3856121489704669
 30
0.0
 10
-34.23284570499672
 20
0.1287435149571322
 30
0.0
 10
-33.96956066930608
 20
0.0002369920388063
 30
0.0
  0
SPLINE
  5
2D46
330
1F
100
AcDbEntity
  8
AM_0
100
AcDbSpline
210
0.0
220
0.0
230
1.0
 70
     8
 71
     3
 72
    55
 73
    51
 74
     0
 42
0.0000000001
 43
0.0000000001
 40
0.0
 40
0.0
 40
0.0
 40
0.0
 40
1.010743684496582
 40
2.022833576467832
 40
3.037578957496688
 40
4.056212745003489
 40
5.079857003664532
 40
6.109500240690281
 40
7.145961322679372
 40
8.189895241603872
 40
9.241717795325891
 40
10.30168407291828
 40
11.36983447792315
 40
12.44600489715814
 40
13.52984294512926
 40
14.62081576220742
 40
15.7182257034828
 40
16.82123173843959
 40
17.92886860250316
 40
19.0400688939571
 40
20.15368796660465
 40
21.26852814259644
 40
22.38336992938901
 40
23.49698739941135
 40
24.6081876908653
 40
25.71582455492886
 40
26.81883757994213
 40
27.91624752121713
 40
29.00722033829659
 40
30.09105838626677
 40
31.16722880550176
 40
32.23537921050758
 40
33.29534548809967
 40
34.347168041821
 40
35.39108718934584
 40
36.42754827133493
 40
37.45720575381954
 40
38.48085062012849
 40
39.49948440763516
 40
40.51422944315121
 40
41.52631975251916
 40
42.53706336719636
 40
43.54780698187354
 40
44.55989729124051
 40
45.57464232675757
 40
46.59327611426424
 40
47.6169209805722
 40
48.64656348684535
 40
49.68302456883444
 40
50.58557219878025
 40
50.58557219878025
 40
50.58557219878025
 40
50.58557219878025
 10
-4.472379094804693
 20
-4.649999519191527
 30
0.0
 10
-4.739117884632897
 20
-4.647232881844657
 30
0.0
 10
-5.272950733145463
 20
-4.641695922272226
 30
0.0
 10
-6.073505733965428
 20
-4.597061812101176
 30
0.0
 10
-6.874026562110868
 20
-4.526105236659629
 30
0.0
 10
-7.674497845876325
 20
-4.426656897496549
 30
0.0
 10
-8.474911597818467
 20
-4.300064510275801
 30
0.0
 10
-9.27525202756356
 20
-4.146891011169497
 30
0.0
 10
-10.07552181221486
 20
-3.968168231463272
 30
0.0
 10
-10.87571385499671
 20
-3.764990583947759
 30
0.0
 10
-11.67582270514291
 20
-3.538605567053141
 30
0.0
 10
-12.47585235075378
 20
-3.290434176128753
 30
0.0
 10
-13.27580493446824
 20
-3.021995237100559
 30
0.0
 10
-14.07569045105307
 20
-2.734959850552153
 30
0.0
 10
-14.87551256268212
 20
-2.431091910433019
 30
0.0
 10
-15.67527868589618
 20
-2.112265400382995
 30
0.0
 10
-16.47499769020975
 20
-1.780447225358955
 30
0.0
 10
-17.27467659438387
 20
-1.437677910142582
 30
0.0
 10
-18.07432315939335
 20
-1.08606561936301
 30
0.0
 10
-18.87394594179627
 20
-0.7277744848963628
 30
0.0
 10
-19.67355195504556
 20
-0.3650071333925848
 30
0.0
 10
-20.47315249081675
 20
-0.0000004679599312
 30
0.0
 10
-21.27274943705059
 20
0.3650127678201751
 30
0.0
 10
-22.07235813040494
 20
0.7277744700767483
 30
0.0
 10
-22.87197992566281
 20
1.086066689070262
 30
0.0
 10
-23.67162791643328
 20
1.437680319335941
 30
0.0
 10
-24.47131013805908
 20
1.780446709298788
 30
0.0
 10
-25.27103040454052
 20
2.112266567102662
 30
0.0
 10
-26.07079664321421
 20
2.431092818617256
 30
0.0
 10
-26.8706187257403
 20
2.734960822638675
 30
0.0
 10
-27.67050424437332
 20
3.021996209606959
 30
0.0
 10
-28.4704568484632
 20
3.290435084447356
 30
0.0
 10
-29.27048641150226
 20
3.538606728777567
 30
0.0
 10
-30.07059182307456
 20
3.764989746695382
 30
0.0
 10
-30.87077891759284
 20
3.968170055331158
 30
0.0
 10
-31.67104840538559
 20
4.146896428927642
 30
0.0
 10
-32.47139454982958
 20
4.300052433494078
 30
0.0
 10
-33.27181094611256
 20
4.426684003734788
 30
0.0
 10
-34.07228246717354
 20
4.526014459727854
 30
0.0
 10
-34.87280385154517
 20
4.597401928603769
 30
0.0
 10
-35.6733581735899
 20
4.640418155625408
 30
0.0
 10
-36.47393008733037
 20
4.654788453707221
 30
0.0
 10
-37.27450199989289
 20
4.640418155602927
 30
0.0
 10
-38.07505632547826
 20
4.597401928694249
 30
0.0
 10
-38.87557769681425
 20
4.526014459387337
 30
0.0
 10
-39.67604926674906
 20
4.426684005015013
 30
0.0
 10
-40.47646157711421
 20
4.300053046030263
 30
0.0
 10
-41.27680456849903
 20
4.146897994865282
 30
0.0
 10
-42.04068753940453
 20
3.976283101169166
 30
0.0
 10
-42.53630351027458
 20
3.851510816471692
 30
0.0
 10
-42.76624043417025
 20
3.790703195380013
 30
0.0
  0
SPLINE
  5
2D47
330
1F
100
AcDbEntity
  8
AM_0
 48
0.5
100
AcDbSpline
210
0.0
220
0.0
230
1.0
 70
     8
 71
     3
 72
    10
 73
     6
 74
     0
 42
0.0000000001
 43
0.0000000001
 40
0.0
 40
0.0
 40
0.0
 40
0.0
 40
2.69986029516136
 40
4.147722969032201
 40
6.285750005020438
 40
6.285750005020438
 40
6.285750005020438
 40
6.285750005020438
 10
-5.405899729773635
 20
0.8416256944314605
 30
0.0
 10
-4.836128572894472
 20
0.4096085614832176
 30
0.0
 10
-3.960804424191268
 20
-0.2540877744184077
 30
0.0
 10
-1.890780396917366
 20
0.0672192487704114
 30
0.0
 10
-2.280626131614056
 20
1.149423818117914
 30
0.0
 10
-2.334417835153642
 20
1.785459236301242
 30
0.0
  0
SPLINE
  5
2D48
330
1F
100
AcDbEntity
  8
AM_0
 48
0.5
100
AcDbSpline
210
0.0
220
0.0
230
1.0
 70
     8
 71
     3
 72
    22
 73
    18
 74
     0
 42
0.0000000001
 43
0.0000000001
 40
0.0
 40
0.0
 40
0.0
 40
0.0
 40
1.010743684496582
 40
2.022833993863546
 40
3.037578683882831
 40
4.056212471389632
 40
5.079857945358201
 40
6.109499720892564
 40
7.145961650132166
 40
8.189873411961459
 40
9.241710626092514
 40
10.30166235592959
 40
11.36982472628033
 40
12.44598212828784
 40
13.52983440361964
 40
14.62080578343036
 40
14.90544694398022
 40
14.90544694398022
 40
14.90544694398022
 40
14.90544694398022
 10
-36.56497891744033
 20
-4.650236511229788
 30
0.0
 10
-36.83171775823776
 20
-4.647470700421434
 30
0.0
 10
-37.36555081890887
 20
-4.641935393884752
 30
0.0
 10
-38.16610498089754
 20
-4.597288850368562
 30
0.0
 10
-38.96662667529118
 20
-4.526344220719118
 30
0.0
 10
-39.76709838469524
 20
-4.426895789879046
 30
0.0
 10
-40.56750995657663
 20
-4.300291592139341
 30
0.0
 10
-41.36785304080226
 20
-4.147130968573821
 30
0.0
 10
-42.16811590950534
 20
-3.968403931006526
 30
0.0
 10
-42.96830406557265
 20
-3.765219229107674
 30
0.0
 10
-43.76841030213211
 20
-3.538845514188055
 30
0.0
 10
-44.56843880046034
 20
-3.290660522176185
 30
0.0
 10
-45.36839471780162
 20
-3.022243567647793
 30
0.0
 10
-46.16827745329518
 20
-2.735190378034602
 30
0.0
 10
-46.96810199180165
 20
-2.431329612118741
 30
0.0
 10
-47.56922602776916
 20
-2.191702521675179
 30
0.0
 10
-47.90419331765758
 20
-2.054739379383254
 30
0.0
 10
-47.97345341469615
 20
-2.02627965752988
 30
0.0
  0
SPLINE
  5
2D49
330
1F
100
AcDbEntity
  8
AM_0
100
AcDbSpline
210
0.0
220
0.0
230
1.0
 70
     8
 71
     3
 72
    11
 73
     7
 74
     0
 42
0.0000000001
 43
0.0000000001
 40
11.27226913003534
 40
11.27226913003534
 40
11.27226913003534
 40
11.2722691300354
 40
12.28301561507924
 40
13.29510212255852
 40
14.30984805882082
 40
15.18258238371378
 40
15.18258238371378
 40
15.18258238371378
 40
15.18258238371378
 10
-19.55276882917992
 20
-4.650008388362112
 30
0.0
 10
-19.81849835380256
 20
-4.627241067909863
 30
0.0
 10
-20.34944617508995
 20
-4.57214384784636
 30
0.0
 10
-21.14312619145481
 20
-4.460999126713218
 30
0.0
 10
-21.896342521743
 20
-4.328248943863068
 30
0.0
 10
-22.38347863126184
 20
-4.226199927407273
 30
0.0
 10
-22.60796482171615
 20
-4.175790531973516
 30
0.0
  0
SPLINE
  5
2D4A
330
1F
100
AcDbEntity
  8
AM_0
100
AcDbSpline
210
0.0
220
0.0
230
1.0
 70
     8
 71
     3
 72
    17
 73
    13
 74
     0
 42
0.0000000001
 43
0.0000000001
 40
1.580019955310467
 40
1.580019955310467
 40
1.580019955310467
 40
1.580019955310467
 40
2.030549285115227
 40
3.082371838836284
 40
4.126290986361125
 40
5.162752068350215
 40
6.192395305374981
 40
7.216039564037012
 40
8.234688489606833
 40
9.249433870634691
 40
10.26152376260694
 40
11.27226744710342
 40
11.27226744710342
 40
11.27226744710342
 40
11.27226744710352
 10
-12.01198818556028
 20
-3.431836445836462
 30
0.0
 10
-12.12525335569866
 20
-3.467181515223916
 30
0.0
 10
-12.50359707677611
 20
-3.583029701150142
 30
0.0
 10
-13.14952363397168
 20
-3.764741725895445
 30
0.0
 10
-13.94959922987103
 20
-3.968235087861181
 30
0.0
 10
-14.74989508583287
 20
-4.146875241518623
 30
0.0
 10
-15.55022761107143
 20
-4.300062273081862
 30
0.0
 10
-16.35064733110426
 20
-4.426681892685459
 30
0.0
 10
-17.15112234983873
 20
-4.526011537991867
 30
0.0
 10
-17.95164721255561
 20
-4.597407519663401
 30
0.0
 10
-18.75220219639536
 20
-4.640410253474674
 30
0.0
 10
-19.28603505336824
 20
-4.649999545798608
 30
0.0
 10
-19.55276882917988
 20
-4.650008388362112
 30
0.0
  0
SPLINE
  5
2D4B
330
1F
100
AcDbEntity
  8
AM_0
100
AcDbSpline
210
0.0
220
0.0
230
1.0
 70
     8
 71
     3
 72
    13
 73
     9
 74
     0
 42
0.0000000001
 43
0.0000000001
 40
16.03460056234195
 40
16.03460056234195
 40
16.03460056234195
 40
16.03460056234195
 40
16.35212717791071
 40
17.38177067057215
 40
18.41822498539278
 40
19.46214186516937
 40
20.5139635832251
 40
21.34083983469381
 40
21.34083983469381
 40
21.34083983469381
 40
21.34083983469381
 10
-47.85945617326757
 20
-4.650009071068479
 30
0.0
 10
-47.69042210745314
 20
-4.634962289407069
 30
0.0
 10
-47.34182209595715
 20
-4.566605617275456
 30
0.0
 10
-46.72776026440067
 20
-4.432665912186907
 30
0.0
 10
-45.93254805145858
 20
-4.233501912999067
 30
0.0
 10
-45.13807459610698
 20
-4.00987316956555
 30
0.0
 10
-44.4029252925466
 20
-3.781304522503593
 30
0.0
 10
-43.93391298278413
 20
-3.623918742615071
 30
0.0
 10
-43.7281600934793
 20
-3.55277893600597
 30
0.0
  0
ELLIPSE
  5
2D4C
330
1F
100
AcDbEntity
  8
AM_0
 48
0.5
100
AcDbEllipse
 10
-8.222483968016819
 20
7.883218387760127
 30
0.0
 11
9.722296840266363
 21
8.641838688445682
 31
0.0
210
0.0
220
0.0
230
1.0
 40
0.8750469713770556
 41
4.671210604795737
 42
4.78227812421359
  0
ELLIPSE
  5
2D4D
330
1F
100
AcDbEntity
  8
AM_0
 48
0.5
100
AcDbEllipse
 10
-5.398042737136716
 20
4.743879121307285
 30
0.0
 11
0.0000000000031415
 21
7.224466270330884
 31
0.0
210
0.0
220
0.0
230
1.0
 40
0.9784946236559266
 41
3.517054509083115
 42
3.681821570856613
  0
ELLIPSE
  5
2D4E
330
1F
100
AcDbEntity
  8
AM_0
 48
0.5
100
AcDbEllipse
 10
-1.415152657029713
 20
-1.210207222118431
 30
0.0
 11
-0.1381624284118712
 21
0.7628353022092798
 31
0.0
210
0.0
220
0.0
230
1.0
 40
0.5092645948933159
 41
1.799603482866791
 42
4.934945372578767
  0
ELLIPSE
  5
2D4F
330
1F
100
AcDbEntity
  8
AM_0
 48
0.5
100
AcDbEllipse
 10
-1.415220911579972
 20
-1.211856456600376
 30
0.0
 11
-0.6879435665531679
 21
0.3834225989399591
 31
0.0
210
0.0
220
0.0
230
1.0
 40
0.4945710415580206
 41
4.471770194490504
 42
7.615210535820017
  0
ELLIPSE
  5
2D50
330
1F
100
AcDbEntity
  8
AM_0
 48
0.5
100
AcDbEllipse
 10
2.852144195194581
 20
5.582611564792591
 30
0.0
 11
-9.573362588882318
 21
0.0000000000013951
 31
0.0
210
0.0
220
0.0
230
1.0
 40
0.9789473684210525
 41
0.5303675532342087
 42
0.938488483429101
  0
ELLIPSE
  5
2D51
330
1F
100
AcDbEntity
  8
AM_0
 48
0.5
100
AcDbEllipse
 10
4.755094354391797
 20
-1.241850973107404
 30
0.0
 11
7.562208008052571
 21
0.7217706156842234
 31
0.0
210
0.0
220
0.0
230
1.0
 40
0.9708591724115169
 41
3.14345854396837
 42
3.523828352288926
  0
VIEWPORT
  5
110
330
101
100
AcDbEntity
 67
     1
  8
0
100
AcDbViewport
 10
420.5
 20
297.0
 30
0.0
 40
948.9782706766916
 41
628.452
 68
     1
 69
     1
1001
ACAD
1000
MVIEW
1002
{
1070
    16
1010
0.0
1020
0.0
1030
0.0
1010
0.0
1020
0.0
1030
1.0
1040
0.0
1040
628.452
1040
420.5
1040
297.0
1040
50.0
1040
0.0
1040
0.0
1070
     0
1070
   100
1070
     1
1070
     1
1070
     0
1070
     0
1070
     0
1070
     0
1040
0.0
1040
0.0
1040
0.0
1040
10.0
1040
10.0
1040
10.0
1040
10.0
1070
     0
1002
{
1002
}
1002
}
  0
ENDSEC
  0
SECTION
  2
OBJECTS
  0
DICTIONARY
  5
C
330
0
100
AcDbDictionary
  3
ACAD_GROUP
350
D
  3
ACAD_LAYOUT
350
1A
  3
ACAD_MLINESTYLE
350
17
  3
ACAD_PLOTSETTINGS
350
19
  3
ACAD_PLOTSTYLENAME
350
E
  3
ACDBVARIABLEDICTIONARY
350
34
  3
ACMDICTIONARY
350
43
  3
AMG
350
2B
  3
AMGSNAPSETTINGS
350
6E
  3
DWGPROPS
350
2DCF
  3
ACDBHEADERROUNDTRIPXREC
350
2DDB
  0
DICTIONARY
  5
74
330
1F
100
AcDbDictionary
280
     1
  3
ACAD_INDEX
360
2DD1
  3
ACAD_LAYOUTSELFREF
360
2DFE
  0
DICTIONARY
  5
2E03
330
101
100
AcDbDictionary
280
     1
  3
ACAD_LAYOUTSELFREF
360
2E04
  0
DICTIONARY
  5
D
102
{ACAD_REACTORS
330
C
102
}
330
C
100
AcDbDictionary
  0
DICTIONARY
  5
1A
102
{ACAD_REACTORS
330
C
102
}
330
C
100
AcDbDictionary
  0
DICTIONARY
  5
17
102
{ACAD_REACTORS
330
C
102
}
330
C
100
AcDbDictionary
  3
STANDARD
350
18
  0
DICTIONARY
  5
19
102
{ACAD_REACTORS
330
C
102
}
330
C
100
AcDbDictionary
  0
ACDBDICTIONARYWDFLT
  5
E
102
{ACAD_REACTORS
330
C
102
}
330
C
100
AcDbDictionary
281
     1
  3
Normal
350
F
100
AcDbDictionaryWithDefault
340
F
  0
DICTIONARY
  5
34
102
{ACAD_REACTORS
330
C
102
}
330
C
100
AcDbDictionary
  3
INDEXCTL
350
35
  3
SORTENTS
350
B5E
  0
DICTIONARY
  5
43
102
{ACAD_REACTORS
330
C
102
}
330
C
100
AcDbDictionary
  3
ACMSTDDICTIONARY
350
260
  0
DICTIONARY
  5
2B
102
{ACAD_REACTORS
330
C
102
}
330
C
100
AcDbDictionary
  3
ACMGSETTINGS
350
2C
  0
DICTIONARY
  5
6E
102
{ACAD_REACTORS
330
C
102
}
330
C
100
AcDbDictionary
  0
XRECORD
  5
2DCF
102
{ACAD_REACTORS
330
C
102
}
330
C
100
AcDbXrecord
  1
DWGPROPS COOKIE
  2

  3

  4

  6

  7

  8

  9

300
AmdtFileType=82
301
=
302
=
303
=
304
=
305
=
306
=
307
=
308
=
309
=
 40
0.0525838888888889
 41
2452800.443498622
 42
2452946.617617361
  1

 90
        1
  0
DICTIONARY
  5
2DDB
102
{ACAD_REACTORS
330
C
102
}
330
C
100
AcDbDictionary
  3
TSTACKALIGN
350
2DDC
  3
TSTACKSIZE
350
2DDD
  3
HYPERLINKBASE
350
2DDE
  3
STYLESHEET
350
2DDF
  3
LAYOUTDICT
350
2DE0
  3
PLOTSETDICT
350
2DE1
  3
PLOTSTYLNAMDICT
350
2DE2
  3
LWETCUNION
350
2DE3
  3
INSUNITS
350
2DE4
  3
CEPSNTYPE
350
2DE5
  3
FINGERPRINTGUID
350
2DE6
  3
VERSIONGUID
350
2DE7
  3
PSVPSCALE
350
2DE8
  3
DIMSTYLEDATA
350
2DE9
  3
PUCSORTHOREF
350
2DEA
  3
PUCSORTHOVIEW
350
2DEB
  3
PUCSBASE
350
2DEC
  3
PUCSORGTOP
350
2DED
  3
PUCSORGBOTTOM
350
2DEE
  3
PUCSORGLEFT
350
2DEF
  3
PUCSORGRIGHT
350
2DF0
  3
PUCSORGFRONT
350
2DF1
  3
PUCSORGBACK
350
2DF2
  3
UCSORTHOREF
350
2DF3
  3
UCSORTHOVIEW
350
2DF4
  3
UCSBASE
350
2DF5
  3
UCSORGTOP
350
2DF6
  3
UCSORGBOTTOM
350
2DF7
  3
UCSORGLEFT
350
2DF8
  3
UCSORGRIGHT
350
2DF9
  3
UCSORGFRONT
350
2DFA
  3
UCSORGBACK
350
2DFB
  0
DICTIONARY
  5
2DD1
102
{ACAD_REACTORS
330
74
102
}
330
74
100
AcDbDictionary
  3
*A1
350
2DD2
  0
XRECORD
  5
2DFE
102
{ACAD_REACTORS
330
74
102
}
330
74
100
AcDbXrecord
340
1F
  0
XRECORD
  5
2E04
102
{ACAD_REACTORS
330
2E03
102
}
330
2E03
100
AcDbXrecord
340
101
  0
MLINESTYLE
  5
18
102
{ACAD_REACTORS
330
17
102
}
330
17
100
AcDbMlineStyle
  2
STANDARD
 70
     0
  3

 62
   256
 51
90.0
 52
90.0
 71
     2
 49
0.5
 62
   256
  6
BYLAYER
 49
-0.5
 62
   256
  6
BYLAYER
  0
ACDBPLACEHOLDER
  5
F
102
{ACAD_REACTORS
330
E
102
}
330
E
100
AcDbPlaceHolder
280
     0
  0
DICTIONARYVAR
  5
35
102
{ACAD_REACTORS
330
34
102
}
330
34
100
DictionaryVariables
280
     0
  1
1
  0
DICTIONARYVAR
  5
B5E
102
{ACAD_REACTORS
330
34
102
}
330
34
100
DictionaryVariables
280
     0
  1
96
  0
DICTIONARY
  5
260
102
{ACAD_REACTORS
330
43
102
}
330
43
100
AcDbDictionary
  0
DICTIONARY
  5
2C
102
{ACAD_REACTORS
330
2B
102
}
330
2B
100
AcDbDictionary
  3
DWGSETTINGS
350
2D
  0
XRECORD
  5
2DDC
102
{ACAD_REACTORS
330
2DDB
102
}
330
2DDB
100
AcDbXrecord
 90
        1
  0
XRECORD
  5
2DDD
102
{ACAD_REACTORS
330
2DDB
102
}
330
2DDB
100
AcDbXrecord
 90
       70
  0
XRECORD
  5
2DDE
102
{ACAD_REACTORS
330
2DDB
102
}
330
2DDB
100
AcDbXrecord
  1

  0
XRECORD
  5
2DDF
102
{ACAD_REACTORS
330
2DDB
102
}
330
2DDB
100
AcDbXrecord
  1
ASAMI.ctb
  0
XRECORD
  5
2DE0
102
{ACAD_REACTORS
330
2DDB
102
}
330
2DDB
100
AcDbXrecord
340
1A
  0
XRECORD
  5
2DE1
102
{ACAD_REACTORS
330
2DDB
102
}
330
2DDB
100
AcDbXrecord
340
19
  0
XRECORD
  5
2DE2
102
{ACAD_REACTORS
330
2DDB
102
}
330
2DDB
100
AcDbXrecord
340
E
  0
XRECORD
  5
2DE3
102
{ACAD_REACTORS
330
2DDB
102
}
330
2DDB
100
AcDbXrecord
 90
    10781
  0
XRECORD
  5
2DE4
102
{ACAD_REACTORS
330
2DDB
102
}
330
2DDB
100
AcDbXrecord
 90
        4
  0
XRECORD
  5
2DE5
102
{ACAD_REACTORS
330
2DDB
102
}
330
2DDB
100
AcDbXrecord
 90
        0
  0
XRECORD
  5
2DE6
102
{ACAD_REACTORS
330
2DDB
102
}
330
2DDB
100
AcDbXrecord
  1
{AFB28963-8C59-40AE-9337-C84526B81ACE}
  0
XRECORD
  5
2DE7
102
{ACAD_REACTORS
330
2DDB
102
}
330
2DDB
100
AcDbXrecord
  1
{88BFE8A7-DE34-4E9B-B991-64EF2791DF65}
  0
XRECORD
  5
2DE8
102
{ACAD_REACTORS
330
2DDB
102
}
330
2DDB
100
AcDbXrecord
 40
0.0
  0
XRECORD
  5
2DE9
102
{ACAD_REACTORS
330
2DDB
102
}
330
2DDB
100
AcDbXrecord
1000
DSTYLE
1002
{
1070
    79
 70
     2
1070
   341
340
59
1070
   342
340
59
1070
   371
 70
    -1
1070
   372
 70
    -1
1002
}
  0
XRECORD
  5
2DEA
102
{ACAD_REACTORS
330
2DDB
102
}
330
2DDB
100
AcDbXrecord
340
0
  0
XRECORD
  5
2DEB
102
{ACAD_REACTORS
330
2DDB
102
}
330
2DDB
100
AcDbXrecord
 70
     0
  0
XRECORD
  5
2DEC
102
{ACAD_REACTORS
330
2DDB
102
}
330
2DDB
100
AcDbXrecord
340
0
  0
XRECORD
  5
2DED
102
{ACAD_REACTORS
330
2DDB
102
}
330
2DDB
100
AcDbXrecord
 10
0.0
 20
0.0
 30
0.0
  0
XRECORD
  5
2DEE
102
{ACAD_REACTORS
330
2DDB
102
}
330
2DDB
100
AcDbXrecord
 10
0.0
 20
0.0
 30
0.0
  0
XRECORD
  5
2DEF
102
{ACAD_REACTORS
330
2DDB
102
}
330
2DDB
100
AcDbXrecord
 10
0.0
 20
0.0
 30
0.0
  0
XRECORD
  5
2DF0
102
{ACAD_REACTORS
330
2DDB
102
}
330
2DDB
100
AcDbXrecord
 10
0.0
 20
0.0
 30
0.0
  0
XRECORD
  5
2DF1
102
{ACAD_REACTORS
330
2DDB
102
}
330
2DDB
100
AcDbXrecord
 10
0.0
 20
0.0
 30
0.0
  0
XRECORD
  5
2DF2
102
{ACAD_REACTORS
330
2DDB
102
}
330
2DDB
100
AcDbXrecord
 10
0.0
 20
0.0
 30
0.0
  0
XRECORD
  5
2DF3
102
{ACAD_REACTORS
330
2DDB
102
}
330
2DDB
100
AcDbXrecord
340
0
  0
XRECORD
  5
2DF4
102
{ACAD_REACTORS
330
2DDB
102
}
330
2DDB
100
AcDbXrecord
 70
     0
  0
XRECORD
  5
2DF5
102
{ACAD_REACTORS
330
2DDB
102
}
330
2DDB
100
AcDbXrecord
340
0
  0
XRECORD
  5
2DF6
102
{ACAD_REACTORS
330
2DDB
102
}
330
2DDB
100
AcDbXrecord
 10
0.0
 20
0.0
 30
0.0
  0
XRECORD
  5
2DF7
102
{ACAD_REACTORS
330
2DDB
102
}
330
2DDB
100
AcDbXrecord
 10
0.0
 20
0.0
 30
0.0
  0
XRECORD
  5
2DF8
102
{ACAD_REACTORS
330
2DDB
102
}
330
2DDB
100
AcDbXrecord
 10
0.0
 20
0.0
 30
0.0
  0
XRECORD
  5
2DF9
102
{ACAD_REACTORS
330
2DDB
102
}
330
2DDB
100
AcDbXrecord
 10
0.0
 20
0.0
 30
0.0
  0
XRECORD
  5
2DFA
102
{ACAD_REACTORS
330
2DDB
102
}
330
2DDB
100
AcDbXrecord
 10
0.0
 20
0.0
 30
0.0
  0
XRECORD
  5
2DFB
102
{ACAD_REACTORS
330
2DDB
102
}
330
2DDB
100
AcDbXrecord
 10
0.0
 20
0.0
 30
0.0
  0
LAYER_INDEX
  5
2DD2
102
{ACAD_REACTORS
330
2DD1
102
}
330
2DD1
100
AcDbIndex
 40
2453151.57203015
100
AcDbLayerIndex
  8
0
360
2DD3
 90
        0
  8
AM_0
360
2DD4
 90
       45
  8
AM_7
360
2DD5
 90
        1
  8
AM_11
360
2DD6
 90
       18
  8
AM_5
360
2DD7
 90
        5
  8
Defpoints
360
2DD8
 90
        0
  8
AM_6
360
2DD9
 90
        1
  0
XRECORD
  5
2D
102
{ACAD_REACTORS
330
2C
102
}
330
2C
100
AcDbXrecord
  1
VERSION
140
15.0
  1
PRODUCT
  2
AutoCAD Mechanical 2000
  0
IDBUFFER
  5
2DD3
330
0
100
AcDbIdBuffer
  0
IDBUFFER
  5
2DD4
330
0
100
AcDbIdBuffer
330
2C44
330
2D31
330
2D32
330
2D33
330
2D34
330
2D35
330
2D36
330
2D37
330
2D38
330
2D39
330
2D3A
330
2D40
330
2D41
330
2D42
330
2D43
330
2D44
330
2D45
330
2D46
330
2D47
330
2D48
330
2D49
330
2D4A
330
2D4B
330
2D4C
330
2D4D
330
2D4E
330
2D4F
330
2D50
330
2D51
330
C1D
330
C20
330
24A7
330
24BE
330
2567
330
2568
330
2569
330
256C
330
256E
330
256F
330
2571
330
2572
330
279A
330
279D
330
2C01
330
2C43
  0
IDBUFFER
  5
2DD5
330
0
100
AcDbIdBuffer
330
23EF
  0
IDBUFFER
  5
2DD6
330
0
100
AcDbIdBuffer
330
2D3E
330
2D3F
330
24B7
330
24B8
330
24B9
330
24C7
330
24C8
330
24C9
330
24CA
330
24D4
330
24D5
330
24E6
330
24E7
330
278C
330
278D
330
2D3B
330
2D3C
330
2D3D
  0
IDBUFFER
  5
2DD7
330
0
100
AcDbIdBuffer
330
CC6
330
2069
330
2599
330
29BA
330
2C54
  0
IDBUFFER
  5
2DD8
330
0
100
AcDbIdBuffer
  0
IDBUFFER
  5
2DD9
330
0
100
AcDbIdBuffer
330
19BD
  0
ENDSEC
  0
EOF
