  0
SECTION
  2
HEADER
  9
$ACADVER
  1
AC1014
  9
$ACADMAINTVER
 70
     9
  9
$DWGCODEPAGE
  3
ANSI_932
  9
$INSBASE
 10
0.0
 20
0.0
 30
0.0
  9
$EXTMIN
 10
-120.150001
 20
-28.25000402524005
 30
-0.00000001
  9
$EXTMAX
 10
13.73115421205163
 20
13.37289982946269
 30
0.00000001
  9
$LIMMIN
 10
-156.1444050923396
 20
-44.51020785580943
  9
$LIMMAX
 10
20.31336096277607
 20
28.16015358894219
  9
$ORTHOMODE
 70
     0
  9
$REGENMODE
 70
     1
  9
$FILLMODE
 70
     1
  9
$QTEXTMODE
 70
     0
  9
$MIRRTEXT
 70
     0
  9
$DRAGMODE
 70
     2
  9
$LTSCALE
 40
1.0
  9
$OSMODE
 70
    55
  9
$ATTMODE
 70
     1
  9
$TEXTSIZE
 40
2.5
  9
$TRACEWID
 40
1.0
  9
$TEXTSTYLE
  7
STANDARD
  9
$CLAYER
  8
AM_0
  9
$CELTYPE
  6
BYLAYER
  9
$CECOLOR
 62
   256
  9
$CELTSCALE
 40
1.0
  9
$DELOBJ
 70
     1
  9
$DISPSILH
 70
     0
  9
$DIMSCALE
 40
0.5
  9
$DIMASZ
 40
2.5
  9
$DIMEXO
 40
1.0
  9
$DIMDLI
 40
12.0
  9
$DIMRND
 40
0.0
  9
$DIMDLE
 40
0.0
  9
$DIMEXE
 40
1.0
  9
$DIMTP
 40
0.1
  9
$DIMTM
 40
0.1
  9
$DIMTXT
 40
3.2
  9
$DIMCEN
 40
0.0
  9
$DIMTSZ
 40
0.0
  9
$DIMTOL
 70
     0
  9
$DIMLIM
 70
     0
  9
$DIMTIH
 70
     0
  9
$DIMTOH
 70
     0
  9
$DIMSE1
 70
     0
  9
$DIMSE2
 70
     0
  9
$DIMTAD
 70
     3
  9
$DIMZIN
 70
     8
  9
$DIMBLK
  1
OPEN30
  9
$DIMASO
 70
     1
  9
$DIMSHO
 70
     1
  9
$DIMPOST
  1

  9
$DIMAPOST
  1
"
  9
$DIMALT
 70
     0
  9
$DIMALTD
 70
     2
  9
$DIMALTF
 40
0.0393701
  9
$DIMLFAC
 40
1.0
  9
$DIMTOFL
 70
     1
  9
$DIMTVP
 40
0.0
  9
$DIMTIX
 70
     0
  9
$DIMSOXD
 70
     0
  9
$DIMSAH
 70
     0
  9
$DIMBLK1
  1

  9
$DIMBLK2
  1

  9
$DIMSTYLE
  2
AM_JIS
  9
$DIMCLRD
 70
   256
  9
$DIMCLRE
 70
   256
  9
$DIMCLRT
 70
     2
  9
$DIMTFAC
 40
0.71
  9
$DIMGAP
 40
1.5
  9
$DIMJUST
 70
     0
  9
$DIMSD1
 70
     0
  9
$DIMSD2
 70
     0
  9
$DIMTOLJ
 70
     0
  9
$DIMTZIN
 70
     0
  9
$DIMALTZ
 70
     0
  9
$DIMALTTZ
 70
     0
  9
$DIMFIT
 70
     3
  9
$DIMUPT
 70
     0
  9
$DIMUNIT
 70
     2
  9
$DIMDEC
 70
     3
  9
$DIMTDEC
 70
     3
  9
$DIMALTU
 70
     2
  9
$DIMALTTD
 70
     2
  9
$DIMTXSTY
  7
ASAMI
  9
$DIMAUNIT
 70
     0
  9
$LUNITS
 70
     2
  9
$LUPREC
 70
     2
  9
$SKETCHINC
 40
1.0
  9
$FILLETRAD
 40
2.5
  9
$AUNITS
 70
     0
  9
$AUPREC
 70
     0
  9
$MENU
  1
.
  9
$ELEVATION
 40
0.0
  9
$PELEVATION
 40
0.0
  9
$THICKNESS
 40
0.0
  9
$LIMCHECK
 70
     0
  9
$BLIPMODE
 70
     0
  9
$CHAMFERA
 40
0.5
  9
$CHAMFERB
 40
0.5
  9
$CHAMFERC
 40
20.0
  9
$CHAMFERD
 40
0.0
  9
$SKPOLY
 70
     0
  9
$TDCREATE
 40
2452800.443498622
  9
$TDUPDATE
 40
2453151.572142997
  9
$TDINDWG
 40
0.0532919097
  9
$TDUSRTIMER
 40
0.0532919097
  9
$USRTIMER
 70
     1
  9
$ANGBASE
 50
0.0
  9
$ANGDIR
 70
     0
  9
$PDMODE
 70
     0
  9
$PDSIZE
 40
0.0
  9
$PLINEWID
 40
0.0
  9
$COORDS
 70
     1
  9
$SPLFRAME
 70
     0
  9
$SPLINETYPE
 70
     6
  9
$SPLINESEGS
 70
     8
  9
$ATTDIA
 70
     1
  9
$ATTREQ
 70
     1
  9
$HANDLING
 70
 12289
  9
$HANDSEED
  5
2E8A
  9
$SURFTAB1
 70
     6
  9
$SURFTAB2
 70
     6
  9
$SURFTYPE
 70
     6
  9
$SURFU
 70
     6
  9
$SURFV
 70
     6
  9
$UCSNAME
  2

  9
$UCSORG
 10
0.0
 20
0.0
 30
0.0
  9
$UCSXDIR
 10
1.0
 20
0.0000000000000027
 30
0.0
  9
$UCSYDIR
 10
-0.0000000000000027
 20
1.0
 30
0.0
  9
$PUCSNAME
  2

  9
$PUCSORG
 10
0.0
 20
0.0
 30
0.0
  9
$PUCSXDIR
 10
1.0
 20
0.0
 30
0.0
  9
$PUCSYDIR
 10
0.0
 20
1.0
 30
0.0
  9
$USERI1
 70
     0
  9
$USERI2
 70
     0
  9
$USERI3
 70
     0
  9
$USERI4
 70
     0
  9
$USERI5
 70
     0
  9
$USERR1
 40
0.0
  9
$USERR2
 40
0.0
  9
$USERR3
 40
0.0
  9
$USERR4
 40
0.0
  9
$USERR5
 40
0.0
  9
$WORLDVIEW
 70
     1
  9
$SHADEDGE
 70
     3
  9
$SHADEDIF
 70
    70
  9
$TILEMODE
 70
     1
  9
$MAXACTVP
 70
    64
  9
$PINSBASE
 10
0.0
 20
0.0
 30
0.0
  9
$PLIMCHECK
 70
     0
  9
$PEXTMIN
 10
1.000000000000000E+20
 20
1.000000000000000E+20
 30
1.000000000000000E+20
  9
$PEXTMAX
 10
-1.000000000000000E+20
 20
-1.000000000000000E+20
 30
-1.000000000000000E+20
  9
$PLIMMIN
 10
0.0
 20
0.0
  9
$PLIMMAX
 10
841.0
 20
594.0
  9
$UNITMODE
 70
     0
  9
$VISRETAIN
 70
     1
  9
$PLINEGEN
 70
     0
  9
$PSLTSCALE
 70
     0
  9
$TREEDEPTH
 70
  3020
  9
$PICKSTYLE
 70
     0
  9
$CMLSTYLE
  2
STANDARD
  9
$CMLJUST
 70
     0
  9
$CMLSCALE
 40
20.0
  9
$PROXYGRAPHICS
 70
     1
  9
$MEASUREMENT
 70
     1
  0
ENDSEC
  0
SECTION
  2
CLASSES
  0
CLASS
  1
ACDBDICTIONARYWDFLT
  2
AcDbDictionaryWithDefault
  3
AutoCAD 2000
 90
        0
280
     0
281
     0
  0
CLASS
  1
ACDBPLACEHOLDER
  2
AcDbPlaceHolder
  3
AutoCAD 2000
 90
        0
280
     0
281
     0
  0
CLASS
  1
LAYOUT
  2
AcDbLayout
  3
AutoCAD 2000
 90
        0
280
     0
281
     0
  0
CLASS
  1
AMGSETTINGSOBJ
  2
AmgSettingsObj
  3
"AcadM|Product Description: AutoCAD Mechanical 2000|Company: Autodesk"
 90
        0
280
     0
281
     0
  0
CLASS
  1
ACME_DOCUMENT
  2
AcMeDbDoc
  3
AcMeServices
 90
        0
280
     0
281
     0
  0
CLASS
  1
ACMESCOPE
  2
AcMeScope
  3
AcMeServices
 90
        0
280
     0
281
     0
  0
CLASS
  1
ACMECOMMANDHISTORY
  2
AcMeCommandHistory
  3
AcMeServices
 90
        0
280
     0
281
     0
  0
CLASS
  1
DICTIONARYVAR
  2
AcDbDictionaryVar
  3
AutoCAD 2000
 90
        0
280
     0
281
     0
  0
CLASS
  1
ACIMSYSVARMAN
  2
AcImSysVarManager
  3
AcMeServices
 90
        0
280
     0
281
     0
  0
CLASS
  1
ACIMREALSYSVAR
  2
AcImRealSysVar
  3
AcMeServices
 90
        0
280
     0
281
     0
  0
CLASS
  1
ACIMINTSYSVAR
  2
AcImIntSysVar
  3
AcMeServices
 90
        0
280
     0
281
     0
  0
CLASS
  1
ACMEDRAWINGMAN
  2
AcMeDrawingMan
  3
AcMeServices
 90
        0
280
     0
281
     0
  0
CLASS
  1
ACMEVIEW
  2
AcMeView
  3
AcMeServices
 90
        0
280
     0
281
     0
  0
CLASS
  1
ACDBENTITYCACHE
  2
AcMeEntityCache
  3
AcMeServices
 90
        0
280
     0
281
     0
  0
CLASS
  1
GSMANAGER
  2
AcMeGSManager
  3
AcMeServices
 90
        0
280
     0
281
     0
  0
CLASS
  1
AmdtInternalReactor
  2
AmdtInternalReactor
  3
AcMeServices
 90
        0
280
     0
281
     0
  0
CLASS
  1
ACMESTATEMGR
  2
AcMeStateMgr
  3
AcMeServices
 90
        0
280
     0
281
     0
  0
CLASS
  1
ACME_DATABASE
  2
AcMeDbDatabase
  3
AcMeServices
 90
        0
280
     0
281
     0
  0
CLASS
  1
ACRFINSADJUSTERMGR
  2
AcRfInsAdjusterMgr
  3
AcMeServices
 90
        0
280
     0
281
     0
  0
CLASS
  1
ACMDATADICTIONARY
  2
AcmDataDictionary
  3
"AcmSymBB|Product Description: AutoCAD Mechanical 2000|Company: Autodesk"
 90
        0
280
     0
281
     0
  0
CLASS
  1
ACMDATAENTRYBLOCK
  2
AcmDataEntryBlock
  3
"AcmSymBB|Product Description: AutoCAD Mechanical 2000|Company: Autodesk"
 90
        0
280
     0
281
     0
  0
CLASS
  1
AMGOBJPROPCFG
  2
AmgObjPropCfg
  3
"AmgLay|Product Description: AutoCAD Mechanical 2000|Company: Autodesk"
 90
        1
280
     0
281
     0
  0
CLASS
  1
ACAMGFILTERDAT
  2
AcAmgFilterDat
  3
"AcadM|Product Description: AutoCAD Mechanical 2000|Company: Autodesk"
 90
        0
280
     0
281
     0
  0
CLASS
  1
LAYER_INDEX
  2
AcDbLayerIndex
  3
AutoCAD 2000
 90
        0
280
     0
281
     0
  0
CLASS
  1
IDBUFFER
  2
AcDbIdBuffer
  3
AutoCAD 2000
 90
        0
280
     0
281
     0
  0
CLASS
  1
ACIMSTRSYSVAR
  2
AcImStrSysVar
  3
AcMeServices
 90
        0
280
     0
281
     0
  0
CLASS
  1
ACMSTANDARDJIS
  2
AcmStandardJIS
  3
"AcmSymBB|Product Description: AutoCAD Mechanical 2000|Company: Autodesk"
 90
        0
280
     0
281
     0
  0
CLASS
  1
ACMSURFSTANDARDJIS
  2
AcmSurfTextStdJIS
  3
"AcmSymBB|Product Description: AutoCAD Mechanical 2000|Company: Autodesk"
 90
        0
280
     0
281
     0
  0
CLASS
  1
ACMFCFSTANDARDJIS
  2
AcmFCFStdJIS
  3
"AcmSymBB|Product Description: AutoCAD Mechanical 2000|Company: Autodesk"
 90
        0
280
     0
281
     0
  0
CLASS
  1
ACMWELDSTANDARDJIS
  2
AcmWeldingStdJIS
  3
"AcmSymBB|Product Description: AutoCAD Mechanical 2000|Company: Autodesk"
 90
        0
280
     0
281
     0
  0
CLASS
  1
ACMIDSTANDARDJIS
  2
AcmIdStdJIS
  3
"AcmSymBB|Product Description: AutoCAD Mechanical 2000|Company: Autodesk"
 90
        0
280
     0
281
     0
  0
CLASS
  1
ACMDATUMSTANDARDJIS
  2
AcmDatumStdJIS
  3
"AcmSymBB|Product Description: AutoCAD Mechanical 2000|Company: Autodesk"
 90
        0
280
     0
281
     0
  0
CLASS
  1
ACMBOMSTANDARDJIS
  2
AcmBOMStdJIS
  3
"AcmSymBB|Product Description: AutoCAD Mechanical 2000|Company: Autodesk"
 90
        0
280
     0
281
     0
  0
CLASS
  1
ACMSTANDARDANSI
  2
AcmStandardANSI
  3
"AcmSymBB|Product Description: AutoCAD Mechanical 2000|Company: Autodesk"
 90
        0
280
     0
281
     0
  0
CLASS
  1
ACMSURFSTANDARDANSI
  2
AcmSurfTextStdANSI
  3
"AcmSymBB|Product Description: AutoCAD Mechanical 2000|Company: Autodesk"
 90
        0
280
     0
281
     0
  0
CLASS
  1
ACMFCFSTANDARDANSI
  2
AcmFCFStdANSI
  3
"AcmSymBB|Product Description: AutoCAD Mechanical 2000|Company: Autodesk"
 90
        0
280
     0
281
     0
  0
CLASS
  1
ACMWELDSTANDARDANSI
  2
AcmWeldingStdANSI
  3
"AcmSymBB|Product Description: AutoCAD Mechanical 2000|Company: Autodesk"
 90
        0
280
     0
281
     0
  0
CLASS
  1
ACMIDSTANDARDANSI
  2
AcmIdStdANSI
  3
"AcmSymBB|Product Description: AutoCAD Mechanical 2000|Company: Autodesk"
 90
        0
280
     0
281
     0
  0
CLASS
  1
ACMDATUMSTANDARDANSI
  2
AcmDatumStdANSI
  3
"AcmSymBB|Product Description: AutoCAD Mechanical 2000|Company: Autodesk"
 90
        0
280
     0
281
     0
  0
CLASS
  1
ACMBOMSTANDARDANSI
  2
AcmBOMStdANSI
  3
"AcmSymBB|Product Description: AutoCAD Mechanical 2000|Company: Autodesk"
 90
        0
280
     0
281
     0
  0
CLASS
  1
ACMSTANDARDBSI
  2
AcmStandardBSI
  3
"AcmSymBB|Product Description: AutoCAD Mechanical 2000|Company: Autodesk"
 90
        0
280
     0
281
     0
  0
CLASS
  1
ACMSURFSTANDARDBSI
  2
AcmSurfTextStdBSI
  3
"AcmSymBB|Product Description: AutoCAD Mechanical 2000|Company: Autodesk"
 90
        0
280
     0
281
     0
  0
CLASS
  1
ACMFCFSTANDARDBSI
  2
AcmFCFStdBSI
  3
"AcmSymBB|Product Description: AutoCAD Mechanical 2000|Company: Autodesk"
 90
        0
280
     0
281
     0
  0
CLASS
  1
ACMWELDSTANDARDBSI
  2
AcmWeldingStdBSI
  3
"AcmSymBB|Product Description: AutoCAD Mechanical 2000|Company: Autodesk"
 90
        0
280
     0
281
     0
  0
CLASS
  1
ACMIDSTANDARDBSI
  2
AcmIdStdBSI
  3
"AcmSymBB|Product Description: AutoCAD Mechanical 2000|Company: Autodesk"
 90
        0
280
     0
281
     0
  0
CLASS
  1
ACMDATUMSTANDARDBSI
  2
AcmDatumStdBSI
  3
"AcmSymBB|Product Description: AutoCAD Mechanical 2000|Company: Autodesk"
 90
        0
280
     0
281
     0
  0
CLASS
  1
ACMBOMSTANDARDBSI
  2
AcmBOMStdBSI
  3
"AcmSymBB|Product Description: AutoCAD Mechanical 2000|Company: Autodesk"
 90
        0
280
     0
281
     0
  0
CLASS
  1
LONG_TRANSACTION
  2
AcDbLongTransaction
  3
AutoCAD 2000
 90
        0
280
     0
281
     0
  0
CLASS
  1
LWPOLYLINE
  2
AcDbPolyline
  3
AutoCAD 2000
 90
        0
280
     0
281
     1
  0
CLASS
  1
HATCH
  2
AcDbHatch
  3
AutoCAD 2000
 90
        0
280
     0
281
     1
  0
CLASS
  1
XRECORD
  2
AcDbXrecord
  3
AutoCAD 2000
 90
        0
280
     0
281
     0
  0
ENDSEC
  0
SECTION
  2
TABLES
  0
TABLE
  2
VPORT
  5
8
330
0
100
AcDbSymbolTable
 70
     3
  0
VPORT
  5
2E54
330
8
100
AcDbSymbolTableRecord
100
AcDbViewportTableRecord
  2
*ACTIVE
 70
     0
 10
0.0
 20
0.0
 11
1.0
 21
1.0
 12
-50.72671201406722
 22
-7.437633921982879
 13
0.0
 23
0.0
 14
2.5
 24
2.5
 15
10.0
 25
10.0
 16
0.0
 26
0.0
 36
1.0
 17
0.0
 27
0.0
 37
0.0
 40
89.10578188690735
 41
1.56570841889117
 42
50.0
 43
0.0
 44
0.0
 50
0.0
 51
0.0
 71
     0
 72
   100
 73
     1
 74
     1
 75
     0
 76
     0
 77
     0
 78
     0
  0
ENDTAB
  0
TABLE
  2
LTYPE
  5
5
330
0
100
AcDbSymbolTable
 70
    10
  0
LTYPE
  5
14
330
5
100
AcDbSymbolTableRecord
100
AcDbLinetypeTableRecord
  2
BYBLOCK
 70
     0
  3

 72
    65
 73
     0
 40
0.0
  0
LTYPE
  5
15
330
5
100
AcDbSymbolTableRecord
100
AcDbLinetypeTableRecord
  2
BYLAYER
 70
     0
  3

 72
    65
 73
     0
 40
0.0
  0
LTYPE
  5
16
330
5
100
AcDbSymbolTableRecord
100
AcDbLinetypeTableRecord
  2
CONTINUOUS
 70
     0
  3
Solid line
 72
    65
 73
     0
 40
0.0
  0
LTYPE
  5
4B
330
5
100
AcDbSymbolTableRecord
100
AcDbLinetypeTableRecord
  2
AM_ISO02W050
 70
     0
  3
__ __ __ __ __ __ __ __ __ __ __ __ __ __ __
 72
    65
 73
     2
 40
7.5
 49
6.0
 74
     0
 49
-1.5
 74
     0
  0
LTYPE
  5
4C
330
5
100
AcDbSymbolTableRecord
100
AcDbLinetypeTableRecord
  2
AM_ISO08W050
 70
     0
  3
____ . ____ . ____ . ____ . ____ . ____ . ____
 72
    65
 73
     4
 40
18.0
 49
12.0
 74
     0
 49
-1.5
 74
     0
 49
3.0
 74
     0
 49
-1.5
 74
     0
  0
LTYPE
  5
4D
330
5
100
AcDbSymbolTableRecord
100
AcDbLinetypeTableRecord
  2
AM_ISO09W050
 70
     0
  3
_____ . . _____ . . _____ . . ____ .. ____
 72
    65
 73
     6
 40
22.5
 49
12.0
 74
     0
 49
-1.5
 74
     0
 49
3.0
 74
     0
 49
-1.5
 74
     0
 49
3.0
 74
     0
 49
-1.5
 74
     0
  0
LTYPE
  5
4E
330
5
100
AcDbSymbolTableRecord
100
AcDbLinetypeTableRecord
  2
AMCONSTR
 70
     0
  3
_______________________
 72
    65
 73
     2
 40
9999.0
 49
9999.0
 74
     0
 49
0.0
 74
     0
  0
LTYPE
  5
4F
330
5
100
AcDbSymbolTableRecord
100
AcDbLinetypeTableRecord
  2
AM_ISO02W050X2
 70
     0
  3
 _ _ _ _ _ _ _ _ _ _ _ _
 72
    65
 73
     2
 40
3.75
 49
3.0
 74
     0
 49
-0.75
 74
     0
  0
LTYPE
  5
50
330
5
100
AcDbSymbolTableRecord
100
AcDbLinetypeTableRecord
  2
AM_ISO08W050X2
 70
     0
  3
__ . __ . __ . __ . __ . __
 72
    65
 73
     4
 40
9.0
 49
6.0
 74
     0
 49
-0.75
 74
     0
 49
1.5
 74
     0
 49
-0.75
 74
     0
  0
LTYPE
  5
53
330
5
100
AcDbSymbolTableRecord
100
AcDbLinetypeTableRecord
  2
AMZIGZAG
 70
     0
  3
/\/-/\/-/\/-/\/-/\/-/\/
 72
    65
 73
     2
 40
11.00009999999999
 49
0.0001
 74
     4
 75
   135
340
52
 46
0.04
 50
0.0
 44
0.0
 45
0.0
 49
-11.0
 74
     0
  0
LTYPE
  5
166
330
5
100
AcDbSymbolTableRecord
100
AcDbLinetypeTableRecord
  2
ACJISTGL
 70
     0
  3
_ _ _ _ _
 72
    65
 73
     2
 40
3.0
 49
2.0
 74
     0
 49
-1.0
 74
     0
  0
LTYPE
  5
26A
330
5
100
AcDbSymbolTableRecord
100
AcDbLinetypeTableRecord
  2
ACJISTGB
 70
     0
  3
__ . . __ . .
 72
    65
 73
     6
 40
9.0
 49
4.0
 74
     0
 49
-1.0
 74
     0
 49
1.0
 74
     0
 49
-1.0
 74
     0
 49
1.0
 74
     0
 49
-1.0
 74
     0
  0
ENDTAB
  0
TABLE
  2
LAYER
  5
2
330
0
100
AcDbSymbolTable
 70
     7
  0
LAYER
  5
10
330
2
100
AcDbSymbolTableRecord
100
AcDbLayerTableRecord
  2
0
 70
     0
 62
     7
  6
CONTINUOUS
  0
LAYER
  5
3F9
330
2
100
AcDbSymbolTableRecord
100
AcDbLayerTableRecord
  2
AM_0
 70
     0
 62
     7
  6
CONTINUOUS
  0
LAYER
  5
C7C
330
2
100
AcDbSymbolTableRecord
100
AcDbLayerTableRecord
  2
AM_7
 70
     0
 62
     4
  6
AM_ISO08W050
  0
LAYER
  5
C97
330
2
100
AcDbSymbolTableRecord
100
AcDbLayerTableRecord
  2
AM_11
 70
     0
 62
     3
  6
AM_ISO09W050
  0
LAYER
  5
CC5
330
2
100
AcDbSymbolTableRecord
100
AcDbLayerTableRecord
  2
AM_5
 70
     0
 62
     3
  6
CONTINUOUS
  0
LAYER
  5
CC7
330
2
100
AcDbSymbolTableRecord
100
AcDbLayerTableRecord
  2
DEFPOINTS
 70
     0
 62
     7
  6
CONTINUOUS
  0
LAYER
  5
19BC
330
2
100
AcDbSymbolTableRecord
100
AcDbLayerTableRecord
  2
AM_6
 70
     0
 62
     2
  6
CONTINUOUS
  0
ENDTAB
  0
TABLE
  2
STYLE
  5
3
330
0
100
AcDbSymbolTable
 70
     5
  0
STYLE
  5
11
330
3
100
AcDbSymbolTableRecord
100
AcDbTextStyleTableRecord
  2
STANDARD
 70
     0
 40
0.0
 41
1.0
 50
0.0
 71
     0
 42
2.5
  3
simplex.shx
  4
EXTFONT.SHX
  0
STYLE
  5
52
330
3
100
AcDbSymbolTableRecord
100
AcDbTextStyleTableRecord
  2

 70
     1
 40
0.0
 41
1.0
 50
0.0
 71
     0
 42
2.5
  3
ltypeshp.shx
  4

  0
STYLE
  5
6B
330
3
100
AcDbSymbolTableRecord
100
AcDbTextStyleTableRecord
  2
ASAMI
 70
     0
 40
0.0
 41
1.0
 50
0.0
 71
     0
 42
2.5
  3
simplex.shx
  4
EXTFONT.SHX
  0
STYLE
  5
262
330
3
100
AcDbSymbolTableRecord
100
AcDbTextStyleTableRecord
  2
ACJISTS
 70
     0
 40
1.0
 41
1.0
 50
0.0
 71
     0
 42
2.5
  3
simplex.shx
  4
bigfont.shx
  0
STYLE
  5
269
330
3
100
AcDbSymbolTableRecord
100
AcDbTextStyleTableRecord
  2
ACJISGDT
 70
     0
 40
0.0
 41
1.0
 50
0.0
 71
     0
 42
2.5
  3
amgdtans.shx
  4

  0
ENDTAB
  0
TABLE
  2
VIEW
  5
6
330
0
100
AcDbSymbolTable
 70
     0
  0
ENDTAB
  0
TABLE
  2
UCS
  5
7
330
0
100
AcDbSymbolTable
 70
     0
  0
ENDTAB
  0
TABLE
  2
APPID
  5
9
330
0
100
AcDbSymbolTable
 70
    16
  0
APPID
  5
12
330
9
100
AcDbSymbolTableRecord
100
AcDbRegAppTableRecord
  2
ACAD
 70
     0
  0
APPID
  5
30
330
9
100
AcDbSymbolTableRecord
100
AcDbRegAppTableRecord
  2
MCAD_NO_VIS
 70
     0
  0
APPID
  5
31
330
9
100
AcDbSymbolTableRecord
100
AcDbRegAppTableRecord
  2
ACAD_TEMP_GRAPHIC
 70
     0
  0
APPID
  5
2C2
330
9
100
AcDbSymbolTableRecord
100
AcDbRegAppTableRecord
  2
GENIUS_GENDTOL_13
 70
     0
  0
APPID
  5
339
330
9
100
AcDbSymbolTableRecord
100
AcDbRegAppTableRecord
  2
GENIUS_GENODEF_13
 70
     0
  0
APPID
  5
33A
330
9
100
AcDbSymbolTableRecord
100
AcDbRegAppTableRecord
  2
GENIUS_GENOBJ-N-RSBK_13
 70
     0
  0
APPID
  5
33B
330
9
100
AcDbSymbolTableRecord
100
AcDbRegAppTableRecord
  2
GENIUS_GENOBJ-N-LIB_13
 70
     0
  0
APPID
  5
33C
330
9
100
AcDbSymbolTableRecord
100
AcDbRegAppTableRecord
  2
GENIUS_GENSCALE_13
 70
     0
  0
APPID
  5
378
330
9
100
AcDbSymbolTableRecord
100
AcDbRegAppTableRecord
  2
GENIUS_GENDIMSH_14
 70
     0
  0
APPID
  5
C82
330
9
100
AcDbSymbolTableRecord
100
AcDbRegAppTableRecord
  2
GENIUS_GENOBJ-N-CRS_13
 70
     0
  0
APPID
  5
C83
330
9
100
AcDbSymbolTableRecord
100
AcDbRegAppTableRecord
  2
GENIUS_GENOENT_13
 70
     0
  0
APPID
  5
C84
330
9
100
AcDbSymbolTableRecord
100
AcDbRegAppTableRecord
  2
GENIUS_GENOREF_13
 70
     0
  0
APPID
  5
C85
330
9
100
AcDbSymbolTableRecord
100
AcDbRegAppTableRecord
  2
GENIUS_GENOLIS_13
 70
     0
  0
APPID
  5
CA0
330
9
100
AcDbSymbolTableRecord
100
AcDbRegAppTableRecord
  2
GENIUS_GENOBJ-N-CEN_13
 70
     0
  0
APPID
  5
2796
330
9
100
AcDbSymbolTableRecord
100
AcDbRegAppTableRecord
  2
GENIUS_GENFIL_13
 70
     0
  0
APPID
  5
2797
330
9
100
AcDbSymbolTableRecord
100
AcDbRegAppTableRecord
  2
GENIUS_GENOBJ-N-CHA_13
 70
     0
  0
ENDTAB
  0
TABLE
  2
DIMSTYLE
  5
A
330
0
100
AcDbSymbolTable
 70
     9
  0
DIMSTYLE
105
58
330
A
100
AcDbSymbolTableRecord
100
AcDbDimStyleTableRecord
  2
AM_JIS
 70
     0
  3

  4
"
  5
OPEN30
  6

  7

 40
0.5
 41
2.5
 42
1.0
 43
12.0
 44
1.0
 45
0.0
 46
0.0
 47
0.1
 48
0.1
140
3.2
141
0.0
142
0.0
143
0.0393701
144
1.0
145
0.0
146
0.71
147
1.5
 71
     0
 72
     0
 73
     0
 74
     0
 75
     0
 76
     0
 77
     3
 78
     8
170
     0
171
     2
172
     1
173
     0
174
     0
175
     0
176
   256
177
   256
178
     2
270
     2
271
     3
272
     3
273
     2
274
     2
340
6B
275
     0
280
     0
281
     0
282
     0
283
     0
284
     0
285
     0
286
     0
287
     3
288
     0
  0
DIMSTYLE
105
5F
330
A
100
AcDbSymbolTableRecord
100
AcDbDimStyleTableRecord
  2
AM_JIS$3
 70
     0
  3

  4
"
  5
OPEN30
  6

  7

 40
0.5
 41
2.5
 42
1.0
 43
10.0
 44
1.0
 45
0.0
 46
0.0
 47
0.1
 48
0.1
140
3.2
141
0.0
142
0.0
143
0.0393701
144
1.0
145
0.0
146
0.71
147
1.5
 71
     0
 72
     0
 73
     0
 74
     1
 75
     0
 76
     0
 77
     3
 78
     8
170
     0
171
     2
172
     0
173
     0
174
     0
175
     0
176
   256
177
   256
178
     2
270
     2
271
     2
272
     3
273
     2
274
     2
340
6B
275
     0
280
     0
281
     0
282
     0
283
     0
284
     0
285
     0
286
     0
287
     0
288
     1
  0
DIMSTYLE
105
60
330
A
100
AcDbSymbolTableRecord
100
AcDbDimStyleTableRecord
  2
AM_JIS$4
 70
     0
  3

  4
"
  5
OPEN30
  6

  7

 40
0.5
 41
2.5
 42
1.0
 43
10.0
 44
1.0
 45
0.0
 46
0.0
 47
0.1
 48
0.1
140
3.2
141
0.0
142
0.0
143
0.0393701
144
1.0
145
0.0
146
0.71
147
1.5
 71
     0
 72
     0
 73
     0
 74
     1
 75
     0
 76
     0
 77
     3
 78
     8
170
     0
171
     2
172
     0
173
     0
174
     0
175
     0
176
   256
177
   256
178
     2
270
     2
271
     2
272
     3
273
     2
274
     2
340
6B
275
     0
280
     0
281
     0
282
     0
283
     0
284
     0
285
     0
286
     0
287
     0
288
     1
  0
DIMSTYLE
105
61
330
A
100
AcDbSymbolTableRecord
100
AcDbDimStyleTableRecord
  2
AM_JIS$6
 70
     0
  3

  4
"
  5
OPEN30
  6

  7

 40
0.5
 41
2.5
 42
1.0
 43
10.0
 44
1.0
 45
0.0
 46
0.0
 47
0.1
 48
0.1
140
3.2
141
0.0
142
0.0
143
0.0393701
144
1.0
145
0.0
146
0.71
147
1.5
 71
     0
 72
     0
 73
     0
 74
     0
 75
     0
 76
     0
 77
     0
 78
     8
170
     0
171
     2
172
     1
173
     0
174
     0
175
     0
176
   256
177
   256
178
     2
270
     2
271
     2
272
     2
273
     2
274
     2
340
6B
275
     0
280
     0
281
     0
282
     0
283
     0
284
     0
285
     0
286
     0
287
     3
288
     0
  0
DIMSTYLE
105
62
330
A
100
AcDbSymbolTableRecord
100
AcDbDimStyleTableRecord
  2
AM_JIS$7
 70
     0
  3

  4
"
  5
OPEN30
  6

  7

 40
0.5
 41
2.5
 42
1.0
 43
10.0
 44
1.0
 45
0.0
 46
0.0
 47
0.1
 48
0.1
140
3.2
141
0.0
142
0.0
143
0.0393701
144
1.0
145
0.0
146
0.71
147
1.5
 71
     0
 72
     0
 73
     0
 74
     0
 75
     0
 76
     0
 77
     3
 78
     8
170
     0
171
     2
172
     1
173
     0
174
     0
175
     0
176
   256
177
   256
178
     2
270
     2
271
     2
272
     3
273
     2
274
     2
340
6B
275
     0
280
     0
281
     0
282
     0
283
     0
284
     0
285
     0
286
     0
287
     3
288
     0
  0
DIMSTYLE
105
63
330
A
100
AcDbSymbolTableRecord
100
AcDbDimStyleTableRecord
  2
AM_JIS$SF
 70
     0
  3

  4
"
  5
OPEN30
  6

  7

 40
0.5
 41
2.5
 42
1.0
 43
10.0
 44
1.0
 45
0.0
 46
0.0
 47
0.1
 48
0.1
140
3.2
141
0.0
142
0.0
143
0.0393701
144
1.0
145
0.0
146
0.71
147
1.5
 71
     0
 72
     0
 73
     0
 74
     0
 75
     1
 76
     1
 77
     3
 78
     8
170
     0
171
     2
172
     1
173
     0
174
     0
175
     0
176
   256
177
   256
178
     2
270
     2
271
     2
272
     2
273
     2
274
     2
340
6B
275
     0
280
     0
281
     0
282
     0
283
     0
284
     0
285
     0
286
     0
287
     3
288
     0
  0
DIMSTYLE
105
68
330
A
100
AcDbSymbolTableRecord
100
AcDbDimStyleTableRecord
  2
AM_JIS$SH
 70
     0
  3

  4
"
  5

  6
GENAXEH
  7
OPEN30
 40
0.5
 41
2.5
 42
1.0
 43
10.0
 44
1.0
 45
0.0
 46
0.0
 47
0.1
 48
0.1
140
3.2
141
0.0
142
0.0
143
0.0393701
144
2.0
145
0.0
146
0.71
147
1.5
 71
     0
 72
     0
 73
     0
 74
     0
 75
     1
 76
     1
 77
     3
 78
     8
170
     0
171
     2
172
     1
173
     1
174
     0
175
     0
176
   256
177
   256
178
     2
270
     2
271
     2
272
     2
273
     2
274
     2
340
6B
275
     0
280
     0
281
     0
282
     0
283
     0
284
     0
285
     0
286
     0
287
     3
288
     0
  0
DIMSTYLE
105
B34
102
{ACAD_REACTORS
330
29BA
102
}
330
A
100
AcDbSymbolTableRecord
100
AcDbDimStyleTableRecord
  2
AM_JIS$2
 70
     0
  3

  4
"
  5
OPEN30
  6

  7

 40
0.5
 41
2.5
 42
1.0
 43
12.0
 44
1.0
 45
0.0
 46
0.0
 47
0.1
 48
0.1
140
3.2
141
0.0
142
0.0
143
0.0393701
144
1.0
145
0.0
146
0.71
147
1.5
 71
     0
 72
     0
 73
     0
 74
     0
 75
     0
 76
     0
 77
     3
 78
     8
170
     0
171
     2
172
     1
173
     0
174
     0
175
     0
176
   256
177
   256
178
     2
270
     2
271
     3
272
     3
273
     2
274
     2
340
6B
275
     0
280
     0
281
     0
282
     0
283
     0
284
     0
285
     0
286
     0
287
     3
288
     0
  0
DIMSTYLE
105
BA5
102
{ACAD_REACTORS
330
CC6
330
2069
330
2599
330
2C54
102
}
330
A
100
AcDbSymbolTableRecord
100
AcDbDimStyleTableRecord
  2
AM_JIS$0
 70
     0
  3

  4
"
  5
OPEN30
  6

  7

 40
0.5
 41
2.5
 42
0.0
 43
10.0
 44
1.0
 45
0.0
 46
0.0
 47
0.1
 48
0.1000000001
140
3.799999999999999
141
0.0
142
0.0
143
0.0393701
144
1.0
145
0.0
146
0.71
147
1.5
 71
     0
 72
     0
 73
     0
 74
     0
 75
     0
 76
     0
 77
     3
 78
     1
170
     0
171
     2
172
     1
173
     0
174
     0
175
     0
176
     3
177
     3
178
     2
270
     2
271
     2
272
     2
273
     2
274
     2
340
11
275
     1
280
     0
281
     0
282
     0
283
     0
284
     8
285
     0
286
     0
287
     0
288
     0
  0
ENDTAB
  0
TABLE
  2
BLOCK_RECORD
  5
1
330
0
100
AcDbSymbolTable
 70
    11
  0
BLOCK_RECORD
  5
1F
102
{ACAD_XDICTIONARY
360
74
102
}
330
1
100
AcDbSymbolTableRecord
100
AcDbBlockTableRecord
  2
*MODEL_SPACE
  0
BLOCK_RECORD
  5
101
102
{ACAD_XDICTIONARY
360
2E7D
102
}
330
1
100
AcDbSymbolTableRecord
100
AcDbBlockTableRecord
  2
*PAPER_SPACE
  0
BLOCK_RECORD
  5
59
330
1
100
AcDbSymbolTableRecord
100
AcDbBlockTableRecord
  2
_OPEN30
  0
BLOCK_RECORD
  5
64
330
1
100
AcDbSymbolTableRecord
100
AcDbBlockTableRecord
  2
GENAXEH
  0
BLOCK_RECORD
  5
CC8
330
1
100
AcDbSymbolTableRecord
100
AcDbBlockTableRecord
  2
*D5
  0
BLOCK_RECORD
  5
206A
330
1
100
AcDbSymbolTableRecord
100
AcDbBlockTableRecord
  2
*D6
  0
BLOCK_RECORD
  5
259A
330
1
100
AcDbSymbolTableRecord
100
AcDbBlockTableRecord
  2
*D7
  0
BLOCK_RECORD
  5
29BB
330
1
100
AcDbSymbolTableRecord
100
AcDbBlockTableRecord
  2
*D8
  0
BLOCK_RECORD
  5
2C55
330
1
100
AcDbSymbolTableRecord
100
AcDbBlockTableRecord
  2
*D9
  0
ENDTAB
  0
ENDSEC
  0
SECTION
  2
BLOCKS
  0
BLOCK
  5
20
330
1F
100
AcDbEntity
  8
0
100
AcDbBlockBegin
  2
*MODEL_SPACE
 70
     0
 10
0.0
 20
0.0
 30
0.0
  3
*MODEL_SPACE
  1

  0
ENDBLK
  5
21
330
1F
100
AcDbEntity
  8
0
100
AcDbBlockEnd
  0
BLOCK
  5
103
330
101
100
AcDbEntity
 67
     1
  8
0
100
AcDbBlockBegin
  2
*PAPER_SPACE
 70
     0
 10
0.0
 20
0.0
 30
0.0
  3
*PAPER_SPACE
  1

  0
ENDBLK
  5
104
330
101
100
AcDbEntity
 67
     1
  8
0
100
AcDbBlockEnd
  0
BLOCK
  5
5D
330
59
100
AcDbEntity
  8
0
100
AcDbBlockBegin
  2
_OPEN30
 70
     0
 10
0.0
 20
0.0
 30
0.0
  3
_OPEN30
  1

  0
LINE
  5
5A
330
59
100
AcDbEntity
  8
0
 62
     0
100
AcDbLine
 10
-1.0
 20
0.26794919
 30
0.0
 11
0.0
 21
0.0
 31
0.0
  0
LINE
  5
5B
330
59
100
AcDbEntity
  8
0
 62
     0
100
AcDbLine
 10
0.0
 20
0.0
 30
0.0
 11
-1.0
 21
-0.26794919
 31
0.0
  0
LINE
  5
5C
330
59
100
AcDbEntity
  8
0
 62
     0
100
AcDbLine
 10
0.0
 20
0.0
 30
0.0
 11
-1.0
 21
0.0
 31
0.0
  0
ENDBLK
  5
5E
330
59
100
AcDbEntity
  8
0
100
AcDbBlockEnd
  0
BLOCK
  5
66
330
64
100
AcDbEntity
  8
0
100
AcDbBlockBegin
  2
GENAXEH
 70
     0
 10
0.0
 20
0.0
 30
0.0
  3
GENAXEH
  1

  0
LINE
  5
65
330
64
100
AcDbEntity
  8
0
100
AcDbLine
 10
-1.0
 20
0.0
 30
0.0
 11
1.0
 21
0.0
 31
0.0
  0
ENDBLK
  5
67
330
64
100
AcDbEntity
  8
0
100
AcDbBlockEnd
  0
BLOCK
  5
CD2
330
CC8
100
AcDbEntity
  8
0
100
AcDbBlockBegin
  2
*D5
 70
     1
 10
0.0
 20
0.0
 30
0.0
  3
*D5
  1

  0
LINE
  5
2E0B
330
CC8
100
AcDbEntity
  8
AM_5
 62
     3
100
AcDbLine
 10
-108.0
 20
-4.49999242885898
 30
0.0
 11
-108.0
 21
-17.49999342885879
 31
0.0
  0
LINE
  5
2E0C
330
CC8
100
AcDbEntity
  8
AM_5
 62
     3
100
AcDbLine
 10
-2.000000000000057
 20
-4.700008478342279
 30
0.0
 11
-2.000000000000058
 21
-17.49999342885879
 31
0.0
  0
LINE
  5
2E0D
330
CC8
100
AcDbEntity
  8
AM_5
 62
     3
100
AcDbLine
 10
-106.75
 20
-16.99999342885879
 30
0.0
 11
-3.250000000000058
 21
-16.99999342885879
 31
0.0
  0
INSERT
  5
2E0E
330
CC8
100
AcDbEntity
  8
AM_5
 62
     3
100
AcDbBlockReference
  2
_OPEN30
 10
-108.0
 20
-16.99999342885879
 30
0.0
 41
1.25
 42
1.25
 43
1.25
 50
180.0
  0
INSERT
  5
2E0F
330
CC8
100
AcDbEntity
  8
AM_5
 62
     3
100
AcDbBlockReference
  2
_OPEN30
 10
-2.000000000000058
 20
-16.99999342885879
 30
0.0
 41
1.25
 42
1.25
 43
1.25
  0
MTEXT
  5
2E10
330
CC8
100
AcDbEntity
  8
AM_5
 62
     2
100
AcDbMText
 10
-55.00000000000003
 20
-15.29999342885879
 30
0.0
 40
1.9
 41
0.0
 71
     5
 72
     1
  1
106
1001
ACAD
1000
MTEXTBEGIN
1070
    73
1070
     1
1070
    44
1040
1.0
1070
    74
1070
     0
1000
MTEXTEND
  0
POINT
  5
2E11
330
CC8
100
AcDbEntity
  8
DEFPOINTS
 62
     0
100
AcDbPoint
 10
-108.0
 20
-4.49999242885898
 30
0.0
  0
POINT
  5
2E12
330
CC8
100
AcDbEntity
  8
DEFPOINTS
 62
     0
100
AcDbPoint
 10
-2.000000000000057
 20
-4.700008478342279
 30
0.0
  0
POINT
  5
2E13
330
CC8
100
AcDbEntity
  8
DEFPOINTS
 62
     0
100
AcDbPoint
 10
-2.000000000000058
 20
-16.99999342885879
 30
0.0
  0
ENDBLK
  5
CD3
330
CC8
100
AcDbEntity
  8
0
100
AcDbBlockEnd
  0
BLOCK
  5
2074
330
206A
100
AcDbEntity
  8
0
100
AcDbBlockBegin
  2
*D6
 70
     1
 10
0.0
 20
0.0
 30
0.0
  3
*D6
  1

  0
LINE
  5
2E1D
330
206A
100
AcDbEntity
  8
AM_5
 62
     3
100
AcDbLine
 10
-51.99999999999997
 20
-4.999992428858938
 30
0.0
 11
-51.99999999999995
 21
-12.49999342885891
 31
0.0
  0
LINE
  5
2E1E
330
206A
100
AcDbEntity
  8
AM_5
 62
     3
100
AcDbLine
 10
-2.000000000000043
 20
-4.700008478342286
 30
0.0
 11
-2.000000000000021
 21
-12.49999342885876
 31
0.0
  0
LINE
  5
2E1F
330
206A
100
AcDbEntity
  8
AM_5
 62
     3
100
AcDbLine
 10
-50.74999999999995
 20
-11.99999342885891
 30
0.0
 11
-3.250000000000023
 21
-11.99999342885877
 31
0.0
  0
INSERT
  5
2E20
330
206A
100
AcDbEntity
  8
AM_5
 62
     3
100
AcDbBlockReference
  2
_OPEN30
 10
-51.99999999999995
 20
-11.99999342885891
 30
0.0
 41
1.25
 42
1.25
 43
1.25
 50
180.0000000000001
  0
INSERT
  5
2E21
330
206A
100
AcDbEntity
  8
AM_5
 62
     3
100
AcDbBlockReference
  2
_OPEN30
 10
-2.000000000000023
 20
-11.99999342885876
 30
0.0
 41
1.25
 42
1.25
 43
1.25
 50
0.0000000000001527
  0
MTEXT
  5
2E22
330
206A
100
AcDbEntity
  8
AM_5
 62
     2
100
AcDbMText
 10
-26.99999999999999
 20
-10.29999342885884
 30
0.0
 40
1.9
 41
0.0
 71
     5
 72
     1
  1
50
1001
ACAD
1000
MTEXTBEGIN
1070
    73
1070
     1
1070
    44
1040
1.0
1070
    74
1070
     0
1000
MTEXTEND
  0
POINT
  5
2E23
330
206A
100
AcDbEntity
  8
DEFPOINTS
 62
     0
100
AcDbPoint
 10
-51.99999999999999
 20
-4.999992428858787
 30
0.0
  0
POINT
  5
2E24
330
206A
100
AcDbEntity
  8
DEFPOINTS
 62
     0
100
AcDbPoint
 10
-2.000000000000057
 20
-4.700008478342279
 30
0.0
  0
POINT
  5
2E25
330
206A
100
AcDbEntity
  8
DEFPOINTS
 62
     0
100
AcDbPoint
 10
-2.000000000000058
 20
-11.99999342885876
 30
0.0
  0
ENDBLK
  5
2075
330
206A
100
AcDbEntity
  8
0
100
AcDbBlockEnd
  0
BLOCK
  5
25A4
330
259A
100
AcDbEntity
  8
0
100
AcDbBlockBegin
  2
*D7
 70
     1
 10
0.0
 20
0.0
 30
0.0
  3
*D7
  1

  0
LINE
  5
2E14
330
259A
100
AcDbEntity
  8
AM_5
 62
     3
100
AcDbLine
 10
-107.4999999999999
 20
-4.999992428859312
 30
0.0
 11
-118.000001
 21
-4.999992428859342
 31
0.0
  0
LINE
  5
2E15
330
259A
100
AcDbEntity
  8
AM_5
 62
     3
100
AcDbLine
 10
-107.5
 20
5.000024525351115
 30
0.0
 11
-118.000001
 21
5.000024525351085
 31
0.0
  0
LINE
  5
2E16
330
259A
100
AcDbEntity
  8
AM_5
 62
     3
100
AcDbLine
 10
-117.500001
 20
-3.74999242885934
 30
0.0
 11
-117.500001
 21
3.750024525351086
 31
0.0
  0
INSERT
  5
2E17
330
259A
100
AcDbEntity
  8
AM_5
 62
     3
100
AcDbBlockReference
  2
_OPEN30
 10
-117.500001
 20
-4.99999242885934
 30
0.0
 41
1.25
 42
1.25
 43
1.25
 50
270.0000000000001
  0
INSERT
  5
2E18
330
259A
100
AcDbEntity
  8
AM_5
 62
     3
100
AcDbBlockReference
  2
_OPEN30
 10
-117.500001
 20
5.000024525351086
 30
0.0
 41
1.25
 42
1.25
 43
1.25
 50
90.00000000000015
  0
MTEXT
  5
2E19
330
259A
100
AcDbEntity
  8
AM_5
 62
     2
100
AcDbMText
 10
-119.200001
 20
0.000010750055256
 30
0.0
 40
1.9
 41
0.0
 71
     5
 72
     1
  1
%%c10
 11
-0.0000000000000028
 21
1.0
 31
0.0
1001
ACAD
1000
MTEXTBEGIN
1070
    73
1070
     1
1070
    44
1040
1.0
1070
    74
1070
     0
1000
MTEXTEND
  0
POINT
  5
2E1A
330
259A
100
AcDbEntity
  8
DEFPOINTS
 62
     0
100
AcDbPoint
 10
-107.4999999999999
 20
-4.999992428858978
 30
0.0
  0
POINT
  5
2E1B
330
259A
100
AcDbEntity
  8
DEFPOINTS
 62
     0
100
AcDbPoint
 10
-107.5
 20
5.000024525351449
 30
0.0
  0
POINT
  5
2E1C
330
259A
100
AcDbEntity
  8
DEFPOINTS
 62
     0
100
AcDbPoint
 10
-117.500001
 20
5.000024525351451
 30
0.0
  0
ENDBLK
  5
25A5
330
259A
100
AcDbEntity
  8
0
100
AcDbBlockEnd
  0
BLOCK
  5
29C9
330
29BB
100
AcDbEntity
  8
0
100
AcDbBlockBegin
  2
*D8
 70
     1
 10
0.0
 20
0.0
 30
0.0
  3
*D8
  1

  0
LINE
  5
2E7F
330
29BB
100
AcDbEntity
  8
AM_5
100
AcDbLine
 10
0.1710100704080526
 20
-0.4698463108496607
 30
0.0
 11
4.867341367584936
 21
-13.37291061133782
 31
0.0
  0
LINE
  5
2E80
330
29BB
100
AcDbEntity
  8
AM_5
100
AcDbLine
 10
0.1710111111829663
 20
0.4698459320372618
 30
0.0
 11
4.867370990441532
 21
13.37289982946269
 31
0.0
  0
ARC
  5
2E81
330
29BB
100
AcDbEntity
  8
AM_5
100
AcDbCircle
 10
-0.000000000000018
 20
-0.0000000000000035
 30
0.0
 40
13.73115421206008
100
AcDbArc
 50
295.217658650686
 51
64.78221443114371
  0
INSERT
  5
2E82
330
29BB
100
AcDbEntity
  8
AM_5
100
AcDbBlockReference
  2
_OPEN30
 10
4.696331297176866
 20
-12.90306430048817
 30
0.0
 41
1.25
 42
1.25
 43
1.25
 50
202.6088292488362
  0
INSERT
  5
2E83
330
29BB
100
AcDbEntity
  8
AM_5
100
AcDbBlockReference
  2
_OPEN30
 10
4.69635987925855
 20
12.90305389742543
 30
0.0
 41
1.25
 42
1.25
 43
1.25
 50
157.3910438329935
  0
MTEXT
  5
2E84
330
29BB
100
AcDbEntity
  8
AM_5
 62
     2
100
AcDbMText
 10
12.18115421205259
 20
-0.0000134914806787
 30
0.0
 40
1.6
 41
0.0
 71
     5
 72
     1
  1
140°
  7
ASAMI
 11
0.0000011075699751
 21
0.9999999999993868
 31
0.0
  0
POINT
  5
2E85
330
29BB
100
AcDbEntity
  8
DEFPOINTS
 62
     0
100
AcDbPoint
 10
12.60816294294829
 20
-5.43864166860075
 30
0.0
  0
POINT
  5
2E86
330
29BB
100
AcDbEntity
  8
DEFPOINTS
 62
     0
100
AcDbPoint
 10
-0.0000000000000161
 20
0.0000000000000017
 30
0.0
  0
POINT
  5
2E87
330
29BB
100
AcDbEntity
  8
DEFPOINTS
 62
     0
100
AcDbPoint
 10
-0.000000000000016
 20
-0.000000000000009
 30
0.0
  0
POINT
  5
2E88
330
29BB
100
AcDbEntity
  8
DEFPOINTS
 62
     0
100
AcDbPoint
 10
-0.5665999554321783
 20
1.556720596349271
 30
0.0
  0
POINT
  5
2E89
330
29BB
100
AcDbEntity
  8
DEFPOINTS
 62
     0
100
AcDbPoint
 10
-0.566611281190725
 20
-1.556740984093225
 30
0.0
  0
ENDBLK
  5
29CA
330
29BB
100
AcDbEntity
  8
0
100
AcDbBlockEnd
  0
BLOCK
  5
2C5F
330
2C55
100
AcDbEntity
  8
0
100
AcDbBlockBegin
  2
*D9
 70
     1
 10
0.0
 20
0.0
 30
0.0
  3
*D9
  1

  0
LINE
  5
2E31
330
2C55
100
AcDbEntity
  8
AM_5
 62
     3
100
AcDbLine
 10
-1.999999999999993
 20
4.700000485978379
 30
0.0
 11
9.819901031072216
 21
4.700000485978412
 31
0.0
  0
LINE
  5
2E32
330
2C55
100
AcDbEntity
  8
AM_5
 62
     3
100
AcDbLine
 10
-1.999999999999941
 20
-4.700008478342167
 30
0.0
 11
9.819901031072244
 21
-4.700008478342134
 31
0.0
  0
LINE
  5
2E33
330
2C55
100
AcDbEntity
  8
AM_5
 62
     3
100
AcDbLine
 10
9.31990103107222
 20
3.450000485978411
 30
0.0
 11
9.319901031072241
 21
-3.450008478342135
 31
0.0
  0
INSERT
  5
2E34
330
2C55
100
AcDbEntity
  8
AM_5
 62
     3
100
AcDbBlockReference
  2
_OPEN30
 10
9.319901031072216
 20
4.70000048597841
 30
0.0
 41
1.25
 42
1.25
 43
1.25
 50
90.00000000000017
  0
INSERT
  5
2E35
330
2C55
100
AcDbEntity
  8
AM_5
 62
     3
100
AcDbBlockReference
  2
_OPEN30
 10
9.319901031072244
 20
-4.700008478342136
 30
0.0
 41
1.25
 42
1.25
 43
1.25
 50
270.0000000000001
  0
MTEXT
  5
2E36
330
2C55
100
AcDbEntity
  8
AM_5
 62
     2
100
AcDbMText
 10
7.61990103107223
 20
-0.0000039961818676
 30
0.0
 40
1.9
 41
0.0
 71
     5
 72
     1
  1
%%c9.4
 11
-0.0000000000000028
 21
1.0
 31
0.0
1001
ACAD
1000
MTEXTBEGIN
1070
    73
1070
     1
1070
    44
1040
1.0
1070
    74
1070
     0
1000
MTEXTEND
  0
POINT
  5
2E37
330
2C55
100
AcDbEntity
  8
DEFPOINTS
 62
     0
100
AcDbPoint
 10
-1.999999999999979
 20
4.700000485978384
 30
0.0
  0
POINT
  5
2E38
330
2C55
100
AcDbEntity
  8
DEFPOINTS
 62
     0
100
AcDbPoint
 10
-1.999999999999956
 20
-4.700008478342161
 30
0.0
  0
POINT
  5
2E39
330
2C55
100
AcDbEntity
  8
DEFPOINTS
 62
     0
100
AcDbPoint
 10
9.319901031072229
 20
-4.700008478342164
 30
0.0
  0
ENDBLK
  5
2C60
330
2C55
100
AcDbEntity
  8
0
100
AcDbBlockEnd
  0
ENDSEC
  0
SECTION
  2
ENTITIES
  0
LINE
  5
C1D
330
1F
100
AcDbEntity
  8
AM_0
 48
0.5
100
AcDbLine
 10
-0.000000000000016
 20
-0.000000000000009
 30
0.0
 11
-0.5665999554321783
 21
1.556720596349271
 31
0.0
  0
LINE
  5
C20
330
1F
100
AcDbEntity
  8
AM_0
 48
0.5
100
AcDbLine
 10
-0.0000000000000161
 20
0.0000000000000017
 30
0.0
 11
-0.566611281190725
 21
-1.556740984093225
 31
0.0
  0
DIMENSION
  5
CC6
330
1F
100
AcDbEntity
  8
AM_5
100
AcDbDimension
  2
*D5
 10
-2.000000000000058
 20
-16.99999342885879
 30
0.0
 11
-55.00000000000003
 21
-15.29999342885879
 31
0.0
 70
    32
  1
<>
  3
AM_JIS$0
100
AcDbAlignedDimension
 13
-108.0
 23
-4.49999242885898
 33
0.0
 14
-2.000000000000057
 24
-4.700008478342279
 34
0.0
 50
0.0000000000001132
100
AcDbRotatedDimension
1001
GENIUS_GENDTOL_13
1000

1000
h7
1000

1040
0.0
1001
ACAD
1000
DSTYLE
1002
{
1070
   271
1070
     0
1002
}
  0
TEXT
  5
19BD
330
1F
100
AcDbEntity
  8
AM_6
100
AcDbText
 10
-66.24999999999997
 20
-28.25000402524005
 30
0.0
 40
2.5
  1
MDW094MHK
 50
0.0000000000001527
 72
     4
 11
-54.99999999999996
 21
-27.00000402524002
 31
0.0
100
AcDbText
  0
DIMENSION
  5
2069
330
1F
100
AcDbEntity
  8
AM_5
100
AcDbDimension
  2
*D6
 10
-2.000000000000058
 20
-11.99999342885876
 30
0.0
 11
-27.00000000000002
 21
-10.29999342885876
 31
0.0
 70
    32
  1
<>
 51
359.9999999999998
  3
AM_JIS$0
100
AcDbAlignedDimension
 13
-51.99999999999999
 23
-4.999992428858787
 33
0.0
 14
-2.000000000000057
 24
-4.700008478342279
 34
0.0
 50
0.0000000000001527
100
AcDbRotatedDimension
1001
ACAD
1000
DSTYLE
1002
{
1070
   271
1070
     0
1070
   174
1070
     1
1002
}
1001
GENIUS_GENDTOL_13
1000

1000
h7
1000

1040
0.0
  0
LINE
  5
23EF
330
1F
100
AcDbEntity
  8
AM_7
100
AcDbLine
 10
-110.4999999999999
 20
0.0000000000007097
 30
0.0
 11
2.319900031072529
 21
-0.0000000000000149
 31
0.0
1001
GENIUS_GENODEF_13
1002
{
1000
HIER
1070
     0
1002
}
1002
{
1000
MANEDIT
1070
     0
1002
}
1002
{
1000
NOSEL
1070
     0
1002
}
1002
{
1000
BEHIND
1070
     0
1002
}
1002
{
1000
REACTOR
1002
}
1001
GENIUS_GENOBJ-N-CEN_13
1002
{
1000
OWNER
1000
GEN
1002
}
  0
LINE
  5
24A7
330
1F
100
AcDbEntity
  8
AM_0
 48
0.5
100
AcDbLine
 10
-1.584795172291402
 20
4.170854053486491
 30
0.0
 11
-1.999999999999979
 21
4.700000485978384
 31
0.0
  0
ELLIPSE
  5
24B7
330
1F
100
AcDbEntity
  8
AM_11
 48
0.5
100
AcDbEllipse
 10
-17.32962994420975
 20
20.09720314218303
 30
0.0
 11
-23.19725211461353
 21
0.0000000000001765
 31
0.0
210
0.0
220
0.0
230
1.0
 40
0.9578947368421058
 41
1.130070686340284
 42
2.011520147323574
  0
ELLIPSE
  5
24B8
330
1F
100
AcDbEntity
  8
AM_11
 48
0.5
100
AcDbEllipse
 10
-17.32962994421085
 20
-20.09718855347517
 30
0.0
 11
-23.1972521146135
 21
0.0000000000001044
 31
0.0
210
0.0
220
0.0
230
1.0
 40
0.9578947368421054
 41
4.271664206181664
 42
5.153113667164971
  0
ELLIPSE
  5
24B9
330
1F
100
AcDbEntity
  8
AM_11
 48
0.5
100
AcDbEllipse
 10
2.462036722456931
 20
20.09720314218251
 30
0.0
 11
-23.19725211461348
 21
0.0000000000018145
 31
0.0
210
0.0
220
0.0
230
1.0
 40
0.9578947368421141
 41
1.130070686340349
 42
1.291800737381041
  0
ELLIPSE
  5
24BE
330
1F
100
AcDbEntity
  8
AM_0
 48
0.5
100
AcDbEllipse
 10
6.650934204183215
 20
5.62517483392228
 30
0.0
 11
-8.374499956766587
 21
0.0000000000003389
 31
0.0
210
0.0
220
0.0
230
1.0
 40
0.9578947368421003
 41
0.1823039054871158
 42
0.5318968824397438
  0
ELLIPSE
  5
24C7
330
1F
100
AcDbEntity
  8
AM_11
 48
0.5
100
AcDbEllipse
 10
-76.70462994420418
 20
20.09720314218454
 30
0.0
 11
-23.19725211461353
 21
0.0000000000005165
 31
0.0
210
0.0
220
0.0
230
1.0
 40
0.9578947368421058
 41
1.130070686340301
 42
2.011520147323591
  0
ELLIPSE
  5
24C8
330
1F
100
AcDbEntity
  8
AM_11
 48
0.5
100
AcDbEllipse
 10
-76.70462994420532
 20
-20.09718855347365
 30
0.0
 11
23.1972521146135
 21
0.0000000000003877
 31
0.0
210
0.0
220
0.0
230
1.0
 40
0.957894736842107
 41
1.13007155259185
 42
2.011521013575156
  0
ELLIPSE
  5
24C9
330
1F
100
AcDbEntity
  8
AM_11
 48
0.5
100
AcDbEllipse
 10
-96.49629661087184
 20
-20.09718855347319
 30
0.0
 11
-23.19725211461353
 21
0.0000000000000787
 31
0.0
210
0.0
220
0.0
230
1.0
 40
0.9578947368421061
 41
4.271664206181663
 42
5.153113667164971
  0
ELLIPSE
  5
24CA
330
1F
100
AcDbEntity
  8
AM_11
 48
0.5
100
AcDbEllipse
 10
-96.4962966108707
 20
20.097203142185
 30
0.0
 11
-23.19725211461357
 21
0.0000000000000117
 31
0.0
210
0.0
220
0.0
230
1.0
 40
0.9578947368421045
 41
1.130070686340277
 42
2.011520147323567
  0
ELLIPSE
  5
24D4
330
1F
100
AcDbEntity
  8
AM_11
 48
0.5
100
AcDbEllipse
 10
-56.91296327753753
 20
20.09720314218406
 30
0.0
 11
-23.19725211461356
 21
0.0000000000001353
 31
0.0
210
0.0
220
0.0
230
1.0
 40
0.9578947368421049
 41
1.130070686340283
 42
2.011520147323574
  0
ELLIPSE
  5
24D5
330
1F
100
AcDbEntity
  8
AM_11
 48
0.5
100
AcDbEllipse
 10
-56.91296327753864
 20
-20.09718855347414
 30
0.0
 11
-23.19725211461346
 21
0.0000000000004186
 31
0.0
210
0.0
220
0.0
230
1.0
 40
0.9578947368421083
 41
4.271664206181676
 42
5.153113667164986
  0
ELLIPSE
  5
24E6
330
1F
100
AcDbEntity
  8
AM_11
 48
0.5
100
AcDbEllipse
 10
-37.12129661087752
 20
-20.09718855347466
 30
0.0
 11
-23.19725211461349
 21
0.0000000000006298
 31
0.0
210
0.0
220
0.0
230
1.0
 40
0.957894736842106
 41
4.271664206181685
 42
5.153113667164993
  0
ELLIPSE
  5
24E7
330
1F
100
AcDbEntity
  8
AM_11
 48
0.5
100
AcDbEllipse
 10
-37.12129661087641
 20
20.09720314218353
 30
0.0
 11
23.19725211461354
 21
0.0000000000000375
 31
0.0
210
0.0
220
0.0
230
1.0
 40
0.9578947368421051
 41
4.271663339930067
 42
5.153112800913361
  0
LINE
  5
2567
330
1F
100
AcDbEntity
  8
AM_0
 48
0.5
100
AcDbLine
 10
-108.0
 20
-4.49999242885898
 30
0.0
 11
-108.0
 21
4.500011279874355
 31
0.0
  0
LINE
  5
2568
330
1F
100
AcDbEntity
  8
AM_0
 48
0.5
100
AcDbLine
 10
-107.4999999999999
 20
-4.999992428859004
 30
0.0
 11
-107.5
 21
5.000011279874357
 31
0.0
  0
LINE
  5
2569
330
1F
100
AcDbEntity
  8
AM_0
 48
0.5
100
AcDbLine
 10
-51.99999999999999
 20
-4.999992428858787
 30
0.0
 11
-52.00000000000001
 21
5.000024525351641
 31
0.0
  0
LINE
  5
256C
330
1F
100
AcDbEntity
  8
AM_0
100
AcDbLine
 10
-107.4999999999999
 20
-4.999992428858978
 30
0.0
 11
-51.99999999999999
 21
-4.999992428858771
 31
0.0
  0
LINE
  5
256E
330
1F
100
AcDbEntity
  8
AM_0
 48
0.5
100
AcDbLine
 10
-51.48042499823489
 20
-4.700009165856125
 30
0.0
 11
-52.00001059638124
 21
-4.999992428858787
 31
0.0
  0
LINE
  5
256F
330
1F
100
AcDbEntity
  8
AM_0
100
AcDbLine
 10
-52.00000000000002
 20
5.000011279874561
 30
0.0
 11
-107.5
 21
5.000011279874357
 31
0.0
  0
LINE
  5
2571
330
1F
100
AcDbEntity
  8
AM_0
 48
0.5
100
AcDbLine
 10
-51.48134143039893
 20
4.699995802406419
 30
0.0
 11
-52.00000000000002
 21
4.999443697290728
 31
0.0
  0
LINE
  5
2572
330
1F
100
AcDbEntity
  8
AM_0
100
AcDbLine
 10
-51.48134143039894
 20
4.699995802406422
 30
0.0
 11
-51.48134143039893
 21
-4.700538268879514
 31
0.0
  0
DIMENSION
  5
2599
330
1F
100
AcDbEntity
  8
AM_5
100
AcDbDimension
  2
*D7
 10
-117.500001
 20
5.000024525351451
 30
0.0
 11
-117.500001
 21
0.0000107500556026
 31
0.0
 70
   160
  1
%%c<>
 51
359.9999999999998
  3
AM_JIS$0
100
AcDbAlignedDimension
 13
-107.4999999999999
 23
-4.999992428858978
 33
0.0
 14
-107.5
 24
5.000024525351449
 34
0.0
 50
270.0000000000002
100
AcDbRotatedDimension
1001
ACAD
1000
DSTYLE
1002
{
1070
   271
1070
     0
1002
}
1001
GENIUS_GENDTOL_13
1000

1000
h7
1000

1040
0.0
  0
ELLIPSE
  5
278C
330
1F
100
AcDbEntity
  8
AM_11
 48
0.5
100
AcDbEllipse
 10
-116.287959372568
 20
-20.09716981670651
 30
0.0
 11
-23.19725211461353
 21
0.0000000000000787
 31
0.0
210
0.0
220
0.0
230
1.0
 40
0.9578947368421061
 41
4.271664206181663
 42
4.347032845605132
  0
ELLIPSE
  5
278D
330
1F
100
AcDbEntity
  8
AM_11
 48
0.5
100
AcDbEllipse
 10
-116.2879593725669
 20
20.09722187895169
 30
0.0
 11
-23.19725211461357
 21
0.0000000000000117
 31
0.0
210
0.0
220
0.0
230
1.0
 40
0.9578947368421045
 41
1.936152461574404
 42
2.011520147323567
  0
LINE
  5
279A
330
1F
100
AcDbEntity
  8
AM_0
 48
0.5
100
AcDbLine
 10
-107.4999999999999
 20
-4.999992428858978
 30
0.0
 11
-108.0
 21
-4.49999242885898
 31
0.0
1001
GENIUS_GENFIL_13
1070
     0
1040
0.5
1040
0.5
1040
20.0
1040
0.0
1002
{
1002
}
1001
GENIUS_GENODEF_13
1002
{
1000
HIER
1070
     0
1002
}
1002
{
1000
MANEDIT
1070
     0
1002
}
1002
{
1000
NOSEL
1070
     0
1002
}
1002
{
1000
BEHIND
1070
     0
1002
}
1002
{
1000
REACTOR
1002
}
1001
GENIUS_GENOBJ-N-CHA_13
1002
{
1000
OWNER
1000
GEN
1002
}
  0
LINE
  5
279D
330
1F
100
AcDbEntity
  8
AM_0
 48
0.5
100
AcDbLine
 10
-107.5
 20
5.000011279874357
 30
0.0
 11
-108.0
 21
4.500011279874355
 31
0.0
1001
GENIUS_GENFIL_13
1070
     0
1040
0.5
1040
0.5
1040
20.0
1040
0.0
1002
{
1002
}
1001
GENIUS_GENODEF_13
1002
{
1000
HIER
1070
     0
1002
}
1002
{
1000
MANEDIT
1070
     0
1002
}
1002
{
1000
NOSEL
1070
     0
1002
}
1002
{
1000
BEHIND
1070
     0
1002
}
1002
{
1000
REACTOR
1002
}
1001
GENIUS_GENOBJ-N-CHA_13
1002
{
1000
OWNER
1000
GEN
1002
}
  0
DIMENSION
  5
29BA
330
1F
100
AcDbEntity
  8
AM_5
100
AcDbDimension
  2
*D8
 10
-0.566611281190725
 20
-1.556740984093225
 30
0.0
 11
12.18115421205259
 21
-0.0000134914807148
 31
0.0
 70
    34
  1
<>
 51
359.9999999999998
  3
AM_JIS$2
100
AcDb2LineAngularDimension
 13
-0.000000000000016
 23
-0.000000000000009
 33
0.0
 14
-0.5665999554321783
 24
1.556720596349271
 34
0.0
 15
-0.0000000000000161
 25
0.0000000000000017
 35
0.0
 16
12.60816294294829
 26
-5.43864166860075
 36
0.0
1001
GENIUS_GENDTOL_13
1000

1000
h7
1000

1040
0.0
1001
ACAD
1000
DSTYLE
1002
{
1070
   271
1070
     1
1070
   179
1070
     1
1002
}
  0
ELLIPSE
  5
2C43
330
1F
100
AcDbEntity
  8
AM_0
 48
0.5
100
AcDbEllipse
 10
6.650934204183188
 20
-5.625174833922331
 30
0.0
 11
-8.374499956766587
 21
-0.0000000000002981
 31
0.0
210
0.0
220
0.0
230
-1.0
 40
0.9578947368421003
 41
0.1823039054871158
 42
0.5318968824397438
  0
DIMENSION
  5
2C54
330
1F
100
AcDbEntity
  8
AM_5
100
AcDbDimension
  2
*D9
 10
9.319901031072229
 20
-4.700008478342164
 30
0.0
 11
7.61990103107223
 21
-0.0000039961818898
 31
0.0
 70
    32
  1
%%c<>
 51
359.9999999999998
  3
AM_JIS$0
100
AcDbAlignedDimension
 13
-1.999999999999979
 23
4.700000485978384
 33
0.0
 14
-1.999999999999956
 24
-4.700008478342161
 34
0.0
 50
89.9999999999982
100
AcDbRotatedDimension
1001
ACAD
1000
DSTYLE
1002
{
1070
   271
1070
     1
1002
}
1001
GENIUS_GENDTOL_13
1000

1000
h7
1000

1040
0.0
  0
LINE
  5
2DBA
330
1F
100
AcDbEntity
  8
AM_0
 48
0.5
100
AcDbLine
 10
-51.48042499823491
 20
-4.700009165856126
 30
0.0
 11
-47.86062356561785
 21
-4.699999590058527
 31
0.0
  0
LINE
  5
2DBB
330
1F
100
AcDbEntity
  8
AM_0
 48
0.5
100
AcDbLine
 10
-46.09764082594472
 20
4.700092857891014
 30
0.0
 11
-51.48134143039893
 21
4.699995802406419
 31
0.0
  0
LINE
  5
2DBC
330
1F
100
AcDbEntity
  8
AM_0
 48
0.5
100
AcDbLine
 10
-4.472379094804384
 20
4.700000485978478
 30
0.0
 11
-1.999999999999979
 21
4.700000485978384
 31
0.0
  0
LINE
  5
2DBD
330
1F
100
AcDbEntity
  8
AM_0
 48
0.5
100
AcDbLine
 10
-0.0000000000000303
 20
0.0000000000000018
 30
0.0
 11
-2.334417835153641
 21
1.804657722713097
 31
0.0
  0
LINE
  5
2DBE
330
1F
100
AcDbEntity
  8
AM_0
 48
0.5
100
AcDbLine
 10
-1.584788688160512
 20
-4.170840138961091
 30
0.0
 11
-2.000000000000057
 21
-4.700008478342279
 31
0.0
  0
LINE
  5
2DBF
330
1F
100
AcDbEntity
  8
AM_0
 48
0.5
100
AcDbLine
 10
-4.472379094804709
 20
-4.699999514021524
 30
0.0
 11
-2.000000000000052
 21
-4.700008478559555
 31
0.0
  0
LINE
  5
2DC0
330
1F
100
AcDbEntity
  8
AM_0
 48
0.5
100
AcDbLine
 10
-36.47392404719644
 20
4.700000485979596
 30
0.0
 11
-19.55277383967711
 21
4.700000485979001
 31
0.0
  0
LINE
  5
2DC1
330
1F
100
AcDbEntity
  8
AM_0
 48
0.5
100
AcDbLine
 10
-32.97197925205221
 20
-4.699999514020629
 30
0.0
 11
-19.55276882917989
 21
-4.700008478559495
 31
0.0
  0
LINE
  5
2DC2
330
1F
100
AcDbEntity
  8
AM_0
 48
0.5
100
AcDbLine
 10
-39.08424886067706
 20
2.355559813250342
 30
0.0
 11
-49.50000000000001
 21
-0.3762606412269414
 31
0.0
  0
LINE
  5
2DC3
330
1F
100
AcDbEntity
  8
AM_11
 48
0.5
100
AcDbLine
 10
-46.09764082594471
 20
4.700668206276086
 30
0.0
 11
-36.47391105854115
 21
4.700000485979596
 31
0.0
  0
LINE
  5
2DC4
330
1F
100
AcDbEntity
  8
AM_11
 48
0.5
100
AcDbLine
 10
-47.68146292999634
 20
-4.700239054360791
 30
0.0
 11
-36.47340489064845
 21
-4.700239054361185
 31
0.0
  0
LINE
  5
2DC5
330
1F
100
AcDbEntity
  8
AM_11
 48
0.5
100
AcDbLine
 10
-47.87664436696974
 20
-4.700007294866865
 30
0.0
 11
-32.97197925205221
 21
-4.700667234316768
 31
0.0
  0
LINE
  5
2DC6
330
1F
100
AcDbEntity
  8
AM_11
 48
0.5
100
AcDbLine
 10
-19.55277383967711
 20
4.700000485979001
 30
0.0
 11
-4.472379094804384
 21
4.700000485978478
 31
0.0
  0
LINE
  5
2DC7
330
1F
100
AcDbEntity
  8
AM_11
 48
0.5
100
AcDbLine
 10
-19.55276882917989
 20
-4.700008478559495
 30
0.0
 11
-4.472379094804709
 21
-4.699999514021524
 31
0.0
  0
SPLINE
  5
2DC8
330
1F
100
AcDbEntity
  8
AM_0
 48
0.5
100
AcDbSpline
210
0.0
220
0.0
230
1.0
 70
     8
 71
     3
 72
    26
 73
    22
 74
     0
 42
0.0000000001
 43
0.0000000001
 40
0.0
 40
0.0
 40
0.0
 40
0.0
 40
0.8422864037471089
 40
1.685694647057321
 40
2.531315797913884
 40
3.380177287502886
 40
4.233214169721234
 40
5.09125020057522
 40
5.954967768899448
 40
6.824900391836836
 40
7.701419186604396
 40
8.584724417931369
 40
9.47485577056355
 40
10.37165251267315
 40
11.27486274211709
 40
12.18400675634887
 40
13.09851504074504
 40
14.01768673654235
 40
14.94071745659532
 40
15.8667176994736
 40
16.76607142455336
 40
16.76607142455336
 40
16.76607142455336
 40
16.76607142455336
 10
-34.32396888732947
 20
-4.70023905436126
 30
0.0
 10
-34.59070767718975
 20
-4.697442668347576
 30
0.0
 10
-35.12454052576678
 20
-4.691846171819294
 30
0.0
 10
-35.92509552610421
 20
-4.646732123147298
 30
0.0
 10
-36.72561635609096
 20
-4.575012580768357
 30
0.0
 10
-37.5260876329351
 20
-4.474494878342182
 30
0.0
 10
-38.3265014109043
 20
-4.346541381490824
 30
0.0
 10
-39.12684174265116
 20
-4.191720483377968
 30
0.0
 10
-39.92710809574488
 20
-4.011078214062167
 30
0.0
 10
-40.72729501238657
 20
-3.805711703708514
 30
0.0
 10
-41.52740060085688
 20
-3.576895217200831
 30
0.0
 10
-42.32743144605469
 20
-3.32605292738339
 30
0.0
 10
-43.12738423291345
 20
-3.054733704540777
 30
0.0
 10
-43.92726802512352
 20
-2.764601888065958
 30
0.0
 10
-44.72709351768236
 20
-2.457475410491536
 30
0.0
 10
-45.52686243871256
 20
-2.13521738017802
 30
0.0
 10
-46.32658075007112
 20
-1.799829912501618
 30
0.0
 10
-47.12626313764382
 20
-1.453382275727252
 30
0.0
 10
-47.9258963857915
 20
-1.097960920086917
 30
0.0
 10
-48.71731566318115
 20
-0.739660045239349
 30
0.0
 10
-49.24166071074195
 20
-0.4989510041838877
 30
0.0
 10
-49.50000603993773
 20
-0.3803534189846862
 30
0.0
  0
ELLIPSE
  5
2DC9
330
1F
100
AcDbEntity
  8
AM_0
 48
0.5
100
AcDbEllipse
 10
-47.91676680352924
 20
-3.133572387694141
 30
0.0
 11
-1.282366789356274
 21
0.9763148333914163
 31
0.0
210
0.0
220
0.0
230
1.0
 40
0.9552849396443697
 41
0.684141776125045
 42
2.2357580845754
  0
ELLIPSE
  5
2DCA
330
1F
100
AcDbEntity
  8
AM_0
 48
0.5
100
AcDbEllipse
 10
-48.31289005385436
 20
-3.181305567422251
 30
0.0
 11
1.090669910762656
 21
0.4746900548572469
 31
0.0
210
0.0
220
0.0
230
0.9999999999999998
 40
0.990673992113442
 41
0.8738861121677437
 42
2.702132294429555
  0
SPLINE
  5
2DCB
330
1F
100
AcDbEntity
  8
AM_0
 48
0.5
100
AcDbSpline
210
0.0
220
0.0
230
1.0
 70
     8
 71
     3
 72
    17
 73
    13
 74
     0
 42
0.0000000001
 43
0.0000000001
 40
0.0
 40
0.0
 40
0.0
 40
0.0
 40
1.010743614677189
 40
2.022833924044153
 40
3.037578959561199
 40
4.056212747067873
 40
5.079857613375832
 40
6.109500119648989
 40
7.14596120163808
 40
8.18989512056258
 40
9.241717674284874
 40
9.693948937866434
 40
9.693948937866434
 40
9.693948937866434
 40
9.693948937866434
 10
-4.472379094804384
 20
4.700000485978478
 30
0.0
 10
-4.739117933175861
 20
4.69720611505477
 30
0.0
 10
-5.272951007441997
 20
4.691613650043157
 30
0.0
 10
-6.073505333831158
 20
4.646487258176239
 30
0.0
 10
-6.874026701863392
 20
4.574775299763545
 30
0.0
 10
-7.674498284279204
 20
4.47425742634901
 30
0.0
 10
-8.474910547693964
 20
4.346296891020774
 30
0.0
 10
-9.275253715863103
 20
4.191486964615803
 30
0.0
 10
-10.07551704683619
 20
4.010824209827822
 30
0.0
 10
-10.87573159404281
 20
3.805524894849969
 30
0.0
 10
-11.52168564316455
 20
3.620581245416262
 30
0.0
 10
-11.90102773379218
 20
3.50496486845968
 30
0.0
 10
-12.01488587744384
 20
3.46957546944327
 30
0.0
  0
SPLINE
  5
2DCC
330
1F
100
AcDbEntity
  8
AM_0
 48
0.5
100
AcDbSpline
210
0.0
220
0.0
230
1.0
 70
     8
 71
     3
 72
    16
 73
    12
 74
     0
 42
0.0000000001
 43
0.0000000001
 40
0.0
 40
0.0
 40
0.0
 40
0.0
 40
1.010743614677189
 40
2.022833924044153
 40
3.037578959561199
 40
4.056212747067873
 40
5.079857613375832
 40
6.109500119648989
 40
7.14596120163808
 40
8.18989512056258
 40
8.545190612624931
 40
8.545190612624931
 40
8.545190612624931
 40
8.545190612624931
 10
-4.472379094804384
 20
4.700000485978478
 30
0.0
 10
-4.739103104233063
 20
4.699972242976941
 30
0.0
 10
-5.272957900378209
 20
4.690328254242371
 30
0.0
 10
-6.07350347413976
 20
4.646832812459408
 30
0.0
 10
-6.874027227342695
 20
4.574682295903046
 30
0.0
 10
-7.674498050176729
 20
4.474282261010961
 30
0.0
 10
-8.474910958231003
 20
4.346291148817361
 30
0.0
 10
-9.27525229682749
 20
4.191484872505452
 30
0.0
 10
-10.07552236252717
 20
4.010838520897152
 30
0.0
 10
-10.69776942994674
 20
3.851138180786205
 30
0.0
 10
-11.05343313125424
 20
3.752918517453569
 30
0.0
 10
-11.14362745956195
 20
3.727572220452015
 30
0.0
  0
SPLINE
  5
2DCD
330
1F
100
AcDbEntity
  8
AM_0
 48
0.5
100
AcDbSpline
210
0.0
220
0.0
230
1.0
 70
     8
 71
     3
 72
    25
 73
    21
 74
     0
 42
0.0000000001
 43
0.0000000001
 40
6.846175049578289
 40
6.846175049578289
 40
6.846175049578289
 40
6.846175049578289
 40
7.604337694224321
 40
8.711974558287883
 40
9.814980593243754
 40
10.91239053451967
 40
12.0033633515982
 40
13.08720139956839
 40
14.16337181880432
 40
15.23152222380919
 40
16.29148850140128
 40
17.34331105512262
 40
18.38723020264746
 40
19.42369128463655
 40
20.45333379090873
 40
21.47697865721768
 40
22.49561244472435
 40
23.5103574802404
 40
24.52244778960836
 40
25.53320666051913
 40
25.53320666051913
 40
25.53320666051913
 40
25.53320666051913
 10
-5.4060277208934
 20
0.850731256177448
 30
0.0
 10
-5.587886413192154
 20
0.9332548972582282
 30
0.0
 10
-6.035814087682432
 20
1.13551556594008
 30
0.0
 10
-6.750476412522576
 20
1.45313762612142
 30
0.0
 10
-7.550155224979877
 20
1.799592833325857
 30
0.0
 10
-8.349874253804028
 20
2.134978891972225
 30
0.0
 10
-9.149640370071876
 20
2.457233659962752
 30
0.0
 10
-9.949462485151672
 20
2.764368987082782
 30
0.0
 10
-10.74934799488565
 20
3.054490800448703
 30
0.0
 10
-11.54930060232247
 20
3.325816091524307
 30
0.0
 10
-12.34933016082607
 20
3.576656316371855
 30
0.0
 10
-13.14943558706093
 20
3.805473313308145
 30
0.0
 10
-13.94962262801644
 20
4.010839266668063
 30
0.0
 10
-14.74988845979573
 20
4.191483198585256
 30
0.0
 10
-15.55022995615602
 20
4.346297891001749
 30
0.0
 10
-16.35064266357304
 20
4.474257160327377
 30
0.0
 10
-17.15111412794645
 20
4.574775371195676
 30
0.0
 10
-17.95163552726833
 20
4.646487236912411
 30
0.0
 10
-18.75219386666413
 20
4.691613890594108
 30
0.0
 10
-19.28603097245699
 20
4.697206181131782
 30
0.0
 10
-19.55277383967711
 20
4.700000485979001
 30
0.0
  0
SPLINE
  5
2DCE
330
1F
100
AcDbEntity
  8
AM_0
100
AcDbSpline
210
0.0
220
0.0
230
1.0
 70
     8
 71
     3
 72
    22
 73
    18
 74
     0
 42
0.0000000001
 43
0.0000000001
 40
17.17441611292
 40
17.17441611292
 40
17.17441611292
 40
17.17441611292
 40
17.38177636558528
 40
18.41823744757437
 40
19.46215659509824
 40
20.51397914882054
 40
21.57394542641293
 40
22.64209583141747
 40
23.71826625065247
 40
24.80210429862395
 40
25.8930771157021
 40
26.99048705697709
 40
28.09349309193389
 40
29.20112995599786
 40
30.31233024745139
 40
31.42594771747373
 40
32.5407895042663
 40
32.54078950426994
 40
32.54078950426994
 40
32.54078950426994
 10
-22.60831493201121
 20
-4.22063353097147
 30
0.0
 10
-22.66192123499576
 20
-4.209753491955789
 30
0.0
 10
-22.98326174528097
 20
-4.143481985093683
 30
0.0
 10
-23.57193945265782
 20
-4.010598988406503
 30
0.0
 10
-24.37212643275398
 20
-3.805233355253871
 30
0.0
 10
-25.17223187547656
 20
-3.576416271542777
 30
0.0
 10
-25.9722614295251
 20
-3.325576070245653
 30
0.0
 10
-26.77221403811623
 20
-3.054250772668344
 30
0.0
 10
-27.57209954773897
 20
-2.764128961515632
 30
0.0
 10
-28.37192166208804
 20
-2.456993632091957
 30
0.0
 10
-29.17168778141994
 20
-2.13473887114481
 30
0.0
 10
-29.97140679862681
 20
-1.799352786429666
 30
0.0
 10
-30.7710856547873
 20
-1.452897677123761
 30
0.0
 10
-31.57073239996191
 20
-1.097504993603424
 30
0.0
 10
-32.37035412232306
 20
-0.7353599985909256
 30
0.0
 10
-33.16996266757122
 20
-0.3686973224477538
 30
0.0
 10
-33.70293039534885
 20
-0.1227844432536797
 30
0.0
 10
-33.9695606693096
 20
0.0002395403420863
 30
0.0
  0
SPLINE
  5
2DCF
330
1F
100
AcDbEntity
  8
AM_0
100
AcDbSpline
210
0.0
220
0.0
230
1.0
 70
     8
 71
     3
 72
    46
 73
    42
 74
     0
 42
0.0000000001
 43
0.0000000001
 40
0.0
 40
0.0
 40
0.0
 40
0.0
 40
1.685415058684571
 40
2.531036209541119
 40
3.379897699130121
 40
4.232934581347655
 40
5.090970612202441
 40
5.954688180526682
 40
6.824620803463246
 40
7.701151815239689
 40
8.584457046566678
 40
9.474582384070741
 40
10.37139106676737
 40
11.27458944007583
 40
12.18373345430765
 40
13.09824173870457
 40
14.01741343450111
 40
14.9404441545541
 40
15.86644439743314
 40
16.79446029130534
 40
17.7234937712985
 40
18.65252725129241
 40
19.58054314516461
 40
20.50654338804289
 40
21.42957410809586
 40
22.34874580389317
 40
23.26325408828901
 40
24.17239810252111
 40
25.07560240389441
 40
25.97241108659103
 40
26.8625364240951
 40
27.74584165542183
 40
28.62236045019041
 40
29.49229307312697
 40
30.35601064145121
 40
31.21404606334468
 40
32.06708345193547
 40
32.91595755657689
 40
33.76157841950693
 40
34.60498701064689
 40
35.44727335621125
 40
35.44727335621125
 40
35.44727335621125
 40
35.44727335621125
 10
-2.231369064693828
 20
-4.699999514021609
 30
0.0
 10
-2.765227995428624
 20
-4.689292550707286
 30
0.0
 10
-3.566939287560582
 20
-4.673213596325621
 30
0.0
 10
-4.633009753924442
 20
-4.574218428058903
 30
0.0
 10
-5.433489637923316
 20
-4.474404964563942
 30
0.0
 10
-6.233901099947881
 20
-4.346261432338569
 30
0.0
 10
-7.034242031440272
 20
-4.191491802345515
 30
0.0
 10
-7.834508320892174
 20
-4.010836005267594
 30
0.0
 10
-8.634698627977792
 20
-3.805470898943143
 30
0.0
 10
-9.434809391567616
 20
-3.576657455525552
 30
0.0
 10
-10.23484221089118
 20
-3.325814860844876
 30
0.0
 10
-11.03479493410346
 20
-3.05448989841808
 30
0.0
 10
-11.83468041287293
 20
-2.764367996888566
 30
0.0
 10
-12.63450253480295
 20
-2.457232690286957
 30
0.0
 10
-13.43426865500383
 20
-2.134977929399653
 30
0.0
 10
-14.23398766098135
 20
-1.799591821193164
 30
0.0
 10
-15.03366656151333
 20
-1.453136806496424
 30
0.0
 10
-15.83331313949316
 20
-1.097743766023856
 30
0.0
 10
-16.63293587345412
 20
-0.7355999356936601
 30
0.0
 10
-17.43254206800207
 20
-0.3689322454975681
 30
0.0
 10
-18.23214154091921
 20
0.0000004859043072
 30
0.0
 10
-19.03174101366068
 20
0.3689332177545106
 30
0.0
 10
-19.83134720873553
 20
0.7356009066062745
 30
0.0
 10
-20.63096994077061
 20
1.09774474184939
 30
0.0
 10
-21.43061652589174
 20
1.453137764101728
 30
0.0
 10
-22.23029539994445
 20
1.799592846357233
 30
0.0
 10
-23.03001450398374
 20
2.134978704369852
 30
0.0
 10
-23.82978200011289
 20
2.457235091294708
 30
0.0
 10
-24.62960722976581
 20
2.764367607416361
 30
0.0
 10
-25.42949413540841
 20
3.054490996591631
 30
0.0
 10
-26.2294468399955
 20
3.325816039752042
 30
0.0
 10
-27.02947637287513
 20
3.57665632940364
 30
0.0
 10
-27.82958180549146
 20
3.805473312371374
 30
0.0
 10
-28.62976884625393
 20
4.010839257634757
 30
0.0
 10
-29.43003467255373
 20
4.191483235262007
 30
0.0
 10
-30.23037619080712
 20
4.346297754546625
 30
0.0
 10
-31.03079276111939
 20
4.474258296164837
 30
0.0
 10
-31.83126852044836
 20
4.574774427848392
 30
0.0
 10
-32.63179380482297
 20
4.646487395015121
 30
0.0
 10
-33.43234814766998
 20
4.691613615925021
 30
0.0
 10
-33.96618121974617
 20
4.697206103687813
 30
0.0
 10
-34.23292005702329
 20
4.700000485979517
 30
0.0
  0
SPLINE
  5
2DD0
330
1F
100
AcDbEntity
  8
AM_0
100
AcDbSpline
210
0.0
220
0.0
230
1.0
 70
     8
 71
     3
 72
    23
 73
    19
 74
     0
 42
0.0000000001
 43
0.0000000001
 40
16.03460024169435
 40
16.03460024169435
 40
16.03460024169435
 40
16.03460024169435
 40
16.35212704903564
 40
17.38177054169784
 40
18.41822485651776
 40
19.46214173629503
 40
20.51396345435107
 40
21.57393551351153
 40
22.64208202342361
 40
23.7182574881101
 40
24.80209208578934
 40
25.89306333925047
 40
26.99048218457928
 40
28.09348763352352
 40
29.20111863782268
 40
30.31232390128032
 40
31.42594612798585
 40
32.5407912310448
 40
32.5407912310486
 40
32.5407912310486
 40
32.5407912310486
 10
-46.09764082594471
 20
4.700668206276085
 30
0.0
 10
-46.01539363804444
 20
4.684801833944278
 30
0.0
 10
-45.66679391500755
 20
4.615708248127511
 30
0.0
 10
-45.05273174871632
 20
4.480329911730117
 30
0.0
 10
-44.25751963584808
 20
4.279023805990253
 30
0.0
 10
-43.4630461533945
 20
4.052990603575119
 30
0.0
 10
-42.66926435528396
 20
3.803538469371333
 30
0.0
 10
-41.87614606879368
 20
3.532058104611582
 30
0.0
 10
-41.08364545358754
 20
3.240101405547668
 30
0.0
 10
-40.29170732293487
 20
2.929367486934965
 30
0.0
 10
-39.50028667606675
 20
2.601616016837632
 30
0.0
 10
-38.70932006192017
 20
2.258754104692365
 30
0.0
 10
-37.91874338149613
 20
1.902774612065473
 30
0.0
 10
-37.12850396092528
 20
1.535724271803393
 30
0.0
 10
-36.33853568183514
 20
1.159737431369253
 30
0.0
 10
-35.5487653764325
 20
0.7770095780657726
 30
0.0
 10
-34.75912873512047
 20
0.3897585161637987
 30
0.0
 10
-34.23284570499672
 20
0.1301278538277385
 30
0.0
 10
-33.96956066930608
 20
0.0002395403403977
 30
0.0
  0
SPLINE
  5
2DD1
330
1F
100
AcDbEntity
  8
AM_0
100
AcDbSpline
210
0.0
220
0.0
230
1.0
 70
     8
 71
     3
 72
    55
 73
    51
 74
     0
 42
0.0000000001
 43
0.0000000001
 40
0.0
 40
0.0
 40
0.0
 40
0.0
 40
1.010743684496582
 40
2.022833576467832
 40
3.037578957496688
 40
4.056212745003489
 40
5.079857003664532
 40
6.109500240690281
 40
7.145961322679372
 40
8.189895241603872
 40
9.241717795325891
 40
10.30168407291828
 40
11.36983447792315
 40
12.44600489715814
 40
13.52984294512926
 40
14.62081576220742
 40
15.7182257034828
 40
16.82123173843959
 40
17.92886860250316
 40
19.0400688939571
 40
20.15368796660465
 40
21.26852814259644
 40
22.38336992938901
 40
23.49698739941135
 40
24.6081876908653
 40
25.71582455492886
 40
26.81883757994213
 40
27.91624752121713
 40
29.00722033829659
 40
30.09105838626677
 40
31.16722880550176
 40
32.23537921050758
 40
33.29534548809967
 40
34.347168041821
 40
35.39108718934584
 40
36.42754827133493
 40
37.45720575381954
 40
38.48085062012849
 40
39.49948440763516
 40
40.51422944315121
 40
41.52631975251916
 40
42.53706336719636
 40
43.54780698187354
 40
44.55989729124051
 40
45.57464232675757
 40
46.59327611426424
 40
47.6169209805722
 40
48.64656348684535
 40
49.68302456883444
 40
50.58557219878025
 40
50.58557219878025
 40
50.58557219878025
 40
50.58557219878025
 10
-4.472379094804709
 20
-4.699999514021524
 30
0.0
 10
-4.739117884632913
 20
-4.697203127885978
 30
0.0
 10
-5.272950733145479
 20
-4.691606631113843
 30
0.0
 10
-6.073505733965444
 20
-4.646492584274284
 30
0.0
 10
-6.874026562110884
 20
-4.574773034903256
 30
0.0
 10
-7.674497845876341
 20
-4.474255358759926
 30
0.0
 10
-8.474911597818481
 20
-4.346301763074436
 30
0.0
 10
-9.275252027563574
 20
-4.191481237096019
 30
0.0
 10
-10.07552181221487
 20
-4.01083670707037
 30
0.0
 10
-10.87571385499672
 20
-3.805474353667591
 30
0.0
 10
-11.67582270514292
 20
-3.57665508927948
 30
0.0
 10
-12.47585235075379
 20
-3.325815188775258
 30
0.0
 10
-13.27580493446826
 20
-3.054489809542457
 30
0.0
 10
-14.07569045105308
 20
-2.764368020988152
 30
0.0
 10
-14.87551256268213
 20
-2.457232683663434
 30
0.0
 10
-15.67527868589619
 20
-2.13497793156986
 30
0.0
 10
-16.47499769020976
 20
-1.799591819179967
 30
0.0
 10
-17.27467659438387
 20
-1.453136812402126
 30
0.0
 10
-18.07432315939336
 20
-1.097743744302341
 30
0.0
 10
-18.87394594179627
 20
-0.7356000169919645
 30
0.0
 10
-19.67355195504556
 20
-0.3689319412784662
 30
0.0
 10
-20.47315249081675
 20
-0.000000472991696
 30
0.0
 10
-21.27274943705059
 20
0.3689376362914243
 30
0.0
 10
-22.07235813040494
 20
0.7356000020131241
 30
0.0
 10
-22.87197992566281
 20
1.097744825511947
 30
0.0
 10
-23.67162791643328
 20
1.453139247500915
 30
0.0
 10
-24.47131013805908
 20
1.799591297570891
 30
0.0
 10
-25.27103040454052
 20
2.134979110835024
 30
0.0
 10
-26.07079664321421
 20
2.457233601613217
 30
0.0
 10
-26.8706187257403
 20
2.764369003527343
 30
0.0
 10
-27.67050424437332
 20
3.05449079250604
 30
0.0
 10
-28.47045684846319
 20
3.325816106860853
 30
0.0
 10
-29.27048641150225
 20
3.576656263495691
 30
0.0
 10
-30.07059182307455
 20
3.805473507412624
 30
0.0
 10
-30.87077891759284
 20
4.010838550549863
 30
0.0
 10
-31.67104840538559
 20
4.191486713109751
 30
0.0
 10
-32.47139454982956
 20
4.346289556434969
 30
0.0
 10
-33.27181094611255
 20
4.474282756463215
 30
0.0
 10
-34.07228246717352
 20
4.574681281875564
 30
0.0
 10
-34.87280385154515
 20
4.646836357943695
 30
0.0
 10
-35.67335817358989
 20
4.690315125040838
 30
0.0
 10
-36.47393008733036
 20
4.704839942456866
 30
0.0
 10
-37.27450199989287
 20
4.690315125018119
 30
0.0
 10
-38.07505632547824
 20
4.646836358035157
 30
0.0
 10
-38.87557769681423
 20
4.574681281531398
 30
0.0
 10
-39.67604926674905
 20
4.474282757757222
 30
0.0
 10
-40.47646157711419
 20
4.346290175557586
 30
0.0
 10
-41.27680456849901
 20
4.191488295885457
 30
0.0
 10
-42.04068753940452
 20
4.019038833439922
 30
0.0
 10
-42.53630351027457
 20
3.892924911272585
 30
0.0
 10
-42.76624043417025
 20
3.831463444792824
 30
0.0
  0
SPLINE
  5
2DD2
330
1F
100
AcDbEntity
  8
AM_0
 48
0.5
100
AcDbSpline
210
0.0
220
0.0
230
1.0
 70
     8
 71
     3
 72
    10
 73
     6
 74
     0
 42
0.0000000001
 43
0.0000000001
 40
0.0
 40
0.0
 40
0.0
 40
0.0
 40
2.69986029516136
 40
4.147722969032201
 40
6.285750005020438
 40
6.285750005020438
 40
6.285750005020438
 40
6.285750005020438
 10
-5.405899729773635
 20
0.8506754330812828
 30
0.0
 10
-4.836128572894475
 20
0.4140129546174661
 30
0.0
 10
-3.960804424191272
 20
-0.2568199010250392
 30
0.0
 10
-1.890780396917369
 20
0.067942036391611
 30
0.0
 10
-2.280626131614057
 20
1.161783214011668
 30
0.0
 10
-2.334417835153641
 20
1.804657722713097
 30
0.0
  0
SPLINE
  5
2DD3
330
1F
100
AcDbEntity
  8
AM_0
 48
0.5
100
AcDbSpline
210
0.0
220
0.0
230
1.0
 70
     8
 71
     3
 72
    22
 73
    18
 74
     0
 42
0.0000000001
 43
0.0000000001
 40
0.0
 40
0.0
 40
0.0
 40
0.0
 40
1.010743684496582
 40
2.022833993863546
 40
3.037578683882831
 40
4.056212471389632
 40
5.079857945358201
 40
6.109499720892564
 40
7.145961650132166
 40
8.189873411961459
 40
9.241710626092514
 40
10.30166235592959
 40
11.36982472628033
 40
12.44598212828784
 40
13.52983440361964
 40
14.62080578343036
 40
14.90544694398022
 40
14.90544694398022
 40
14.90544694398022
 40
14.90544694398022
 10
-36.56497891744034
 20
-4.700239054361186
 30
0.0
 10
-36.83171775823777
 20
-4.697443503651666
 30
0.0
 10
-37.36555081890888
 20
-4.691848677689857
 30
0.0
 10
-38.16610498089755
 20
-4.646722063813276
 30
0.0
 10
-38.96662667529119
 20
-4.575014588683728
 30
0.0
 10
-39.76709838469526
 20
-4.474496819877631
 30
0.0
 10
-40.56750995657664
 20
-4.346531286678358
 30
0.0
 10
-41.36785304080227
 20
-4.1917237746874
 30
0.0
 10
-42.16811590950535
 20
-4.011074941017229
 30
0.0
 10
-42.96830406557266
 20
-3.805705457377526
 30
0.0
 10
-43.76841030213212
 20
-3.576897616491027
 30
0.0
 10
-44.56843880046035
 20
-3.32604396865107
 30
0.0
 10
-45.36839471780163
 20
-3.054740810310543
 30
0.0
 10
-46.16827745329519
 20
-2.764601027260649
 30
0.0
 10
-46.96810199180166
 20
-2.457472941281174
 30
0.0
 10
-47.56922602776916
 20
-2.215269215456497
 30
0.0
 10
-47.90419331765759
 20
-2.076833351204443
 30
0.0
 10
-47.97345341469616
 20
-2.048067610836516
 30
0.0
  0
SPLINE
  5
2DD4
330
1F
100
AcDbEntity
  8
AM_0
100
AcDbSpline
210
0.0
220
0.0
230
1.0
 70
     8
 71
     3
 72
    11
 73
     7
 74
     0
 42
0.0000000001
 43
0.0000000001
 40
11.27226913003534
 40
11.27226913003534
 40
11.27226913003534
 40
11.2722691300354
 40
12.28301561507924
 40
13.29510212255852
 40
14.30984805882082
 40
15.18258238371378
 40
15.18258238371378
 40
15.18258238371378
 40
15.18258238371378
 10
-19.55276882917994
 20
-4.700008478559495
 30
0.0
 10
-19.81849835380258
 20
-4.676996348209908
 30
0.0
 10
-20.34944617508996
 20
-4.621306684919915
 30
0.0
 10
-21.14312619145482
 20
-4.508966859258458
 30
0.0
 10
-21.89634252174302
 20
-4.374789255087337
 30
0.0
 10
-22.38347863126186
 20
-4.271642937379327
 30
0.0
 10
-22.60796482171617
 20
-4.22069150543553
 30
0.0
  0
SPLINE
  5
2DD5
330
1F
100
AcDbEntity
  8
AM_0
100
AcDbSpline
210
0.0
220
0.0
230
1.0
 70
     8
 71
     3
 72
    17
 73
    13
 74
     0
 42
0.0000000001
 43
0.0000000001
 40
1.580019955310467
 40
1.580019955310467
 40
1.580019955310467
 40
1.580019955310467
 40
2.030549285115227
 40
3.082371838836284
 40
4.126290986361125
 40
5.162752068350215
 40
6.192395305374981
 40
7.216039564037012
 40
8.234688489606833
 40
9.249433870634691
 40
10.26152376260694
 40
11.27226744710342
 40
11.27226744710342
 40
11.27226744710342
 40
11.27226744710352
 10
-12.01198818556029
 20
-3.468737912995954
 30
0.0
 10
-12.12525335569868
 20
-3.50446303689295
 30
0.0
 10
-12.50359707677612
 20
-3.621556902237736
 30
0.0
 10
-13.1495236339717
 20
-3.805222819722235
 30
0.0
 10
-13.94959922987105
 20
-4.010904282354267
 30
0.0
 10
-14.74989508583288
 20
-4.191465297878991
 30
0.0
 10
-15.55022761107145
 20
-4.346299501824629
 30
0.0
 10
-16.35064733110427
 20
-4.474280622714283
 30
0.0
 10
-17.15112234983875
 20
-4.574678328722909
 30
0.0
 10
-17.95164721255562
 20
-4.646842009122092
 30
0.0
 10
-18.75220219639538
 20
-4.69030713792058
 30
0.0
 10
-19.28603505336825
 20
-4.699999540914664
 30
0.0
 10
-19.55276882917989
 20
-4.700008478559495
 30
0.0
  0
SPLINE
  5
2DD6
330
1F
100
AcDbEntity
  8
AM_0
100
AcDbSpline
210
0.0
220
0.0
230
1.0
 70
     8
 71
     3
 72
    13
 73
     9
 74
     0
 42
0.0000000001
 43
0.0000000001
 40
16.03460056234195
 40
16.03460056234195
 40
16.03460056234195
 40
16.03460056234195
 40
16.35212717791071
 40
17.38177067057215
 40
18.41822498539278
 40
19.46214186516937
 40
20.5139635832251
 40
21.34083983469381
 40
21.34083983469381
 40
21.34083983469381
 40
21.34083983469381
 10
-47.85945617326759
 20
-4.700009168606714
 30
0.0
 10
-47.69042210745316
 20
-4.684800593594106
 30
0.0
 10
-47.34182209595717
 20
-4.615708903482585
 30
0.0
 10
-46.72776026440068
 20
-4.480328986511365
 30
0.0
 10
-45.9325480514586
 20
-4.279023438945164
 30
0.0
 10
-45.138074596107
 20
-4.052990085367202
 30
0.0
 10
-44.4029252925466
 20
-3.821963710917483
 30
0.0
 10
-43.93391298278414
 20
-3.662885610815107
 30
0.0
 10
-43.72816009347931
 20
-3.590980860048921
 30
0.0
  0
ELLIPSE
  5
2DD7
330
1F
100
AcDbEntity
  8
AM_0
 48
0.5
100
AcDbEllipse
 10
-8.222483968016801
 20
7.967984176875856
 30
0.0
 11
9.412427361679721
 21
9.071322076883847
 31
0.0
210
0.0
220
0.0
230
1.0
 40
0.8757698221881058
 41
4.631249279970505
 42
4.742316799388358
  0
ELLIPSE
  5
2DD8
330
1F
100
AcDbEntity
  8
AM_0
 48
0.5
100
AcDbEllipse
 10
-5.398042737136707
 20
4.794888574224589
 30
0.0
 11
0.0000000000012757
 21
7.302148703345182
 31
0.0
210
0.0
220
0.0
230
1.0
 40
0.9680851063829836
 41
3.517054509082852
 42
3.681821570856352
  0
ELLIPSE
  5
2DD9
330
1F
100
AcDbEntity
  8
AM_0
 48
0.5
100
AcDbEllipse
 10
-1.41515265702972
 20
-1.223220203001414
 30
0.0
 11
-0.1371768062751026
 21
0.7712157041238991
 31
0.0
210
0.0
220
0.0
230
1.0
 40
0.5041833726324125
 41
1.802139433804779
 42
4.937481323516756
  0
ELLIPSE
  5
2DDA
330
1F
100
AcDbEntity
  8
AM_0
 48
0.5
100
AcDbEllipse
 10
-1.415220911579979
 20
-1.224887171187465
 30
0.0
 11
-0.6867913411440033
 21
0.3896054578069597
 31
0.0
210
0.0
220
0.0
230
1.0
 40
0.497326909602066
 41
4.477780883123726
 42
7.621221224453238
  0
ELLIPSE
  5
2DDB
330
1F
100
AcDbEntity
  8
AM_0
 48
0.5
100
AcDbEllipse
 10
2.852144195194592
 20
5.642639646134446
 30
0.0
 11
-9.57336258888232
 21
0.0000000000029893
 31
0.0
210
0.0
220
0.0
230
1.0
 40
0.9894736842105261
 41
0.5303675532343726
 42
0.9384884834292645
  0
ELLIPSE
  5
2DDC
330
1F
100
AcDbEntity
  8
AM_0
 48
0.5
100
AcDbEllipse
 10
4.75509435439179
 20
-1.255204209377381
 30
0.0
 11
7.514641896319536
 21
1.120456733496863
 31
0.0
210
0.0
220
0.0
230
1.0
 40
0.9810040308279578
 41
3.090616970656154
 42
3.470986778976711
  0
VIEWPORT
  5
110
330
101
100
AcDbEntity
 67
     1
  8
0
100
AcDbViewport
 10
420.5
 20
297.0
 30
0.0
 40
948.9782706766916
 41
628.452
 68
     1
 69
     1
1001
ACAD
1000
MVIEW
1002
{
1070
    16
1010
0.0
1020
0.0
1030
0.0
1010
0.0
1020
0.0
1030
1.0
1040
0.0
1040
628.452
1040
420.5
1040
297.0
1040
50.0
1040
0.0
1040
0.0
1070
     0
1070
   100
1070
     1
1070
     1
1070
     0
1070
     0
1070
     0
1070
     0
1040
0.0
1040
0.0
1040
0.0
1040
10.0
1040
10.0
1040
10.0
1040
10.0
1070
     0
1002
{
1002
}
1002
}
  0
ENDSEC
  0
SECTION
  2
OBJECTS
  0
DICTIONARY
  5
C
330
0
100
AcDbDictionary
  3
ACAD_GROUP
350
D
  3
ACAD_LAYOUT
350
1A
  3
ACAD_MLINESTYLE
350
17
  3
ACAD_PLOTSETTINGS
350
19
  3
ACAD_PLOTSTYLENAME
350
E
  3
ACDBVARIABLEDICTIONARY
350
34
  3
ACMDICTIONARY
350
43
  3
AMG
350
2B
  3
AMGSNAPSETTINGS
350
6E
  3
DWGPROPS
350
2E49
  3
ACDBHEADERROUNDTRIPXREC
350
2E55
  0
DICTIONARY
  5
74
330
1F
100
AcDbDictionary
280
     1
  3
ACAD_INDEX
360
2E4B
  3
ACAD_LAYOUTSELFREF
360
2E78
  0
DICTIONARY
  5
2E7D
330
101
100
AcDbDictionary
280
     1
  3
ACAD_LAYOUTSELFREF
360
2E7E
  0
DICTIONARY
  5
D
102
{ACAD_REACTORS
330
C
102
}
330
C
100
AcDbDictionary
  0
DICTIONARY
  5
1A
102
{ACAD_REACTORS
330
C
102
}
330
C
100
AcDbDictionary
  0
DICTIONARY
  5
17
102
{ACAD_REACTORS
330
C
102
}
330
C
100
AcDbDictionary
  3
STANDARD
350
18
  0
DICTIONARY
  5
19
102
{ACAD_REACTORS
330
C
102
}
330
C
100
AcDbDictionary
  0
ACDBDICTIONARYWDFLT
  5
E
102
{ACAD_REACTORS
330
C
102
}
330
C
100
AcDbDictionary
281
     1
  3
Normal
350
F
100
AcDbDictionaryWithDefault
340
F
  0
DICTIONARY
  5
34
102
{ACAD_REACTORS
330
C
102
}
330
C
100
AcDbDictionary
  3
INDEXCTL
350
35
  3
SORTENTS
350
B5E
  0
DICTIONARY
  5
43
102
{ACAD_REACTORS
330
C
102
}
330
C
100
AcDbDictionary
  3
ACMSTDDICTIONARY
350
260
  0
DICTIONARY
  5
2B
102
{ACAD_REACTORS
330
C
102
}
330
C
100
AcDbDictionary
  3
ACMGSETTINGS
350
2C
  0
DICTIONARY
  5
6E
102
{ACAD_REACTORS
330
C
102
}
330
C
100
AcDbDictionary
  0
XRECORD
  5
2E49
102
{ACAD_REACTORS
330
C
102
}
330
C
100
AcDbXrecord
  1
DWGPROPS COOKIE
  2

  3

  4

  6

  7

  8

  9

300
AmdtFileType=82
301
=
302
=
303
=
304
=
305
=
306
=
307
=
308
=
309
=
 40
0.0532094444444445
 41
2452800.443498622
 42
2452946.618454132
  1

 90
        1
  0
DICTIONARY
  5
2E55
102
{ACAD_REACTORS
330
C
102
}
330
C
100
AcDbDictionary
  3
TSTACKALIGN
350
2E56
  3
TSTACKSIZE
350
2E57
  3
HYPERLINKBASE
350
2E58
  3
STYLESHEET
350
2E59
  3
LAYOUTDICT
350
2E5A
  3
PLOTSETDICT
350
2E5B
  3
PLOTSTYLNAMDICT
350
2E5C
  3
LWETCUNION
350
2E5D
  3
INSUNITS
350
2E5E
  3
CEPSNTYPE
350
2E5F
  3
FINGERPRINTGUID
350
2E60
  3
VERSIONGUID
350
2E61
  3
PSVPSCALE
350
2E62
  3
DIMSTYLEDATA
350
2E63
  3
PUCSORTHOREF
350
2E64
  3
PUCSORTHOVIEW
350
2E65
  3
PUCSBASE
350
2E66
  3
PUCSORGTOP
350
2E67
  3
PUCSORGBOTTOM
350
2E68
  3
PUCSORGLEFT
350
2E69
  3
PUCSORGRIGHT
350
2E6A
  3
PUCSORGFRONT
350
2E6B
  3
PUCSORGBACK
350
2E6C
  3
UCSORTHOREF
350
2E6D
  3
UCSORTHOVIEW
350
2E6E
  3
UCSBASE
350
2E6F
  3
UCSORGTOP
350
2E70
  3
UCSORGBOTTOM
350
2E71
  3
UCSORGLEFT
350
2E72
  3
UCSORGRIGHT
350
2E73
  3
UCSORGFRONT
350
2E74
  3
UCSORGBACK
350
2E75
  0
DICTIONARY
  5
2E4B
102
{ACAD_REACTORS
330
74
102
}
330
74
100
AcDbDictionary
  3
*A1
350
2E4C
  0
XRECORD
  5
2E78
102
{ACAD_REACTORS
330
74
102
}
330
74
100
AcDbXrecord
340
1F
  0
XRECORD
  5
2E7E
102
{ACAD_REACTORS
330
2E7D
102
}
330
2E7D
100
AcDbXrecord
340
101
  0
MLINESTYLE
  5
18
102
{ACAD_REACTORS
330
17
102
}
330
17
100
AcDbMlineStyle
  2
STANDARD
 70
     0
  3

 62
   256
 51
90.0
 52
90.0
 71
     2
 49
0.5
 62
   256
  6
BYLAYER
 49
-0.5
 62
   256
  6
BYLAYER
  0
ACDBPLACEHOLDER
  5
F
102
{ACAD_REACTORS
330
E
102
}
330
E
100
AcDbPlaceHolder
280
     0
  0
DICTIONARYVAR
  5
35
102
{ACAD_REACTORS
330
34
102
}
330
34
100
DictionaryVariables
280
     0
  1
1
  0
DICTIONARYVAR
  5
B5E
102
{ACAD_REACTORS
330
34
102
}
330
34
100
DictionaryVariables
280
     0
  1
96
  0
DICTIONARY
  5
260
102
{ACAD_REACTORS
330
43
102
}
330
43
100
AcDbDictionary
  0
DICTIONARY
  5
2C
102
{ACAD_REACTORS
330
2B
102
}
330
2B
100
AcDbDictionary
  3
DWGSETTINGS
350
2D
  0
XRECORD
  5
2E56
102
{ACAD_REACTORS
330
2E55
102
}
330
2E55
100
AcDbXrecord
 90
        1
  0
XRECORD
  5
2E57
102
{ACAD_REACTORS
330
2E55
102
}
330
2E55
100
AcDbXrecord
 90
       70
  0
XRECORD
  5
2E58
102
{ACAD_REACTORS
330
2E55
102
}
330
2E55
100
AcDbXrecord
  1

  0
XRECORD
  5
2E59
102
{ACAD_REACTORS
330
2E55
102
}
330
2E55
100
AcDbXrecord
  1
ASAMI.ctb
  0
XRECORD
  5
2E5A
102
{ACAD_REACTORS
330
2E55
102
}
330
2E55
100
AcDbXrecord
340
1A
  0
XRECORD
  5
2E5B
102
{ACAD_REACTORS
330
2E55
102
}
330
2E55
100
AcDbXrecord
340
19
  0
XRECORD
  5
2E5C
102
{ACAD_REACTORS
330
2E55
102
}
330
2E55
100
AcDbXrecord
340
E
  0
XRECORD
  5
2E5D
102
{ACAD_REACTORS
330
2E55
102
}
330
2E55
100
AcDbXrecord
 90
    10781
  0
XRECORD
  5
2E5E
102
{ACAD_REACTORS
330
2E55
102
}
330
2E55
100
AcDbXrecord
 90
        4
  0
XRECORD
  5
2E5F
102
{ACAD_REACTORS
330
2E55
102
}
330
2E55
100
AcDbXrecord
 90
        0
  0
XRECORD
  5
2E60
102
{ACAD_REACTORS
330
2E55
102
}
330
2E55
100
AcDbXrecord
  1
{AFB28963-8C59-40AE-9337-C84526B81ACE}
  0
XRECORD
  5
2E61
102
{ACAD_REACTORS
330
2E55
102
}
330
2E55
100
AcDbXrecord
  1
{A757DE5C-9FAF-4700-A799-928D7D17D5A6}
  0
XRECORD
  5
2E62
102
{ACAD_REACTORS
330
2E55
102
}
330
2E55
100
AcDbXrecord
 40
0.0
  0
XRECORD
  5
2E63
102
{ACAD_REACTORS
330
2E55
102
}
330
2E55
100
AcDbXrecord
1000
DSTYLE
1002
{
1070
    79
 70
     2
1070
   341
340
59
1070
   342
340
59
1070
   371
 70
    -1
1070
   372
 70
    -1
1002
}
  0
XRECORD
  5
2E64
102
{ACAD_REACTORS
330
2E55
102
}
330
2E55
100
AcDbXrecord
340
0
  0
XRECORD
  5
2E65
102
{ACAD_REACTORS
330
2E55
102
}
330
2E55
100
AcDbXrecord
 70
     0
  0
XRECORD
  5
2E66
102
{ACAD_REACTORS
330
2E55
102
}
330
2E55
100
AcDbXrecord
340
0
  0
XRECORD
  5
2E67
102
{ACAD_REACTORS
330
2E55
102
}
330
2E55
100
AcDbXrecord
 10
0.0
 20
0.0
 30
0.0
  0
XRECORD
  5
2E68
102
{ACAD_REACTORS
330
2E55
102
}
330
2E55
100
AcDbXrecord
 10
0.0
 20
0.0
 30
0.0
  0
XRECORD
  5
2E69
102
{ACAD_REACTORS
330
2E55
102
}
330
2E55
100
AcDbXrecord
 10
0.0
 20
0.0
 30
0.0
  0
XRECORD
  5
2E6A
102
{ACAD_REACTORS
330
2E55
102
}
330
2E55
100
AcDbXrecord
 10
0.0
 20
0.0
 30
0.0
  0
XRECORD
  5
2E6B
102
{ACAD_REACTORS
330
2E55
102
}
330
2E55
100
AcDbXrecord
 10
0.0
 20
0.0
 30
0.0
  0
XRECORD
  5
2E6C
102
{ACAD_REACTORS
330
2E55
102
}
330
2E55
100
AcDbXrecord
 10
0.0
 20
0.0
 30
0.0
  0
XRECORD
  5
2E6D
102
{ACAD_REACTORS
330
2E55
102
}
330
2E55
100
AcDbXrecord
340
0
  0
XRECORD
  5
2E6E
102
{ACAD_REACTORS
330
2E55
102
}
330
2E55
100
AcDbXrecord
 70
     0
  0
XRECORD
  5
2E6F
102
{ACAD_REACTORS
330
2E55
102
}
330
2E55
100
AcDbXrecord
340
0
  0
XRECORD
  5
2E70
102
{ACAD_REACTORS
330
2E55
102
}
330
2E55
100
AcDbXrecord
 10
0.0
 20
0.0
 30
0.0
  0
XRECORD
  5
2E71
102
{ACAD_REACTORS
330
2E55
102
}
330
2E55
100
AcDbXrecord
 10
0.0
 20
0.0
 30
0.0
  0
XRECORD
  5
2E72
102
{ACAD_REACTORS
330
2E55
102
}
330
2E55
100
AcDbXrecord
 10
0.0
 20
0.0
 30
0.0
  0
XRECORD
  5
2E73
102
{ACAD_REACTORS
330
2E55
102
}
330
2E55
100
AcDbXrecord
 10
0.0
 20
0.0
 30
0.0
  0
XRECORD
  5
2E74
102
{ACAD_REACTORS
330
2E55
102
}
330
2E55
100
AcDbXrecord
 10
0.0
 20
0.0
 30
0.0
  0
XRECORD
  5
2E75
102
{ACAD_REACTORS
330
2E55
102
}
330
2E55
100
AcDbXrecord
 10
0.0
 20
0.0
 30
0.0
  0
LAYER_INDEX
  5
2E4C
102
{ACAD_REACTORS
330
2E4B
102
}
330
2E4B
100
AcDbIndex
 40
2453151.572142997
100
AcDbLayerIndex
  8
0
360
2E4D
 90
        0
  8
AM_0
360
2E4E
 90
       45
  8
AM_7
360
2E4F
 90
        1
  8
AM_11
360
2E50
 90
       18
  8
AM_5
360
2E51
 90
        5
  8
Defpoints
360
2E52
 90
        0
  8
AM_6
360
2E53
 90
        1
  0
XRECORD
  5
2D
102
{ACAD_REACTORS
330
2C
102
}
330
2C
100
AcDbXrecord
  1
VERSION
140
15.0
  1
PRODUCT
  2
AutoCAD Mechanical 2000
  0
IDBUFFER
  5
2E4D
330
0
100
AcDbIdBuffer
  0
IDBUFFER
  5
2E4E
330
0
100
AcDbIdBuffer
330
2DBB
330
2DBC
330
2DBD
330
2DBE
330
2DBF
330
2DC0
330
2DC1
330
2DC2
330
2DC8
330
2DC9
330
2DCA
330
2DCB
330
2DCC
330
2DCD
330
2DCE
330
2DCF
330
2DD0
330
2DD1
330
2DD2
330
2DD3
330
2DD4
330
2DD5
330
2DD6
330
2DD7
330
2DD8
330
2DD9
330
2DDA
330
2DDB
330
2DDC
330
C1D
330
C20
330
24A7
330
24BE
330
2567
330
2568
330
2569
330
256C
330
256E
330
256F
330
2571
330
2572
330
279A
330
279D
330
2C43
330
2DBA
  0
IDBUFFER
  5
2E4F
330
0
100
AcDbIdBuffer
330
23EF
  0
IDBUFFER
  5
2E50
330
0
100
AcDbIdBuffer
330
2DC6
330
2DC7
330
24B7
330
24B8
330
24B9
330
24C7
330
24C8
330
24C9
330
24CA
330
24D4
330
24D5
330
24E6
330
24E7
330
278C
330
278D
330
2DC3
330
2DC4
330
2DC5
  0
IDBUFFER
  5
2E51
330
0
100
AcDbIdBuffer
330
CC6
330
2069
330
2599
330
29BA
330
2C54
  0
IDBUFFER
  5
2E52
330
0
100
AcDbIdBuffer
  0
IDBUFFER
  5
2E53
330
0
100
AcDbIdBuffer
330
19BD
  0
ENDSEC
  0
EOF
