  0
SECTION
  2
HEADER
  9
$ACADVER
  1
AC1014
  9
$ACADMAINTVER
 70
     9
  9
$DWGCODEPAGE
  3
ANSI_932
  9
$INSBASE
 10
0.0
 20
0.0
 30
0.0
  9
$EXTMIN
 10
-150.1500010000004
 20
-28.25000074281868
 30
-0.00000001
  9
$EXTMAX
 10
14.89237678714813
 20
14.51790221239033
 30
0.00000001
  9
$LIMMIN
 10
-154.3602888796998
 20
-42.37784611347206
  9
$LIMMAX
 10
21.29048764497105
 20
29.79619459598478
  9
$ORTHOMODE
 70
     0
  9
$REGENMODE
 70
     1
  9
$FILLMODE
 70
     1
  9
$QTEXTMODE
 70
     0
  9
$MIRRTEXT
 70
     0
  9
$DRAGMODE
 70
     2
  9
$LTSCALE
 40
1.0
  9
$OSMODE
 70
    55
  9
$ATTMODE
 70
     1
  9
$TEXTSIZE
 40
2.5
  9
$TRACEWID
 40
1.0
  9
$TEXTSTYLE
  7
STANDARD
  9
$CLAYER
  8
AM_0
  9
$CELTYPE
  6
BYLAYER
  9
$CECOLOR
 62
   256
  9
$CELTSCALE
 40
1.0
  9
$DELOBJ
 70
     1
  9
$DISPSILH
 70
     0
  9
$DIMSCALE
 40
0.5
  9
$DIMASZ
 40
2.5
  9
$DIMEXO
 40
1.0
  9
$DIMDLI
 40
12.0
  9
$DIMRND
 40
0.0
  9
$DIMDLE
 40
0.0
  9
$DIMEXE
 40
1.0
  9
$DIMTP
 40
0.1
  9
$DIMTM
 40
0.1
  9
$DIMTXT
 40
3.2
  9
$DIMCEN
 40
0.0
  9
$DIMTSZ
 40
0.0
  9
$DIMTOL
 70
     0
  9
$DIMLIM
 70
     0
  9
$DIMTIH
 70
     0
  9
$DIMTOH
 70
     0
  9
$DIMSE1
 70
     0
  9
$DIMSE2
 70
     0
  9
$DIMTAD
 70
     3
  9
$DIMZIN
 70
     8
  9
$DIMBLK
  1
OPEN30
  9
$DIMASO
 70
     1
  9
$DIMSHO
 70
     1
  9
$DIMPOST
  1

  9
$DIMAPOST
  1
"
  9
$DIMALT
 70
     0
  9
$DIMALTD
 70
     2
  9
$DIMALTF
 40
0.0393701
  9
$DIMLFAC
 40
1.0
  9
$DIMTOFL
 70
     1
  9
$DIMTVP
 40
0.0
  9
$DIMTIX
 70
     0
  9
$DIMSOXD
 70
     0
  9
$DIMSAH
 70
     0
  9
$DIMBLK1
  1

  9
$DIMBLK2
  1

  9
$DIMSTYLE
  2
AM_JIS
  9
$DIMCLRD
 70
   256
  9
$DIMCLRE
 70
   256
  9
$DIMCLRT
 70
     2
  9
$DIMTFAC
 40
0.71
  9
$DIMGAP
 40
1.5
  9
$DIMJUST
 70
     0
  9
$DIMSD1
 70
     0
  9
$DIMSD2
 70
     0
  9
$DIMTOLJ
 70
     0
  9
$DIMTZIN
 70
     0
  9
$DIMALTZ
 70
     0
  9
$DIMALTTZ
 70
     0
  9
$DIMFIT
 70
     3
  9
$DIMUPT
 70
     0
  9
$DIMUNIT
 70
     2
  9
$DIMDEC
 70
     3
  9
$DIMTDEC
 70
     3
  9
$DIMALTU
 70
     2
  9
$DIMALTTD
 70
     2
  9
$DIMTXSTY
  7
ASAMI
  9
$DIMAUNIT
 70
     0
  9
$LUNITS
 70
     2
  9
$LUPREC
 70
     2
  9
$SKETCHINC
 40
1.0
  9
$FILLETRAD
 40
2.5
  9
$AUNITS
 70
     0
  9
$AUPREC
 70
     0
  9
$MENU
  1
.
  9
$ELEVATION
 40
0.0
  9
$PELEVATION
 40
0.0
  9
$THICKNESS
 40
0.0
  9
$LIMCHECK
 70
     0
  9
$BLIPMODE
 70
     0
  9
$CHAMFERA
 40
2.5
  9
$CHAMFERB
 40
2.5
  9
$CHAMFERC
 40
20.0
  9
$CHAMFERD
 40
0.0
  9
$SKPOLY
 70
     0
  9
$TDCREATE
 40
2452800.443498622
  9
$TDUPDATE
 40
2453151.681937557
  9
$TDINDWG
 40
0.0321120949
  9
$TDUSRTIMER
 40
0.0321120949
  9
$USRTIMER
 70
     1
  9
$ANGBASE
 50
0.0
  9
$ANGDIR
 70
     0
  9
$PDMODE
 70
     0
  9
$PDSIZE
 40
0.0
  9
$PLINEWID
 40
0.0
  9
$COORDS
 70
     1
  9
$SPLFRAME
 70
     0
  9
$SPLINETYPE
 70
     6
  9
$SPLINESEGS
 70
     8
  9
$ATTDIA
 70
     1
  9
$ATTREQ
 70
     1
  9
$HANDLING
 70
 12289
  9
$HANDSEED
  5
24FA
  9
$SURFTAB1
 70
     6
  9
$SURFTAB2
 70
     6
  9
$SURFTYPE
 70
     6
  9
$SURFU
 70
     6
  9
$SURFV
 70
     6
  9
$UCSNAME
  2

  9
$UCSORG
 10
0.0
 20
0.0
 30
0.0
  9
$UCSXDIR
 10
1.0
 20
0.0000000000000027
 30
0.0
  9
$UCSYDIR
 10
-0.0000000000000027
 20
1.0
 30
0.0
  9
$PUCSNAME
  2

  9
$PUCSORG
 10
0.0
 20
0.0
 30
0.0
  9
$PUCSXDIR
 10
1.0
 20
0.0
 30
0.0
  9
$PUCSYDIR
 10
0.0
 20
1.0
 30
0.0
  9
$USERI1
 70
     0
  9
$USERI2
 70
     0
  9
$USERI3
 70
     0
  9
$USERI4
 70
     0
  9
$USERI5
 70
     0
  9
$USERR1
 40
0.0
  9
$USERR2
 40
0.0
  9
$USERR3
 40
0.0
  9
$USERR4
 40
0.0
  9
$USERR5
 40
0.0
  9
$WORLDVIEW
 70
     1
  9
$SHADEDGE
 70
     3
  9
$SHADEDIF
 70
    70
  9
$TILEMODE
 70
     1
  9
$MAXACTVP
 70
    64
  9
$PINSBASE
 10
0.0
 20
0.0
 30
0.0
  9
$PLIMCHECK
 70
     0
  9
$PEXTMIN
 10
1.000000000000000E+20
 20
1.000000000000000E+20
 30
1.000000000000000E+20
  9
$PEXTMAX
 10
-1.000000000000000E+20
 20
-1.000000000000000E+20
 30
-1.000000000000000E+20
  9
$PLIMMIN
 10
0.0
 20
0.0
  9
$PLIMMAX
 10
841.0
 20
594.0
  9
$UNITMODE
 70
     0
  9
$VISRETAIN
 70
     1
  9
$PLINEGEN
 70
     0
  9
$PSLTSCALE
 70
     0
  9
$TREEDEPTH
 70
  3020
  9
$PICKSTYLE
 70
     0
  9
$CMLSTYLE
  2
STANDARD
  9
$CMLJUST
 70
     0
  9
$CMLSCALE
 40
20.0
  9
$PROXYGRAPHICS
 70
     1
  9
$MEASUREMENT
 70
     1
  0
ENDSEC
  0
SECTION
  2
CLASSES
  0
CLASS
  1
ACDBDICTIONARYWDFLT
  2
AcDbDictionaryWithDefault
  3
AutoCAD 2000
 90
        0
280
     0
281
     0
  0
CLASS
  1
ACDBPLACEHOLDER
  2
AcDbPlaceHolder
  3
AutoCAD 2000
 90
        0
280
     0
281
     0
  0
CLASS
  1
LAYOUT
  2
AcDbLayout
  3
AutoCAD 2000
 90
        0
280
     0
281
     0
  0
CLASS
  1
AMGSETTINGSOBJ
  2
AmgSettingsObj
  3
"AcadM|Product Description: AutoCAD Mechanical 2000|Company: Autodesk"
 90
        0
280
     0
281
     0
  0
CLASS
  1
ACME_DOCUMENT
  2
AcMeDbDoc
  3
AcMeServices
 90
        0
280
     0
281
     0
  0
CLASS
  1
ACMESCOPE
  2
AcMeScope
  3
AcMeServices
 90
        0
280
     0
281
     0
  0
CLASS
  1
ACMECOMMANDHISTORY
  2
AcMeCommandHistory
  3
AcMeServices
 90
        0
280
     0
281
     0
  0
CLASS
  1
DICTIONARYVAR
  2
AcDbDictionaryVar
  3
AutoCAD 2000
 90
        0
280
     0
281
     0
  0
CLASS
  1
ACIMSYSVARMAN
  2
AcImSysVarManager
  3
AcMeServices
 90
        0
280
     0
281
     0
  0
CLASS
  1
ACIMREALSYSVAR
  2
AcImRealSysVar
  3
AcMeServices
 90
        0
280
     0
281
     0
  0
CLASS
  1
ACIMINTSYSVAR
  2
AcImIntSysVar
  3
AcMeServices
 90
        0
280
     0
281
     0
  0
CLASS
  1
ACMEDRAWINGMAN
  2
AcMeDrawingMan
  3
AcMeServices
 90
        0
280
     0
281
     0
  0
CLASS
  1
ACMEVIEW
  2
AcMeView
  3
AcMeServices
 90
        0
280
     0
281
     0
  0
CLASS
  1
ACDBENTITYCACHE
  2
AcMeEntityCache
  3
AcMeServices
 90
        0
280
     0
281
     0
  0
CLASS
  1
GSMANAGER
  2
AcMeGSManager
  3
AcMeServices
 90
        0
280
     0
281
     0
  0
CLASS
  1
AmdtInternalReactor
  2
AmdtInternalReactor
  3
AcMeServices
 90
        0
280
     0
281
     0
  0
CLASS
  1
ACMESTATEMGR
  2
AcMeStateMgr
  3
AcMeServices
 90
        0
280
     0
281
     0
  0
CLASS
  1
ACME_DATABASE
  2
AcMeDbDatabase
  3
AcMeServices
 90
        0
280
     0
281
     0
  0
CLASS
  1
ACRFINSADJUSTERMGR
  2
AcRfInsAdjusterMgr
  3
AcMeServices
 90
        0
280
     0
281
     0
  0
CLASS
  1
ACMDATADICTIONARY
  2
AcmDataDictionary
  3
"AcmSymBB|Product Description: AutoCAD Mechanical 2000|Company: Autodesk"
 90
        0
280
     0
281
     0
  0
CLASS
  1
ACMDATAENTRYBLOCK
  2
AcmDataEntryBlock
  3
"AcmSymBB|Product Description: AutoCAD Mechanical 2000|Company: Autodesk"
 90
        0
280
     0
281
     0
  0
CLASS
  1
AMGOBJPROPCFG
  2
AmgObjPropCfg
  3
"AmgLay|Product Description: AutoCAD Mechanical 2000|Company: Autodesk"
 90
        1
280
     0
281
     0
  0
CLASS
  1
ACAMGFILTERDAT
  2
AcAmgFilterDat
  3
"AcadM|Product Description: AutoCAD Mechanical 2000|Company: Autodesk"
 90
        0
280
     0
281
     0
  0
CLASS
  1
LAYER_INDEX
  2
AcDbLayerIndex
  3
AutoCAD 2000
 90
        0
280
     0
281
     0
  0
CLASS
  1
IDBUFFER
  2
AcDbIdBuffer
  3
AutoCAD 2000
 90
        0
280
     0
281
     0
  0
CLASS
  1
ACIMSTRSYSVAR
  2
AcImStrSysVar
  3
AcMeServices
 90
        0
280
     0
281
     0
  0
CLASS
  1
ACMSTANDARDJIS
  2
AcmStandardJIS
  3
"AcmSymBB|Product Description: AutoCAD Mechanical 2000|Company: Autodesk"
 90
        0
280
     0
281
     0
  0
CLASS
  1
ACMSURFSTANDARDJIS
  2
AcmSurfTextStdJIS
  3
"AcmSymBB|Product Description: AutoCAD Mechanical 2000|Company: Autodesk"
 90
        0
280
     0
281
     0
  0
CLASS
  1
ACMFCFSTANDARDJIS
  2
AcmFCFStdJIS
  3
"AcmSymBB|Product Description: AutoCAD Mechanical 2000|Company: Autodesk"
 90
        0
280
     0
281
     0
  0
CLASS
  1
ACMWELDSTANDARDJIS
  2
AcmWeldingStdJIS
  3
"AcmSymBB|Product Description: AutoCAD Mechanical 2000|Company: Autodesk"
 90
        0
280
     0
281
     0
  0
CLASS
  1
ACMIDSTANDARDJIS
  2
AcmIdStdJIS
  3
"AcmSymBB|Product Description: AutoCAD Mechanical 2000|Company: Autodesk"
 90
        0
280
     0
281
     0
  0
CLASS
  1
ACMDATUMSTANDARDJIS
  2
AcmDatumStdJIS
  3
"AcmSymBB|Product Description: AutoCAD Mechanical 2000|Company: Autodesk"
 90
        0
280
     0
281
     0
  0
CLASS
  1
ACMBOMSTANDARDJIS
  2
AcmBOMStdJIS
  3
"AcmSymBB|Product Description: AutoCAD Mechanical 2000|Company: Autodesk"
 90
        0
280
     0
281
     0
  0
CLASS
  1
ACMSTANDARDANSI
  2
AcmStandardANSI
  3
"AcmSymBB|Product Description: AutoCAD Mechanical 2000|Company: Autodesk"
 90
        0
280
     0
281
     0
  0
CLASS
  1
ACMSURFSTANDARDANSI
  2
AcmSurfTextStdANSI
  3
"AcmSymBB|Product Description: AutoCAD Mechanical 2000|Company: Autodesk"
 90
        0
280
     0
281
     0
  0
CLASS
  1
ACMFCFSTANDARDANSI
  2
AcmFCFStdANSI
  3
"AcmSymBB|Product Description: AutoCAD Mechanical 2000|Company: Autodesk"
 90
        0
280
     0
281
     0
  0
CLASS
  1
ACMWELDSTANDARDANSI
  2
AcmWeldingStdANSI
  3
"AcmSymBB|Product Description: AutoCAD Mechanical 2000|Company: Autodesk"
 90
        0
280
     0
281
     0
  0
CLASS
  1
ACMIDSTANDARDANSI
  2
AcmIdStdANSI
  3
"AcmSymBB|Product Description: AutoCAD Mechanical 2000|Company: Autodesk"
 90
        0
280
     0
281
     0
  0
CLASS
  1
ACMDATUMSTANDARDANSI
  2
AcmDatumStdANSI
  3
"AcmSymBB|Product Description: AutoCAD Mechanical 2000|Company: Autodesk"
 90
        0
280
     0
281
     0
  0
CLASS
  1
ACMBOMSTANDARDANSI
  2
AcmBOMStdANSI
  3
"AcmSymBB|Product Description: AutoCAD Mechanical 2000|Company: Autodesk"
 90
        0
280
     0
281
     0
  0
CLASS
  1
ACMSTANDARDBSI
  2
AcmStandardBSI
  3
"AcmSymBB|Product Description: AutoCAD Mechanical 2000|Company: Autodesk"
 90
        0
280
     0
281
     0
  0
CLASS
  1
ACMSURFSTANDARDBSI
  2
AcmSurfTextStdBSI
  3
"AcmSymBB|Product Description: AutoCAD Mechanical 2000|Company: Autodesk"
 90
        0
280
     0
281
     0
  0
CLASS
  1
ACMFCFSTANDARDBSI
  2
AcmFCFStdBSI
  3
"AcmSymBB|Product Description: AutoCAD Mechanical 2000|Company: Autodesk"
 90
        0
280
     0
281
     0
  0
CLASS
  1
ACMWELDSTANDARDBSI
  2
AcmWeldingStdBSI
  3
"AcmSymBB|Product Description: AutoCAD Mechanical 2000|Company: Autodesk"
 90
        0
280
     0
281
     0
  0
CLASS
  1
ACMIDSTANDARDBSI
  2
AcmIdStdBSI
  3
"AcmSymBB|Product Description: AutoCAD Mechanical 2000|Company: Autodesk"
 90
        0
280
     0
281
     0
  0
CLASS
  1
ACMDATUMSTANDARDBSI
  2
AcmDatumStdBSI
  3
"AcmSymBB|Product Description: AutoCAD Mechanical 2000|Company: Autodesk"
 90
        0
280
     0
281
     0
  0
CLASS
  1
ACMBOMSTANDARDBSI
  2
AcmBOMStdBSI
  3
"AcmSymBB|Product Description: AutoCAD Mechanical 2000|Company: Autodesk"
 90
        0
280
     0
281
     0
  0
CLASS
  1
LONG_TRANSACTION
  2
AcDbLongTransaction
  3
AutoCAD 2000
 90
        0
280
     0
281
     0
  0
CLASS
  1
LWPOLYLINE
  2
AcDbPolyline
  3
AutoCAD 2000
 90
        0
280
     0
281
     1
  0
CLASS
  1
HATCH
  2
AcDbHatch
  3
AutoCAD 2000
 90
        0
280
     0
281
     1
  0
CLASS
  1
XRECORD
  2
AcDbXrecord
  3
AutoCAD 2000
 90
        0
280
     0
281
     0
  0
ENDSEC
  0
SECTION
  2
TABLES
  0
TABLE
  2
VPORT
  5
8
330
0
100
AcDbSymbolTable
 70
     3
  0
VPORT
  5
24C4
330
8
100
AcDbSymbolTableRecord
100
AcDbViewportTableRecord
  2
*ACTIVE
 70
     0
 10
0.0
 20
0.0
 11
1.0
 21
1.0
 12
-64.54077773963575
 22
-6.866248813274097
 13
0.0
 23
0.0
 14
2.5
 24
2.5
 15
10.0
 25
10.0
 16
0.0
 26
0.0
 36
1.0
 17
0.0
 27
0.0
 37
0.0
 40
109.8895393735443
 41
1.56570841889117
 42
50.0
 43
0.0
 44
0.0
 50
0.0
 51
0.0
 71
     0
 72
   100
 73
     1
 74
     1
 75
     0
 76
     0
 77
     0
 78
     0
  0
ENDTAB
  0
TABLE
  2
LTYPE
  5
5
330
0
100
AcDbSymbolTable
 70
    10
  0
LTYPE
  5
14
330
5
100
AcDbSymbolTableRecord
100
AcDbLinetypeTableRecord
  2
BYBLOCK
 70
     0
  3

 72
    65
 73
     0
 40
0.0
  0
LTYPE
  5
15
330
5
100
AcDbSymbolTableRecord
100
AcDbLinetypeTableRecord
  2
BYLAYER
 70
     0
  3

 72
    65
 73
     0
 40
0.0
  0
LTYPE
  5
16
330
5
100
AcDbSymbolTableRecord
100
AcDbLinetypeTableRecord
  2
CONTINUOUS
 70
     0
  3
Solid line
 72
    65
 73
     0
 40
0.0
  0
LTYPE
  5
4B
330
5
100
AcDbSymbolTableRecord
100
AcDbLinetypeTableRecord
  2
AM_ISO02W050
 70
     0
  3
__ __ __ __ __ __ __ __ __ __ __ __ __ __ __
 72
    65
 73
     2
 40
7.5
 49
6.0
 74
     0
 49
-1.5
 74
     0
  0
LTYPE
  5
4C
330
5
100
AcDbSymbolTableRecord
100
AcDbLinetypeTableRecord
  2
AM_ISO08W050
 70
     0
  3
____ . ____ . ____ . ____ . ____ . ____ . ____
 72
    65
 73
     4
 40
18.0
 49
12.0
 74
     0
 49
-1.5
 74
     0
 49
3.0
 74
     0
 49
-1.5
 74
     0
  0
LTYPE
  5
4D
330
5
100
AcDbSymbolTableRecord
100
AcDbLinetypeTableRecord
  2
AM_ISO09W050
 70
     0
  3
_____ . . _____ . . _____ . . ____ .. ____
 72
    65
 73
     6
 40
22.5
 49
12.0
 74
     0
 49
-1.5
 74
     0
 49
3.0
 74
     0
 49
-1.5
 74
     0
 49
3.0
 74
     0
 49
-1.5
 74
     0
  0
LTYPE
  5
4E
330
5
100
AcDbSymbolTableRecord
100
AcDbLinetypeTableRecord
  2
AMCONSTR
 70
     0
  3
_______________________
 72
    65
 73
     2
 40
9999.0
 49
9999.0
 74
     0
 49
0.0
 74
     0
  0
LTYPE
  5
4F
330
5
100
AcDbSymbolTableRecord
100
AcDbLinetypeTableRecord
  2
AM_ISO02W050X2
 70
     0
  3
 _ _ _ _ _ _ _ _ _ _ _ _
 72
    65
 73
     2
 40
3.75
 49
3.0
 74
     0
 49
-0.75
 74
     0
  0
LTYPE
  5
50
330
5
100
AcDbSymbolTableRecord
100
AcDbLinetypeTableRecord
  2
AM_ISO08W050X2
 70
     0
  3
__ . __ . __ . __ . __ . __
 72
    65
 73
     4
 40
9.0
 49
6.0
 74
     0
 49
-0.75
 74
     0
 49
1.5
 74
     0
 49
-0.75
 74
     0
  0
LTYPE
  5
53
330
5
100
AcDbSymbolTableRecord
100
AcDbLinetypeTableRecord
  2
AMZIGZAG
 70
     0
  3
/\/-/\/-/\/-/\/-/\/-/\/
 72
    65
 73
     2
 40
11.00009999999999
 49
0.0001
 74
     4
 75
   135
340
52
 46
0.04
 50
0.0
 44
0.0
 45
0.0
 49
-11.0
 74
     0
  0
LTYPE
  5
166
330
5
100
AcDbSymbolTableRecord
100
AcDbLinetypeTableRecord
  2
ACJISTGL
 70
     0
  3
_ _ _ _ _
 72
    65
 73
     2
 40
3.0
 49
2.0
 74
     0
 49
-1.0
 74
     0
  0
LTYPE
  5
26A
330
5
100
AcDbSymbolTableRecord
100
AcDbLinetypeTableRecord
  2
ACJISTGB
 70
     0
  3
__ . . __ . .
 72
    65
 73
     6
 40
9.0
 49
4.0
 74
     0
 49
-1.0
 74
     0
 49
1.0
 74
     0
 49
-1.0
 74
     0
 49
1.0
 74
     0
 49
-1.0
 74
     0
  0
ENDTAB
  0
TABLE
  2
LAYER
  5
2
330
0
100
AcDbSymbolTable
 70
     8
  0
LAYER
  5
10
330
2
100
AcDbSymbolTableRecord
100
AcDbLayerTableRecord
  2
0
 70
     0
 62
     7
  6
CONTINUOUS
  0
LAYER
  5
3F9
330
2
100
AcDbSymbolTableRecord
100
AcDbLayerTableRecord
  2
AM_0
 70
     0
 62
     7
  6
CONTINUOUS
  0
LAYER
  5
C7C
330
2
100
AcDbSymbolTableRecord
100
AcDbLayerTableRecord
  2
AM_7
 70
     0
 62
     4
  6
AM_ISO08W050
  0
LAYER
  5
C97
330
2
100
AcDbSymbolTableRecord
100
AcDbLayerTableRecord
  2
AM_11
 70
     0
 62
     3
  6
AM_ISO09W050
  0
LAYER
  5
CC5
330
2
100
AcDbSymbolTableRecord
100
AcDbLayerTableRecord
  2
AM_5
 70
     0
 62
     3
  6
CONTINUOUS
  0
LAYER
  5
CC7
330
2
100
AcDbSymbolTableRecord
100
AcDbLayerTableRecord
  2
DEFPOINTS
 70
     0
 62
     7
  6
CONTINUOUS
  0
LAYER
  5
19BC
330
2
100
AcDbSymbolTableRecord
100
AcDbLayerTableRecord
  2
AM_6
 70
     0
 62
     2
  6
CONTINUOUS
  0
LAYER
  5
2349
330
2
100
AcDbSymbolTableRecord
100
AcDbLayerTableRecord
  2
AM_CL
 70
     0
 62
     1
  6
AMCONSTR
  0
ENDTAB
  0
TABLE
  2
STYLE
  5
3
330
0
100
AcDbSymbolTable
 70
     5
  0
STYLE
  5
11
330
3
100
AcDbSymbolTableRecord
100
AcDbTextStyleTableRecord
  2
STANDARD
 70
     0
 40
0.0
 41
1.0
 50
0.0
 71
     0
 42
2.5
  3
simplex.shx
  4
EXTFONT.SHX
  0
STYLE
  5
52
330
3
100
AcDbSymbolTableRecord
100
AcDbTextStyleTableRecord
  2

 70
     1
 40
0.0
 41
1.0
 50
0.0
 71
     0
 42
2.5
  3
ltypeshp.shx
  4

  0
STYLE
  5
6B
330
3
100
AcDbSymbolTableRecord
100
AcDbTextStyleTableRecord
  2
ASAMI
 70
     0
 40
0.0
 41
1.0
 50
0.0
 71
     0
 42
2.5
  3
simplex.shx
  4
EXTFONT.SHX
  0
STYLE
  5
262
330
3
100
AcDbSymbolTableRecord
100
AcDbTextStyleTableRecord
  2
ACJISTS
 70
     0
 40
1.0
 41
1.0
 50
0.0
 71
     0
 42
2.5
  3
simplex.shx
  4
bigfont.shx
  0
STYLE
  5
269
330
3
100
AcDbSymbolTableRecord
100
AcDbTextStyleTableRecord
  2
ACJISGDT
 70
     0
 40
0.0
 41
1.0
 50
0.0
 71
     0
 42
2.5
  3
amgdtans.shx
  4

  0
ENDTAB
  0
TABLE
  2
VIEW
  5
6
330
0
100
AcDbSymbolTable
 70
     0
  0
ENDTAB
  0
TABLE
  2
UCS
  5
7
330
0
100
AcDbSymbolTable
 70
     0
  0
ENDTAB
  0
TABLE
  2
APPID
  5
9
330
0
100
AcDbSymbolTable
 70
    14
  0
APPID
  5
12
330
9
100
AcDbSymbolTableRecord
100
AcDbRegAppTableRecord
  2
ACAD
 70
     0
  0
APPID
  5
30
330
9
100
AcDbSymbolTableRecord
100
AcDbRegAppTableRecord
  2
MCAD_NO_VIS
 70
     0
  0
APPID
  5
31
330
9
100
AcDbSymbolTableRecord
100
AcDbRegAppTableRecord
  2
ACAD_TEMP_GRAPHIC
 70
     0
  0
APPID
  5
2C2
330
9
100
AcDbSymbolTableRecord
100
AcDbRegAppTableRecord
  2
GENIUS_GENDTOL_13
 70
     0
  0
APPID
  5
339
330
9
100
AcDbSymbolTableRecord
100
AcDbRegAppTableRecord
  2
GENIUS_GENODEF_13
 70
     0
  0
APPID
  5
33A
330
9
100
AcDbSymbolTableRecord
100
AcDbRegAppTableRecord
  2
GENIUS_GENOBJ-N-RSBK_13
 70
     0
  0
APPID
  5
33B
330
9
100
AcDbSymbolTableRecord
100
AcDbRegAppTableRecord
  2
GENIUS_GENOBJ-N-LIB_13
 70
     0
  0
APPID
  5
33C
330
9
100
AcDbSymbolTableRecord
100
AcDbRegAppTableRecord
  2
GENIUS_GENSCALE_13
 70
     0
  0
APPID
  5
378
330
9
100
AcDbSymbolTableRecord
100
AcDbRegAppTableRecord
  2
GENIUS_GENDIMSH_14
 70
     0
  0
APPID
  5
C82
330
9
100
AcDbSymbolTableRecord
100
AcDbRegAppTableRecord
  2
GENIUS_GENOBJ-N-CRS_13
 70
     0
  0
APPID
  5
C83
330
9
100
AcDbSymbolTableRecord
100
AcDbRegAppTableRecord
  2
GENIUS_GENOENT_13
 70
     0
  0
APPID
  5
C84
330
9
100
AcDbSymbolTableRecord
100
AcDbRegAppTableRecord
  2
GENIUS_GENOREF_13
 70
     0
  0
APPID
  5
C85
330
9
100
AcDbSymbolTableRecord
100
AcDbRegAppTableRecord
  2
GENIUS_GENOLIS_13
 70
     0
  0
APPID
  5
CA0
330
9
100
AcDbSymbolTableRecord
100
AcDbRegAppTableRecord
  2
GENIUS_GENOBJ-N-CEN_13
 70
     0
  0
ENDTAB
  0
TABLE
  2
DIMSTYLE
  5
A
330
0
100
AcDbSymbolTable
 70
     9
  0
DIMSTYLE
105
58
330
A
100
AcDbSymbolTableRecord
100
AcDbDimStyleTableRecord
  2
AM_JIS
 70
     0
  3

  4
"
  5
OPEN30
  6

  7

 40
0.5
 41
2.5
 42
1.0
 43
12.0
 44
1.0
 45
0.0
 46
0.0
 47
0.1
 48
0.1
140
3.2
141
0.0
142
0.0
143
0.0393701
144
1.0
145
0.0
146
0.71
147
1.5
 71
     0
 72
     0
 73
     0
 74
     0
 75
     0
 76
     0
 77
     3
 78
     8
170
     0
171
     2
172
     1
173
     0
174
     0
175
     0
176
   256
177
   256
178
     2
270
     2
271
     3
272
     3
273
     2
274
     2
340
6B
275
     0
280
     0
281
     0
282
     0
283
     0
284
     0
285
     0
286
     0
287
     3
288
     0
  0
DIMSTYLE
105
5F
330
A
100
AcDbSymbolTableRecord
100
AcDbDimStyleTableRecord
  2
AM_JIS$3
 70
     0
  3

  4
"
  5
OPEN30
  6

  7

 40
0.5
 41
2.5
 42
1.0
 43
10.0
 44
1.0
 45
0.0
 46
0.0
 47
0.1
 48
0.1
140
3.2
141
0.0
142
0.0
143
0.0393701
144
1.0
145
0.0
146
0.71
147
1.5
 71
     0
 72
     0
 73
     0
 74
     1
 75
     0
 76
     0
 77
     3
 78
     8
170
     0
171
     2
172
     0
173
     0
174
     0
175
     0
176
   256
177
   256
178
     2
270
     2
271
     2
272
     3
273
     2
274
     2
340
6B
275
     0
280
     0
281
     0
282
     0
283
     0
284
     0
285
     0
286
     0
287
     0
288
     1
  0
DIMSTYLE
105
60
330
A
100
AcDbSymbolTableRecord
100
AcDbDimStyleTableRecord
  2
AM_JIS$4
 70
     0
  3

  4
"
  5
OPEN30
  6

  7

 40
0.5
 41
2.5
 42
1.0
 43
10.0
 44
1.0
 45
0.0
 46
0.0
 47
0.1
 48
0.1
140
3.2
141
0.0
142
0.0
143
0.0393701
144
1.0
145
0.0
146
0.71
147
1.5
 71
     0
 72
     0
 73
     0
 74
     1
 75
     0
 76
     0
 77
     3
 78
     8
170
     0
171
     2
172
     0
173
     0
174
     0
175
     0
176
   256
177
   256
178
     2
270
     2
271
     2
272
     3
273
     2
274
     2
340
6B
275
     0
280
     0
281
     0
282
     0
283
     0
284
     0
285
     0
286
     0
287
     0
288
     1
  0
DIMSTYLE
105
61
330
A
100
AcDbSymbolTableRecord
100
AcDbDimStyleTableRecord
  2
AM_JIS$6
 70
     0
  3

  4
"
  5
OPEN30
  6

  7

 40
0.5
 41
2.5
 42
1.0
 43
10.0
 44
1.0
 45
0.0
 46
0.0
 47
0.1
 48
0.1
140
3.2
141
0.0
142
0.0
143
0.0393701
144
1.0
145
0.0
146
0.71
147
1.5
 71
     0
 72
     0
 73
     0
 74
     0
 75
     0
 76
     0
 77
     0
 78
     8
170
     0
171
     2
172
     1
173
     0
174
     0
175
     0
176
   256
177
   256
178
     2
270
     2
271
     2
272
     2
273
     2
274
     2
340
6B
275
     0
280
     0
281
     0
282
     0
283
     0
284
     0
285
     0
286
     0
287
     3
288
     0
  0
DIMSTYLE
105
62
330
A
100
AcDbSymbolTableRecord
100
AcDbDimStyleTableRecord
  2
AM_JIS$7
 70
     0
  3

  4
"
  5
OPEN30
  6

  7

 40
0.5
 41
2.5
 42
1.0
 43
10.0
 44
1.0
 45
0.0
 46
0.0
 47
0.1
 48
0.1
140
3.2
141
0.0
142
0.0
143
0.0393701
144
1.0
145
0.0
146
0.71
147
1.5
 71
     0
 72
     0
 73
     0
 74
     0
 75
     0
 76
     0
 77
     3
 78
     8
170
     0
171
     2
172
     1
173
     0
174
     0
175
     0
176
   256
177
   256
178
     2
270
     2
271
     2
272
     3
273
     2
274
     2
340
6B
275
     0
280
     0
281
     0
282
     0
283
     0
284
     0
285
     0
286
     0
287
     3
288
     0
  0
DIMSTYLE
105
63
330
A
100
AcDbSymbolTableRecord
100
AcDbDimStyleTableRecord
  2
AM_JIS$SF
 70
     0
  3

  4
"
  5
OPEN30
  6

  7

 40
0.5
 41
2.5
 42
1.0
 43
10.0
 44
1.0
 45
0.0
 46
0.0
 47
0.1
 48
0.1
140
3.2
141
0.0
142
0.0
143
0.0393701
144
1.0
145
0.0
146
0.71
147
1.5
 71
     0
 72
     0
 73
     0
 74
     0
 75
     1
 76
     1
 77
     3
 78
     8
170
     0
171
     2
172
     1
173
     0
174
     0
175
     0
176
   256
177
   256
178
     2
270
     2
271
     2
272
     2
273
     2
274
     2
340
6B
275
     0
280
     0
281
     0
282
     0
283
     0
284
     0
285
     0
286
     0
287
     3
288
     0
  0
DIMSTYLE
105
68
330
A
100
AcDbSymbolTableRecord
100
AcDbDimStyleTableRecord
  2
AM_JIS$SH
 70
     0
  3

  4
"
  5

  6
GENAXEH
  7
OPEN30
 40
0.5
 41
2.5
 42
1.0
 43
10.0
 44
1.0
 45
0.0
 46
0.0
 47
0.1
 48
0.1
140
3.2
141
0.0
142
0.0
143
0.0393701
144
2.0
145
0.0
146
0.71
147
1.5
 71
     0
 72
     0
 73
     0
 74
     0
 75
     1
 76
     1
 77
     3
 78
     8
170
     0
171
     2
172
     1
173
     1
174
     0
175
     0
176
   256
177
   256
178
     2
270
     2
271
     2
272
     2
273
     2
274
     2
340
6B
275
     0
280
     0
281
     0
282
     0
283
     0
284
     0
285
     0
286
     0
287
     3
288
     0
  0
DIMSTYLE
105
B34
102
{ACAD_REACTORS
330
2377
102
}
330
A
100
AcDbSymbolTableRecord
100
AcDbDimStyleTableRecord
  2
AM_JIS$2
 70
     0
  3

  4
"
  5
OPEN30
  6

  7

 40
0.5
 41
2.5
 42
1.0
 43
12.0
 44
1.0
 45
0.0
 46
0.0
 47
0.1
 48
0.1
140
3.2
141
0.0
142
0.0
143
0.0393701
144
1.0
145
0.0
146
0.71
147
1.5
 71
     0
 72
     0
 73
     0
 74
     0
 75
     0
 76
     0
 77
     3
 78
     8
170
     0
171
     2
172
     1
173
     0
174
     0
175
     0
176
   256
177
   256
178
     2
270
     2
271
     3
272
     3
273
     2
274
     2
340
6B
275
     0
280
     0
281
     0
282
     0
283
     0
284
     0
285
     0
286
     0
287
     3
288
     0
  0
DIMSTYLE
105
BA5
102
{ACAD_REACTORS
330
CC6
330
DF5
330
1F03
330
220E
102
}
330
A
100
AcDbSymbolTableRecord
100
AcDbDimStyleTableRecord
  2
AM_JIS$0
 70
     0
  3

  4
"
  5
OPEN30
  6

  7

 40
0.5
 41
2.5
 42
0.0
 43
10.0
 44
1.0
 45
0.0
 46
0.0
 47
0.1
 48
0.1000000001
140
3.799999999999999
141
0.0
142
0.0
143
0.0393701
144
1.0
145
0.0
146
0.71
147
1.5
 71
     0
 72
     0
 73
     0
 74
     0
 75
     0
 76
     0
 77
     3
 78
     1
170
     0
171
     2
172
     1
173
     0
174
     0
175
     0
176
     3
177
     3
178
     2
270
     2
271
     2
272
     2
273
     2
274
     2
340
11
275
     1
280
     0
281
     0
282
     0
283
     0
284
     8
285
     0
286
     0
287
     0
288
     0
  0
ENDTAB
  0
TABLE
  2
BLOCK_RECORD
  5
1
330
0
100
AcDbSymbolTable
 70
    11
  0
BLOCK_RECORD
  5
1F
102
{ACAD_XDICTIONARY
360
74
102
}
330
1
100
AcDbSymbolTableRecord
100
AcDbBlockTableRecord
  2
*MODEL_SPACE
  0
BLOCK_RECORD
  5
101
102
{ACAD_XDICTIONARY
360
24ED
102
}
330
1
100
AcDbSymbolTableRecord
100
AcDbBlockTableRecord
  2
*PAPER_SPACE
  0
BLOCK_RECORD
  5
59
330
1
100
AcDbSymbolTableRecord
100
AcDbBlockTableRecord
  2
_OPEN30
  0
BLOCK_RECORD
  5
64
330
1
100
AcDbSymbolTableRecord
100
AcDbBlockTableRecord
  2
GENAXEH
  0
BLOCK_RECORD
  5
CC8
330
1
100
AcDbSymbolTableRecord
100
AcDbBlockTableRecord
  2
*D5
  0
BLOCK_RECORD
  5
DF6
330
1
100
AcDbSymbolTableRecord
100
AcDbBlockTableRecord
  2
*D6
  0
BLOCK_RECORD
  5
1F04
330
1
100
AcDbSymbolTableRecord
100
AcDbBlockTableRecord
  2
*D8
  0
BLOCK_RECORD
  5
220F
330
1
100
AcDbSymbolTableRecord
100
AcDbBlockTableRecord
  2
*D9
  0
BLOCK_RECORD
  5
2378
330
1
100
AcDbSymbolTableRecord
100
AcDbBlockTableRecord
  2
*D10
  0
ENDTAB
  0
ENDSEC
  0
SECTION
  2
BLOCKS
  0
BLOCK
  5
20
330
1F
100
AcDbEntity
  8
0
100
AcDbBlockBegin
  2
*MODEL_SPACE
 70
     0
 10
0.0
 20
0.0
 30
0.0
  3
*MODEL_SPACE
  1

  0
ENDBLK
  5
21
330
1F
100
AcDbEntity
  8
0
100
AcDbBlockEnd
  0
BLOCK
  5
103
330
101
100
AcDbEntity
 67
     1
  8
0
100
AcDbBlockBegin
  2
*PAPER_SPACE
 70
     0
 10
0.0
 20
0.0
 30
0.0
  3
*PAPER_SPACE
  1

  0
ENDBLK
  5
104
330
101
100
AcDbEntity
 67
     1
  8
0
100
AcDbBlockEnd
  0
BLOCK
  5
5D
330
59
100
AcDbEntity
  8
0
100
AcDbBlockBegin
  2
_OPEN30
 70
     0
 10
0.0
 20
0.0
 30
0.0
  3
_OPEN30
  1

  0
LINE
  5
5A
330
59
100
AcDbEntity
  8
0
 62
     0
100
AcDbLine
 10
-1.0
 20
0.26794919
 30
0.0
 11
0.0
 21
0.0
 31
0.0
  0
LINE
  5
5B
330
59
100
AcDbEntity
  8
0
 62
     0
100
AcDbLine
 10
0.0
 20
0.0
 30
0.0
 11
-1.0
 21
-0.26794919
 31
0.0
  0
LINE
  5
5C
330
59
100
AcDbEntity
  8
0
 62
     0
100
AcDbLine
 10
0.0
 20
0.0
 30
0.0
 11
-1.0
 21
0.0
 31
0.0
  0
ENDBLK
  5
5E
330
59
100
AcDbEntity
  8
0
100
AcDbBlockEnd
  0
BLOCK
  5
66
330
64
100
AcDbEntity
  8
0
100
AcDbBlockBegin
  2
GENAXEH
 70
     0
 10
0.0
 20
0.0
 30
0.0
  3
GENAXEH
  1

  0
LINE
  5
65
330
64
100
AcDbEntity
  8
0
100
AcDbLine
 10
-1.0
 20
0.0
 30
0.0
 11
1.0
 21
0.0
 31
0.0
  0
ENDBLK
  5
67
330
64
100
AcDbEntity
  8
0
100
AcDbBlockEnd
  0
BLOCK
  5
CD2
330
CC8
100
AcDbEntity
  8
0
100
AcDbBlockBegin
  2
*D5
 70
     1
 10
0.0
 20
0.0
 30
0.0
  3
*D5
  1

  0
LINE
  5
2483
330
CC8
100
AcDbEntity
  8
AM_5
 62
     3
100
AcDbLine
 10
-138.0000000000004
 20
-4.71715672524051
 30
0.0
 11
-138.0000000000004
 21
-17.50000074281865
 31
0.0
  0
LINE
  5
2484
330
CC8
100
AcDbEntity
  8
AM_5
 62
     3
100
AcDbLine
 10
-2.000000000000426
 20
-4.800000000000008
 30
0.0
 11
-2.000000000000427
 21
-17.50000074281865
 31
0.0
  0
LINE
  5
2485
330
CC8
100
AcDbEntity
  8
AM_5
 62
     3
100
AcDbLine
 10
-136.7500000000004
 20
-17.00000074281866
 30
0.0
 11
-3.250000000000427
 21
-17.00000074281866
 31
0.0
  0
INSERT
  5
2486
330
CC8
100
AcDbEntity
  8
AM_5
 62
     3
100
AcDbBlockReference
  2
_OPEN30
 10
-138.0000000000004
 20
-17.00000074281866
 30
0.0
 41
1.25
 42
1.25
 43
1.25
 50
180.0
  0
INSERT
  5
2487
330
CC8
100
AcDbEntity
  8
AM_5
 62
     3
100
AcDbBlockReference
  2
_OPEN30
 10
-2.000000000000427
 20
-17.00000074281866
 30
0.0
 41
1.25
 42
1.25
 43
1.25
  0
MTEXT
  5
2488
330
CC8
100
AcDbEntity
  8
AM_5
 62
     2
100
AcDbMText
 10
-70.00000000000042
 20
-15.30000074281866
 30
0.0
 40
1.9
 41
0.0
 71
     5
 72
     1
  1
136
1001
ACAD
1000
MTEXTBEGIN
1070
    73
1070
     1
1070
    44
1040
1.0
1070
    74
1070
     0
1000
MTEXTEND
  0
POINT
  5
2489
330
CC8
100
AcDbEntity
  8
DEFPOINTS
 62
     0
100
AcDbPoint
 10
-138.0000000000004
 20
-4.71715672524051
 30
0.0
  0
POINT
  5
248A
330
CC8
100
AcDbEntity
  8
DEFPOINTS
 62
     0
100
AcDbPoint
 10
-2.000000000000426
 20
-4.800000000000008
 30
0.0
  0
POINT
  5
248B
330
CC8
100
AcDbEntity
  8
DEFPOINTS
 62
     0
100
AcDbPoint
 10
-2.000000000000427
 20
-17.00000074281866
 30
0.0
  0
ENDBLK
  5
CD3
330
CC8
100
AcDbEntity
  8
0
100
AcDbBlockEnd
  0
BLOCK
  5
E00
330
DF6
100
AcDbEntity
  8
0
100
AcDbBlockBegin
  2
*D6
 70
     1
 10
0.0
 20
0.0
 30
0.0
  3
*D6
  1

  0
LINE
  5
247A
330
DF6
100
AcDbEntity
  8
AM_5
 62
     3
100
AcDbLine
 10
-82.00000000000043
 20
-4.999975328756379
 30
0.0
 11
-82.00000000000043
 21
-12.50000074281857
 31
0.0
  0
LINE
  5
247B
330
DF6
100
AcDbEntity
  8
AM_5
 62
     3
100
AcDbLine
 10
-2.000000000000426
 20
-4.800000000000008
 30
0.0
 11
-2.000000000000426
 21
-12.50000074281857
 31
0.0
  0
LINE
  5
247C
330
DF6
100
AcDbEntity
  8
AM_5
 62
     3
100
AcDbLine
 10
-80.75000000000043
 20
-12.00000074281857
 30
0.0
 11
-3.250000000000426
 21
-12.00000074281857
 31
0.0
  0
INSERT
  5
247D
330
DF6
100
AcDbEntity
  8
AM_5
 62
     3
100
AcDbBlockReference
  2
_OPEN30
 10
-82.00000000000043
 20
-12.00000074281857
 30
0.0
 41
1.25
 42
1.25
 43
1.25
 50
180.0
  0
INSERT
  5
247E
330
DF6
100
AcDbEntity
  8
AM_5
 62
     3
100
AcDbBlockReference
  2
_OPEN30
 10
-2.000000000000426
 20
-12.00000074281857
 30
0.0
 41
1.25
 42
1.25
 43
1.25
  0
MTEXT
  5
247F
330
DF6
100
AcDbEntity
  8
AM_5
 62
     2
100
AcDbMText
 10
-42.00000000000042
 20
-10.30000074281857
 30
0.0
 40
1.9
 41
0.0
 71
     5
 72
     1
  1
80
1001
ACAD
1000
MTEXTBEGIN
1070
    73
1070
     1
1070
    44
1040
1.0
1070
    74
1070
     0
1000
MTEXTEND
  0
POINT
  5
2480
330
DF6
100
AcDbEntity
  8
DEFPOINTS
 62
     0
100
AcDbPoint
 10
-82.00000000000043
 20
-4.999975328756379
 30
0.0
  0
POINT
  5
2481
330
DF6
100
AcDbEntity
  8
DEFPOINTS
 62
     0
100
AcDbPoint
 10
-2.000000000000426
 20
-4.800000000000008
 30
0.0
  0
POINT
  5
2482
330
DF6
100
AcDbEntity
  8
DEFPOINTS
 62
     0
100
AcDbPoint
 10
-2.000000000000426
 20
-12.00000074281857
 30
0.0
  0
ENDBLK
  5
E01
330
DF6
100
AcDbEntity
  8
0
100
AcDbBlockEnd
  0
BLOCK
  5
1F0E
330
1F04
100
AcDbEntity
  8
0
100
AcDbBlockBegin
  2
*D8
 70
     1
 10
0.0
 20
0.0
 30
0.0
  3
*D8
  1

  0
LINE
  5
248C
330
1F04
100
AcDbEntity
  8
AM_5
 62
     3
100
AcDbLine
 10
-137.7053782145253
 20
-4.999999742819356
 30
0.0
 11
-148.0000010000004
 21
-4.999999742819385
 31
0.0
  0
LINE
  5
248D
330
1F04
100
AcDbEntity
  8
AM_5
 62
     3
100
AcDbLine
 10
-137.7053782145255
 20
5.000000257462256
 30
0.0
 11
-148.0000010000004
 21
5.000000257462228
 31
0.0
  0
LINE
  5
248E
330
1F04
100
AcDbEntity
  8
AM_5
 62
     3
100
AcDbLine
 10
-147.5000010000004
 20
-3.749999742819384
 30
0.0
 11
-147.5000010000004
 21
3.750000257462229
 31
0.0
  0
INSERT
  5
248F
330
1F04
100
AcDbEntity
  8
AM_5
 62
     3
100
AcDbBlockReference
  2
_OPEN30
 10
-147.5000010000004
 20
-4.999999742819383
 30
0.0
 41
1.25
 42
1.25
 43
1.25
 50
270.0000000000001
  0
INSERT
  5
2490
330
1F04
100
AcDbEntity
  8
AM_5
 62
     3
100
AcDbBlockReference
  2
_OPEN30
 10
-147.5000010000005
 20
5.00000025746223
 30
0.0
 41
1.25
 42
1.25
 43
1.25
 50
90.00000000000015
  0
MTEXT
  5
2491
330
1F04
100
AcDbEntity
  8
AM_5
 62
     2
100
AcDbMText
 10
-149.2000010000004
 20
0.0000002573214391
 30
0.0
 40
1.9
 41
0.0
 71
     5
 72
     1
  1
%%c10
 11
-0.0000000000000028
 21
1.0
 31
0.0
1001
ACAD
1000
MTEXTBEGIN
1070
    73
1070
     1
1070
    44
1040
1.0
1070
    74
1070
     0
1000
MTEXTEND
  0
POINT
  5
2492
330
1F04
100
AcDbEntity
  8
DEFPOINTS
 62
     0
100
AcDbPoint
 10
-137.7053782145254
 20
-4.999999742818928
 30
0.0
  0
POINT
  5
2493
330
1F04
100
AcDbEntity
  8
DEFPOINTS
 62
     0
100
AcDbPoint
 10
-137.7053782145254
 20
5.000000257462684
 30
0.0
  0
POINT
  5
2494
330
1F04
100
AcDbEntity
  8
DEFPOINTS
 62
     0
100
AcDbPoint
 10
-147.5000010000004
 20
5.000000257462688
 30
0.0
  0
ENDBLK
  5
1F0F
330
1F04
100
AcDbEntity
  8
0
100
AcDbBlockEnd
  0
BLOCK
  5
2219
330
220F
100
AcDbEntity
  8
0
100
AcDbBlockBegin
  2
*D9
 70
     1
 10
0.0
 20
0.0
 30
0.0
  3
*D9
  1

  0
LINE
  5
24A0
330
220F
100
AcDbEntity
  8
AM_5
 62
     3
100
AcDbLine
 10
-1.999949137376257
 20
4.80000025732052
 30
0.0
 11
9.819901031071964
 21
4.800000257320553
 31
0.0
  0
LINE
  5
24A1
330
220F
100
AcDbEntity
  8
AM_5
 62
     3
100
AcDbLine
 10
-1.999949137376333
 20
-4.79999974267948
 30
0.0
 11
9.819901031071992
 21
-4.799999742679447
 31
0.0
  0
LINE
  5
24A2
330
220F
100
AcDbEntity
  8
AM_5
 62
     3
100
AcDbLine
 10
9.319901031071967
 20
3.550000257320551
 30
0.0
 11
9.319901031071989
 21
-3.549999742679448
 31
0.0
  0
INSERT
  5
24A3
330
220F
100
AcDbEntity
  8
AM_5
 62
     3
100
AcDbBlockReference
  2
_OPEN30
 10
9.319901031071964
 20
4.800000257320551
 30
0.0
 41
1.25
 42
1.25
 43
1.25
 50
90.00000000000017
  0
INSERT
  5
24A4
330
220F
100
AcDbEntity
  8
AM_5
 62
     3
100
AcDbBlockReference
  2
_OPEN30
 10
9.319901031071992
 20
-4.799999742679449
 30
0.0
 41
1.25
 42
1.25
 43
1.25
 50
270.0000000000001
  0
MTEXT
  5
24A5
330
220F
100
AcDbEntity
  8
AM_5
 62
     2
100
AcDbMText
 10
7.619901031071978
 20
0.0000002573205463
 30
0.0
 40
1.9
 41
0.0
 71
     5
 72
     1
  1
%%c9.6
 11
-0.0000000000000028
 21
1.0
 31
0.0
1001
ACAD
1000
MTEXTBEGIN
1070
    73
1070
     1
1070
    44
1040
1.0
1070
    74
1070
     0
1000
MTEXTEND
  0
POINT
  5
24A6
330
220F
100
AcDbEntity
  8
DEFPOINTS
 62
     0
100
AcDbPoint
 10
-1.999949137376242
 20
4.800000257320525
 30
0.0
  0
POINT
  5
24A7
330
220F
100
AcDbEntity
  8
DEFPOINTS
 62
     0
100
AcDbPoint
 10
-1.999949137376348
 20
-4.799999742679474
 30
0.0
  0
POINT
  5
24A8
330
220F
100
AcDbEntity
  8
DEFPOINTS
 62
     0
100
AcDbPoint
 10
9.319901031071976
 20
-4.799999742679477
 30
0.0
  0
ENDBLK
  5
221A
330
220F
100
AcDbEntity
  8
0
100
AcDbBlockEnd
  0
BLOCK
  5
2388
330
2378
100
AcDbEntity
  8
0
100
AcDbBlockBegin
  2
*D10
 70
     1
 10
0.0
 20
0.0
 30
0.0
  3
*D10
  1

  0
LINE
  5
24EF
330
2378
100
AcDbEntity
  8
AM_5
100
AcDbLine
 10
0.1710100716625229
 20
-0.4698463103927054
 30
0.0
 11
5.284084269297386
 21
-14.51790221238957
 31
0.0
  0
LINE
  5
24F0
330
2378
100
AcDbEntity
  8
AM_5
100
AcDbLine
 10
0.1710100716624993
 20
0.469846310393204
 30
0.0
 11
5.284084269296656
 21
14.51790221239033
 31
0.0
  0
ARC
  5
24F1
330
2378
100
AcDbEntity
  8
AM_5
100
AcDbCircle
 10
-0.000000000000322
 20
0.000000000000245
 30
0.0
 40
14.94962883740424
100
AcDbArc
 50
294.7921326196141
 51
65.20786738038875
  0
INSERT
  5
24F2
330
2378
100
AcDbEntity
  8
AM_5
100
AcDbBlockReference
  2
_OPEN30
 10
5.113074197634541
 20
-14.04805590199663
 30
0.0
 41
1.25
 42
1.25
 43
1.25
 50
202.3960663098077
  0
INSERT
  5
24F3
330
2378
100
AcDbEntity
  8
AM_5
100
AcDbBlockReference
  2
_OPEN30
 10
5.113074197633834
 20
14.04805590199737
 30
0.0
 41
1.25
 42
1.25
 43
1.25
 50
157.6039336901951
  0
MTEXT
  5
24F4
330
2378
100
AcDbEntity
  8
AM_5
 62
     2
100
AcDbMText
 10
13.39962883740392
 20
0.0000000000006124
 30
0.0
 40
1.6
 41
0.0
 71
     5
 72
     1
  1
140°
  7
ASAMI
 11
-0.0000000000000028
 21
1.0
 31
0.0
  0
POINT
  5
24F5
330
2378
100
AcDbEntity
  8
DEFPOINTS
 62
     0
100
AcDbPoint
 10
13.7269899903862
 20
-5.921245492290769
 30
0.0
  0
POINT
  5
24F6
330
2378
100
AcDbEntity
  8
DEFPOINTS
 62
     0
100
AcDbPoint
 10
-0.000000000000322
 20
0.000000000000245
 30
0.0
  0
POINT
  5
24F7
330
2378
100
AcDbEntity
  8
DEFPOINTS
 62
     0
100
AcDbPoint
 10
-0.4390659435118814
 20
1.20632376544972
 30
0.0
  0
POINT
  5
24F8
330
2378
100
AcDbEntity
  8
DEFPOINTS
 62
     0
100
AcDbPoint
 10
-0.000000000000322
 20
0.000000000000245
 30
0.0
  0
POINT
  5
24F9
330
2378
100
AcDbEntity
  8
DEFPOINTS
 62
     0
100
AcDbPoint
 10
-0.4390659435118245
 20
-1.206323765449241
 30
0.0
  0
ENDBLK
  5
2389
330
2378
100
AcDbEntity
  8
0
100
AcDbBlockEnd
  0
ENDSEC
  0
SECTION
  2
ENTITIES
  0
DIMENSION
  5
CC6
330
1F
100
AcDbEntity
  8
AM_5
100
AcDbDimension
  2
*D5
 10
-2.000000000000427
 20
-17.00000074281866
 30
0.0
 11
-70.00000000000042
 21
-15.30000074281866
 31
0.0
 70
    32
  1
<>
  3
AM_JIS$0
100
AcDbAlignedDimension
 13
-138.0000000000004
 23
-4.71715672524051
 33
0.0
 14
-2.000000000000426
 24
-4.800000000000008
 34
0.0
 50
0.0000000000001132
100
AcDbRotatedDimension
1001
GENIUS_GENDTOL_13
1000

1000
h7
1000

1040
0.0
1001
ACAD
1000
DSTYLE
1002
{
1070
   271
1070
     0
1002
}
  0
DIMENSION
  5
DF5
330
1F
100
AcDbEntity
  8
AM_5
100
AcDbDimension
  2
*D6
 10
-2.000000000000426
 20
-12.00000074281857
 30
0.0
 11
-42.00000000000042
 21
-10.30000074281857
 31
0.0
 70
    32
  1
<>
  3
AM_JIS$0
100
AcDbAlignedDimension
 13
-82.00000000000043
 23
-4.999975328756379
 33
0.0
 14
-2.000000000000426
 24
-4.800000000000008
 34
0.0
 50
0.0000000000001527
100
AcDbRotatedDimension
1001
GENIUS_GENDTOL_13
1000

1000
h7
1000

1040
0.0
1001
ACAD
1000
DSTYLE
1002
{
1070
   271
1070
     0
1002
}
  0
TEXT
  5
19BD
330
1F
100
AcDbEntity
  8
AM_6
100
AcDbText
 10
-80.83330790202168
 20
-28.25000074281868
 30
0.0
 40
2.5
  1
MDW096LHK
 50
0.0000000000001527
 72
     4
 11
-69.99997456868836
 21
-27.00000074281866
 31
0.0
100
AcDbText
  0
LINE
  5
1DA9
330
1F
100
AcDbEntity
  8
AM_7
100
AcDbLine
 10
-140.5000000000004
 20
0.0000000000002844
 30
0.0
 11
2.319900031072104
 21
-0.0000000000000047
 31
0.0
1001
GENIUS_GENODEF_13
1002
{
1000
HIER
1070
     0
1002
}
1002
{
1000
MANEDIT
1070
     0
1002
}
1002
{
1000
NOSEL
1070
     0
1002
}
1002
{
1000
BEHIND
1070
     0
1002
}
1002
{
1000
REACTOR
1002
}
1001
GENIUS_GENOBJ-N-CEN_13
1002
{
1000
OWNER
1000
GEN
1002
}
  0
LINE
  5
1E55
330
1F
100
AcDbEntity
  8
AM_0
 48
0.5
100
AcDbLine
 10
-4.698287963873863
 20
-4.799999742679442
 30
0.0
 11
-1.999949137376347
 21
-4.799999742679474
 31
0.0
  0
LINE
  5
1E56
330
1F
100
AcDbEntity
  8
AM_0
 48
0.5
100
AcDbLine
 10
-4.698287963873756
 20
4.800000257320557
 30
0.0
 11
-1.999949137376243
 21
4.800000257320526
 31
0.0
  0
LINE
  5
1E57
330
1F
100
AcDbEntity
  8
AM_0
 48
0.5
100
AcDbLine
 10
-34.69786707676595
 20
-4.79999974267923
 30
0.0
 11
-20.57238769531884
 21
-4.79999974267928
 31
0.0
  0
LINE
  5
1E58
330
1F
100
AcDbEntity
  8
AM_11
 48
0.5
100
AcDbLine
 10
-16.78969041790119
 20
4.800000617862842
 30
0.0
 11
-4.698287963873756
 21
4.800000257320557
 31
0.0
  0
LINE
  5
1E59
330
1F
100
AcDbEntity
  8
AM_11
 48
0.5
100
AcDbLine
 10
-20.57238769531884
 20
-4.79999974267928
 30
0.0
 11
-4.698287963873863
 21
-4.799999742679442
 31
0.0
  0
SPLINE
  5
1E5F
330
1F
100
AcDbEntity
  8
AM_0
 48
0.5
100
AcDbSpline
210
0.0
220
0.0
230
1.0
 70
     8
 71
     3
 72
    15
 73
    11
 74
     0
 42
0.0000000001
 43
0.0000000001
 40
0.0
 40
0.0
 40
0.0
 40
0.0
 40
1.010743614677189
 40
2.022833924044153
 40
3.037578959561199
 40
4.056212747067873
 40
5.079857613375832
 40
6.109500119648989
 40
7.14596120163808
 40
8.03038073837828
 40
8.03038073837828
 40
8.03038073837828
 40
8.03038073837828
 10
-4.698287963873756
 20
4.800000257320557
 30
0.0
 10
-4.97906568847531
 20
4.797146431696337
 30
0.0
 10
-5.5409952403344
 20
4.791434978067448
 30
0.0
 10
-6.383684004954569
 20
4.745348450203335
 30
0.0
 10
-7.226338076567445
 20
4.672110705441419
 30
0.0
 10
-8.068939742268298
 20
4.569454153869111
 30
0.0
 10
-8.91147896691541
 20
4.438771053959399
 30
0.0
 10
-9.753945459725022
 20
4.280667299333028
 30
0.0
 10
-10.55312196607406
 20
4.105624035004535
 30
0.0
 10
-11.06997938592964
 20
3.978163521955991
 30
0.0
 10
-11.30718836768223
 20
3.91676693809995
 30
0.0
  0
SPLINE
  5
1E62
330
1F
100
AcDbEntity
  8
AM_0
100
AcDbSpline
210
0.0
220
0.0
230
1.0
 70
     8
 71
     3
 72
    11
 73
     7
 74
     0
 42
0.0000000001
 43
0.0000000001
 40
11.27226913003534
 40
11.27226913003534
 40
11.27226913003534
 40
11.2722691300354
 40
12.28301561507924
 40
13.29510212255852
 40
14.30984805882082
 40
15.18258238371378
 40
15.18258238371378
 40
15.18258238371378
 40
15.18258238371378
 10
-20.57238769531883
 20
-4.799999742679281
 30
0.0
 10
-20.85209771018741
 20
-4.776507147808386
 30
0.0
 10
-21.41099015364782
 20
-4.719632598065429
 30
0.0
 10
-22.24644280245295
 20
-4.604902563347362
 30
0.0
 10
-23.03930209749315
 20
-4.467870116534319
 30
0.0
 10
-23.55207694961824
 20
-4.3625291963219
 30
0.0
 10
-23.78837820272805
 20
-4.310493691358022
 30
0.0
  0
SPLINE
  5
1E63
330
1F
100
AcDbEntity
  8
AM_0
100
AcDbSpline
210
0.0
220
0.0
230
1.0
 70
     8
 71
     3
 72
    17
 73
    13
 74
     0
 42
0.0000000001
 43
0.0000000001
 40
1.580019955310467
 40
1.580019955310467
 40
1.580019955310467
 40
1.580019955310467
 40
2.030549285115227
 40
3.082371838836284
 40
4.126290986361125
 40
5.162752068350215
 40
6.192395305374981
 40
7.216039564037012
 40
8.234688489606833
 40
9.249433870634691
 40
10.26152376260694
 40
11.27226744710342
 40
11.27226744710342
 40
11.27226744710342
 40
11.27226744710352
 10
-12.63471858572188
 20
-3.542541086313089
 30
0.0
 10
-12.75394508060439
 20
-3.579026319229174
 30
0.0
 10
-13.15220162910696
 20
-3.698611543411092
 30
0.0
 10
-13.83212432089176
 20
-3.886185246374001
 30
0.0
 10
-14.67430915868055
 20
-4.096242910338647
 30
0.0
 10
-15.51672584916669
 20
-4.280645649597963
 30
0.0
 10
-16.3591811388915
 20
-4.438774198308417
 30
0.0
 10
-17.20172821261026
 20
-4.569478321770216
 30
0.0
 10
-18.04433349548865
 20
-4.672012149183299
 30
0.0
 10
-18.88699124571694
 20
-4.745711227037801
 30
0.0
 10
-19.72968070239036
 20
-4.790101145810748
 30
0.0
 10
-20.2916100255197
 20
-4.799999770145138
 30
0.0
 10
-20.57238769531877
 20
-4.799999742679281
 30
0.0
  0
ELLIPSE
  5
1E64
330
1F
100
AcDbEntity
  8
AM_11
 48
0.5
100
AcDbEllipse
 10
-18.23223622640595
 20
21.20144483407414
 30
0.0
 11
-24.41816012064582
 21
0.0000000000000991
 31
0.0
210
0.0
220
0.0
230
1.0
 40
0.9599999999999997
 41
1.130070686340299
 42
2.01152014732359
  0
ELLIPSE
  5
1E65
330
1F
100
AcDbEntity
  8
AM_11
 48
0.5
100
AcDbEllipse
 10
-18.23223622640642
 20
-21.20142992178505
 30
0.0
 11
-24.41816012064581
 21
0.0000000000001533
 31
0.0
210
0.0
220
0.0
230
1.0
 40
0.9600000000000001
 41
4.271664206181682
 42
5.153113667164991
  0
ELLIPSE
  5
1E66
330
1F
100
AcDbEntity
  8
AM_11
 48
0.5
100
AcDbEllipse
 10
2.601097106927399
 20
21.20144483407392
 30
0.0
 11
-24.41816012064603
 21
0.0000000000031083
 31
0.0
210
0.0
220
0.0
230
1.0
 40
0.9599999999999944
 41
1.130070686340421
 42
1.29180073738111
  0
LINE
  5
1E6A
330
1F
100
AcDbEntity
  8
AM_11
 48
0.5
100
AcDbLine
 10
-48.5143529440215
 20
4.800682184431978
 30
0.0
 11
-38.38411108359669
 21
4.800000257320907
 31
0.0
  0
LINE
  5
1E6B
330
1F
100
AcDbEntity
  8
AM_0
100
AcDbLine
 10
-68.38381958008458
 20
4.80000025732112
 30
0.0
 11
-48.5143529440215
 21
4.800682184431978
 31
0.0
  0
LINE
  5
1E6C
330
1F
100
AcDbEntity
  8
AM_0
 48
0.5
100
AcDbLine
 10
-68.38382593794303
 20
-4.799999742678816
 30
0.0
 11
-50.57196446943395
 21
-4.799999742678967
 31
0.0
  0
LINE
  5
1E6D
330
1F
100
AcDbEntity
  8
AM_11
 48
0.5
100
AcDbLine
 10
-80.18177541097719
 20
-4.799999742678759
 30
0.0
 11
-68.38381958008469
 21
-4.79999974267888
 31
0.0
  0
LINE
  5
1E6E
330
1F
100
AcDbEntity
  8
AM_11
 48
0.5
100
AcDbLine
 10
-78.51040570468207
 20
4.800000257321224
 30
0.0
 11
-68.38381958008458
 21
4.80000025732112
 31
0.0
  0
LINE
  5
1E6F
330
1F
100
AcDbEntity
  8
AM_0
 48
0.5
100
AcDbLine
 10
-71.03568903605793
 20
2.432071180172345
 30
0.0
 11
-82.00000000000043
 21
-0.3881985952179383
 31
0.0
  0
SPLINE
  5
1E70
330
1F
100
AcDbEntity
  8
AM_0
100
AcDbSpline
210
0.0
220
0.0
230
1.0
 70
     8
 71
     3
 72
    11
 73
     7
 74
     0
 42
0.0000000001
 43
0.0000000001
 40
11.27226913003534
 40
11.27226913003534
 40
11.27226913003534
 40
11.2722691300354
 40
12.28301561507924
 40
13.29510212255852
 40
14.30984805882082
 40
15.18258238371378
 40
15.18258238371378
 40
15.18258238371378
 40
15.18258238371378
 10
-50.57196680821091
 20
-4.799999742679069
 30
0.0
 10
-50.8516768230795
 20
-4.776507147808175
 30
0.0
 10
-51.41056926653991
 20
-4.719632598065214
 30
0.0
 10
-52.24602191534504
 20
-4.604902563347149
 30
0.0
 10
-53.03888121038526
 20
-4.467870116534108
 30
0.0
 10
-53.55165606251034
 20
-4.362529196321687
 30
0.0
 10
-53.78795731562014
 20
-4.31049369135781
 30
0.0
  0
SPLINE
  5
1E71
330
1F
100
AcDbEntity
  8
AM_0
100
AcDbSpline
210
0.0
220
0.0
230
1.0
 70
     8
 71
     3
 72
    17
 73
    13
 74
     0
 42
0.0000000001
 43
0.0000000001
 40
1.580019955310467
 40
1.580019955310467
 40
1.580019955310467
 40
1.580019955310467
 40
2.030549285115227
 40
3.082371838836284
 40
4.126290986361125
 40
5.162752068350215
 40
6.192395305374981
 40
7.216039564037012
 40
8.234688489606833
 40
9.249433870634691
 40
10.26152376260694
 40
11.27226744710342
 40
11.27226744710342
 40
11.27226744710342
 40
11.27226744710352
 10
-42.63429769861396
 20
-3.542541086312877
 30
0.0
 10
-42.75352419349647
 20
-3.579026319228961
 30
0.0
 10
-43.15178074199904
 20
-3.698611543410879
 30
0.0
 10
-43.83170343378385
 20
-3.886185246373787
 30
0.0
 10
-44.67388827157265
 20
-4.096242910338435
 30
0.0
 10
-45.51630496205879
 20
-4.28064564959775
 30
0.0
 10
-46.35876025178361
 20
-4.438774198308205
 30
0.0
 10
-47.20130732550237
 20
-4.569478321770002
 30
0.0
 10
-48.04391260838073
 20
-4.672012149183087
 30
0.0
 10
-48.88657035860902
 20
-4.745711227037587
 30
0.0
 10
-49.72925981528245
 20
-4.790101145810536
 30
0.0
 10
-50.2911891384118
 20
-4.799999770144925
 30
0.0
 10
-50.57196680821085
 20
-4.799999742679069
 30
0.0
  0
SPLINE
  5
1E72
330
1F
100
AcDbEntity
  8
AM_0
100
AcDbSpline
210
0.0
220
0.0
230
1.0
 70
     8
 71
     3
 72
    22
 73
    18
 74
     0
 42
0.0000000001
 43
0.0000000001
 40
17.17441611292
 40
17.17441611292
 40
17.17441611292
 40
17.17441611292
 40
17.38177636558528
 40
18.41823744757437
 40
19.46215659509824
 40
20.51397914882054
 40
21.57394542641293
 40
22.64209583141747
 40
23.71826625065247
 40
24.80210429862395
 40
25.8930771157021
 40
26.99048705697709
 40
28.09349309193389
 40
29.20112995599786
 40
30.31233024745139
 40
31.42594771747373
 40
32.5407895042663
 40
32.54078950426994
 40
32.54078950426994
 40
32.54078950426994
 10
-53.78832585277283
 20
-4.310434483394514
 30
0.0
 10
-53.844753540125
 20
-4.299322954187009
 30
0.0
 10
-54.18300670884626
 20
-4.231641415264016
 30
0.0
 10
-54.80266745345347
 20
-4.095931120774997
 30
0.0
 10
-55.6449695377652
 20
-3.886196006065946
 30
0.0
 10
-56.48718579326264
 20
-3.652510473765276
 30
0.0
 10
-57.32932216594534
 20
-3.39633324690866
 30
0.0
 10
-58.17137754340972
 20
-3.119235070659514
 30
0.0
 10
-59.01336229038101
 20
-2.822940455014208
 30
0.0
 10
-59.8552803054853
 20
-2.509270331347497
 30
0.0
 10
-60.69713937846625
 20
-2.1801590861249
 30
0.0
 10
-61.53894887026299
 20
-1.8376371272669
 30
0.0
 10
-62.38071608727403
 20
-1.483810632656633
 30
0.0
 10
-63.2224495032473
 20
-1.120856402678438
 30
0.0
 10
-64.06415657941699
 20
-0.7510061950061184
 30
0.0
 10
-64.90584978494135
 20
-0.3765421853280054
 30
0.0
 10
-65.4668684457599
 20
-0.1253971172149214
 30
0.0
 10
-65.74753189203438
 20
0.0002443979467053
 30
0.0
  0
SPLINE
  5
1E73
330
1F
100
AcDbEntity
  8
AM_0
 48
0.5
100
AcDbSpline
210
0.0
220
0.0
230
1.0
 70
     8
 71
     3
 72
    26
 73
    22
 74
     0
 42
0.0000000001
 43
0.0000000001
 40
0.0
 40
0.0
 40
0.0
 40
0.0
 40
0.8422864037471089
 40
1.685694647057321
 40
2.531315797913884
 40
3.380177287502886
 40
4.233214169721234
 40
5.09125020057522
 40
5.954967768899448
 40
6.824900391836836
 40
7.701419186604396
 40
8.584724417931369
 40
9.47485577056355
 40
10.37165251267315
 40
11.27486274211709
 40
12.18400675634887
 40
13.09851504074504
 40
14.01768673654235
 40
14.94071745659532
 40
15.8667176994736
 40
16.76607142455336
 40
16.76607142455336
 40
16.76607142455336
 40
16.76607142455336
 10
-66.02486801148137
 20
-4.799999742678905
 30
0.0
 10
-66.30564568501852
 20
-4.797143859090463
 30
0.0
 10
-66.86757499931013
 20
-4.791428288167979
 30
0.0
 10
-67.71026447334951
 20
-4.745354366120001
 30
0.0
 10
-68.55291797859873
 20
-4.672108876030894
 30
0.0
 10
-69.39551932264518
 20
-4.569452499085029
 30
0.0
 10
-70.23806014156012
 20
-4.438776587407068
 30
0.0
 10
-71.08052364866209
 20
-4.280661627632258
 30
0.0
 10
-71.9229092834976
 20
-4.096175905777838
 30
0.0
 10
-72.76521130101517
 20
-3.886439895203919
 30
0.0
 10
-73.6074277099313
 20
-3.652754972813114
 30
0.0
 10
-74.44956544171846
 20
-3.396575612999576
 30
0.0
 10
-75.29162100683294
 20
-3.1194836407348
 30
0.0
 10
-76.13360394600142
 20
-2.823178806888195
 30
0.0
 10
-76.97552551711611
 20
-2.509517723407955
 30
0.0
 10
-77.81738753925314
 20
-2.180403139258002
 30
0.0
 10
-78.65919628805163
 20
-1.837879768014036
 30
0.0
 10
-79.50096722233869
 20
-1.484060904925341
 30
0.0
 10
-80.34268643091522
 20
-1.121077392782041
 30
0.0
 10
-81.17575935448327
 20
-0.7551530950653952
 30
0.0
 10
-81.72770150981042
 20
-0.50932258505132
 30
0.0
 10
-82.00000000000043
 20
-0.3881985952179381
 30
0.0
  0
SPLINE
  5
1E74
330
1F
100
AcDbEntity
  8
AM_0
 48
0.5
100
AcDbSpline
210
0.0
220
0.0
230
1.0
 70
     8
 71
     3
 72
    22
 73
    18
 74
     0
 42
0.0000000001
 43
0.0000000001
 40
0.0
 40
0.0
 40
0.0
 40
0.0
 40
1.010743684496582
 40
2.022833993863546
 40
3.037578683882831
 40
4.056212471389632
 40
5.079857945358201
 40
6.109499720892564
 40
7.145961650132166
 40
8.189873411961459
 40
9.241710626092514
 40
10.30166235592959
 40
11.36982472628033
 40
12.44598212828784
 40
13.52983440361964
 40
14.62080578343036
 40
14.90544694398022
 40
14.90544694398022
 40
14.90544694398022
 40
14.90544694398022
 10
-68.38382593791386
 20
-4.799999742678881
 30
0.0
 10
-68.66460366506905
 20
-4.79714471216704
 30
0.0
 10
-69.22653320261758
 20
-4.791430847354996
 30
0.0
 10
-70.06922179418461
 20
-4.745344092757653
 30
0.0
 10
-70.91187620933581
 20
-4.672110926667922
 30
0.0
 10
-71.7544780087085
 20
-4.569454481929801
 30
0.0
 10
-72.59701650542575
 20
-4.438766277811412
 30
0.0
 10
-73.43948290987379
 20
-4.280664988969606
 30
0.0
 10
-74.28186487692968
 20
-4.096172563093702
 30
0.0
 10
-75.1241681991058
 20
-3.886433515972326
 30
0.0
 10
-75.96638529022101
 20
-3.652757423152093
 30
0.0
 10
-76.80852055161915
 20
-3.396566463655986
 30
0.0
 10
-77.6505794119784
 20
-3.119490897691212
 30
0.0
 10
-78.49256123881372
 20
-2.823177927767934
 30
0.0
 10
-79.33448180566273
 20
-2.509515201661258
 30
0.0
 10
-79.96724394878642
 20
-2.262158205074369
 30
0.0
 10
-80.31984109603738
 20
-2.120776896902067
 30
0.0
 10
-80.39274646134115
 20
-2.091399119505036
 30
0.0
  0
SPLINE
  5
1E75
330
1F
100
AcDbEntity
  8
AM_0
100
AcDbSpline
210
0.0
220
0.0
230
1.0
 70
     8
 71
     3
 72
    13
 73
     9
 74
     0
 42
0.0000000001
 43
0.0000000001
 40
16.03460056234195
 40
16.03460056234195
 40
16.03460056234195
 40
16.03460056234195
 40
16.35212717791071
 40
17.38177067057215
 40
18.41822498539278
 40
19.46214186516937
 40
20.5139635832251
 40
21.34083983469381
 40
21.34083983469381
 40
21.34083983469381
 40
21.34083983469381
 10
-80.18139479185402
 20
-4.800436281524028
 30
0.0
 10
-80.0948187695063
 20
-4.784232804023421
 30
0.0
 10
-79.7278713889842
 20
-4.713671077952069
 30
0.0
 10
-79.08149051366159
 20
-4.575410737215488
 30
0.0
 10
-78.24442502635412
 20
-4.369822092892537
 30
0.0
 10
-77.40813717861562
 20
-4.138979519025665
 30
0.0
 10
-76.63429580644678
 20
-3.903037689800403
 30
0.0
 10
-76.14059863827577
 20
-3.740574949270306
 30
0.0
 10
-75.92401664953385
 20
-3.66714031018994
 30
0.0
  0
SPLINE
  5
1E76
330
1F
100
AcDbEntity
  8
AM_0
100
AcDbSpline
210
0.0
220
0.0
230
1.0
 70
     8
 71
     3
 72
    23
 73
    19
 74
     0
 42
0.0000000001
 43
0.0000000001
 40
16.03460024169435
 40
16.03460024169435
 40
16.03460024169435
 40
16.03460024169435
 40
16.35212704903564
 40
17.38177054169784
 40
18.41822485651776
 40
19.46214173629503
 40
20.51396345435107
 40
21.57393551351153
 40
22.64208202342361
 40
23.7182574881101
 40
24.80209208578934
 40
25.89306333925047
 40
26.99048218457928
 40
28.09348763352352
 40
29.20111863782268
 40
30.31232390128032
 40
31.42594612798585
 40
32.5407912310448
 40
32.5407912310486
 40
32.5407912310486
 40
32.5407912310486
 10
-78.51404776824066
 20
4.800682184432186
 30
0.0
 10
-78.42747178097721
 20
4.784478229710341
 30
0.0
 10
-78.06052470409629
 20
4.713914567599612
 30
0.0
 10
-77.41414347642131
 20
4.575655841066115
 30
0.0
 10
-76.57707809445473
 20
4.37006662669351
 30
0.0
 10
-75.74079021818779
 20
4.139224207205732
 30
0.0
 10
-74.90523043070294
 20
3.884464580784866
 30
0.0
 10
-74.07036907650264
 20
3.607208038051523
 30
0.0
 10
-73.23615790260143
 20
3.309039494326696
 30
0.0
 10
-72.4025388177039
 20
2.991694215743526
 30
0.0
 10
-71.56946445257957
 20
2.65696931011223
 30
0.0
 10
-70.73686801663583
 20
2.306812463666018
 30
0.0
 10
-69.90468203724211
 20
1.943258939281126
 30
0.0
 10
-69.07285106822016
 20
1.568399017311363
 30
0.0
 10
-68.24130551128309
 20
1.184412456868004
 30
0.0
 10
-67.40996834770135
 20
0.7935414577495765
 30
0.0
 10
-66.57877188316238
 20
0.3980510115518355
 30
0.0
 10
-66.02478974619002
 20
0.1328962925703405
 30
0.0
 10
-65.74764760335774
 20
0.0002443979449777
 30
0.0
  0
ELLIPSE
  5
1E77
330
1F
100
AcDbEntity
  8
AM_11
 48
0.5
100
AcDbEllipse
 10
-80.73223622640011
 20
21.20144483407477
 30
0.0
 11
-24.41816012064584
 21
0.0000000000002617
 31
0.0
210
0.0
220
0.0
230
1.0
 40
0.9599999999999997
 41
1.130070686340306
 42
2.011520147323598
  0
ELLIPSE
  5
1E78
330
1F
100
AcDbEntity
  8
AM_11
 48
0.5
100
AcDbEllipse
 10
-80.73223622640059
 20
-21.20142992178441
 30
0.0
 11
24.41816012064585
 21
0.0000000000002238
 31
0.0
210
0.0
220
0.0
230
1.0
 40
0.9599999999999988
 41
1.130071552591874
 42
2.01152101357518
  0
ELLIPSE
  5
1E79
330
1F
100
AcDbEntity
  8
AM_11
 48
0.5
100
AcDbEllipse
 10
-101.5655695597337
 20
-21.20142992178426
 30
0.0
 11
-24.41816012064583
 21
0.000000000000213
 31
0.0
210
0.0
220
0.0
230
1.0
 40
0.9600000000000003
 41
4.271664206181685
 42
5.153113667164992
  0
ELLIPSE
  5
1E7A
330
1F
100
AcDbEntity
  8
AM_11
 48
0.5
100
AcDbEllipse
 10
-101.5655695597332
 20
21.20144483407492
 30
0.0
 11
-24.41816012064587
 21
0.0000000000002021
 31
0.0
210
0.0
220
0.0
230
1.0
 40
0.959999999999998
 41
1.130070686340304
 42
2.011520147323594
  0
ELLIPSE
  5
1E7B
330
1F
100
AcDbEntity
  8
AM_0
 48
0.5
100
AcDbEllipse
 10
-80.33297729492884
 20
-3.199999742678778
 30
0.0
 11
-1.667124694067143
 21
0.0056125518938908
 31
0.0
210
0.0
220
0.0
230
1.0
 40
0.9597303807745893
 41
0.0147546289534044
 42
1.574027035721273
  0
ELLIPSE
  5
1E7C
330
1F
100
AcDbEntity
  8
AM_0
 48
0.5
100
AcDbEllipse
 10
-80.74994913737635
 20
-3.248748521975582
 30
0.0
 11
1.250463811478188
 21
0.0012963450824928
 31
0.0
210
0.0
220
0.0
230
1.0
 40
0.9595470285712003
 41
1.174596412706628
 42
3.114878281353513
  0
ELLIPSE
  5
1E7D
330
1F
100
AcDbEntity
  8
AM_11
 48
0.5
100
AcDbEllipse
 10
-59.89890289306678
 20
21.20144483407457
 30
0.0
 11
-24.41816012064585
 21
0.0000000000001479
 31
0.0
210
0.0
220
0.0
230
1.0
 40
0.9599999999999985
 41
1.130070686340302
 42
2.011520147323591
  0
ELLIPSE
  5
1E7E
330
1F
100
AcDbEntity
  8
AM_11
 48
0.5
100
AcDbEllipse
 10
-59.89890289306724
 20
-21.20142992178462
 30
0.0
 11
-24.4181601206458
 21
0.0000000000001533
 31
0.0
210
0.0
220
0.0
230
1.0
 40
0.9600000000000003
 41
4.271664206181682
 42
5.153113667164989
  0
LINE
  5
1E7F
330
1F
100
AcDbEntity
  8
AM_0
 48
0.5
100
AcDbLine
 10
-137.9999618530338
 20
4.717105360001882
 30
0.0
 11
-137.705327351892
 21
4.999948377579484
 31
0.0
  0
LINE
  5
1E80
330
1F
100
AcDbEntity
  8
AM_0
 48
0.5
100
AcDbLine
 10
-137.9999618530338
 20
-4.717132311178122
 30
0.0
 11
-137.705327351892
 21
-4.99997532875652
 31
0.0
  0
LINE
  5
1E81
330
1F
100
AcDbEntity
  8
AM_0
 48
0.5
100
AcDbLine
 10
-138.0000000000004
 20
-4.71715672524051
 30
0.0
 11
-138.0000000000004
 21
4.717157239884286
 31
0.0
  0
LINE
  5
1E82
330
1F
100
AcDbEntity
  8
AM_0
 48
0.5
100
AcDbLine
 10
-137.7053782145254
 20
-4.999999742818929
 30
0.0
 11
-137.7053782145254
 21
5.000000257462684
 31
0.0
  0
ELLIPSE
  5
1E83
330
1F
100
AcDbEntity
  8
AM_11
 48
0.5
100
AcDbEllipse
 10
-143.2322362261875
 20
-21.20142992178397
 30
0.0
 11
-24.41816012064657
 21
0.0000000000065078
 31
0.0
210
0.0
220
0.0
230
1.0
 40
0.9599999999999736
 41
4.271664206181946
 42
4.496437984741183
  0
ELLIPSE
  5
1E84
330
1F
100
AcDbEntity
  8
AM_11
 48
0.5
100
AcDbEllipse
 10
-143.232236226187
 20
21.20144483407522
 30
0.0
 11
-24.41816012064482
 21
0.0000000000079609
 31
0.0
210
0.0
220
0.0
230
1.0
 40
0.9600000000000354
 41
1.786747322438963
 42
2.011520147323918
  0
ELLIPSE
  5
1E85
330
1F
100
AcDbEntity
  8
AM_11
 48
0.5
100
AcDbEllipse
 10
-122.3989454504018
 20
-21.20141065184521
 30
0.0
 11
24.41816012064577
 21
0.0000000000003322
 31
0.0
210
0.0
220
0.0
230
1.0
 40
0.9600000000000024
 41
1.130071552591869
 42
2.011521013575176
  0
ELLIPSE
  5
1E86
330
1F
100
AcDbEntity
  8
AM_11
 48
0.5
100
AcDbEllipse
 10
-122.3989454504013
 20
21.20146410401399
 30
0.0
 11
-24.41816012064583
 21
0.0000000000003593
 31
0.0
210
0.0
220
0.0
230
1.0
 40
0.9599999999999997
 41
1.130070686340309
 42
2.011520147323601
  0
LINE
  5
1E88
330
1F
100
AcDbEntity
  8
AM_0
 48
0.5
100
AcDbLine
 10
-80.18177541097719
 20
-4.799999742678759
 30
0.0
 11
-81.65358214117187
 21
-4.800000250259315
 31
0.0
  0
LINE
  5
1E8A
330
1F
100
AcDbEntity
  8
AM_0
100
AcDbLine
 10
-78.51404776824066
 20
4.800682184432186
 30
0.0
 11
-81.65358214117189
 21
4.800068471034138
 31
0.0
  0
SPLINE
  5
1E8B
330
1F
100
AcDbEntity
  8
AM_0
100
AcDbSpline
210
0.0
220
0.0
230
1.0
 70
     8
 71
     3
 72
    46
 73
    42
 74
     0
 42
0.0000000001
 43
0.0000000001
 40
0.0
 40
0.0
 40
0.0
 40
0.0
 40
1.685415058684571
 40
2.531036209541119
 40
3.379897699130121
 40
4.232934581347655
 40
5.090970612202441
 40
5.954688180526682
 40
6.824620803463246
 40
7.701151815239689
 40
8.584457046566678
 40
9.474582384070741
 40
10.37139106676737
 40
11.27458944007583
 40
12.18373345430765
 40
13.09824173870457
 40
14.01741343450111
 40
14.9404441545541
 40
15.86644439743314
 40
16.79446029130534
 40
17.7234937712985
 40
18.65252725129241
 40
19.58054314516461
 40
20.50654338804289
 40
21.42957410809586
 40
22.34874580389317
 40
23.26325408828901
 40
24.17239810252111
 40
25.07560240389441
 40
25.97241108659103
 40
26.8625364240951
 40
27.74584165542183
 40
28.62236045019041
 40
29.49229307312697
 40
30.35601064145121
 40
31.21404606334468
 40
32.06708345193547
 40
32.91595755657689
 40
33.76157841950693
 40
34.60498701064689
 40
35.44727335621125
 40
35.44727335621125
 40
35.44727335621125
 40
35.44727335621125
 10
-2.339330037441357
 20
-4.799999742679471
 30
0.0
 10
-2.901286806635878
 20
-4.789064971635074
 30
0.0
 10
-3.745193429932677
 20
-4.77264391184105
 30
0.0
 10
-4.867372868210427
 20
-4.671542463398469
 30
0.0
 10
-5.709983272419771
 20
-4.569605309190873
 30
0.0
 10
-6.552521653498263
 20
-4.438735318833062
 30
0.0
 10
-7.394985791911311
 20
-4.280672717989116
 30
0.0
 10
-8.237371359755423
 20
-4.096173180547852
 30
0.0
 10
-9.079676946161336
 20
-3.886438603876093
 30
0.0
 10
-9.921898802571694
 20
-3.652756789321978
 30
0.0
 10
-10.76403861238597
 20
-3.396577118158751
 30
0.0
 10
-11.60609411050417
 20
-3.11947928419098
 30
0.0
 10
-12.44807882499836
 20
-2.823184576245965
 30
0.0
 10
-13.28999684808259
 20
-2.509514475886896
 30
0.0
 10
-14.13185592197827
 20
-2.180403230725414
 30
0.0
 10
-14.97366540195461
 20
-1.837881247876253
 30
0.0
 10
-15.81543266567249
 20
-1.484054849888112
 30
0.0
 10
-16.65716590565127
 20
-1.121100255362957
 30
0.0
 10
-17.4988740466628
 20
-0.751251237153415
 30
0.0
 10
-18.34056477776595
 20
-0.3767821067404047
 30
0.0
 10
-19.1822484334682
 20
0.0000002572444694
 30
0.0
 10
-20.02393208898553
 20
0.3767826216872102
 30
0.0
 10
-20.8656228206433
 20
0.7512517507272897
 30
0.0
 10
-21.70733095962759
 20
1.121100773954283
 30
0.0
 10
-22.54906420712352
 20
1.484055349871543
 30
0.0
 10
-23.39083144296848
 20
1.837881816855868
 30
0.0
 10
-24.23264102616776
 20
2.180403544187886
 30
0.0
 10
-25.07450154840897
 20
2.509516449983463
 30
0.0
 10
-25.91642284278047
 20
2.823183700490663
 30
0.0
 10
-26.75840905924636
 20
3.119479927733475
 30
0.0
 10
-27.6004645377591
 20
3.396577844152597
 30
0.0
 10
-28.44260088815873
 20
3.65275516124357
 30
0.0
 10
-29.28481713301803
 20
3.886440590657405
 30
0.0
 10
-30.12711928118905
 20
4.096176024117864
 30
0.0
 10
-30.96950436150464
 20
4.280663490630778
 30
0.0
 10
-31.81196911756083
 20
4.438771935857604
 30
0.0
 10
-32.65451287578427
 20
4.569455042191074
 30
0.0
 10
-33.49711893823583
 20
4.672109814974263
 30
0.0
 10
-34.33977713231441
 20
4.745348589953033
 30
0.0
 10
-35.18246591425862
 20
4.791434943222692
 30
0.0
 10
-35.7443954638125
 20
4.797146420086812
 30
0.0
 10
-36.0251731872621
 20
4.800000257320883
 30
0.0
  0
LINE
  5
1E8C
330
1F
100
AcDbEntity
  8
AM_11
 48
0.5
100
AcDbLine
 10
-50.57196680820892
 20
-4.799999742679068
 30
0.0
 11
-34.69786707676596
 21
-4.800681669790182
 31
0.0
  0
SPLINE
  5
1E8D
330
1F
100
AcDbEntity
  8
AM_0
100
AcDbSpline
210
0.0
220
0.0
230
1.0
 70
     8
 71
     3
 72
    23
 73
    19
 74
     0
 42
0.0000000001
 43
0.0000000001
 40
16.03460024169435
 40
16.03460024169435
 40
16.03460024169435
 40
16.03460024169435
 40
16.35212704903564
 40
17.38177054169784
 40
18.41822485651776
 40
19.46214173629503
 40
20.51396345435107
 40
21.57393551351153
 40
22.64208202342361
 40
23.7182574881101
 40
24.80209208578934
 40
25.89306333925047
 40
26.99048218457928
 40
28.09348763352352
 40
29.20111863782268
 40
30.31232390128032
 40
31.42594612798585
 40
32.5407912310448
 40
32.5407912310486
 40
32.5407912310486
 40
32.5407912310486
 10
-48.5143529440215
 20
4.800682184431977
 30
0.0
 10
-48.42777695675805
 20
4.784478229710131
 30
0.0
 10
-48.06082987987712
 20
4.713914567599404
 30
0.0
 10
-47.41444865220214
 20
4.575655841065906
 30
0.0
 10
-46.57738327023556
 20
4.370066626693302
 30
0.0
 10
-45.74109539396862
 20
4.139224207205523
 30
0.0
 10
-44.90553560648379
 20
3.884464580784656
 30
0.0
 10
-44.07067425228349
 20
3.607208038051314
 30
0.0
 10
-43.2364630783823
 20
3.309039494326486
 30
0.0
 10
-42.40284399348475
 20
2.991694215743317
 30
0.0
 10
-41.56976962836043
 20
2.656969310112019
 30
0.0
 10
-40.73717319241665
 20
2.306812463665808
 30
0.0
 10
-39.90498721302293
 20
1.943258939280917
 30
0.0
 10
-39.07315624400096
 20
1.568399017311153
 30
0.0
 10
-38.24161068706391
 20
1.184412456867795
 30
0.0
 10
-37.41027352348218
 20
0.7935414577493668
 30
0.0
 10
-36.57907705894321
 20
0.3980510115516258
 30
0.0
 10
-36.02509492197084
 20
0.1328962925701308
 30
0.0
 10
-35.74795277913858
 20
0.0002443979447679
 30
0.0
  0
SPLINE
  5
1E8E
330
1F
100
AcDbEntity
  8
AM_0
100
AcDbSpline
210
0.0
220
0.0
230
1.0
 70
     8
 71
     3
 72
    46
 73
    42
 74
     0
 42
0.0000000001
 43
0.0000000001
 40
0.0
 40
0.0
 40
0.0
 40
0.0
 40
1.685415058684573
 40
2.531036209541122
 40
3.379897699130124
 40
4.232934581347651
 40
5.090970612202446
 40
5.954688180526682
 40
6.824620803463244
 40
7.701151815239691
 40
8.584457046566678
 40
9.474582384070743
 40
10.37139106676737
 40
11.27458944007583
 40
12.18373345430765
 40
13.09824173870457
 40
14.0174134345011
 40
14.94044415455409
 40
15.86644439743313
 40
16.79446029130533
 40
17.72349377129849
 40
18.65252725129241
 40
19.5805431451646
 40
20.5065433880429
 40
21.42957410809586
 40
22.34874580389317
 40
23.26325408828901
 40
24.17239810252111
 40
25.07560240389441
 40
25.97241108659103
 40
26.8625364240951
 40
27.74584165542183
 40
28.62236045019041
 40
29.49229307312697
 40
30.35601064145121
 40
31.21404606334469
 40
32.06708345193547
 40
32.91595755657689
 40
33.76157841950692
 40
34.60498701064691
 40
35.44727335621125
 40
35.44727335621125
 40
35.44727335621125
 40
35.44727335621125
 10
-32.33890915033345
 20
-4.799999742679259
 30
0.0
 10
-32.90086591952797
 20
-4.789064971634862
 30
0.0
 10
-33.74477254282477
 20
-4.77264391184084
 30
0.0
 10
-34.8669519811025
 20
-4.671542463398255
 30
0.0
 10
-35.70956238531187
 20
-4.56960530919066
 30
0.0
 10
-36.55210076639036
 20
-4.438735318832849
 30
0.0
 10
-37.39456490480341
 20
-4.280672717988903
 30
0.0
 10
-38.23695047264752
 20
-4.096173180547638
 30
0.0
 10
-39.07925605905342
 20
-3.886438603875881
 30
0.0
 10
-39.92147791546377
 20
-3.652756789321765
 30
0.0
 10
-40.76361772527805
 20
-3.396577118158538
 30
0.0
 10
-41.60567322339626
 20
-3.119479284190769
 30
0.0
 10
-42.44765793789045
 20
-2.823184576245754
 30
0.0
 10
-43.28957596097466
 20
-2.50951447588668
 30
0.0
 10
-44.13143503487037
 20
-2.180403230725206
 30
0.0
 10
-44.97324451484669
 20
-1.837881247876038
 30
0.0
 10
-45.81501177856459
 20
-1.484054849887901
 30
0.0
 10
-46.65674501854335
 20
-1.121100255362743
 30
0.0
 10
-47.49845315955486
 20
-0.7512512371532035
 30
0.0
 10
-48.34014389065805
 20
-0.3767821067401915
 30
0.0
 10
-49.18182754636028
 20
0.0000002572446822
 30
0.0
 10
-50.02351120187761
 20
0.3767826216874226
 30
0.0
 10
-50.8652019335354
 20
0.7512517507275045
 30
0.0
 10
-51.7069100725197
 20
1.121100773954494
 30
0.0
 10
-52.5486433200156
 20
1.484055349871755
 30
0.0
 10
-53.39041055586057
 20
1.837881816856082
 30
0.0
 10
-54.23222013905986
 20
2.180403544188099
 30
0.0
 10
-55.07408066130105
 20
2.509516449983674
 30
0.0
 10
-55.91600195567257
 20
2.823183700490878
 30
0.0
 10
-56.75798817213845
 20
3.119479927733687
 30
0.0
 10
-57.60004365065119
 20
3.39657784415281
 30
0.0
 10
-58.44218000105084
 20
3.652755161243782
 30
0.0
 10
-59.28439624591012
 20
3.886440590657617
 30
0.0
 10
-60.12669839408113
 20
4.096176024118078
 30
0.0
 10
-60.96908347439672
 20
4.280663490630994
 30
0.0
 10
-61.81154823045289
 20
4.438771935857818
 30
0.0
 10
-62.65409198867637
 20
4.569455042191286
 30
0.0
 10
-63.49669805112789
 20
4.672109814974473
 30
0.0
 10
-64.33935624520652
 20
4.745348589953248
 30
0.0
 10
-65.18204502715072
 20
4.791434943222903
 30
0.0
 10
-65.74397457670459
 20
4.797146420087021
 30
0.0
 10
-66.02475230015419
 20
4.800000257321094
 30
0.0
  0
SPLINE
  5
1E8F
330
1F
100
AcDbEntity
  8
AM_0
100
AcDbSpline
210
0.0
220
0.0
230
1.0
 70
     8
 71
     3
 72
    55
 73
    51
 74
     0
 42
0.0000000001
 43
0.0000000001
 40
0.0
 40
0.0
 40
0.0
 40
0.0
 40
1.010743684496582
 40
2.022833576467832
 40
3.037578957496688
 40
4.056212745003489
 40
5.079857003664532
 40
6.109500240690281
 40
7.145961322679372
 40
8.189895241603872
 40
9.241717795325891
 40
10.30168407291828
 40
11.36983447792315
 40
12.44600489715814
 40
13.52984294512926
 40
14.62081576220742
 40
15.7182257034828
 40
16.82123173843959
 40
17.92886860250316
 40
19.0400688939571
 40
20.15368796660465
 40
21.26852814259644
 40
22.38336992938901
 40
23.49698739941135
 40
24.6081876908653
 40
25.71582455492886
 40
26.81883757994213
 40
27.91624752121713
 40
29.00722033829659
 40
30.09105838626677
 40
31.16722880550176
 40
32.23537921050758
 40
33.29534548809967
 40
34.347168041821
 40
35.39108718934584
 40
36.42754827133493
 40
37.45720575381954
 40
38.48085062012849
 40
39.49948440763516
 40
40.51422944315121
 40
41.52631975251916
 40
42.53706336719636
 40
43.54780698187354
 40
44.55989729124051
 40
45.57464232675757
 40
46.59327611426424
 40
47.6169209805722
 40
48.64656348684535
 40
49.68302456883444
 40
50.58557219878025
 40
50.58557219878025
 40
50.58557219878025
 40
50.58557219878025
 10
-34.69786707676595
 20
-4.799999742679231
 30
0.0
 10
-34.97864475026932
 20
-4.797143858966339
 30
0.0
 10
-35.54057406449308
 20
-4.791428287794805
 30
0.0
 10
-36.38326353904041
 20
-4.745354367618259
 30
0.0
 10
-37.22591704235141
 20
-4.672108870388292
 30
0.0
 10
-38.06851839368347
 20
-4.56945252028448
 30
0.0
 10
-38.91105918520151
 20
-4.438776507669538
 30
0.0
 10
-39.75352279545952
 20
-4.280661927946916
 30
0.0
 10
-40.5959120424609
 20
-4.096173897282445
 30
0.0
 10
-41.43821945591546
 20
-3.886442132105159
 30
0.0
 10
-42.28043929817462
 20
-3.652754372730087
 30
0.0
 10
-43.1225757672387
 20
-3.39657745306622
 30
0.0
 10
-43.96463111851709
 20
-3.119479193424231
 30
0.0
 10
-44.80661587281693
 20
-2.82318460085815
 30
0.0
 10
-45.64853388505803
 20
-2.509514469122288
 30
0.0
 10
-46.49039296212547
 20
-2.180403232941637
 30
0.0
 10
-47.33220244035032
 20
-1.837881245820065
 30
0.0
 10
-48.17396970790201
 20
-1.48405485591931
 30
0.0
 10
-49.01570293422776
 20
-1.121100233179126
 30
0.0
 10
-49.85741112623083
 20
-0.7512513201813134
 30
0.0
 10
-50.69910166649329
 20
-0.3767817960483988
 30
0.0
 10
-51.54078644098928
 20
-0.0000007220534191
 30
0.0
 10
-52.38246743702489
 20
0.3767871342357053
 30
0.0
 10
-53.22416079845058
 20
0.7512508268876346
 30
0.0
 10
-54.06586795135361
 20
1.12110085939705
 30
0.0
 10
-54.90760267848038
 20
1.484056864832572
 30
0.0
 10
-55.74937343808649
 20
1.837880235116784
 30
0.0
 10
-56.5911842449091
 20
2.180403959301408
 30
0.0
 10
-57.43304344351297
 20
2.50951492860678
 30
0.0
 10
-58.2749614251194
 20
2.823185126306291
 30
0.0
 10
-59.1169461815752
 20
3.119479719305793
 30
0.0
 10
-59.95900155430141
 20
3.39657791268941
 30
0.0
 10
-60.80113793644781
 20
3.65275509393348
 30
0.0
 10
-61.64335415915548
 20
3.886440789848629
 30
0.0
 10
-62.48565636391157
 20
4.096175301988767
 30
0.0
 10
-63.32804529843025
 20
4.280667042475443
 30
0.0
 10
-64.17051492416078
 20
4.438763563318196
 30
0.0
 10
-65.01305849919553
 20
4.56948002292149
 30
0.0
 10
-65.85566010031233
 20
4.67201468717238
 30
0.0
 10
-66.69831418912457
 20
4.745704977624922
 30
0.0
 10
-67.54100294917165
 20
4.790108824873051
 30
0.0
 10
-68.3837102267932
 20
4.804942680957481
 30
0.0
 10
-69.22641750317481
 20
4.790108824849808
 30
0.0
 10
-70.06910626694889
 20
4.745704977718247
 30
0.0
 10
-70.9117603420394
 20
4.672014686820776
 30
0.0
 10
-71.75436199460236
 20
4.569480024242876
 30
0.0
 10
-72.59690126867093
 20
4.438764195613437
 30
0.0
 10
-73.43936757539181
 20
4.280668658926988
 30
0.0
 10
-74.24345491318703
 20
4.104550058982592
 30
0.0
 10
-74.76515593515546
 20
3.975752861875512
 30
0.0
 10
-75.00719480241407
 20
3.912983704619579
 30
0.0
  0
ELLIPSE
  5
1E90
330
1F
100
AcDbEntity
  8
AM_11
 48
0.5
100
AcDbEllipse
 10
-39.06556955973975
 20
-21.20142992178485
 30
0.0
 11
-24.4181601206458
 21
0.0000000000002617
 31
0.0
210
0.0
220
0.0
230
1.0
 40
0.9600000000000012
 41
4.271664206181686
 42
5.153113667164994
  0
ELLIPSE
  5
1E91
330
1F
100
AcDbEntity
  8
AM_11
 48
0.5
100
AcDbEllipse
 10
-39.06556955973929
 20
21.20144483407435
 30
0.0
 11
24.41816012064582
 21
0.0000000000001642
 31
0.0
210
0.0
220
0.0
230
1.0
 40
0.9600000000000003
 41
4.27166333993008
 42
5.153112800913373
  0
LINE
  5
1E92
330
1F
100
AcDbEntity
  8
AM_0
 48
0.5
100
AcDbLine
 10
-38.38412475586542
 20
4.800000257320907
 30
0.0
 11
-16.78969041790119
 21
4.800000617862842
 31
0.0
  0
SPLINE
  5
1E93
330
1F
100
AcDbEntity
  8
AM_0
100
AcDbSpline
210
0.0
220
0.0
230
1.0
 70
     8
 71
     3
 72
    55
 73
    51
 74
     0
 42
0.0000000001
 43
0.0000000001
 40
0.0
 40
0.0
 40
0.0
 40
0.0
 40
1.010743684496582
 40
2.022833576467832
 40
3.037578957496688
 40
4.056212745003489
 40
5.079857003664532
 40
6.109500240690281
 40
7.145961322679372
 40
8.189895241603872
 40
9.241717795325891
 40
10.30168407291828
 40
11.36983447792315
 40
12.44600489715814
 40
13.52984294512926
 40
14.62081576220742
 40
15.7182257034828
 40
16.82123173843959
 40
17.92886860250316
 40
19.0400688939571
 40
20.15368796660465
 40
21.26852814259644
 40
22.38336992938901
 40
23.49698739941135
 40
24.6081876908653
 40
25.71582455492886
 40
26.81883757994213
 40
27.91624752121713
 40
29.00722033829659
 40
30.09105838626677
 40
31.16722880550176
 40
32.23537921050758
 40
33.29534548809967
 40
34.347168041821
 40
35.39108718934584
 40
36.42754827133493
 40
37.45720575381954
 40
38.48085062012849
 40
39.49948440763516
 40
40.51422944315121
 40
41.52631975251916
 40
42.53706336719636
 40
43.54780698187354
 40
44.55989729124051
 40
45.57464232675757
 40
46.59327611426424
 40
47.6169209805722
 40
48.64656348684535
 40
49.68302456883444
 40
50.58557219878025
 40
50.58557219878025
 40
50.58557219878025
 40
50.58557219878025
 10
-4.698287963873863
 20
-4.799999742679442
 30
0.0
 10
-4.979065637377236
 20
-4.797143858966551
 30
0.0
 10
-5.540994951600989
 20
-4.791428287795018
 30
0.0
 10
-6.383684426148323
 20
-4.745354367618472
 30
0.0
 10
-7.226337929459313
 20
-4.672108870388504
 30
0.0
 10
-8.068939280791376
 20
-4.569452520284692
 30
0.0
 10
-8.911480072309423
 20
-4.43877650766975
 30
0.0
 10
-9.753943682567422
 20
-4.280661927947129
 30
0.0
 10
-10.59633292956879
 20
-4.096173897282657
 30
0.0
 10
-11.43864034302337
 20
-3.886442132105371
 30
0.0
 10
-12.28086018528254
 20
-3.652754372730299
 30
0.0
 10
-13.12299665434662
 20
-3.396577453066433
 30
0.0
 10
-13.96505200562501
 20
-3.119479193424444
 30
0.0
 10
-14.80703675992483
 20
-2.823184600858363
 30
0.0
 10
-15.64895477216594
 20
-2.509514469122501
 30
0.0
 10
-16.49081384923338
 20
-2.18040323294185
 30
0.0
 10
-17.33262332745821
 20
-1.837881245820278
 30
0.0
 10
-18.17439059500991
 20
-1.484054855919523
 30
0.0
 10
-19.01612382133569
 20
-1.121100233179338
 30
0.0
 10
-19.85783201333876
 20
-0.751251320181526
 30
0.0
 10
-20.69952255360119
 20
-0.3767817960486116
 30
0.0
 10
-21.54120732809719
 20
-0.0000007220536319
 30
0.0
 10
-22.3828883241328
 20
0.3767871342354925
 30
0.0
 10
-23.22458168555847
 20
0.7512508268874218
 30
0.0
 10
-24.0662888384615
 20
1.121100859396838
 30
0.0
 10
-24.9080235655883
 20
1.484056864832359
 30
0.0
 10
-25.74979432519441
 20
1.837880235116571
 30
0.0
 10
-26.59160513201701
 20
2.180403959301195
 30
0.0
 10
-27.4334643306209
 20
2.509514928606567
 30
0.0
 10
-28.2753823122273
 20
2.823185126306078
 30
0.0
 10
-29.11736706868311
 20
3.11947971930558
 30
0.0
 10
-29.9594224414093
 20
3.396577912689197
 30
0.0
 10
-30.80155882355571
 20
3.652755093933267
 30
0.0
 10
-31.64377504626338
 20
3.886440789848416
 30
0.0
 10
-32.48607725101948
 20
4.096175301988555
 30
0.0
 10
-33.32846618553817
 20
4.280667042475231
 30
0.0
 10
-34.1709358112687
 20
4.438763563317983
 30
0.0
 10
-35.01347938630344
 20
4.56948002292128
 30
0.0
 10
-35.85608098742023
 20
4.672014687172167
 30
0.0
 10
-36.69873507623249
 20
4.745704977624709
 30
0.0
 10
-37.54142383627957
 20
4.790108824872838
 30
0.0
 10
-38.38413111390112
 20
4.804942680957268
 30
0.0
 10
-39.22683839028271
 20
4.790108824849595
 30
0.0
 10
-40.06952715405679
 20
4.745704977718035
 30
0.0
 10
-40.9121812291473
 20
4.672014686820562
 30
0.0
 10
-41.75478288171026
 20
4.569480024242664
 30
0.0
 10
-42.59732215577884
 20
4.438764195613225
 30
0.0
 10
-43.43978846249971
 20
4.280668658926776
 30
0.0
 10
-44.24387580029494
 20
4.10455005898238
 30
0.0
 10
-44.76557682226338
 20
3.975752861875299
 30
0.0
 10
-45.00761568952198
 20
3.912983704619366
 30
0.0
  0
SPLINE
  5
1E94
330
1F
100
AcDbEntity
  8
AM_0
100
AcDbSpline
210
0.0
220
0.0
230
1.0
 70
     8
 71
     3
 72
    22
 73
    18
 74
     0
 42
0.0000000001
 43
0.0000000001
 40
17.17441611292
 40
17.17441611292
 40
17.17441611292
 40
17.17441611292
 40
17.38177636558528
 40
18.41823744757437
 40
19.46215659509824
 40
20.51397914882054
 40
21.57394542641293
 40
22.64209583141747
 40
23.71826625065247
 40
24.80210429862395
 40
25.8930771157021
 40
26.99048705697709
 40
28.09349309193389
 40
29.20112995599786
 40
30.31233024745139
 40
31.42594771747373
 40
32.5407895042663
 40
32.54078950426994
 40
32.54078950426994
 40
32.54078950426994
 10
-23.78874673988073
 20
-4.310434483394727
 30
0.0
 10
-23.84517442723289
 20
-4.299322954187222
 30
0.0
 10
-24.18342759595416
 20
-4.231641415264229
 30
0.0
 10
-24.80308834056137
 20
-4.09593112077521
 30
0.0
 10
-25.64539042487312
 20
-3.88619600606616
 30
0.0
 10
-26.48760668037057
 20
-3.652510473765489
 30
0.0
 10
-27.32974305305327
 20
-3.396333246908873
 30
0.0
 10
-28.17179843051762
 20
-3.119235070659727
 30
0.0
 10
-29.01378317748892
 20
-2.822940455014421
 30
0.0
 10
-29.85570119259321
 20
-2.50927033134771
 30
0.0
 10
-30.69756026557415
 20
-2.180159086125112
 30
0.0
 10
-31.53936975737089
 20
-1.837637127267112
 30
0.0
 10
-32.38113697438194
 20
-1.483810632656846
 30
0.0
 10
-33.22287039035521
 20
-1.120856402678651
 30
0.0
 10
-34.06457746652488
 20
-0.7510061950063312
 30
0.0
 10
-34.90627067204926
 20
-0.3765421853282182
 30
0.0
 10
-35.46728933286782
 20
-0.1253971172151342
 30
0.0
 10
-35.7479527791423
 20
0.0002443979464925
 30
0.0
  0
DIMENSION
  5
1F03
330
1F
100
AcDbEntity
  8
AM_5
100
AcDbDimension
  2
*D8
 10
-147.5000010000004
 20
5.000000257462688
 30
0.0
 11
-147.5000010000004
 21
0.000000257321873
 31
0.0
 70
   160
  1
%%c<>
 51
359.9999999999998
  3
AM_JIS$0
100
AcDbAlignedDimension
 13
-137.7053782145254
 23
-4.999999742818928
 33
0.0
 14
-137.7053782145254
 24
5.000000257462684
 34
0.0
 50
270.0000000000002
100
AcDbRotatedDimension
1001
ACAD
1000
DSTYLE
1002
{
1070
   271
1070
     0
1002
}
1001
GENIUS_GENDTOL_13
1000

1000
h7
1000

1040
0.0
  0
LINE
  5
2157
330
1F
100
AcDbEntity
  8
AM_0
100
AcDbLine
 10
-137.7053782145254
 20
5.000000257462684
 30
0.0
 11
-81.99994913737635
 21
5.000000257462832
 31
0.0
  0
LINE
  5
2158
330
1F
100
AcDbEntity
  8
AM_0
100
AcDbLine
 10
-137.705327351892
 20
-4.99997532875652
 30
0.0
 11
-82.00000000000043
 21
-4.999975328756379
 31
0.0
  0
LINE
  5
2159
330
1F
100
AcDbEntity
  8
AM_0
100
AcDbLine
 10
-82.00000000000043
 20
-4.999975328756379
 30
0.0
 11
-82.00000000000043
 21
5.000000257462831
 31
0.0
  0
LINE
  5
215A
330
1F
100
AcDbEntity
  8
AM_0
100
AcDbLine
 10
-82.00000000000043
 20
5.000000257462831
 30
0.0
 11
-81.65370796247842
 21
4.80006845638128
 31
0.0
  0
LINE
  5
215B
330
1F
100
AcDbEntity
  8
AM_0
100
AcDbLine
 10
-82.00000000000043
 20
-4.999975328756379
 30
0.0
 11
-81.65363300379594
 21
-4.800000250259315
 31
0.0
  0
LINE
  5
2189
330
1F
100
AcDbEntity
  8
AM_0
100
AcDbLine
 10
-81.65363300379594
 20
-4.800000250259315
 30
0.0
 11
-81.65363300379594
 21
-4.176079768812506
 31
0.0
  0
LINE
  5
218A
330
1F
100
AcDbEntity
  8
AM_0
100
AcDbLine
 10
-81.65363300379594
 20
-0.2991823292498383
 30
0.0
 11
-81.65363300379597
 21
4.800068471034137
 31
0.0
  0
LINE
  5
218B
330
1F
100
AcDbEntity
  8
AM_0
100
AcDbLine
 10
-81.65363300379596
 20
-2.419613358852903
 30
0.0
 11
-81.65363300379596
 21
-0.5422717585519178
 31
0.0
  0
DIMENSION
  5
220E
330
1F
100
AcDbEntity
  8
AM_5
100
AcDbDimension
  2
*D9
 10
9.319901031071976
 20
-4.799999742679477
 30
0.0
 11
7.619901031071978
 21
0.0000002573205241
 31
0.0
 70
    32
  1
%%c<>
 51
359.9999999999998
  3
AM_JIS$0
100
AcDbAlignedDimension
 13
-1.999949137376242
 23
4.800000257320525
 33
0.0
 14
-1.999949137376348
 24
-4.799999742679474
 34
0.0
 50
89.99999999999932
100
AcDbRotatedDimension
1001
ACAD
1000
DSTYLE
1002
{
1070
   271
1070
     1
1002
}
1001
GENIUS_GENDTOL_13
1000

1000
h7
1000

1040
0.0
  0
ELLIPSE
  5
2330
330
1F
100
AcDbEntity
  8
AM_0
 48
0.5
100
AcDbEllipse
 10
-7.309664396086658
 20
9.130128908547561
 30
0.0
 11
-5.624508561248414
 21
10.74165756713654
 31
0.0
210
0.0
220
0.0
230
1.0
 40
0.573764035099052
 41
3.1855151250074
 42
3.469477662947081
  0
ELLIPSE
  5
2331
330
1F
100
AcDbEntity
  8
AM_0
 48
0.5
100
AcDbEllipse
 10
4.567290876525441
 20
-2.332623008372404
 30
0.0
 11
7.230325686518111
 21
0.7968097141330152
 31
0.0
210
0.0
220
0.0
230
1.0
 40
0.6696195983814861
 41
2.986160645936621
 42
3.505381223482489
  0
ELLIPSE
  5
2332
330
1F
100
AcDbEntity
  8
AM_0
 48
0.5
100
AcDbEllipse
 10
3.91555834912779
 20
4.734547077123231
 30
0.0
 11
-0.0000000000000328
 21
10.40939389614164
 31
0.0
210
0.0
220
0.0
230
1.0
 40
0.8641337461300285
 41
1.951257656000324
 42
2.322034022628311
  0
ELLIPSE
  5
2333
330
1F
100
AcDbEntity
  8
AM_0
 48
0.5
100
AcDbEllipse
 10
-1.723942012606758
 20
-1.706246306015497
 30
0.0
 11
-0.5798048392136066
 21
0.4307776576012219
 31
0.0
210
0.0
220
0.0
230
0.9999999999999998
 40
0.5300003321222736
 41
4.577930376189968
 42
7.721370717519478
  0
ELLIPSE
  5
2334
330
1F
100
AcDbEntity
  8
AM_0
 48
0.5
100
AcDbEllipse
 10
-1.723942012606758
 20
-1.706246306015497
 30
0.0
 11
-0.1108372344558321
 21
0.7894288151530833
 31
0.0
210
0.0
220
0.0
230
1.0
 40
0.4351346156057942
 41
1.832778817271629
 42
4.968120706983605
  0
ELLIPSE
  5
2335
330
1F
100
AcDbEntity
  8
AM_0
 48
0.5
100
AcDbEllipse
 10
-7.053017019947255
 20
8.056140754580884
 30
0.0
 11
7.359518020363376
 21
10.76056285695828
 31
0.0
210
0.0
220
0.0
230
0.9999999999999998
 40
0.8266765519079855
 41
4.223262900438269
 42
4.283193419636141
  0
SPLINE
  5
2338
330
1F
100
AcDbEntity
  8
AM_0
 48
0.5
100
AcDbSpline
210
0.0
220
0.0
230
1.0
 70
     8
 71
     3
 72
    10
 73
     6
 74
     0
 42
0.0000000001
 43
0.0000000001
 40
0.0
 40
0.0
 40
0.0
 40
0.0
 40
2.69986029516136
 40
4.147722969032201
 40
6.285750005020438
 40
6.285750005020438
 40
6.285750005020438
 40
6.285750005020438
 10
-4.436217083379057
 20
0.8687750319248157
 30
0.0
 10
-3.938675878261582
 20
0.4228218624298526
 30
0.0
 10
-3.174316667452011
 20
-0.2622840326944066
 30
0.0
 10
-1.366709812108126
 20
0.0693877331779296
 30
0.0
 10
-1.707134760456378
 20
1.186502127343089
 30
0.0
 10
-1.932065815683617
 20
1.867417756784046
 30
0.0
  0
ELLIPSE
  5
2339
330
1F
100
AcDbEntity
  8
AM_0
 48
0.5
100
AcDbEllipse
 10
8.177603596891184
 20
-7.616269164718213
 30
0.0
 11
-7.593892084762607
 21
-7.593892084766983
 31
0.0
210
0.0
220
0.0
230
-1.0
 40
0.9999999999999978
 41
1.171329590070667
 42
1.424984195904709
  0
ELLIPSE
  5
233A
330
1F
100
AcDbEntity
  8
AM_0
 48
0.5
100
AcDbEllipse
 10
8.177603596888944
 20
7.616269164720616
 30
0.0
 11
-7.593892084764848
 21
7.593892084764736
 31
0.0
210
0.0
220
0.0
230
0.9999999999999998
 40
0.9999999999999982
 41
1.171329590070667
 42
1.424984195904709
  0
LINE
  5
233C
330
1F
100
AcDbEntity
  8
AM_0
 48
0.5
100
AcDbLine
 10
-1.771880737316138
 20
-3.573725970951645
 30
0.0
 11
-2.000000000000426
 21
-4.800000000000008
 31
0.0
  0
LINE
  5
233D
330
1F
100
AcDbEntity
  8
AM_0
 48
0.5
100
AcDbLine
 10
-0.0000000000002647
 20
0.0000000000002343
 30
0.0
 11
-1.911381673570113
 21
1.81745683351016
 31
0.0
  0
LINE
  5
233E
330
1F
100
AcDbEntity
  8
AM_0
100
AcDbLine
 10
-0.4390659435118814
 20
1.20632376544972
 30
0.0
 11
-0.000000000000322
 21
0.000000000000245
 31
0.0
  0
LINE
  5
233F
330
1F
100
AcDbEntity
  8
AM_0
100
AcDbLine
 10
-0.000000000000322
 20
0.000000000000245
 30
0.0
 11
-0.4390659435118245
 21
-1.206323765449241
 31
0.0
  0
LINE
  5
2341
330
1F
100
AcDbEntity
  8
AM_0
 48
0.5
100
AcDbLine
 10
-1.771880737317229
 20
3.573725970951073
 30
0.0
 11
-2.000000000000426
 21
4.800000257320526
 31
0.0
  0
SPLINE
  5
2342
330
1F
100
AcDbEntity
  8
AM_0
 48
0.5
100
AcDbSpline
210
0.0
220
0.0
230
1.0
 70
     8
 71
     3
 72
    25
 73
    21
 74
     0
 42
0.0000000001
 43
0.0000000001
 40
6.846175049578289
 40
6.846175049578289
 40
6.846175049578289
 40
6.846175049578289
 40
7.604337694224321
 40
8.711974558287883
 40
9.814980593243754
 40
10.91239053451967
 40
12.0033633515982
 40
13.08720139956839
 40
14.16337181880432
 40
15.23152222380919
 40
16.29148850140128
 40
17.34331105512262
 40
18.38723020264746
 40
19.42369128463655
 40
20.45333379090873
 40
21.47697865721768
 40
22.49561244472435
 40
23.5103574802404
 40
24.52244778960836
 40
25.53320666051913
 40
25.53320666051913
 40
25.53320666051913
 40
25.53320666051913
 10
-4.436328849050616
 20
0.8688320427464296
 30
0.0
 10
-4.595133295072452
 20
0.953111505977869
 30
0.0
 10
-4.986277129365605
 20
1.159675593142295
 30
0.0
 10
-5.610341633263303
 20
1.484055569497708
 30
0.0
 10
-6.308645075361381
 20
1.837882164089478
 30
0.0
 10
-7.006983635593073
 20
2.180404096324057
 30
0.0
 10
-7.705363313988094
 20
2.509515348739913
 30
0.0
 10
-8.403791892219532
 20
2.823185470053985
 30
0.0
 10
-9.102275828557969
 20
3.119480087959598
 30
0.0
 10
-9.800818356616082
 20
3.39657825756872
 30
0.0
 10
-10.49942808064586
 20
3.652755508476847
 30
0.0
 10
-11.19810405464634
 20
3.886440952156469
 30
0.0
 10
-11.89685129706041
 20
4.096176393885745
 30
0.0
 10
-12.59566734197693
 20
4.280663813716056
 30
0.0
 10
-13.29454945946724
 20
4.438772435758433
 30
0.0
 10
-13.99349376058086
 20
4.569454242729275
 30
0.0
 10
-14.6924893700251
 20
4.672111138935193
 30
0.0
 10
-15.39152858415894
 20
4.745348789028888
 30
0.0
 10
-16.09060005546948
 20
4.791435584278271
 30
0.0
 10
-16.55676257307992
 20
4.797146859720999
 30
0.0
 10
-16.78969041790119
 20
4.800000617862842
 30
0.0
  0
DIMENSION
  5
2377
330
1F
100
AcDbEntity
  8
AM_5
100
AcDbDimension
  2
*D10
 10
-0.4390659435118245
 20
-1.206323765449241
 30
0.0
 11
13.39962883740392
 21
0.0000000000005713
 31
0.0
 70
    34
  1
<>
 51
359.9999999999998
  3
AM_JIS$2
100
AcDb2LineAngularDimension
 13
-0.4390659435118814
 23
1.20632376544972
 33
0.0
 14
-0.000000000000322
 24
0.000000000000245
 34
0.0
 15
-0.000000000000322
 25
0.000000000000245
 35
0.0
 16
13.7269899903862
 26
-5.921245492290769
 36
0.0
1001
GENIUS_GENDTOL_13
1000

1000
h7
1000

1040
0.0
1001
ACAD
1000
DSTYLE
1002
{
1070
   271
1070
     1
1070
   179
1070
     1
1002
}
  0
VIEWPORT
  5
110
330
101
100
AcDbEntity
 67
     1
  8
0
100
AcDbViewport
 10
420.5
 20
297.0
 30
0.0
 40
948.9782706766916
 41
628.452
 68
     1
 69
     1
1001
ACAD
1000
MVIEW
1002
{
1070
    16
1010
0.0
1020
0.0
1030
0.0
1010
0.0
1020
0.0
1030
1.0
1040
0.0
1040
628.452
1040
420.5
1040
297.0
1040
50.0
1040
0.0
1040
0.0
1070
     0
1070
   100
1070
     1
1070
     1
1070
     0
1070
     0
1070
     0
1070
     0
1040
0.0
1040
0.0
1040
0.0
1040
10.0
1040
10.0
1040
10.0
1040
10.0
1070
     0
1002
{
1002
}
1002
}
  0
ENDSEC
  0
SECTION
  2
OBJECTS
  0
DICTIONARY
  5
C
330
0
100
AcDbDictionary
  3
ACAD_GROUP
350
D
  3
ACAD_LAYOUT
350
1A
  3
ACAD_MLINESTYLE
350
17
  3
ACAD_PLOTSETTINGS
350
19
  3
ACAD_PLOTSTYLENAME
350
E
  3
ACDBVARIABLEDICTIONARY
350
34
  3
ACMDICTIONARY
350
43
  3
AMG
350
2B
  3
AMGSNAPSETTINGS
350
6E
  3
DWGPROPS
350
24B8
  3
ACDBHEADERROUNDTRIPXREC
350
24C5
  0
DICTIONARY
  5
74
330
1F
100
AcDbDictionary
280
     1
  3
ACAD_INDEX
360
24BA
  3
ACAD_LAYOUTSELFREF
360
24E8
  0
DICTIONARY
  5
24ED
330
101
100
AcDbDictionary
280
     1
  3
ACAD_LAYOUTSELFREF
360
24EE
  0
DICTIONARY
  5
D
102
{ACAD_REACTORS
330
C
102
}
330
C
100
AcDbDictionary
  0
DICTIONARY
  5
1A
102
{ACAD_REACTORS
330
C
102
}
330
C
100
AcDbDictionary
  0
DICTIONARY
  5
17
102
{ACAD_REACTORS
330
C
102
}
330
C
100
AcDbDictionary
  3
STANDARD
350
18
  0
DICTIONARY
  5
19
102
{ACAD_REACTORS
330
C
102
}
330
C
100
AcDbDictionary
  0
ACDBDICTIONARYWDFLT
  5
E
102
{ACAD_REACTORS
330
C
102
}
330
C
100
AcDbDictionary
281
     1
  3
Normal
350
F
100
AcDbDictionaryWithDefault
340
F
  0
DICTIONARY
  5
34
102
{ACAD_REACTORS
330
C
102
}
330
C
100
AcDbDictionary
  3
INDEXCTL
350
35
  3
SORTENTS
350
B5E
  0
DICTIONARY
  5
43
102
{ACAD_REACTORS
330
C
102
}
330
C
100
AcDbDictionary
  3
ACMSTDDICTIONARY
350
260
  0
DICTIONARY
  5
2B
102
{ACAD_REACTORS
330
C
102
}
330
C
100
AcDbDictionary
  3
ACMGSETTINGS
350
2C
  0
DICTIONARY
  5
6E
102
{ACAD_REACTORS
330
C
102
}
330
C
100
AcDbDictionary
  0
XRECORD
  5
24B8
102
{ACAD_REACTORS
330
C
102
}
330
C
100
AcDbXrecord
  1
DWGPROPS COOKIE
  2

  3

  4

  6

  7

  8

  9

300
AmdtFileType=82
301
=
302
=
303
=
304
=
305
=
306
=
307
=
308
=
309
=
 40
0.0319534953703704
 41
2452800.443498622
 42
2452948.581631215
  1

 90
        1
  0
DICTIONARY
  5
24C5
102
{ACAD_REACTORS
330
C
102
}
330
C
100
AcDbDictionary
  3
TSTACKALIGN
350
24C6
  3
TSTACKSIZE
350
24C7
  3
HYPERLINKBASE
350
24C8
  3
STYLESHEET
350
24C9
  3
LAYOUTDICT
350
24CA
  3
PLOTSETDICT
350
24CB
  3
PLOTSTYLNAMDICT
350
24CC
  3
LWETCUNION
350
24CD
  3
INSUNITS
350
24CE
  3
CEPSNTYPE
350
24CF
  3
FINGERPRINTGUID
350
24D0
  3
VERSIONGUID
350
24D1
  3
PSVPSCALE
350
24D2
  3
DIMSTYLEDATA
350
24D3
  3
PUCSORTHOREF
350
24D4
  3
PUCSORTHOVIEW
350
24D5
  3
PUCSBASE
350
24D6
  3
PUCSORGTOP
350
24D7
  3
PUCSORGBOTTOM
350
24D8
  3
PUCSORGLEFT
350
24D9
  3
PUCSORGRIGHT
350
24DA
  3
PUCSORGFRONT
350
24DB
  3
PUCSORGBACK
350
24DC
  3
UCSORTHOREF
350
24DD
  3
UCSORTHOVIEW
350
24DE
  3
UCSBASE
350
24DF
  3
UCSORGTOP
350
24E0
  3
UCSORGBOTTOM
350
24E1
  3
UCSORGLEFT
350
24E2
  3
UCSORGRIGHT
350
24E3
  3
UCSORGFRONT
350
24E4
  3
UCSORGBACK
350
24E5
  0
DICTIONARY
  5
24BA
102
{ACAD_REACTORS
330
74
102
}
330
74
100
AcDbDictionary
  3
*A1
350
24BB
  0
XRECORD
  5
24E8
102
{ACAD_REACTORS
330
74
102
}
330
74
100
AcDbXrecord
340
1F
  0
XRECORD
  5
24EE
102
{ACAD_REACTORS
330
24ED
102
}
330
24ED
100
AcDbXrecord
340
101
  0
MLINESTYLE
  5
18
102
{ACAD_REACTORS
330
17
102
}
330
17
100
AcDbMlineStyle
  2
STANDARD
 70
     0
  3

 62
   256
 51
90.0
 52
90.0
 71
     2
 49
0.5
 62
   256
  6
BYLAYER
 49
-0.5
 62
   256
  6
BYLAYER
  0
ACDBPLACEHOLDER
  5
F
102
{ACAD_REACTORS
330
E
102
}
330
E
100
AcDbPlaceHolder
280
     0
  0
DICTIONARYVAR
  5
35
102
{ACAD_REACTORS
330
34
102
}
330
34
100
DictionaryVariables
280
     0
  1
1
  0
DICTIONARYVAR
  5
B5E
102
{ACAD_REACTORS
330
34
102
}
330
34
100
DictionaryVariables
280
     0
  1
96
  0
DICTIONARY
  5
260
102
{ACAD_REACTORS
330
43
102
}
330
43
100
AcDbDictionary
  0
DICTIONARY
  5
2C
102
{ACAD_REACTORS
330
2B
102
}
330
2B
100
AcDbDictionary
  3
DWGSETTINGS
350
2D
  0
XRECORD
  5
24C6
102
{ACAD_REACTORS
330
24C5
102
}
330
24C5
100
AcDbXrecord
 90
        1
  0
XRECORD
  5
24C7
102
{ACAD_REACTORS
330
24C5
102
}
330
24C5
100
AcDbXrecord
 90
       70
  0
XRECORD
  5
24C8
102
{ACAD_REACTORS
330
24C5
102
}
330
24C5
100
AcDbXrecord
  1

  0
XRECORD
  5
24C9
102
{ACAD_REACTORS
330
24C5
102
}
330
24C5
100
AcDbXrecord
  1
ASAMI.ctb
  0
XRECORD
  5
24CA
102
{ACAD_REACTORS
330
24C5
102
}
330
24C5
100
AcDbXrecord
340
1A
  0
XRECORD
  5
24CB
102
{ACAD_REACTORS
330
24C5
102
}
330
24C5
100
AcDbXrecord
340
19
  0
XRECORD
  5
24CC
102
{ACAD_REACTORS
330
24C5
102
}
330
24C5
100
AcDbXrecord
340
E
  0
XRECORD
  5
24CD
102
{ACAD_REACTORS
330
24C5
102
}
330
24C5
100
AcDbXrecord
 90
    10781
  0
XRECORD
  5
24CE
102
{ACAD_REACTORS
330
24C5
102
}
330
24C5
100
AcDbXrecord
 90
        4
  0
XRECORD
  5
24CF
102
{ACAD_REACTORS
330
24C5
102
}
330
24C5
100
AcDbXrecord
 90
        0
  0
XRECORD
  5
24D0
102
{ACAD_REACTORS
330
24C5
102
}
330
24C5
100
AcDbXrecord
  1
{AFB28963-8C59-40AE-9337-C84526B81ACE}
  0
XRECORD
  5
24D1
102
{ACAD_REACTORS
330
24C5
102
}
330
24C5
100
AcDbXrecord
  1
{40D3ABE0-9A8D-4768-8799-66D4691F196A}
  0
XRECORD
  5
24D2
102
{ACAD_REACTORS
330
24C5
102
}
330
24C5
100
AcDbXrecord
 40
0.0
  0
XRECORD
  5
24D3
102
{ACAD_REACTORS
330
24C5
102
}
330
24C5
100
AcDbXrecord
1000
DSTYLE
1002
{
1070
    79
 70
     2
1070
   341
340
59
1070
   342
340
59
1070
   371
 70
    -1
1070
   372
 70
    -1
1002
}
  0
XRECORD
  5
24D4
102
{ACAD_REACTORS
330
24C5
102
}
330
24C5
100
AcDbXrecord
340
0
  0
XRECORD
  5
24D5
102
{ACAD_REACTORS
330
24C5
102
}
330
24C5
100
AcDbXrecord
 70
     0
  0
XRECORD
  5
24D6
102
{ACAD_REACTORS
330
24C5
102
}
330
24C5
100
AcDbXrecord
340
0
  0
XRECORD
  5
24D7
102
{ACAD_REACTORS
330
24C5
102
}
330
24C5
100
AcDbXrecord
 10
0.0
 20
0.0
 30
0.0
  0
XRECORD
  5
24D8
102
{ACAD_REACTORS
330
24C5
102
}
330
24C5
100
AcDbXrecord
 10
0.0
 20
0.0
 30
0.0
  0
XRECORD
  5
24D9
102
{ACAD_REACTORS
330
24C5
102
}
330
24C5
100
AcDbXrecord
 10
0.0
 20
0.0
 30
0.0
  0
XRECORD
  5
24DA
102
{ACAD_REACTORS
330
24C5
102
}
330
24C5
100
AcDbXrecord
 10
0.0
 20
0.0
 30
0.0
  0
XRECORD
  5
24DB
102
{ACAD_REACTORS
330
24C5
102
}
330
24C5
100
AcDbXrecord
 10
0.0
 20
0.0
 30
0.0
  0
XRECORD
  5
24DC
102
{ACAD_REACTORS
330
24C5
102
}
330
24C5
100
AcDbXrecord
 10
0.0
 20
0.0
 30
0.0
  0
XRECORD
  5
24DD
102
{ACAD_REACTORS
330
24C5
102
}
330
24C5
100
AcDbXrecord
340
0
  0
XRECORD
  5
24DE
102
{ACAD_REACTORS
330
24C5
102
}
330
24C5
100
AcDbXrecord
 70
     0
  0
XRECORD
  5
24DF
102
{ACAD_REACTORS
330
24C5
102
}
330
24C5
100
AcDbXrecord
340
0
  0
XRECORD
  5
24E0
102
{ACAD_REACTORS
330
24C5
102
}
330
24C5
100
AcDbXrecord
 10
0.0
 20
0.0
 30
0.0
  0
XRECORD
  5
24E1
102
{ACAD_REACTORS
330
24C5
102
}
330
24C5
100
AcDbXrecord
 10
0.0
 20
0.0
 30
0.0
  0
XRECORD
  5
24E2
102
{ACAD_REACTORS
330
24C5
102
}
330
24C5
100
AcDbXrecord
 10
0.0
 20
0.0
 30
0.0
  0
XRECORD
  5
24E3
102
{ACAD_REACTORS
330
24C5
102
}
330
24C5
100
AcDbXrecord
 10
0.0
 20
0.0
 30
0.0
  0
XRECORD
  5
24E4
102
{ACAD_REACTORS
330
24C5
102
}
330
24C5
100
AcDbXrecord
 10
0.0
 20
0.0
 30
0.0
  0
XRECORD
  5
24E5
102
{ACAD_REACTORS
330
24C5
102
}
330
24C5
100
AcDbXrecord
 10
0.0
 20
0.0
 30
0.0
  0
LAYER_INDEX
  5
24BB
102
{ACAD_REACTORS
330
24BA
102
}
330
24BA
100
AcDbIndex
 40
2453151.681937557
100
AcDbLayerIndex
  8
0
360
24BC
 90
        0
  8
AM_0
360
24BD
 90
       54
  8
AM_7
360
24BE
 90
        1
  8
AM_11
360
24BF
 90
       21
  8
AM_5
360
24C0
 90
        5
  8
Defpoints
360
24C1
 90
        0
  8
AM_6
360
24C2
 90
        1
  8
AM_CL
360
24C3
 90
        0
  0
XRECORD
  5
2D
102
{ACAD_REACTORS
330
2C
102
}
330
2C
100
AcDbXrecord
  1
VERSION
140
15.0
  1
PRODUCT
  2
AutoCAD Mechanical 2000
  0
IDBUFFER
  5
24BC
330
0
100
AcDbIdBuffer
  0
IDBUFFER
  5
24BD
330
0
100
AcDbIdBuffer
330
233C
330
233D
330
233E
330
233F
330
2341
330
2342
330
1E55
330
1E56
330
1E57
330
1E5F
330
1E62
330
1E63
330
1E6B
330
1E6C
330
1E6F
330
1E70
330
1E71
330
1E72
330
1E73
330
1E74
330
1E75
330
1E76
330
1E7B
330
1E7C
330
1E7F
330
1E80
330
1E81
330
1E82
330
1E88
330
1E8A
330
1E8B
330
1E8D
330
1E8E
330
1E8F
330
1E92
330
1E93
330
1E94
330
2157
330
2158
330
2159
330
215A
330
215B
330
2189
330
218A
330
218B
330
2330
330
2331
330
2332
330
2333
330
2334
330
2335
330
2338
330
2339
330
233A
  0
IDBUFFER
  5
24BE
330
0
100
AcDbIdBuffer
330
1DA9
  0
IDBUFFER
  5
24BF
330
0
100
AcDbIdBuffer
330
1E85
330
1E86
330
1E8C
330
1E90
330
1E91
330
1E58
330
1E59
330
1E64
330
1E65
330
1E66
330
1E6A
330
1E6D
330
1E6E
330
1E77
330
1E78
330
1E79
330
1E7A
330
1E7D
330
1E7E
330
1E83
330
1E84
  0
IDBUFFER
  5
24C0
330
0
100
AcDbIdBuffer
330
CC6
330
DF5
330
1F03
330
220E
330
2377
  0
IDBUFFER
  5
24C1
330
0
100
AcDbIdBuffer
  0
IDBUFFER
  5
24C2
330
0
100
AcDbIdBuffer
330
19BD
  0
IDBUFFER
  5
24C3
330
0
100
AcDbIdBuffer
  0
ENDSEC
  0
EOF
