  0
SECTION
  2
HEADER
  9
$ACADVER
  1
AC1014
  9
$ACADMAINTVER
 70
     9
  9
$DWGCODEPAGE
  3
ANSI_932
  9
$INSBASE
 10
0.0
 20
0.0
 30
0.0
  9
$EXTMIN
 10
-120.150001
 20
-28.25000402524004
 30
-0.00000001
  9
$EXTMAX
 10
13.73115421205165
 20
13.3728998294627
 30
0.00000001
  9
$LIMMIN
 10
-156.1444050923396
 20
-44.51020785580943
  9
$LIMMAX
 10
20.31336096277607
 20
28.16015358894219
  9
$ORTHOMODE
 70
     0
  9
$REGENMODE
 70
     1
  9
$FILLMODE
 70
     1
  9
$QTEXTMODE
 70
     0
  9
$MIRRTEXT
 70
     0
  9
$DRAGMODE
 70
     2
  9
$LTSCALE
 40
1.0
  9
$OSMODE
 70
    55
  9
$ATTMODE
 70
     1
  9
$TEXTSIZE
 40
2.5
  9
$TRACEWID
 40
1.0
  9
$TEXTSTYLE
  7
STANDARD
  9
$CLAYER
  8
AM_0
  9
$CELTYPE
  6
BYLAYER
  9
$CECOLOR
 62
   256
  9
$CELTSCALE
 40
1.0
  9
$DELOBJ
 70
     1
  9
$DISPSILH
 70
     0
  9
$DIMSCALE
 40
0.5
  9
$DIMASZ
 40
2.5
  9
$DIMEXO
 40
1.0
  9
$DIMDLI
 40
12.0
  9
$DIMRND
 40
0.0
  9
$DIMDLE
 40
0.0
  9
$DIMEXE
 40
1.0
  9
$DIMTP
 40
0.1
  9
$DIMTM
 40
0.1
  9
$DIMTXT
 40
3.2
  9
$DIMCEN
 40
0.0
  9
$DIMTSZ
 40
0.0
  9
$DIMTOL
 70
     0
  9
$DIMLIM
 70
     0
  9
$DIMTIH
 70
     0
  9
$DIMTOH
 70
     0
  9
$DIMSE1
 70
     0
  9
$DIMSE2
 70
     0
  9
$DIMTAD
 70
     3
  9
$DIMZIN
 70
     8
  9
$DIMBLK
  1
OPEN30
  9
$DIMASO
 70
     1
  9
$DIMSHO
 70
     1
  9
$DIMPOST
  1

  9
$DIMAPOST
  1
"
  9
$DIMALT
 70
     0
  9
$DIMALTD
 70
     2
  9
$DIMALTF
 40
0.0393701
  9
$DIMLFAC
 40
1.0
  9
$DIMTOFL
 70
     1
  9
$DIMTVP
 40
0.0
  9
$DIMTIX
 70
     0
  9
$DIMSOXD
 70
     0
  9
$DIMSAH
 70
     0
  9
$DIMBLK1
  1

  9
$DIMBLK2
  1

  9
$DIMSTYLE
  2
AM_JIS
  9
$DIMCLRD
 70
   256
  9
$DIMCLRE
 70
   256
  9
$DIMCLRT
 70
     2
  9
$DIMTFAC
 40
0.71
  9
$DIMGAP
 40
1.5
  9
$DIMJUST
 70
     0
  9
$DIMSD1
 70
     0
  9
$DIMSD2
 70
     0
  9
$DIMTOLJ
 70
     0
  9
$DIMTZIN
 70
     0
  9
$DIMALTZ
 70
     0
  9
$DIMALTTZ
 70
     0
  9
$DIMFIT
 70
     3
  9
$DIMUPT
 70
     0
  9
$DIMUNIT
 70
     2
  9
$DIMDEC
 70
     3
  9
$DIMTDEC
 70
     3
  9
$DIMALTU
 70
     2
  9
$DIMALTTD
 70
     2
  9
$DIMTXSTY
  7
ASAMI
  9
$DIMAUNIT
 70
     0
  9
$LUNITS
 70
     2
  9
$LUPREC
 70
     2
  9
$SKETCHINC
 40
1.0
  9
$FILLETRAD
 40
2.5
  9
$AUNITS
 70
     0
  9
$AUPREC
 70
     0
  9
$MENU
  1
.
  9
$ELEVATION
 40
0.0
  9
$PELEVATION
 40
0.0
  9
$THICKNESS
 40
0.0
  9
$LIMCHECK
 70
     0
  9
$BLIPMODE
 70
     0
  9
$CHAMFERA
 40
0.5
  9
$CHAMFERB
 40
0.5
  9
$CHAMFERC
 40
20.0
  9
$CHAMFERD
 40
0.0
  9
$SKPOLY
 70
     0
  9
$TDCREATE
 40
2452800.443498622
  9
$TDUPDATE
 40
2453151.572371400
  9
$TDINDWG
 40
0.0575876968
  9
$TDUSRTIMER
 40
0.0575876968
  9
$USRTIMER
 70
     1
  9
$ANGBASE
 50
0.0
  9
$ANGDIR
 70
     0
  9
$PDMODE
 70
     0
  9
$PDSIZE
 40
0.0
  9
$PLINEWID
 40
0.0
  9
$COORDS
 70
     1
  9
$SPLFRAME
 70
     0
  9
$SPLINETYPE
 70
     6
  9
$SPLINESEGS
 70
     8
  9
$ATTDIA
 70
     1
  9
$ATTREQ
 70
     1
  9
$HANDLING
 70
 12289
  9
$HANDSEED
  5
2FEA
  9
$SURFTAB1
 70
     6
  9
$SURFTAB2
 70
     6
  9
$SURFTYPE
 70
     6
  9
$SURFU
 70
     6
  9
$SURFV
 70
     6
  9
$UCSNAME
  2

  9
$UCSORG
 10
0.0
 20
0.0
 30
0.0
  9
$UCSXDIR
 10
1.0
 20
0.0000000000000027
 30
0.0
  9
$UCSYDIR
 10
-0.0000000000000027
 20
1.0
 30
0.0
  9
$PUCSNAME
  2

  9
$PUCSORG
 10
0.0
 20
0.0
 30
0.0
  9
$PUCSXDIR
 10
1.0
 20
0.0
 30
0.0
  9
$PUCSYDIR
 10
0.0
 20
1.0
 30
0.0
  9
$USERI1
 70
     0
  9
$USERI2
 70
     0
  9
$USERI3
 70
     0
  9
$USERI4
 70
     0
  9
$USERI5
 70
     0
  9
$USERR1
 40
0.0
  9
$USERR2
 40
0.0
  9
$USERR3
 40
0.0
  9
$USERR4
 40
0.0
  9
$USERR5
 40
0.0
  9
$WORLDVIEW
 70
     1
  9
$SHADEDGE
 70
     3
  9
$SHADEDIF
 70
    70
  9
$TILEMODE
 70
     1
  9
$MAXACTVP
 70
    64
  9
$PINSBASE
 10
0.0
 20
0.0
 30
0.0
  9
$PLIMCHECK
 70
     0
  9
$PEXTMIN
 10
1.000000000000000E+20
 20
1.000000000000000E+20
 30
1.000000000000000E+20
  9
$PEXTMAX
 10
-1.000000000000000E+20
 20
-1.000000000000000E+20
 30
-1.000000000000000E+20
  9
$PLIMMIN
 10
0.0
 20
0.0
  9
$PLIMMAX
 10
841.0
 20
594.0
  9
$UNITMODE
 70
     0
  9
$VISRETAIN
 70
     1
  9
$PLINEGEN
 70
     0
  9
$PSLTSCALE
 70
     0
  9
$TREEDEPTH
 70
  3020
  9
$PICKSTYLE
 70
     0
  9
$CMLSTYLE
  2
STANDARD
  9
$CMLJUST
 70
     0
  9
$CMLSCALE
 40
20.0
  9
$PROXYGRAPHICS
 70
     1
  9
$MEASUREMENT
 70
     1
  0
ENDSEC
  0
SECTION
  2
CLASSES
  0
CLASS
  1
ACDBDICTIONARYWDFLT
  2
AcDbDictionaryWithDefault
  3
AutoCAD 2000
 90
        0
280
     0
281
     0
  0
CLASS
  1
ACDBPLACEHOLDER
  2
AcDbPlaceHolder
  3
AutoCAD 2000
 90
        0
280
     0
281
     0
  0
CLASS
  1
LAYOUT
  2
AcDbLayout
  3
AutoCAD 2000
 90
        0
280
     0
281
     0
  0
CLASS
  1
AMGSETTINGSOBJ
  2
AmgSettingsObj
  3
"AcadM|Product Description: AutoCAD Mechanical 2000|Company: Autodesk"
 90
        0
280
     0
281
     0
  0
CLASS
  1
ACME_DOCUMENT
  2
AcMeDbDoc
  3
AcMeServices
 90
        0
280
     0
281
     0
  0
CLASS
  1
ACMESCOPE
  2
AcMeScope
  3
AcMeServices
 90
        0
280
     0
281
     0
  0
CLASS
  1
ACMECOMMANDHISTORY
  2
AcMeCommandHistory
  3
AcMeServices
 90
        0
280
     0
281
     0
  0
CLASS
  1
DICTIONARYVAR
  2
AcDbDictionaryVar
  3
AutoCAD 2000
 90
        0
280
     0
281
     0
  0
CLASS
  1
ACIMSYSVARMAN
  2
AcImSysVarManager
  3
AcMeServices
 90
        0
280
     0
281
     0
  0
CLASS
  1
ACIMREALSYSVAR
  2
AcImRealSysVar
  3
AcMeServices
 90
        0
280
     0
281
     0
  0
CLASS
  1
ACIMINTSYSVAR
  2
AcImIntSysVar
  3
AcMeServices
 90
        0
280
     0
281
     0
  0
CLASS
  1
ACMEDRAWINGMAN
  2
AcMeDrawingMan
  3
AcMeServices
 90
        0
280
     0
281
     0
  0
CLASS
  1
ACMEVIEW
  2
AcMeView
  3
AcMeServices
 90
        0
280
     0
281
     0
  0
CLASS
  1
ACDBENTITYCACHE
  2
AcMeEntityCache
  3
AcMeServices
 90
        0
280
     0
281
     0
  0
CLASS
  1
GSMANAGER
  2
AcMeGSManager
  3
AcMeServices
 90
        0
280
     0
281
     0
  0
CLASS
  1
AmdtInternalReactor
  2
AmdtInternalReactor
  3
AcMeServices
 90
        0
280
     0
281
     0
  0
CLASS
  1
ACMESTATEMGR
  2
AcMeStateMgr
  3
AcMeServices
 90
        0
280
     0
281
     0
  0
CLASS
  1
ACME_DATABASE
  2
AcMeDbDatabase
  3
AcMeServices
 90
        0
280
     0
281
     0
  0
CLASS
  1
ACRFINSADJUSTERMGR
  2
AcRfInsAdjusterMgr
  3
AcMeServices
 90
        0
280
     0
281
     0
  0
CLASS
  1
ACMDATADICTIONARY
  2
AcmDataDictionary
  3
"AcmSymBB|Product Description: AutoCAD Mechanical 2000|Company: Autodesk"
 90
        0
280
     0
281
     0
  0
CLASS
  1
ACMDATAENTRYBLOCK
  2
AcmDataEntryBlock
  3
"AcmSymBB|Product Description: AutoCAD Mechanical 2000|Company: Autodesk"
 90
        0
280
     0
281
     0
  0
CLASS
  1
AMGOBJPROPCFG
  2
AmgObjPropCfg
  3
"AmgLay|Product Description: AutoCAD Mechanical 2000|Company: Autodesk"
 90
        1
280
     0
281
     0
  0
CLASS
  1
ACAMGFILTERDAT
  2
AcAmgFilterDat
  3
"AcadM|Product Description: AutoCAD Mechanical 2000|Company: Autodesk"
 90
        0
280
     0
281
     0
  0
CLASS
  1
LAYER_INDEX
  2
AcDbLayerIndex
  3
AutoCAD 2000
 90
        0
280
     0
281
     0
  0
CLASS
  1
IDBUFFER
  2
AcDbIdBuffer
  3
AutoCAD 2000
 90
        0
280
     0
281
     0
  0
CLASS
  1
ACIMSTRSYSVAR
  2
AcImStrSysVar
  3
AcMeServices
 90
        0
280
     0
281
     0
  0
CLASS
  1
ACMSTANDARDJIS
  2
AcmStandardJIS
  3
"AcmSymBB|Product Description: AutoCAD Mechanical 2000|Company: Autodesk"
 90
        0
280
     0
281
     0
  0
CLASS
  1
ACMSURFSTANDARDJIS
  2
AcmSurfTextStdJIS
  3
"AcmSymBB|Product Description: AutoCAD Mechanical 2000|Company: Autodesk"
 90
        0
280
     0
281
     0
  0
CLASS
  1
ACMFCFSTANDARDJIS
  2
AcmFCFStdJIS
  3
"AcmSymBB|Product Description: AutoCAD Mechanical 2000|Company: Autodesk"
 90
        0
280
     0
281
     0
  0
CLASS
  1
ACMWELDSTANDARDJIS
  2
AcmWeldingStdJIS
  3
"AcmSymBB|Product Description: AutoCAD Mechanical 2000|Company: Autodesk"
 90
        0
280
     0
281
     0
  0
CLASS
  1
ACMIDSTANDARDJIS
  2
AcmIdStdJIS
  3
"AcmSymBB|Product Description: AutoCAD Mechanical 2000|Company: Autodesk"
 90
        0
280
     0
281
     0
  0
CLASS
  1
ACMDATUMSTANDARDJIS
  2
AcmDatumStdJIS
  3
"AcmSymBB|Product Description: AutoCAD Mechanical 2000|Company: Autodesk"
 90
        0
280
     0
281
     0
  0
CLASS
  1
ACMBOMSTANDARDJIS
  2
AcmBOMStdJIS
  3
"AcmSymBB|Product Description: AutoCAD Mechanical 2000|Company: Autodesk"
 90
        0
280
     0
281
     0
  0
CLASS
  1
ACMSTANDARDANSI
  2
AcmStandardANSI
  3
"AcmSymBB|Product Description: AutoCAD Mechanical 2000|Company: Autodesk"
 90
        0
280
     0
281
     0
  0
CLASS
  1
ACMSURFSTANDARDANSI
  2
AcmSurfTextStdANSI
  3
"AcmSymBB|Product Description: AutoCAD Mechanical 2000|Company: Autodesk"
 90
        0
280
     0
281
     0
  0
CLASS
  1
ACMFCFSTANDARDANSI
  2
AcmFCFStdANSI
  3
"AcmSymBB|Product Description: AutoCAD Mechanical 2000|Company: Autodesk"
 90
        0
280
     0
281
     0
  0
CLASS
  1
ACMWELDSTANDARDANSI
  2
AcmWeldingStdANSI
  3
"AcmSymBB|Product Description: AutoCAD Mechanical 2000|Company: Autodesk"
 90
        0
280
     0
281
     0
  0
CLASS
  1
ACMIDSTANDARDANSI
  2
AcmIdStdANSI
  3
"AcmSymBB|Product Description: AutoCAD Mechanical 2000|Company: Autodesk"
 90
        0
280
     0
281
     0
  0
CLASS
  1
ACMDATUMSTANDARDANSI
  2
AcmDatumStdANSI
  3
"AcmSymBB|Product Description: AutoCAD Mechanical 2000|Company: Autodesk"
 90
        0
280
     0
281
     0
  0
CLASS
  1
ACMBOMSTANDARDANSI
  2
AcmBOMStdANSI
  3
"AcmSymBB|Product Description: AutoCAD Mechanical 2000|Company: Autodesk"
 90
        0
280
     0
281
     0
  0
CLASS
  1
ACMSTANDARDBSI
  2
AcmStandardBSI
  3
"AcmSymBB|Product Description: AutoCAD Mechanical 2000|Company: Autodesk"
 90
        0
280
     0
281
     0
  0
CLASS
  1
ACMSURFSTANDARDBSI
  2
AcmSurfTextStdBSI
  3
"AcmSymBB|Product Description: AutoCAD Mechanical 2000|Company: Autodesk"
 90
        0
280
     0
281
     0
  0
CLASS
  1
ACMFCFSTANDARDBSI
  2
AcmFCFStdBSI
  3
"AcmSymBB|Product Description: AutoCAD Mechanical 2000|Company: Autodesk"
 90
        0
280
     0
281
     0
  0
CLASS
  1
ACMWELDSTANDARDBSI
  2
AcmWeldingStdBSI
  3
"AcmSymBB|Product Description: AutoCAD Mechanical 2000|Company: Autodesk"
 90
        0
280
     0
281
     0
  0
CLASS
  1
ACMIDSTANDARDBSI
  2
AcmIdStdBSI
  3
"AcmSymBB|Product Description: AutoCAD Mechanical 2000|Company: Autodesk"
 90
        0
280
     0
281
     0
  0
CLASS
  1
ACMDATUMSTANDARDBSI
  2
AcmDatumStdBSI
  3
"AcmSymBB|Product Description: AutoCAD Mechanical 2000|Company: Autodesk"
 90
        0
280
     0
281
     0
  0
CLASS
  1
ACMBOMSTANDARDBSI
  2
AcmBOMStdBSI
  3
"AcmSymBB|Product Description: AutoCAD Mechanical 2000|Company: Autodesk"
 90
        0
280
     0
281
     0
  0
CLASS
  1
LONG_TRANSACTION
  2
AcDbLongTransaction
  3
AutoCAD 2000
 90
        0
280
     0
281
     0
  0
CLASS
  1
LWPOLYLINE
  2
AcDbPolyline
  3
AutoCAD 2000
 90
        0
280
     0
281
     1
  0
CLASS
  1
HATCH
  2
AcDbHatch
  3
AutoCAD 2000
 90
        0
280
     0
281
     1
  0
CLASS
  1
XRECORD
  2
AcDbXrecord
  3
AutoCAD 2000
 90
        0
280
     0
281
     0
  0
ENDSEC
  0
SECTION
  2
TABLES
  0
TABLE
  2
VPORT
  5
8
330
0
100
AcDbSymbolTable
 70
     3
  0
VPORT
  5
2FB4
330
8
100
AcDbSymbolTableRecord
100
AcDbViewportTableRecord
  2
*ACTIVE
 70
     0
 10
0.0
 20
0.0
 11
1.0
 21
1.0
 12
-50.72671201406722
 22
-7.437633921982879
 13
0.0
 23
0.0
 14
2.5
 24
2.5
 15
10.0
 25
10.0
 16
0.0
 26
0.0
 36
1.0
 17
0.0
 27
0.0
 37
0.0
 40
89.10578188690735
 41
1.56570841889117
 42
50.0
 43
0.0
 44
0.0
 50
0.0
 51
0.0
 71
     0
 72
   100
 73
     1
 74
     1
 75
     0
 76
     0
 77
     0
 78
     0
  0
ENDTAB
  0
TABLE
  2
LTYPE
  5
5
330
0
100
AcDbSymbolTable
 70
    10
  0
LTYPE
  5
14
330
5
100
AcDbSymbolTableRecord
100
AcDbLinetypeTableRecord
  2
BYBLOCK
 70
     0
  3

 72
    65
 73
     0
 40
0.0
  0
LTYPE
  5
15
330
5
100
AcDbSymbolTableRecord
100
AcDbLinetypeTableRecord
  2
BYLAYER
 70
     0
  3

 72
    65
 73
     0
 40
0.0
  0
LTYPE
  5
16
330
5
100
AcDbSymbolTableRecord
100
AcDbLinetypeTableRecord
  2
CONTINUOUS
 70
     0
  3
Solid line
 72
    65
 73
     0
 40
0.0
  0
LTYPE
  5
4B
330
5
100
AcDbSymbolTableRecord
100
AcDbLinetypeTableRecord
  2
AM_ISO02W050
 70
     0
  3
__ __ __ __ __ __ __ __ __ __ __ __ __ __ __
 72
    65
 73
     2
 40
7.5
 49
6.0
 74
     0
 49
-1.5
 74
     0
  0
LTYPE
  5
4C
330
5
100
AcDbSymbolTableRecord
100
AcDbLinetypeTableRecord
  2
AM_ISO08W050
 70
     0
  3
____ . ____ . ____ . ____ . ____ . ____ . ____
 72
    65
 73
     4
 40
18.0
 49
12.0
 74
     0
 49
-1.5
 74
     0
 49
3.0
 74
     0
 49
-1.5
 74
     0
  0
LTYPE
  5
4D
330
5
100
AcDbSymbolTableRecord
100
AcDbLinetypeTableRecord
  2
AM_ISO09W050
 70
     0
  3
_____ . . _____ . . _____ . . ____ .. ____
 72
    65
 73
     6
 40
22.5
 49
12.0
 74
     0
 49
-1.5
 74
     0
 49
3.0
 74
     0
 49
-1.5
 74
     0
 49
3.0
 74
     0
 49
-1.5
 74
     0
  0
LTYPE
  5
4E
330
5
100
AcDbSymbolTableRecord
100
AcDbLinetypeTableRecord
  2
AMCONSTR
 70
     0
  3
_______________________
 72
    65
 73
     2
 40
9999.0
 49
9999.0
 74
     0
 49
0.0
 74
     0
  0
LTYPE
  5
4F
330
5
100
AcDbSymbolTableRecord
100
AcDbLinetypeTableRecord
  2
AM_ISO02W050X2
 70
     0
  3
 _ _ _ _ _ _ _ _ _ _ _ _
 72
    65
 73
     2
 40
3.75
 49
3.0
 74
     0
 49
-0.75
 74
     0
  0
LTYPE
  5
50
330
5
100
AcDbSymbolTableRecord
100
AcDbLinetypeTableRecord
  2
AM_ISO08W050X2
 70
     0
  3
__ . __ . __ . __ . __ . __
 72
    65
 73
     4
 40
9.0
 49
6.0
 74
     0
 49
-0.75
 74
     0
 49
1.5
 74
     0
 49
-0.75
 74
     0
  0
LTYPE
  5
53
330
5
100
AcDbSymbolTableRecord
100
AcDbLinetypeTableRecord
  2
AMZIGZAG
 70
     0
  3
/\/-/\/-/\/-/\/-/\/-/\/
 72
    65
 73
     2
 40
11.00009999999999
 49
0.0001
 74
     4
 75
   135
340
52
 46
0.04
 50
0.0
 44
0.0
 45
0.0
 49
-11.0
 74
     0
  0
LTYPE
  5
166
330
5
100
AcDbSymbolTableRecord
100
AcDbLinetypeTableRecord
  2
ACJISTGL
 70
     0
  3
_ _ _ _ _
 72
    65
 73
     2
 40
3.0
 49
2.0
 74
     0
 49
-1.0
 74
     0
  0
LTYPE
  5
26A
330
5
100
AcDbSymbolTableRecord
100
AcDbLinetypeTableRecord
  2
ACJISTGB
 70
     0
  3
__ . . __ . .
 72
    65
 73
     6
 40
9.0
 49
4.0
 74
     0
 49
-1.0
 74
     0
 49
1.0
 74
     0
 49
-1.0
 74
     0
 49
1.0
 74
     0
 49
-1.0
 74
     0
  0
ENDTAB
  0
TABLE
  2
LAYER
  5
2
330
0
100
AcDbSymbolTable
 70
     7
  0
LAYER
  5
10
330
2
100
AcDbSymbolTableRecord
100
AcDbLayerTableRecord
  2
0
 70
     0
 62
     7
  6
CONTINUOUS
  0
LAYER
  5
3F9
330
2
100
AcDbSymbolTableRecord
100
AcDbLayerTableRecord
  2
AM_0
 70
     0
 62
     7
  6
CONTINUOUS
  0
LAYER
  5
C7C
330
2
100
AcDbSymbolTableRecord
100
AcDbLayerTableRecord
  2
AM_7
 70
     0
 62
     4
  6
AM_ISO08W050
  0
LAYER
  5
C97
330
2
100
AcDbSymbolTableRecord
100
AcDbLayerTableRecord
  2
AM_11
 70
     0
 62
     3
  6
AM_ISO09W050
  0
LAYER
  5
CC5
330
2
100
AcDbSymbolTableRecord
100
AcDbLayerTableRecord
  2
AM_5
 70
     0
 62
     3
  6
CONTINUOUS
  0
LAYER
  5
CC7
330
2
100
AcDbSymbolTableRecord
100
AcDbLayerTableRecord
  2
DEFPOINTS
 70
     0
 62
     7
  6
CONTINUOUS
  0
LAYER
  5
19BC
330
2
100
AcDbSymbolTableRecord
100
AcDbLayerTableRecord
  2
AM_6
 70
     0
 62
     2
  6
CONTINUOUS
  0
ENDTAB
  0
TABLE
  2
STYLE
  5
3
330
0
100
AcDbSymbolTable
 70
     5
  0
STYLE
  5
11
330
3
100
AcDbSymbolTableRecord
100
AcDbTextStyleTableRecord
  2
STANDARD
 70
     0
 40
0.0
 41
1.0
 50
0.0
 71
     0
 42
2.5
  3
simplex.shx
  4
EXTFONT.SHX
  0
STYLE
  5
52
330
3
100
AcDbSymbolTableRecord
100
AcDbTextStyleTableRecord
  2

 70
     1
 40
0.0
 41
1.0
 50
0.0
 71
     0
 42
2.5
  3
ltypeshp.shx
  4

  0
STYLE
  5
6B
330
3
100
AcDbSymbolTableRecord
100
AcDbTextStyleTableRecord
  2
ASAMI
 70
     0
 40
0.0
 41
1.0
 50
0.0
 71
     0
 42
2.5
  3
simplex.shx
  4
EXTFONT.SHX
  0
STYLE
  5
262
330
3
100
AcDbSymbolTableRecord
100
AcDbTextStyleTableRecord
  2
ACJISTS
 70
     0
 40
1.0
 41
1.0
 50
0.0
 71
     0
 42
2.5
  3
simplex.shx
  4
bigfont.shx
  0
STYLE
  5
269
330
3
100
AcDbSymbolTableRecord
100
AcDbTextStyleTableRecord
  2
ACJISGDT
 70
     0
 40
0.0
 41
1.0
 50
0.0
 71
     0
 42
2.5
  3
amgdtans.shx
  4

  0
ENDTAB
  0
TABLE
  2
VIEW
  5
6
330
0
100
AcDbSymbolTable
 70
     0
  0
ENDTAB
  0
TABLE
  2
UCS
  5
7
330
0
100
AcDbSymbolTable
 70
     0
  0
ENDTAB
  0
TABLE
  2
APPID
  5
9
330
0
100
AcDbSymbolTable
 70
    16
  0
APPID
  5
12
330
9
100
AcDbSymbolTableRecord
100
AcDbRegAppTableRecord
  2
ACAD
 70
     0
  0
APPID
  5
30
330
9
100
AcDbSymbolTableRecord
100
AcDbRegAppTableRecord
  2
MCAD_NO_VIS
 70
     0
  0
APPID
  5
31
330
9
100
AcDbSymbolTableRecord
100
AcDbRegAppTableRecord
  2
ACAD_TEMP_GRAPHIC
 70
     0
  0
APPID
  5
2C2
330
9
100
AcDbSymbolTableRecord
100
AcDbRegAppTableRecord
  2
GENIUS_GENDTOL_13
 70
     0
  0
APPID
  5
339
330
9
100
AcDbSymbolTableRecord
100
AcDbRegAppTableRecord
  2
GENIUS_GENODEF_13
 70
     0
  0
APPID
  5
33A
330
9
100
AcDbSymbolTableRecord
100
AcDbRegAppTableRecord
  2
GENIUS_GENOBJ-N-RSBK_13
 70
     0
  0
APPID
  5
33B
330
9
100
AcDbSymbolTableRecord
100
AcDbRegAppTableRecord
  2
GENIUS_GENOBJ-N-LIB_13
 70
     0
  0
APPID
  5
33C
330
9
100
AcDbSymbolTableRecord
100
AcDbRegAppTableRecord
  2
GENIUS_GENSCALE_13
 70
     0
  0
APPID
  5
378
330
9
100
AcDbSymbolTableRecord
100
AcDbRegAppTableRecord
  2
GENIUS_GENDIMSH_14
 70
     0
  0
APPID
  5
C82
330
9
100
AcDbSymbolTableRecord
100
AcDbRegAppTableRecord
  2
GENIUS_GENOBJ-N-CRS_13
 70
     0
  0
APPID
  5
C83
330
9
100
AcDbSymbolTableRecord
100
AcDbRegAppTableRecord
  2
GENIUS_GENOENT_13
 70
     0
  0
APPID
  5
C84
330
9
100
AcDbSymbolTableRecord
100
AcDbRegAppTableRecord
  2
GENIUS_GENOREF_13
 70
     0
  0
APPID
  5
C85
330
9
100
AcDbSymbolTableRecord
100
AcDbRegAppTableRecord
  2
GENIUS_GENOLIS_13
 70
     0
  0
APPID
  5
CA0
330
9
100
AcDbSymbolTableRecord
100
AcDbRegAppTableRecord
  2
GENIUS_GENOBJ-N-CEN_13
 70
     0
  0
APPID
  5
2796
330
9
100
AcDbSymbolTableRecord
100
AcDbRegAppTableRecord
  2
GENIUS_GENFIL_13
 70
     0
  0
APPID
  5
2797
330
9
100
AcDbSymbolTableRecord
100
AcDbRegAppTableRecord
  2
GENIUS_GENOBJ-N-CHA_13
 70
     0
  0
ENDTAB
  0
TABLE
  2
DIMSTYLE
  5
A
330
0
100
AcDbSymbolTable
 70
     9
  0
DIMSTYLE
105
58
330
A
100
AcDbSymbolTableRecord
100
AcDbDimStyleTableRecord
  2
AM_JIS
 70
     0
  3

  4
"
  5
OPEN30
  6

  7

 40
0.5
 41
2.5
 42
1.0
 43
12.0
 44
1.0
 45
0.0
 46
0.0
 47
0.1
 48
0.1
140
3.2
141
0.0
142
0.0
143
0.0393701
144
1.0
145
0.0
146
0.71
147
1.5
 71
     0
 72
     0
 73
     0
 74
     0
 75
     0
 76
     0
 77
     3
 78
     8
170
     0
171
     2
172
     1
173
     0
174
     0
175
     0
176
   256
177
   256
178
     2
270
     2
271
     3
272
     3
273
     2
274
     2
340
6B
275
     0
280
     0
281
     0
282
     0
283
     0
284
     0
285
     0
286
     0
287
     3
288
     0
  0
DIMSTYLE
105
5F
330
A
100
AcDbSymbolTableRecord
100
AcDbDimStyleTableRecord
  2
AM_JIS$3
 70
     0
  3

  4
"
  5
OPEN30
  6

  7

 40
0.5
 41
2.5
 42
1.0
 43
10.0
 44
1.0
 45
0.0
 46
0.0
 47
0.1
 48
0.1
140
3.2
141
0.0
142
0.0
143
0.0393701
144
1.0
145
0.0
146
0.71
147
1.5
 71
     0
 72
     0
 73
     0
 74
     1
 75
     0
 76
     0
 77
     3
 78
     8
170
     0
171
     2
172
     0
173
     0
174
     0
175
     0
176
   256
177
   256
178
     2
270
     2
271
     2
272
     3
273
     2
274
     2
340
6B
275
     0
280
     0
281
     0
282
     0
283
     0
284
     0
285
     0
286
     0
287
     0
288
     1
  0
DIMSTYLE
105
60
330
A
100
AcDbSymbolTableRecord
100
AcDbDimStyleTableRecord
  2
AM_JIS$4
 70
     0
  3

  4
"
  5
OPEN30
  6

  7

 40
0.5
 41
2.5
 42
1.0
 43
10.0
 44
1.0
 45
0.0
 46
0.0
 47
0.1
 48
0.1
140
3.2
141
0.0
142
0.0
143
0.0393701
144
1.0
145
0.0
146
0.71
147
1.5
 71
     0
 72
     0
 73
     0
 74
     1
 75
     0
 76
     0
 77
     3
 78
     8
170
     0
171
     2
172
     0
173
     0
174
     0
175
     0
176
   256
177
   256
178
     2
270
     2
271
     2
272
     3
273
     2
274
     2
340
6B
275
     0
280
     0
281
     0
282
     0
283
     0
284
     0
285
     0
286
     0
287
     0
288
     1
  0
DIMSTYLE
105
61
330
A
100
AcDbSymbolTableRecord
100
AcDbDimStyleTableRecord
  2
AM_JIS$6
 70
     0
  3

  4
"
  5
OPEN30
  6

  7

 40
0.5
 41
2.5
 42
1.0
 43
10.0
 44
1.0
 45
0.0
 46
0.0
 47
0.1
 48
0.1
140
3.2
141
0.0
142
0.0
143
0.0393701
144
1.0
145
0.0
146
0.71
147
1.5
 71
     0
 72
     0
 73
     0
 74
     0
 75
     0
 76
     0
 77
     0
 78
     8
170
     0
171
     2
172
     1
173
     0
174
     0
175
     0
176
   256
177
   256
178
     2
270
     2
271
     2
272
     2
273
     2
274
     2
340
6B
275
     0
280
     0
281
     0
282
     0
283
     0
284
     0
285
     0
286
     0
287
     3
288
     0
  0
DIMSTYLE
105
62
330
A
100
AcDbSymbolTableRecord
100
AcDbDimStyleTableRecord
  2
AM_JIS$7
 70
     0
  3

  4
"
  5
OPEN30
  6

  7

 40
0.5
 41
2.5
 42
1.0
 43
10.0
 44
1.0
 45
0.0
 46
0.0
 47
0.1
 48
0.1
140
3.2
141
0.0
142
0.0
143
0.0393701
144
1.0
145
0.0
146
0.71
147
1.5
 71
     0
 72
     0
 73
     0
 74
     0
 75
     0
 76
     0
 77
     3
 78
     8
170
     0
171
     2
172
     1
173
     0
174
     0
175
     0
176
   256
177
   256
178
     2
270
     2
271
     2
272
     3
273
     2
274
     2
340
6B
275
     0
280
     0
281
     0
282
     0
283
     0
284
     0
285
     0
286
     0
287
     3
288
     0
  0
DIMSTYLE
105
63
330
A
100
AcDbSymbolTableRecord
100
AcDbDimStyleTableRecord
  2
AM_JIS$SF
 70
     0
  3

  4
"
  5
OPEN30
  6

  7

 40
0.5
 41
2.5
 42
1.0
 43
10.0
 44
1.0
 45
0.0
 46
0.0
 47
0.1
 48
0.1
140
3.2
141
0.0
142
0.0
143
0.0393701
144
1.0
145
0.0
146
0.71
147
1.5
 71
     0
 72
     0
 73
     0
 74
     0
 75
     1
 76
     1
 77
     3
 78
     8
170
     0
171
     2
172
     1
173
     0
174
     0
175
     0
176
   256
177
   256
178
     2
270
     2
271
     2
272
     2
273
     2
274
     2
340
6B
275
     0
280
     0
281
     0
282
     0
283
     0
284
     0
285
     0
286
     0
287
     3
288
     0
  0
DIMSTYLE
105
68
330
A
100
AcDbSymbolTableRecord
100
AcDbDimStyleTableRecord
  2
AM_JIS$SH
 70
     0
  3

  4
"
  5

  6
GENAXEH
  7
OPEN30
 40
0.5
 41
2.5
 42
1.0
 43
10.0
 44
1.0
 45
0.0
 46
0.0
 47
0.1
 48
0.1
140
3.2
141
0.0
142
0.0
143
0.0393701
144
2.0
145
0.0
146
0.71
147
1.5
 71
     0
 72
     0
 73
     0
 74
     0
 75
     1
 76
     1
 77
     3
 78
     8
170
     0
171
     2
172
     1
173
     1
174
     0
175
     0
176
   256
177
   256
178
     2
270
     2
271
     2
272
     2
273
     2
274
     2
340
6B
275
     0
280
     0
281
     0
282
     0
283
     0
284
     0
285
     0
286
     0
287
     3
288
     0
  0
DIMSTYLE
105
B34
102
{ACAD_REACTORS
330
29BA
102
}
330
A
100
AcDbSymbolTableRecord
100
AcDbDimStyleTableRecord
  2
AM_JIS$2
 70
     0
  3

  4
"
  5
OPEN30
  6

  7

 40
0.5
 41
2.5
 42
1.0
 43
12.0
 44
1.0
 45
0.0
 46
0.0
 47
0.1
 48
0.1
140
3.2
141
0.0
142
0.0
143
0.0393701
144
1.0
145
0.0
146
0.71
147
1.5
 71
     0
 72
     0
 73
     0
 74
     0
 75
     0
 76
     0
 77
     3
 78
     8
170
     0
171
     2
172
     1
173
     0
174
     0
175
     0
176
   256
177
   256
178
     2
270
     2
271
     3
272
     3
273
     2
274
     2
340
6B
275
     0
280
     0
281
     0
282
     0
283
     0
284
     0
285
     0
286
     0
287
     3
288
     0
  0
DIMSTYLE
105
BA5
102
{ACAD_REACTORS
330
CC6
330
2069
330
2599
330
2C54
102
}
330
A
100
AcDbSymbolTableRecord
100
AcDbDimStyleTableRecord
  2
AM_JIS$0
 70
     0
  3

  4
"
  5
OPEN30
  6

  7

 40
0.5
 41
2.5
 42
0.0
 43
10.0
 44
1.0
 45
0.0
 46
0.0
 47
0.1
 48
0.1000000001
140
3.799999999999999
141
0.0
142
0.0
143
0.0393701
144
1.0
145
0.0
146
0.71
147
1.5
 71
     0
 72
     0
 73
     0
 74
     0
 75
     0
 76
     0
 77
     3
 78
     1
170
     0
171
     2
172
     1
173
     0
174
     0
175
     0
176
     3
177
     3
178
     2
270
     2
271
     2
272
     2
273
     2
274
     2
340
11
275
     1
280
     0
281
     0
282
     0
283
     0
284
     8
285
     0
286
     0
287
     0
288
     0
  0
ENDTAB
  0
TABLE
  2
BLOCK_RECORD
  5
1
330
0
100
AcDbSymbolTable
 70
    10
  0
BLOCK_RECORD
  5
1F
102
{ACAD_XDICTIONARY
360
74
102
}
330
1
100
AcDbSymbolTableRecord
100
AcDbBlockTableRecord
  2
*MODEL_SPACE
  0
BLOCK_RECORD
  5
101
102
{ACAD_XDICTIONARY
360
2FDD
102
}
330
1
100
AcDbSymbolTableRecord
100
AcDbBlockTableRecord
  2
*PAPER_SPACE
  0
BLOCK_RECORD
  5
59
330
1
100
AcDbSymbolTableRecord
100
AcDbBlockTableRecord
  2
_OPEN30
  0
BLOCK_RECORD
  5
64
330
1
100
AcDbSymbolTableRecord
100
AcDbBlockTableRecord
  2
GENAXEH
  0
BLOCK_RECORD
  5
CC8
330
1
100
AcDbSymbolTableRecord
100
AcDbBlockTableRecord
  2
*D5
  0
BLOCK_RECORD
  5
206A
330
1
100
AcDbSymbolTableRecord
100
AcDbBlockTableRecord
  2
*D6
  0
BLOCK_RECORD
  5
259A
330
1
100
AcDbSymbolTableRecord
100
AcDbBlockTableRecord
  2
*D7
  0
BLOCK_RECORD
  5
29BB
330
1
100
AcDbSymbolTableRecord
100
AcDbBlockTableRecord
  2
*D8
  0
BLOCK_RECORD
  5
2C55
330
1
100
AcDbSymbolTableRecord
100
AcDbBlockTableRecord
  2
*D9
  0
ENDTAB
  0
ENDSEC
  0
SECTION
  2
BLOCKS
  0
BLOCK
  5
20
330
1F
100
AcDbEntity
  8
0
100
AcDbBlockBegin
  2
*MODEL_SPACE
 70
     0
 10
0.0
 20
0.0
 30
0.0
  3
*MODEL_SPACE
  1

  0
ENDBLK
  5
21
330
1F
100
AcDbEntity
  8
0
100
AcDbBlockEnd
  0
BLOCK
  5
103
330
101
100
AcDbEntity
 67
     1
  8
0
100
AcDbBlockBegin
  2
*PAPER_SPACE
 70
     0
 10
0.0
 20
0.0
 30
0.0
  3
*PAPER_SPACE
  1

  0
ENDBLK
  5
104
330
101
100
AcDbEntity
 67
     1
  8
0
100
AcDbBlockEnd
  0
BLOCK
  5
5D
330
59
100
AcDbEntity
  8
0
100
AcDbBlockBegin
  2
_OPEN30
 70
     0
 10
0.0
 20
0.0
 30
0.0
  3
_OPEN30
  1

  0
LINE
  5
5A
330
59
100
AcDbEntity
  8
0
 62
     0
100
AcDbLine
 10
-1.0
 20
0.26794919
 30
0.0
 11
0.0
 21
0.0
 31
0.0
  0
LINE
  5
5B
330
59
100
AcDbEntity
  8
0
 62
     0
100
AcDbLine
 10
0.0
 20
0.0
 30
0.0
 11
-1.0
 21
-0.26794919
 31
0.0
  0
LINE
  5
5C
330
59
100
AcDbEntity
  8
0
 62
     0
100
AcDbLine
 10
0.0
 20
0.0
 30
0.0
 11
-1.0
 21
0.0
 31
0.0
  0
ENDBLK
  5
5E
330
59
100
AcDbEntity
  8
0
100
AcDbBlockEnd
  0
BLOCK
  5
66
330
64
100
AcDbEntity
  8
0
100
AcDbBlockBegin
  2
GENAXEH
 70
     0
 10
0.0
 20
0.0
 30
0.0
  3
GENAXEH
  1

  0
LINE
  5
65
330
64
100
AcDbEntity
  8
0
100
AcDbLine
 10
-1.0
 20
0.0
 30
0.0
 11
1.0
 21
0.0
 31
0.0
  0
ENDBLK
  5
67
330
64
100
AcDbEntity
  8
0
100
AcDbBlockEnd
  0
BLOCK
  5
CD2
330
CC8
100
AcDbEntity
  8
0
100
AcDbBlockBegin
  2
*D5
 70
     1
 10
0.0
 20
0.0
 30
0.0
  3
*D5
  1

  0
LINE
  5
2F62
330
CC8
100
AcDbEntity
  8
AM_5
 62
     3
100
AcDbLine
 10
-107.9999999999999
 20
-4.49999242885897
 30
0.0
 11
-107.9999999999999
 21
-17.49999342885878
 31
0.0
  0
LINE
  5
2F63
330
CC8
100
AcDbEntity
  8
AM_5
 62
     3
100
AcDbLine
 10
-2.000000000000214
 20
-4.800008658519695
 30
0.0
 11
-2.000000000000215
 21
-17.49999342885878
 31
0.0
  0
LINE
  5
2F64
330
CC8
100
AcDbEntity
  8
AM_5
 62
     3
100
AcDbLine
 10
-106.7499999999999
 20
-16.99999342885878
 30
0.0
 11
-3.250000000000215
 21
-16.99999342885878
 31
0.0
  0
INSERT
  5
2F65
330
CC8
100
AcDbEntity
  8
AM_5
 62
     3
100
AcDbBlockReference
  2
_OPEN30
 10
-107.9999999999999
 20
-16.99999342885878
 30
0.0
 41
1.25
 42
1.25
 43
1.25
 50
180.0
  0
INSERT
  5
2F66
330
CC8
100
AcDbEntity
  8
AM_5
 62
     3
100
AcDbBlockReference
  2
_OPEN30
 10
-2.000000000000215
 20
-16.99999342885878
 30
0.0
 41
1.25
 42
1.25
 43
1.25
  0
MTEXT
  5
2F67
330
CC8
100
AcDbEntity
  8
AM_5
 62
     2
100
AcDbMText
 10
-55.0000000000001
 20
-15.29999342885878
 30
0.0
 40
1.9
 41
0.0
 71
     5
 72
     1
  1
106
1001
ACAD
1000
MTEXTBEGIN
1070
    73
1070
     1
1070
    44
1040
1.0
1070
    74
1070
     0
1000
MTEXTEND
  0
POINT
  5
2F68
330
CC8
100
AcDbEntity
  8
DEFPOINTS
 62
     0
100
AcDbPoint
 10
-107.9999999999999
 20
-4.49999242885897
 30
0.0
  0
POINT
  5
2F69
330
CC8
100
AcDbEntity
  8
DEFPOINTS
 62
     0
100
AcDbPoint
 10
-2.000000000000214
 20
-4.800008658519695
 30
0.0
  0
POINT
  5
2F6A
330
CC8
100
AcDbEntity
  8
DEFPOINTS
 62
     0
100
AcDbPoint
 10
-2.000000000000215
 20
-16.99999342885878
 30
0.0
  0
ENDBLK
  5
CD3
330
CC8
100
AcDbEntity
  8
0
100
AcDbBlockEnd
  0
BLOCK
  5
2074
330
206A
100
AcDbEntity
  8
0
100
AcDbBlockBegin
  2
*D6
 70
     1
 10
0.0
 20
0.0
 30
0.0
  3
*D6
  1

  0
LINE
  5
2F7F
330
206A
100
AcDbEntity
  8
AM_5
 62
     3
100
AcDbLine
 10
-51.99999999999995
 20
-4.999992428858928
 30
0.0
 11
-51.99999999999993
 21
-12.4999934288589
 31
0.0
  0
LINE
  5
2F80
330
206A
100
AcDbEntity
  8
AM_5
 62
     3
100
AcDbLine
 10
-2.000000000000201
 20
-4.800008658519701
 30
0.0
 11
-2.000000000000178
 21
-12.49999342885875
 31
0.0
  0
LINE
  5
2F81
330
206A
100
AcDbEntity
  8
AM_5
 62
     3
100
AcDbLine
 10
-50.74999999999993
 20
-11.9999934288589
 30
0.0
 11
-3.25000000000018
 21
-11.99999342885876
 31
0.0
  0
INSERT
  5
2F82
330
206A
100
AcDbEntity
  8
AM_5
 62
     3
100
AcDbBlockReference
  2
_OPEN30
 10
-51.99999999999993
 20
-11.9999934288589
 30
0.0
 41
1.25
 42
1.25
 43
1.25
 50
180.0000000000001
  0
INSERT
  5
2F83
330
206A
100
AcDbEntity
  8
AM_5
 62
     3
100
AcDbBlockReference
  2
_OPEN30
 10
-2.00000000000018
 20
-11.99999342885875
 30
0.0
 41
1.25
 42
1.25
 43
1.25
 50
0.0000000000001527
  0
MTEXT
  5
2F84
330
206A
100
AcDbEntity
  8
AM_5
 62
     2
100
AcDbMText
 10
-27.00000000000006
 20
-10.29999342885883
 30
0.0
 40
1.9
 41
0.0
 71
     5
 72
     1
  1
50
1001
ACAD
1000
MTEXTBEGIN
1070
    73
1070
     1
1070
    44
1040
1.0
1070
    74
1070
     0
1000
MTEXTEND
  0
POINT
  5
2F85
330
206A
100
AcDbEntity
  8
DEFPOINTS
 62
     0
100
AcDbPoint
 10
-51.99999999999997
 20
-4.999992428858777
 30
0.0
  0
POINT
  5
2F86
330
206A
100
AcDbEntity
  8
DEFPOINTS
 62
     0
100
AcDbPoint
 10
-2.000000000000214
 20
-4.800008658519695
 30
0.0
  0
POINT
  5
2F87
330
206A
100
AcDbEntity
  8
DEFPOINTS
 62
     0
100
AcDbPoint
 10
-2.000000000000215
 20
-11.99999342885875
 30
0.0
  0
ENDBLK
  5
2075
330
206A
100
AcDbEntity
  8
0
100
AcDbBlockEnd
  0
BLOCK
  5
25A4
330
259A
100
AcDbEntity
  8
0
100
AcDbBlockBegin
  2
*D7
 70
     1
 10
0.0
 20
0.0
 30
0.0
  3
*D7
  1

  0
LINE
  5
2F6B
330
259A
100
AcDbEntity
  8
AM_5
 62
     3
100
AcDbLine
 10
-107.4999999999999
 20
-4.999992428859302
 30
0.0
 11
-118.000001
 21
-4.999992428859332
 31
0.0
  0
LINE
  5
2F6C
330
259A
100
AcDbEntity
  8
AM_5
 62
     3
100
AcDbLine
 10
-107.5
 20
5.000024525351125
 30
0.0
 11
-118.000001
 21
5.000024525351094
 31
0.0
  0
LINE
  5
2F6D
330
259A
100
AcDbEntity
  8
AM_5
 62
     3
100
AcDbLine
 10
-117.500001
 20
-3.74999242885933
 30
0.0
 11
-117.500001
 21
3.750024525351096
 31
0.0
  0
INSERT
  5
2F6E
330
259A
100
AcDbEntity
  8
AM_5
 62
     3
100
AcDbBlockReference
  2
_OPEN30
 10
-117.500001
 20
-4.99999242885933
 30
0.0
 41
1.25
 42
1.25
 43
1.25
 50
270.0000000000001
  0
INSERT
  5
2F6F
330
259A
100
AcDbEntity
  8
AM_5
 62
     3
100
AcDbBlockReference
  2
_OPEN30
 10
-117.500001
 20
5.000024525351096
 30
0.0
 41
1.25
 42
1.25
 43
1.25
 50
90.00000000000015
  0
MTEXT
  5
2F70
330
259A
100
AcDbEntity
  8
AM_5
 62
     2
100
AcDbMText
 10
-119.200001
 20
0.0000107500552654
 30
0.0
 40
1.9
 41
0.0
 71
     5
 72
     1
  1
%%c10
 11
-0.0000000000000028
 21
1.0
 31
0.0
1001
ACAD
1000
MTEXTBEGIN
1070
    73
1070
     1
1070
    44
1040
1.0
1070
    74
1070
     0
1000
MTEXTEND
  0
POINT
  5
2F71
330
259A
100
AcDbEntity
  8
DEFPOINTS
 62
     0
100
AcDbPoint
 10
-107.4999999999999
 20
-4.999992428858968
 30
0.0
  0
POINT
  5
2F72
330
259A
100
AcDbEntity
  8
DEFPOINTS
 62
     0
100
AcDbPoint
 10
-107.5
 20
5.000024525351459
 30
0.0
  0
POINT
  5
2F73
330
259A
100
AcDbEntity
  8
DEFPOINTS
 62
     0
100
AcDbPoint
 10
-117.500001
 20
5.000024525351461
 30
0.0
  0
ENDBLK
  5
25A5
330
259A
100
AcDbEntity
  8
0
100
AcDbBlockEnd
  0
BLOCK
  5
29C9
330
29BB
100
AcDbEntity
  8
0
100
AcDbBlockBegin
  2
*D8
 70
     1
 10
0.0
 20
0.0
 30
0.0
  3
*D8
  1

  0
LINE
  5
2FDF
330
29BB
100
AcDbEntity
  8
AM_5
100
AcDbLine
 10
0.1710100704080685
 20
-0.4698463108496512
 30
0.0
 11
4.867341367584952
 21
-13.37291061133781
 31
0.0
  0
LINE
  5
2FE0
330
29BB
100
AcDbEntity
  8
AM_5
100
AcDbLine
 10
0.1710111111829821
 20
0.4698459320372713
 30
0.0
 11
4.867370990441548
 21
13.3728998294627
 31
0.0
  0
ARC
  5
2FE1
330
29BB
100
AcDbEntity
  8
AM_5
100
AcDbCircle
 10
-0.0000000000000022
 20
0.000000000000006
 30
0.0
 40
13.73115421206008
100
AcDbArc
 50
295.217658650686
 51
64.78221443114371
  0
INSERT
  5
2FE2
330
29BB
100
AcDbEntity
  8
AM_5
100
AcDbBlockReference
  2
_OPEN30
 10
4.696331297176882
 20
-12.90306430048816
 30
0.0
 41
1.25
 42
1.25
 43
1.25
 50
202.6088292488362
  0
INSERT
  5
2FE3
330
29BB
100
AcDbEntity
  8
AM_5
100
AcDbBlockReference
  2
_OPEN30
 10
4.696359879258566
 20
12.90305389742544
 30
0.0
 41
1.25
 42
1.25
 43
1.25
 50
157.3910438329935
  0
MTEXT
  5
2FE4
330
29BB
100
AcDbEntity
  8
AM_5
 62
     2
100
AcDbMText
 10
12.1811542120526
 20
-0.0000134914806693
 30
0.0
 40
1.6
 41
0.0
 71
     5
 72
     1
  1
140°
  7
ASAMI
 11
0.0000011075699751
 21
0.9999999999993868
 31
0.0
  0
POINT
  5
2FE5
330
29BB
100
AcDbEntity
  8
DEFPOINTS
 62
     0
100
AcDbPoint
 10
12.60816294294831
 20
-5.43864166860074
 30
0.0
  0
POINT
  5
2FE6
330
29BB
100
AcDbEntity
  8
DEFPOINTS
 62
     0
100
AcDbPoint
 10
-0.0000000000000003
 20
0.0000000000000112
 30
0.0
  0
POINT
  5
2FE7
330
29BB
100
AcDbEntity
  8
DEFPOINTS
 62
     0
100
AcDbPoint
 10
-0.0000000000000002
 20
0.0000000000000004
 30
0.0
  0
POINT
  5
2FE8
330
29BB
100
AcDbEntity
  8
DEFPOINTS
 62
     0
100
AcDbPoint
 10
-0.5665999554321625
 20
1.556720596349281
 30
0.0
  0
POINT
  5
2FE9
330
29BB
100
AcDbEntity
  8
DEFPOINTS
 62
     0
100
AcDbPoint
 10
-0.5666112811907093
 20
-1.556740984093216
 30
0.0
  0
ENDBLK
  5
29CA
330
29BB
100
AcDbEntity
  8
0
100
AcDbBlockEnd
  0
BLOCK
  5
2C5F
330
2C55
100
AcDbEntity
  8
0
100
AcDbBlockBegin
  2
*D9
 70
     1
 10
0.0
 20
0.0
 30
0.0
  3
*D9
  1

  0
LINE
  5
2F88
330
2C55
100
AcDbEntity
  8
AM_5
 62
     3
100
AcDbLine
 10
-1.999999999999952
 20
4.800000496318366
 30
0.0
 11
9.819901031072232
 21
4.800000496318399
 31
0.0
  0
LINE
  5
2F89
330
2C55
100
AcDbEntity
  8
AM_5
 62
     3
100
AcDbLine
 10
-2.000000000000142
 20
-4.800008658732349
 30
0.0
 11
9.81990103107226
 21
-4.800008658732315
 31
0.0
  0
LINE
  5
2F8A
330
2C55
100
AcDbEntity
  8
AM_5
 62
     3
100
AcDbLine
 10
9.319901031072236
 20
3.550000496318398
 30
0.0
 11
9.319901031072257
 21
-3.550008658732317
 31
0.0
  0
INSERT
  5
2F8B
330
2C55
100
AcDbEntity
  8
AM_5
 62
     3
100
AcDbBlockReference
  2
_OPEN30
 10
9.319901031072232
 20
4.800000496318397
 30
0.0
 41
1.25
 42
1.25
 43
1.25
 50
90.00000000000017
  0
INSERT
  5
2F8C
330
2C55
100
AcDbEntity
  8
AM_5
 62
     3
100
AcDbBlockReference
  2
_OPEN30
 10
9.31990103107226
 20
-4.800008658732317
 30
0.0
 41
1.25
 42
1.25
 43
1.25
 50
270.0000000000001
  0
MTEXT
  5
2F8D
330
2C55
100
AcDbEntity
  8
AM_5
 62
     2
100
AcDbMText
 10
7.619901031072246
 20
-0.0000040812069648
 30
0.0
 40
1.9
 41
0.0
 71
     5
 72
     1
  1
%%c9.6
 11
-0.0000000000000028
 21
1.0
 31
0.0
1001
ACAD
1000
MTEXTBEGIN
1070
    73
1070
     1
1070
    44
1040
1.0
1070
    74
1070
     0
1000
MTEXTEND
  0
POINT
  5
2F8E
330
2C55
100
AcDbEntity
  8
DEFPOINTS
 62
     0
100
AcDbPoint
 10
-1.999999999999938
 20
4.800000496318372
 30
0.0
  0
POINT
  5
2F8F
330
2C55
100
AcDbEntity
  8
DEFPOINTS
 62
     0
100
AcDbPoint
 10
-2.000000000000157
 20
-4.800008658732342
 30
0.0
  0
POINT
  5
2F90
330
2C55
100
AcDbEntity
  8
DEFPOINTS
 62
     0
100
AcDbPoint
 10
9.319901031072244
 20
-4.800008658732346
 30
0.0
  0
ENDBLK
  5
2C60
330
2C55
100
AcDbEntity
  8
0
100
AcDbBlockEnd
  0
ENDSEC
  0
SECTION
  2
ENTITIES
  0
LINE
  5
C1D
330
1F
100
AcDbEntity
  8
AM_0
 48
0.5
100
AcDbLine
 10
-0.0000000000000002
 20
0.0000000000000004
 30
0.0
 11
-0.5665999554321625
 21
1.556720596349281
 31
0.0
  0
LINE
  5
C20
330
1F
100
AcDbEntity
  8
AM_0
 48
0.5
100
AcDbLine
 10
-0.0000000000000003
 20
0.0000000000000112
 30
0.0
 11
-0.5666112811907093
 21
-1.556740984093216
 31
0.0
  0
DIMENSION
  5
CC6
330
1F
100
AcDbEntity
  8
AM_5
100
AcDbDimension
  2
*D5
 10
-2.000000000000215
 20
-16.99999342885878
 30
0.0
 11
-55.0000000000001
 21
-15.29999342885878
 31
0.0
 70
    32
  1
<>
  3
AM_JIS$0
100
AcDbAlignedDimension
 13
-107.9999999999999
 23
-4.49999242885897
 33
0.0
 14
-2.000000000000214
 24
-4.800008658519695
 34
0.0
 50
0.0000000000001132
100
AcDbRotatedDimension
1001
GENIUS_GENDTOL_13
1000

1000
h7
1000

1040
0.0
1001
ACAD
1000
DSTYLE
1002
{
1070
   271
1070
     0
1002
}
  0
TEXT
  5
19BD
330
1F
100
AcDbEntity
  8
AM_6
100
AcDbText
 10
-66.24999999999996
 20
-28.25000402524004
 30
0.0
 40
2.5
  1
MDW096MHK
 50
0.0000000000001527
 72
     4
 11
-54.99999999999995
 21
-27.00000402524001
 31
0.0
100
AcDbText
  0
DIMENSION
  5
2069
330
1F
100
AcDbEntity
  8
AM_5
100
AcDbDimension
  2
*D6
 10
-2.000000000000215
 20
-11.99999342885875
 30
0.0
 11
-27.00000000000009
 21
-10.29999342885875
 31
0.0
 70
    32
  1
<>
 51
359.9999999999998
  3
AM_JIS$0
100
AcDbAlignedDimension
 13
-51.99999999999997
 23
-4.999992428858777
 33
0.0
 14
-2.000000000000214
 24
-4.800008658519695
 34
0.0
 50
0.0000000000001527
100
AcDbRotatedDimension
1001
ACAD
1000
DSTYLE
1002
{
1070
   271
1070
     0
1070
   174
1070
     1
1002
}
1001
GENIUS_GENDTOL_13
1000

1000
h7
1000

1040
0.0
  0
LINE
  5
23EF
330
1F
100
AcDbEntity
  8
AM_7
100
AcDbLine
 10
-110.4999999999999
 20
0.0000000000007192
 30
0.0
 11
2.319900031072545
 21
-0.0000000000000054
 31
0.0
1001
GENIUS_GENODEF_13
1002
{
1000
HIER
1070
     0
1002
}
1002
{
1000
MANEDIT
1070
     0
1002
}
1002
{
1000
NOSEL
1070
     0
1002
}
1002
{
1000
BEHIND
1070
     0
1002
}
1002
{
1000
REACTOR
1002
}
1001
GENIUS_GENOBJ-N-CEN_13
1002
{
1000
OWNER
1000
GEN
1002
}
  0
LINE
  5
24A7
330
1F
100
AcDbEntity
  8
AM_0
 48
0.5
100
AcDbLine
 10
-1.584795172291386
 20
4.170854053486501
 30
0.0
 11
-1.999999999999938
 21
4.800000496318372
 31
0.0
  0
ELLIPSE
  5
24B7
330
1F
100
AcDbEntity
  8
AM_11
 48
0.5
100
AcDbEllipse
 10
-17.32962994420974
 20
20.09720314218304
 30
0.0
 11
-23.19725211461353
 21
0.0000000000001765
 31
0.0
210
0.0
220
0.0
230
1.0
 40
0.9578947368421058
 41
1.130070686340284
 42
2.011520147323574
  0
ELLIPSE
  5
24B8
330
1F
100
AcDbEntity
  8
AM_11
 48
0.5
100
AcDbEllipse
 10
-17.32962994421084
 20
-20.09718855347516
 30
0.0
 11
-23.1972521146135
 21
0.0000000000001044
 31
0.0
210
0.0
220
0.0
230
1.0
 40
0.9578947368421054
 41
4.271664206181664
 42
5.153113667164971
  0
ELLIPSE
  5
24B9
330
1F
100
AcDbEntity
  8
AM_11
 48
0.5
100
AcDbEllipse
 10
2.462036722456947
 20
20.09720314218252
 30
0.0
 11
-23.19725211461348
 21
0.0000000000018145
 31
0.0
210
0.0
220
0.0
230
1.0
 40
0.9578947368421141
 41
1.130070686340349
 42
1.291800737381041
  0
ELLIPSE
  5
24BE
330
1F
100
AcDbEntity
  8
AM_0
 48
0.5
100
AcDbEllipse
 10
6.650934204183231
 20
5.62517483392229
 30
0.0
 11
-8.374499956766587
 21
0.0000000000003389
 31
0.0
210
0.0
220
0.0
230
1.0
 40
0.9578947368421003
 41
0.1823039054871158
 42
0.5318968824397438
  0
ELLIPSE
  5
24C7
330
1F
100
AcDbEntity
  8
AM_11
 48
0.5
100
AcDbEllipse
 10
-76.70462994420417
 20
20.09720314218455
 30
0.0
 11
-23.19725211461353
 21
0.0000000000005165
 31
0.0
210
0.0
220
0.0
230
1.0
 40
0.9578947368421058
 41
1.130070686340301
 42
2.011520147323591
  0
ELLIPSE
  5
24C8
330
1F
100
AcDbEntity
  8
AM_11
 48
0.5
100
AcDbEllipse
 10
-76.70462994420531
 20
-20.09718855347364
 30
0.0
 11
23.1972521146135
 21
0.0000000000003877
 31
0.0
210
0.0
220
0.0
230
1.0
 40
0.957894736842107
 41
1.13007155259185
 42
2.011521013575156
  0
ELLIPSE
  5
24C9
330
1F
100
AcDbEntity
  8
AM_11
 48
0.5
100
AcDbEllipse
 10
-96.49629661087182
 20
-20.09718855347318
 30
0.0
 11
-23.19725211461353
 21
0.0000000000000787
 31
0.0
210
0.0
220
0.0
230
1.0
 40
0.9578947368421061
 41
4.271664206181663
 42
5.153113667164971
  0
ELLIPSE
  5
24CA
330
1F
100
AcDbEntity
  8
AM_11
 48
0.5
100
AcDbEllipse
 10
-96.49629661087068
 20
20.09720314218501
 30
0.0
 11
-23.19725211461357
 21
0.0000000000000117
 31
0.0
210
0.0
220
0.0
230
1.0
 40
0.9578947368421045
 41
1.130070686340277
 42
2.011520147323567
  0
ELLIPSE
  5
24D4
330
1F
100
AcDbEntity
  8
AM_11
 48
0.5
100
AcDbEllipse
 10
-56.91296327753751
 20
20.09720314218407
 30
0.0
 11
-23.19725211461356
 21
0.0000000000001353
 31
0.0
210
0.0
220
0.0
230
1.0
 40
0.9578947368421049
 41
1.130070686340283
 42
2.011520147323574
  0
ELLIPSE
  5
24D5
330
1F
100
AcDbEntity
  8
AM_11
 48
0.5
100
AcDbEllipse
 10
-56.91296327753862
 20
-20.09718855347413
 30
0.0
 11
-23.19725211461346
 21
0.0000000000004186
 31
0.0
210
0.0
220
0.0
230
1.0
 40
0.9578947368421083
 41
4.271664206181676
 42
5.153113667164986
  0
ELLIPSE
  5
24E6
330
1F
100
AcDbEntity
  8
AM_11
 48
0.5
100
AcDbEllipse
 10
-37.1212966108775
 20
-20.09718855347466
 30
0.0
 11
-23.19725211461349
 21
0.0000000000006298
 31
0.0
210
0.0
220
0.0
230
1.0
 40
0.957894736842106
 41
4.271664206181685
 42
5.153113667164993
  0
ELLIPSE
  5
24E7
330
1F
100
AcDbEntity
  8
AM_11
 48
0.5
100
AcDbEllipse
 10
-37.1212966108764
 20
20.09720314218355
 30
0.0
 11
23.19725211461354
 21
0.0000000000000375
 31
0.0
210
0.0
220
0.0
230
1.0
 40
0.9578947368421051
 41
4.271663339930067
 42
5.153112800913361
  0
LINE
  5
2567
330
1F
100
AcDbEntity
  8
AM_0
 48
0.5
100
AcDbLine
 10
-107.9999999999999
 20
-4.49999242885897
 30
0.0
 11
-108.0
 21
4.500011279874365
 31
0.0
  0
LINE
  5
2568
330
1F
100
AcDbEntity
  8
AM_0
 48
0.5
100
AcDbLine
 10
-107.4999999999999
 20
-4.999992428858995
 30
0.0
 11
-107.5
 21
5.000011279874366
 31
0.0
  0
LINE
  5
2569
330
1F
100
AcDbEntity
  8
AM_0
 48
0.5
100
AcDbLine
 10
-51.99999999999997
 20
-4.999992428858777
 30
0.0
 11
-52.0
 21
5.00002452535165
 31
0.0
  0
LINE
  5
256C
330
1F
100
AcDbEntity
  8
AM_0
100
AcDbLine
 10
-107.4999999999999
 20
-4.999992428858968
 30
0.0
 11
-51.99999999999998
 21
-4.999992428858761
 31
0.0
  0
LINE
  5
256E
330
1F
100
AcDbEntity
  8
AM_0
 48
0.5
100
AcDbLine
 10
-51.6536202662894
 20
-4.800003626505088
 30
0.0
 11
-52.00001059638123
 21
-4.999992428858777
 31
0.0
  0
LINE
  5
256F
330
1F
100
AcDbEntity
  8
AM_0
100
AcDbLine
 10
-52.00000000000001
 20
5.000011279874571
 30
0.0
 11
-107.5
 21
5.000011279874366
 31
0.0
  0
LINE
  5
2571
330
1F
100
AcDbEntity
  8
AM_0
 48
0.5
100
AcDbLine
 10
-51.6545333609535
 20
4.799988286971768
 30
0.0
 11
-52.00000000000001
 21
4.999443697290738
 31
0.0
  0
LINE
  5
2572
330
1F
100
AcDbEntity
  8
AM_0
100
AcDbLine
 10
-51.6545333609535
 20
4.79998828697177
 30
0.0
 11
-51.6545333609535
 21
-0.1868431198596032
 31
0.0
  0
DIMENSION
  5
2599
330
1F
100
AcDbEntity
  8
AM_5
100
AcDbDimension
  2
*D7
 10
-117.500001
 20
5.000024525351461
 30
0.0
 11
-117.500001
 21
0.000010750055612
 31
0.0
 70
   160
  1
%%c<>
 51
359.9999999999998
  3
AM_JIS$0
100
AcDbAlignedDimension
 13
-107.4999999999999
 23
-4.999992428858968
 33
0.0
 14
-107.5
 24
5.000024525351459
 34
0.0
 50
270.0000000000002
100
AcDbRotatedDimension
1001
ACAD
1000
DSTYLE
1002
{
1070
   271
1070
     0
1002
}
1001
GENIUS_GENDTOL_13
1000

1000
h7
1000

1040
0.0
  0
ELLIPSE
  5
278C
330
1F
100
AcDbEntity
  8
AM_11
 48
0.5
100
AcDbEllipse
 10
-116.287959372568
 20
-20.09716981670649
 30
0.0
 11
-23.19725211461353
 21
0.0000000000000787
 31
0.0
210
0.0
220
0.0
230
1.0
 40
0.9578947368421061
 41
4.271664206181663
 42
4.347032845605132
  0
ELLIPSE
  5
278D
330
1F
100
AcDbEntity
  8
AM_11
 48
0.5
100
AcDbEllipse
 10
-116.2879593725669
 20
20.0972218789517
 30
0.0
 11
-23.19725211461357
 21
0.0000000000000117
 31
0.0
210
0.0
220
0.0
230
1.0
 40
0.9578947368421045
 41
1.936152461574404
 42
2.011520147323567
  0
LINE
  5
279A
330
1F
100
AcDbEntity
  8
AM_0
 48
0.5
100
AcDbLine
 10
-107.4999999999999
 20
-4.999992428858968
 30
0.0
 11
-107.9999999999999
 21
-4.49999242885897
 31
0.0
1001
GENIUS_GENFIL_13
1070
     0
1040
0.5
1040
0.5
1040
20.0
1040
0.0
1002
{
1002
}
1001
GENIUS_GENODEF_13
1002
{
1000
HIER
1070
     0
1002
}
1002
{
1000
MANEDIT
1070
     0
1002
}
1002
{
1000
NOSEL
1070
     0
1002
}
1002
{
1000
BEHIND
1070
     0
1002
}
1002
{
1000
REACTOR
1002
}
1001
GENIUS_GENOBJ-N-CHA_13
1002
{
1000
OWNER
1000
GEN
1002
}
  0
LINE
  5
279D
330
1F
100
AcDbEntity
  8
AM_0
 48
0.5
100
AcDbLine
 10
-107.5
 20
5.000011279874366
 30
0.0
 11
-108.0
 21
4.500011279874365
 31
0.0
1001
GENIUS_GENFIL_13
1070
     0
1040
0.5
1040
0.5
1040
20.0
1040
0.0
1002
{
1002
}
1001
GENIUS_GENODEF_13
1002
{
1000
HIER
1070
     0
1002
}
1002
{
1000
MANEDIT
1070
     0
1002
}
1002
{
1000
NOSEL
1070
     0
1002
}
1002
{
1000
BEHIND
1070
     0
1002
}
1002
{
1000
REACTOR
1002
}
1001
GENIUS_GENOBJ-N-CHA_13
1002
{
1000
OWNER
1000
GEN
1002
}
  0
DIMENSION
  5
29BA
330
1F
100
AcDbEntity
  8
AM_5
100
AcDbDimension
  2
*D8
 10
-0.5666112811907093
 20
-1.556740984093216
 30
0.0
 11
12.1811542120526
 21
-0.0000134914807053
 31
0.0
 70
    34
  1
<>
 51
359.9999999999998
  3
AM_JIS$2
100
AcDb2LineAngularDimension
 13
-0.0000000000000002
 23
0.0000000000000004
 33
0.0
 14
-0.5665999554321625
 24
1.556720596349281
 34
0.0
 15
-0.0000000000000003
 25
0.0000000000000112
 35
0.0
 16
12.60816294294831
 26
-5.43864166860074
 36
0.0
1001
GENIUS_GENDTOL_13
1000

1000
h7
1000

1040
0.0
1001
ACAD
1000
DSTYLE
1002
{
1070
   271
1070
     1
1070
   179
1070
     1
1002
}
  0
ELLIPSE
  5
2C43
330
1F
100
AcDbEntity
  8
AM_0
 48
0.5
100
AcDbEllipse
 10
6.650934204183204
 20
-5.625174833922321
 30
0.0
 11
-8.374499956766587
 21
-0.0000000000002981
 31
0.0
210
0.0
220
0.0
230
-1.0
 40
0.9578947368421003
 41
0.1823039054871158
 42
0.5318968824397438
  0
LINE
  5
2C44
330
1F
100
AcDbEntity
  8
AM_0
 48
0.5
100
AcDbLine
 10
-1.584795172291406
 20
-4.170854053486492
 30
0.0
 11
-2.000000000000157
 21
-4.800008658732342
 31
0.0
  0
DIMENSION
  5
2C54
330
1F
100
AcDbEntity
  8
AM_5
100
AcDbDimension
  2
*D9
 10
9.319901031072244
 20
-4.800008658732346
 30
0.0
 11
7.619901031072246
 21
-0.0000040812069869
 31
0.0
 70
    32
  1
%%c<>
 51
359.9999999999998
  3
AM_JIS$0
100
AcDbAlignedDimension
 13
-1.999999999999938
 23
4.800000496318372
 33
0.0
 14
-2.000000000000157
 24
-4.800008658732342
 34
0.0
 50
89.9999999999982
100
AcDbRotatedDimension
1001
ACAD
1000
DSTYLE
1002
{
1070
   271
1070
     1
1002
}
1001
GENIUS_GENDTOL_13
1000

1000
h7
1000

1040
0.0
  0
LINE
  5
2E9A
330
1F
100
AcDbEntity
  8
AM_0
 48
0.5
100
AcDbLine
 10
-4.680396727120811
 20
4.800000496318492
 30
0.0
 11
-1.999999999999938
 21
4.800000496318372
 31
0.0
  0
LINE
  5
2E9B
330
1F
100
AcDbEntity
  8
AM_0
 48
0.5
100
AcDbLine
 10
-0.0000000000000145
 20
0.0000000000000115
 30
0.0
 11
-2.334417835153615
 21
1.843054695536803
 31
0.0
  0
LINE
  5
2E9C
330
1F
100
AcDbEntity
  8
AM_0
 48
0.5
100
AcDbLine
 10
-4.680396727120104
 20
-4.799999503681521
 30
0.0
 11
-2.000000000000062
 21
-4.800008658954419
 31
0.0
  0
SPLINE
  5
2EAF
330
1F
100
AcDbEntity
  8
AM_0
 48
0.5
100
AcDbSpline
210
0.0
220
0.0
230
1.0
 70
     8
 71
     3
 72
    10
 73
     6
 74
     0
 42
0.0000000001
 43
0.0000000001
 40
0.0
 40
0.0
 40
0.0
 40
0.0
 40
2.69986029516136
 40
4.147722969032201
 40
6.285750005020438
 40
6.285750005020438
 40
6.285750005020438
 40
6.285750005020438
 10
-5.657269745673808
 20
0.8687749103809228
 30
0.0
 10
-4.836128572894457
 20
0.4228217408859586
 30
0.0
 10
-3.960804424191258
 20
-0.262284154238307
 30
0.0
 10
-1.890780396917353
 20
0.0693876116340055
 30
0.0
 10
-2.280626131614035
 20
1.186502005799173
 30
0.0
 10
-2.334417835153615
 20
1.843054695536803
 30
0.0
  0
ELLIPSE
  5
2EB4
330
1F
100
AcDbEntity
  8
AM_0
 48
0.5
100
AcDbEllipse
 10
-8.222483968016742
 20
8.137515755107312
 30
0.0
 11
8.757279954149398
 21
9.89877625395664
 31
0.0
210
0.0
220
0.0
230
1.0
 40
0.8749814250196415
 41
4.552383547997613
 42
4.663451067415466
  0
ELLIPSE
  5
2EB5
330
1F
100
AcDbEntity
  8
AM_0
 48
0.5
100
AcDbEllipse
 10
-5.398042737136665
 20
4.896907480059197
 30
0.0
 11
0.0000000000010492
 21
7.457513569373807
 31
0.0
210
0.0
220
0.0
230
1.0
 40
0.9479166666666747
 41
3.517054509082811
 42
3.68182157085631
  0
ELLIPSE
  5
2EB6
330
1F
100
AcDbEntity
  8
AM_0
 48
0.5
100
AcDbEllipse
 10
-1.415152657029711
 20
-1.249246164767384
 30
0.0
 11
-0.1353286049581836
 21
0.7879511210549332
 31
0.0
210
0.0
220
0.0
230
1.0
 40
0.4942961821532213
 41
1.80688865995302
 42
4.942230549664996
  0
ELLIPSE
  5
2EB7
330
1F
100
AcDbEntity
  8
AM_0
 48
0.5
100
AcDbEllipse
 10
-1.415220911579969
 20
-1.250948600361649
 30
0.0
 11
-0.6843857110689962
 21
0.4021050662812298
 31
0.0
210
0.0
220
0.0
230
1.0
 40
0.50258999287682
 41
4.489934822711171
 42
7.633375164040684
  0
ELLIPSE
  5
2EB8
330
1F
100
AcDbEntity
  8
AM_0
 48
0.5
100
AcDbEllipse
 10
2.852144195194639
 20
5.762695808818153
 30
0.0
 11
-9.897115885914697
 21
9.222562469546334
 31
0.0
210
0.0
220
0.0
230
1.0
 40
0.7098657064295032
 41
1.355549632461241
 42
1.658191652436328
  0
ELLIPSE
  5
2EB9
330
1F
100
AcDbEntity
  8
AM_0
 48
0.5
100
AcDbEllipse
 10
4.755094354391799
 20
-1.281910681917342
 30
0.0
 11
4.051754890113339
 21
6.463552418250071
 31
0.0
210
0.0
220
0.0
230
1.0
 40
0.993802779656564
 41
2.227799909067405
 42
2.608169717387961
  0
LINE
  5
2F04
330
1F
100
AcDbEntity
  8
AM_0
 48
0.5
100
AcDbLine
 10
-40.90212090070852
 20
2.40567810714961
 30
0.0
 11
-51.99999999999999
 21
-0.2701388079912637
 31
0.0
  0
LINE
  5
2F05
330
1F
100
AcDbEntity
  8
AM_0
 48
0.5
100
AcDbLine
 10
-38.28868677123298
 20
-4.800008658732441
 30
0.0
 11
-20.46219993751387
 21
-4.800008658954211
 31
0.0
  0
LINE
  5
2F06
330
1F
100
AcDbEntity
  8
AM_0
 48
0.5
100
AcDbLine
 10
-51.6545333609535
 20
-4.800003628862336
 30
0.0
 11
-50.28262496847963
 21
-4.799999581335981
 31
0.0
  0
LINE
  5
2F08
330
1F
100
AcDbEntity
  8
AM_11
 48
0.5
100
AcDbLine
 10
-50.28437288222066
 20
-4.799999586492832
 30
0.0
 11
-38.28868677123298
 21
-4.800008658732441
 31
0.0
  0
LINE
  5
2F09
330
1F
100
AcDbEntity
  8
AM_11
 48
0.5
100
AcDbLine
 10
-20.46219993751387
 20
-4.800008658954211
 30
0.0
 11
-4.680396727121229
 21
-4.79999950368151
 31
0.0
  0
SPLINE
  5
2F0A
330
1F
100
AcDbEntity
  8
AM_0
 48
0.5
100
AcDbSpline
210
0.0
220
0.0
230
1.0
 70
     8
 71
     3
 72
    26
 73
    22
 74
     0
 42
0.0000000001
 43
0.0000000001
 40
0.0
 40
0.0
 40
0.0
 40
0.0
 40
0.8422864037471089
 40
1.685694647057321
 40
2.531315797913884
 40
3.380177287502886
 40
4.233214169721234
 40
5.09125020057522
 40
5.954967768899448
 40
6.824900391836836
 40
7.701419186604396
 40
8.584724417931369
 40
9.47485577056355
 40
10.37165251267315
 40
11.27486274211709
 40
12.18400675634887
 40
13.09851504074504
 40
14.01768673654235
 40
14.94071745659532
 40
15.8667176994736
 40
16.76607142455336
 40
16.76607142455336
 40
16.76607142455336
 40
16.76607142455336
 10
-35.92043255650762
 20
-4.800244140623979
 30
0.0
 10
-36.19957780171024
 20
-4.797388257035533
 30
0.0
 10
-36.75824008510481
 20
-4.791672686113028
 30
0.0
 10
-37.596030201737
 20
-4.745598764065026
 30
0.0
 10
-38.43378455869988
 20
-4.672353273975887
 30
0.0
 10
-39.27148705772281
 20
-4.56969689703
 30
0.0
 10
-40.10912938350453
 20
-4.439020985352012
 30
0.0
 10
-40.94669484696055
 20
-4.280906025577174
 30
0.0
 10
-41.78418289089584
 20
-4.096420303722732
 30
0.0
 10
-42.62158780366037
 20
-3.886684293148783
 30
0.0
 10
-43.45890760554791
 20
-3.652999370757952
 30
0.0
 10
-44.29614918773167
 20
-3.396820010944388
 30
0.0
 10
-45.13330908095595
 20
-3.119728038679585
 30
0.0
 10
-45.97039677047811
 20
-2.823423204832955
 30
0.0
 10
-46.80742344873737
 20
-2.509762121352688
 30
0.0
 10
-47.64439092423408
 20
-2.180647537202708
 30
0.0
 10
-48.48130543612096
 20
-1.838124165958715
 30
0.0
 10
-49.31818235334819
 20
-1.484305302869995
 30
0.0
 10
-50.15500784559574
 20
-1.121321790726667
 30
0.0
 10
-50.98323732193375
 20
-0.7553974930099959
 30
0.0
 10
-51.53197051124156
 20
-0.5095669829959037
 30
0.0
 10
-51.99999999999999
 20
-0.2743223154799746
 30
0.0
  0
ELLIPSE
  5
2F0B
330
1F
100
AcDbEntity
  8
AM_0
 48
0.5
100
AcDbEllipse
 10
-50.34312805020491
 20
-3.200244140623409
 30
0.0
 11
-1.516987067677522
 21
0.7122691950694109
 31
0.0
210
0.0
220
0.0
230
1.0
 40
0.9443120202951519
 41
0.4726675369721858
 42
2.024283845422544
  0
ELLIPSE
  5
2F0C
330
1F
100
AcDbEntity
  8
AM_0
 48
0.5
100
AcDbEllipse
 10
-50.71146020654968
 20
-3.222677721722416
 30
0.0
 11
1.187415819057954
 21
0.5471416616240214
 31
0.0
210
0.0
220
0.0
230
0.9999999999999998
 40
0.9261236948016602
 41
0.8480547607409185
 42
2.676300943002718
  0
SPLINE
  5
2F0D
330
1F
100
AcDbEntity
  8
AM_0
100
AcDbSpline
210
0.0
220
0.0
230
1.0
 70
     8
 71
     3
 72
    22
 73
    18
 74
     0
 42
0.0000000001
 43
0.0000000001
 40
17.17441611292
 40
17.17441611292
 40
17.17441611292
 40
17.17441611292
 40
17.38177636558528
 40
18.41823744757437
 40
19.46215659509824
 40
20.51397914882054
 40
21.57394542641293
 40
22.64209583141747
 40
23.71826625065247
 40
24.80210429862395
 40
25.8930771157021
 40
26.99048705697709
 40
28.09349309193389
 40
29.20112995599786
 40
30.31233024745139
 40
31.42594771747373
 40
32.5407895042663
 40
32.54078950426994
 40
32.54078950426994
 40
32.54078950426994
 10
-23.65986446373268
 20
-4.310434244396204
 30
0.0
 10
-23.71596408313512
 20
-4.299322715188698
 30
0.0
 10
-24.05225066366615
 20
-4.231641176265694
 30
0.0
 10
-24.66830872952565
 20
-4.095930881776655
 30
0.0
 10
-25.50571370869605
 20
-3.886195767067577
 30
0.0
 10
-26.34303335805688
 20
-3.652510234766879
 30
0.0
 10
-27.18027358903791
 20
-3.396333007910235
 30
0.0
 10
-28.01743329570305
 20
-3.119234831661061
 30
0.0
 10
-28.85452278251753
 20
-2.822940216015733
 30
0.0
 10
-29.69154592544098
 20
-2.509270092348995
 30
0.0
 10
-30.52851046892785
 20
-2.180158847126369
 30
0.0
 10
-31.36542571949316
 20
-1.837636888268344
 30
0.0
 10
-32.20229894105647
 20
-1.483810393658051
 30
0.0
 10
-33.03913855809967
 20
-1.120856163679828
 30
0.0
 10
-33.87595198847761
 20
-0.7510059560074826
 30
0.0
 10
-34.71275162885359
 20
-0.3765419463293432
 30
0.0
 10
-35.27050855327204
 20
-0.1253968782162421
 30
0.0
 10
-35.54954023532399
 20
0.0002446369453935
 30
0.0
  0
SPLINE
  5
2F0E
330
1F
100
AcDbEntity
  8
AM_0
 48
0.5
100
AcDbSpline
210
0.0
220
0.0
230
1.0
 70
     8
 71
     3
 72
    22
 73
    18
 74
     0
 42
0.0000000001
 43
0.0000000001
 40
0.0
 40
0.0
 40
0.0
 40
0.0
 40
1.010743684496582
 40
2.022833993863546
 40
3.037578683882831
 40
4.056212471389632
 40
5.079857945358201
 40
6.109499720892564
 40
7.145961650132166
 40
8.189873411961459
 40
9.241710626092514
 40
10.30166235592959
 40
11.36982472628033
 40
12.44598212828784
 40
13.52983440361964
 40
14.62080578343036
 40
14.90544694398022
 40
14.90544694398022
 40
14.90544694398022
 40
14.90544694398022
 10
-38.288686771233
 20
-4.800008658732441
 30
0.0
 10
-38.54482090978374
 20
-4.797389110112033
 30
0.0
 10
-39.10348341513724
 20
-4.791675245299966
 30
0.0
 10
-39.9412726544277
 20
-4.745588490702601
 30
0.0
 10
-40.77902791600244
 20
-4.672355324612846
 30
0.0
 10
-41.61673086770437
 20
-4.569698879874696
 30
0.0
 10
-42.45437088478953
 20
-4.439010675756283
 30
0.0
 10
-43.2919392287466
 20
-4.280909386914446
 30
0.0
 10
-44.12942362622656
 20
-4.096416961038522
 30
0.0
 10
-44.96682983606442
 20
-3.886677913917117
 30
0.0
 10
-45.80415031618477
 20
-3.653001821096856
 30
0.0
 10
-46.64138944234223
 20
-3.396810861600725
 30
0.0
 10
-47.47855261165287
 20
-3.119735295635924
 30
0.0
 10
-48.31563919530894
 20
-2.823422325712621
 30
0.0
 10
-49.15266487514129
 20
-2.509759599605917
 30
0.0
 10
-49.78174816859565
 20
-2.262402603019008
 30
0.0
 10
-50.05768845916769
 20
-2.121021294846695
 30
0.0
 10
-50.30113793795012
 20
-2.036009405450277
 30
0.0
  0
SPLINE
  5
2F0F
330
1F
100
AcDbEntity
  8
AM_0
100
AcDbSpline
210
0.0
220
0.0
230
1.0
 70
     8
 71
     3
 72
    11
 73
     7
 74
     0
 42
0.0000000001
 43
0.0000000001
 40
11.27226913003534
 40
11.27226913003534
 40
11.27226913003534
 40
11.2722691300354
 40
12.28301561507924
 40
13.29510212255852
 40
14.30984805882082
 40
15.18258238371378
 40
15.18258238371378
 40
15.18258238371378
 40
15.18258238371378
 10
-20.46219993751392
 20
-4.800008658954211
 30
0.0
 10
-20.7402889749097
 20
-4.776506908809949
 30
0.0
 10
-21.29593204369882
 20
-4.719632359066971
 30
0.0
 10
-22.12652740966204
 20
-4.604902324348882
 30
0.0
 10
-22.91477705763806
 20
-4.467869877535817
 30
0.0
 10
-23.42457066062288
 20
-4.362528957323376
 30
0.0
 10
-23.65949806923787
 20
-4.310493452359499
 30
0.0
  0
SPLINE
  5
2F10
330
1F
100
AcDbEntity
  8
AM_0
100
AcDbSpline
210
0.0
220
0.0
230
1.0
 70
     8
 71
     3
 72
    17
 73
    13
 74
     0
 42
0.0000000001
 43
0.0000000001
 40
1.580019955310467
 40
1.580019955310467
 40
1.580019955310467
 40
1.580019955310467
 40
2.030549285115227
 40
3.082371838836284
 40
4.126290986361125
 40
5.162752068350215
 40
6.192395305374981
 40
7.216039564037012
 40
8.234688489606833
 40
9.249433870634691
 40
10.26152376260694
 40
11.27226744710342
 40
11.27226744710342
 40
11.27226744710342
 40
11.27226744710352
 10
-12.57068531047009
 20
-3.542540847314911
 30
0.0
 10
-12.68921862805677
 20
-3.579026080230991
 30
0.0
 10
-13.08515973150991
 20
-3.698611304412898
 30
0.0
 10
-13.761129384389
 20
-3.886185007375784
 30
0.0
 10
-14.59841779870227
 20
-4.096242671340407
 30
0.0
 10
-15.4359367177321
 20
-4.28064541059969
 30
0.0
 10
-16.27349401158642
 20
-4.438773959310124
 30
0.0
 10
-17.11114255580682
 20
-4.569478082771891
 30
0.0
 10
-17.9488489707615
 20
-4.67201191018495
 30
0.0
 10
-18.78660754802335
 20
-4.745710988039429
 30
0.0
 10
-19.62439764739054
 20
-4.790100906812345
 30
0.0
 10
-20.18305993957146
 20
-4.799999531146726
 30
0.0
 10
-20.46219993751387
 20
-4.800008658954211
 30
0.0
  0
SPLINE
  5
2F11
330
1F
100
AcDbEntity
  8
AM_0
100
AcDbSpline
210
0.0
220
0.0
230
1.0
 70
     8
 71
     3
 72
    13
 73
     9
 74
     0
 42
0.0000000001
 43
0.0000000001
 40
16.03460056234195
 40
16.03460056234195
 40
16.03460056234195
 40
16.03460056234195
 40
16.35212717791071
 40
17.38177067057215
 40
18.41822498539278
 40
19.46214186516937
 40
20.5139635832251
 40
21.34083983469381
 40
21.34083983469381
 40
21.34083983469381
 40
21.34083983469381
 10
-50.28315180923342
 20
-4.800009363683059
 30
0.0
 10
-49.89417516333707
 20
-4.792794574554169
 30
0.0
 10
-49.54376730972265
 20
-4.713915475896716
 30
0.0
 10
-48.90114446274494
 20
-4.575655135160155
 30
0.0
 10
-48.0689456352474
 20
-4.370066490837234
 30
0.0
 10
-47.23751992615852
 20
-4.139223916970385
 30
0.0
 10
-46.46817763173483
 20
-3.903282087745147
 30
0.0
 10
-45.9773507959369
 20
-3.740819347215065
 30
0.0
 10
-45.76202800480394
 20
-3.667384708134706
 30
0.0
  0
LINE
  5
2F12
330
1F
100
AcDbEntity
  8
AM_0
 48
0.5
100
AcDbLine
 10
-38.17038563078692
 20
4.800000496319894
 30
0.0
 11
-20.46220518105739
 21
4.800000496319148
 31
0.0
  0
LINE
  5
2F13
330
1F
100
AcDbEntity
  8
AM_0
 48
0.5
100
AcDbLine
 10
-48.24171714343047
 20
4.800094833591207
 30
0.0
 11
-51.65461390769763
 21
4.800034790691908
 31
0.0
  0
LINE
  5
2F14
330
1F
100
AcDbEntity
  8
AM_11
 48
0.5
100
AcDbLine
 10
-48.24171714343044
 20
4.800682423431279
 30
0.0
 11
-38.17037203800811
 21
4.800000496319894
 31
0.0
  0
LINE
  5
2F15
330
1F
100
AcDbEntity
  8
AM_11
 48
0.5
100
AcDbLine
 10
-20.46220518105739
 20
4.800000496319148
 30
0.0
 11
-4.680396727120811
 21
4.800000496318492
 31
0.0
  0
SPLINE
  5
2F16
330
1F
100
AcDbEntity
  8
AM_0
 48
0.5
100
AcDbSpline
210
0.0
220
0.0
230
1.0
 70
     8
 71
     3
 72
    17
 73
    13
 74
     0
 42
0.0000000001
 43
0.0000000001
 40
0.0
 40
0.0
 40
0.0
 40
0.0
 40
1.010743614677189
 40
2.022833924044153
 40
3.037578959561199
 40
4.056212747067873
 40
5.079857613375832
 40
6.109500119648989
 40
7.14596120163808
 40
8.18989512056258
 40
9.241717674284874
 40
9.693948937866434
 40
9.693948937866434
 40
9.693948937866434
 40
9.693948937866434
 10
-4.680396727120811
 20
4.800000496318492
 30
0.0
 10
-4.959542023090961
 20
4.797146670694284
 30
0.0
 10
-5.518204542671801
 20
4.791435217065405
 30
0.0
 10
-6.355993954009295
 20
4.745348689201327
 30
0.0
 10
-7.193748874043028
 20
4.672110944439431
 30
0.0
 10
-8.031451692850275
 20
4.569454392867146
 30
0.0
 10
-8.869092433633163
 20
4.438771292957464
 30
0.0
 10
-9.706660865438081
 20
4.280667538331116
 30
0.0
 10
-10.54414574668898
 20
4.096160895143401
 30
0.0
 10
-11.38157957516103
 20
3.886493509634109
 30
0.0
 10
-12.05757799866053
 20
3.697614888935859
 30
0.0
 10
-12.45456390745689
 20
3.57953858906531
 30
0.0
 10
-12.57371777872025
 20
3.543396224112383
 30
0.0
  0
SPLINE
  5
2F17
330
1F
100
AcDbEntity
  8
AM_0
 48
0.5
100
AcDbSpline
210
0.0
220
0.0
230
1.0
 70
     8
 71
     3
 72
    16
 73
    12
 74
     0
 42
0.0000000001
 43
0.0000000001
 40
0.0
 40
0.0
 40
0.0
 40
0.0
 40
1.010743614677189
 40
2.022833924044153
 40
3.037578959561199
 40
4.056212747067873
 40
5.079857613375832
 40
6.109500119648989
 40
7.14596120163808
 40
8.18989512056258
 40
8.545190612624931
 40
8.545190612624931
 40
8.545190612624931
 40
8.545190612624931
 10
-4.680396727120811
 20
4.800000496318492
 30
0.0
 10
-4.959526504429893
 20
4.799971652402032
 30
0.0
 10
-5.518211756209697
 20
4.790122472417792
 30
0.0
 10
-6.355992007820623
 20
4.745701595703286
 30
0.0
 10
-7.19374942396323
 20
4.672015961773389
 30
0.0
 10
-8.031451447859312
 20
4.56947975592616
 30
0.0
 10
-8.869092863264947
 20
4.43876542857951
 30
0.0
 10
-9.706659380400811
 20
4.280665401707781
 30
0.0
 10
-10.54415130962141
 20
4.096175510703568
 30
0.0
 10
-11.195340101107
 20
3.933077291015794
 30
0.0
 10
-11.56754630014974
 20
3.832767847612254
 30
0.0
 10
-11.66193571349501
 20
3.806882267695775
 30
0.0
  0
SPLINE
  5
2F18
330
1F
100
AcDbEntity
  8
AM_0
 48
0.5
100
AcDbSpline
210
0.0
220
0.0
230
1.0
 70
     8
 71
     3
 72
    25
 73
    21
 74
     0
 42
0.0000000001
 43
0.0000000001
 40
6.846175049578289
 40
6.846175049578289
 40
6.846175049578289
 40
6.846175049578289
 40
7.604337694224321
 40
8.711974558287883
 40
9.814980593243754
 40
10.91239053451967
 40
12.0033633515982
 40
13.08720139956839
 40
14.16337181880432
 40
15.23152222380919
 40
16.29148850140128
 40
17.34331105512262
 40
18.38723020264746
 40
19.42369128463655
 40
20.45333379090873
 40
21.47697865721768
 40
22.49561244472435
 40
23.5103574802404
 40
24.52244778960836
 40
25.53320666051913
 40
25.53320666051913
 40
25.53320666051913
 40
25.53320666051913
 10
-5.657470870702369
 20
0.8688319212025533
 30
0.0
 10
-5.847788106828973
 20
0.9531113844339902
 30
0.0
 10
-6.31654962664438
 20
1.159675471598438
 30
0.0
 10
-7.064452059616622
 20
1.484055447953856
 30
0.0
 10
-7.901325235444025
 20
1.837882042545626
 30
0.0
 10
-8.738240498166973
 20
2.180403974780222
 30
0.0
 10
-9.575205038447274
 20
2.509515227196085
 30
0.0
 10
-10.41222818213543
 20
2.823185348510165
 30
0.0
 10
-11.24931766906633
 20
3.119479966415793
 30
0.0
 10
-12.08647737452347
 20
3.396578136024927
 30
0.0
 10
-12.92371761016677
 20
3.652755386933067
 30
0.0
 10
-13.76103724227301
 20
3.88644083061269
 30
0.0
 10
-14.59844228513344
 20
4.096176272341973
 30
0.0
 10
-15.43592978350711
 20
4.280663692172306
 30
0.0
 10
-16.27349646574462
 20
4.438772314214689
 30
0.0
 10
-17.11113767118104
 20
4.56945412118555
 30
0.0
 10
-17.94884036645553
 20
4.672111017391478
 30
0.0
 10
-18.78659531923424
 20
4.745348667485171
 30
0.0
 10
-19.62438893022984
 20
4.791435462734571
 30
0.0
 10
-20.18305566885028
 20
4.797146738177305
 30
0.0
 10
-20.46220518105739
 20
4.800000496319148
 30
0.0
  0
SPLINE
  5
2F19
330
1F
100
AcDbEntity
  8
AM_0
100
AcDbSpline
210
0.0
220
0.0
230
1.0
 70
     8
 71
     3
 72
    46
 73
    42
 74
     0
 42
0.0000000001
 43
0.0000000001
 40
0.0
 40
0.0
 40
0.0
 40
0.0
 40
1.685415058684571
 40
2.531036209541119
 40
3.379897699130121
 40
4.232934581347655
 40
5.090970612202441
 40
5.954688180526682
 40
6.824620803463246
 40
7.701151815239689
 40
8.584457046566678
 40
9.474582384070741
 40
10.37139106676737
 40
11.27458944007583
 40
12.18373345430765
 40
13.09824173870457
 40
14.01741343450111
 40
14.9404441545541
 40
15.86644439743314
 40
16.79446029130534
 40
17.7234937712985
 40
18.65252725129241
 40
19.58054314516461
 40
20.50654338804289
 40
21.42957410809586
 40
22.34874580389317
 40
23.26325408828901
 40
24.17239810252111
 40
25.07560240389441
 40
25.97241108659103
 40
26.8625364240951
 40
27.74584165542183
 40
28.62236045019041
 40
29.49229307312697
 40
30.35601064145121
 40
31.21404606334468
 40
32.06708345193547
 40
32.91595755657689
 40
33.76157841950693
 40
34.60498701064689
 40
35.44727335621125
 40
35.44727335621125
 40
35.44727335621125
 40
35.44727335621125
 10
-2.335153672354029
 20
-4.799999503681616
 30
0.0
 10
-2.893843251029977
 20
-4.789064732637196
 30
0.0
 10
-3.7328434404704
 20
-4.772643672843149
 30
0.0
 10
-4.848498579688391
 20
-4.671542224400535
 30
0.0
 10
-5.68621008619884
 20
-4.569605070192907
 30
0.0
 10
-6.523849988317569
 20
-4.438735079835074
 30
0.0
 10
-7.361416079414258
 20
-4.280672478991096
 30
0.0
 10
-8.198904056747641
 20
-4.096172941549811
 30
0.0
 10
-9.036312517651195
 20
-3.886438364878024
 30
0.0
 10
-9.873637735361471
 20
-3.652756550323882
 30
0.0
 10
-10.71088138349078
 20
-3.396576879160633
 30
0.0
 10
-11.54804121010829
 20
-3.119479045192834
 30
0.0
 10
-12.38513066463447
 20
-2.823184337247792
 30
0.0
 10
-13.22215381549147
 20
-2.509514236888696
 30
0.0
 10
-14.05911835988773
 20
-2.180402991727186
 30
0.0
 10
-14.89603359870141
 20
-1.837881008878
 30
0.0
 10
-15.73290686669999
 20
-1.484054610889834
 30
0.0
 10
-16.56974630877191
 20
-1.121100016364652
 30
0.0
 10
-17.40656079780082
 20
-0.7512509981550835
 30
0.0
 10
-18.24335797814169
 20
-0.3767818677420468
 30
0.0
 10
-19.08014812421776
 20
0.0000004962428536
 30
0.0
 10
-19.91693827011
 20
0.376782860685621
 30
0.0
 10
-20.75373545100227
 20
0.751251989725727
 30
0.0
 10
-21.59054993801572
 20
1.121101012952745
 30
0.0
 10
-22.42738938756109
 20
1.484055588870033
 30
0.0
 10
-23.26426262784881
 20
1.837882055854385
 30
0.0
 10
-24.10117796928528
 20
2.180403783186427
 30
0.0
 10
-24.93814395360647
 20
2.509516688982031
 30
0.0
 10
-25.77517035673162
 20
2.823183939489259
 30
0.0
 10
-26.61226130449713
 20
3.119480166732093
 30
0.0
 10
-27.44942111162315
 20
3.396578083151243
 30
0.0
 10
-28.28666132045066
 20
3.652755400242244
 30
0.0
 10
-29.12398095923521
 20
3.886440829656106
 30
0.0
 10
-29.96138600189359
 20
4.096176263116589
 30
0.0
 10
-30.79887349453293
 20
4.280663729629532
 30
0.0
 10
-31.63644019968183
 20
4.438772174856382
 30
0.0
 10
-32.47408544768303
 20
4.569455281189884
 30
0.0
 10
-33.31179263767846
 20
4.672110053973095
 30
0.0
 10
-34.14955165621003
 20
4.745348828951887
 30
0.0
 10
-34.98734108477085
 20
4.791435182221579
 30
0.0
 10
-35.54600360205989
 20
4.797146659085711
 30
0.0
 10
-35.82514889688478
 20
4.800000496319793
 30
0.0
  0
SPLINE
  5
2F1A
330
1F
100
AcDbEntity
  8
AM_0
100
AcDbSpline
210
0.0
220
0.0
230
1.0
 70
     8
 71
     3
 72
    23
 73
    19
 74
     0
 42
0.0000000001
 43
0.0000000001
 40
16.03460024169435
 40
16.03460024169435
 40
16.03460024169435
 40
16.03460024169435
 40
16.35212704903564
 40
17.38177054169784
 40
18.41822485651776
 40
19.46214173629503
 40
20.51396345435107
 40
21.57393551351153
 40
22.64208202342361
 40
23.7182574881101
 40
24.80209208578934
 40
25.89306333925047
 40
26.99048218457928
 40
28.09348763352352
 40
29.20111863782268
 40
30.31232390128032
 40
31.42594612798585
 40
32.5407912310448
 40
32.5407912310486
 40
32.5407912310486
 40
32.5407912310486
 10
-48.24171714343044
 20
4.800682423431278
 30
0.0
 10
-48.15564450493017
 20
4.784478468709433
 30
0.0
 10
-47.79083084128692
 20
4.713914806598687
 30
0.0
 10
-47.1482076440054
 20
4.575656080065176
 30
0.0
 10
-46.31600892123631
 20
4.370066865692542
 30
0.0
 10
-45.48458318378489
 20
4.139224446204739
 30
0.0
 10
-44.65388130204131
 20
3.884464819783844
 30
0.0
 10
-43.82387379292358
 20
3.607208277050474
 30
0.0
 10
-42.99451268398692
 20
3.309039733325618
 30
0.0
 10
-42.16574022167599
 20
2.991694454742427
 30
0.0
 10
-41.33750931216285
 20
2.656969549111102
 30
0.0
 10
-40.50975355317223
 20
2.306812702664864
 30
0.0
 10
-39.68240586435638
 20
1.943259178279948
 30
0.0
 10
-38.85541112189851
 20
1.568399256310157
 30
0.0
 10
-38.02870013215304
 20
1.184412695866774
 30
0.0
 10
-37.20219632417353
 20
0.79354169674832
 30
0.0
 10
-36.37583239721908
 20
0.3980512505505529
 30
0.0
 10
-35.82507108662446
 20
0.1328965315690404
 30
0.0
 10
-35.5495402353203
 20
0.0002446369436689
 30
0.0
  0
SPLINE
  5
2F1B
330
1F
100
AcDbEntity
  8
AM_0
100
AcDbSpline
210
0.0
220
0.0
230
1.0
 70
     8
 71
     3
 72
    55
 73
    51
 74
     0
 42
0.0000000001
 43
0.0000000001
 40
0.0
 40
0.0
 40
0.0
 40
0.0
 40
1.010743684496582
 40
2.022833576467832
 40
3.037578957496688
 40
4.056212745003489
 40
5.079857003664532
 40
6.109500240690281
 40
7.145961322679372
 40
8.189895241603872
 40
9.241717795325891
 40
10.30168407291828
 40
11.36983447792315
 40
12.44600489715814
 40
13.52984294512926
 40
14.62081576220742
 40
15.7182257034828
 40
16.82123173843959
 40
17.92886860250316
 40
19.0400688939571
 40
20.15368796660465
 40
21.26852814259644
 40
22.38336992938901
 40
23.49698739941135
 40
24.6081876908653
 40
25.71582455492886
 40
26.81883757994213
 40
27.91624752121713
 40
29.00722033829659
 40
30.09105838626677
 40
31.16722880550176
 40
32.23537921050758
 40
33.29534548809967
 40
34.347168041821
 40
35.39108718934584
 40
36.42754827133493
 40
37.45720575381954
 40
38.48085062012849
 40
39.49948440763516
 40
40.51422944315121
 40
41.52631975251916
 40
42.53706336719636
 40
43.54780698187354
 40
44.55989729124051
 40
45.57464232675757
 40
46.59327611426424
 40
47.6169209805722
 40
48.64656348684535
 40
49.68302456883444
 40
50.58557219878025
 40
50.58557219878025
 40
50.58557219878025
 40
50.58557219878025
 10
-4.680396727121229
 20
-4.799999503681511
 30
0.0
 10
-4.95954197229028
 20
-4.797143619968609
 30
0.0
 10
-5.518204255617384
 20
-4.791428048797064
 30
0.0
 10
-6.355994372754557
 20
-4.745354128620485
 30
0.0
 10
-7.193748727790483
 20
-4.672108631390495
 30
0.0
 10
-8.031451234056657
 20
-4.569452281286662
 30
0.0
 10
-8.869093532600759
 20
-4.438776268671686
 30
0.0
 10
-9.706659098613059
 20
-4.280661688949042
 30
0.0
 10
-10.54415073371326
 20
-4.096173658284542
 30
0.0
 10
-11.3815610110431
 20
-3.88644189310723
 30
0.0
 10
-12.21888422631238
 20
-3.652754133732132
 30
0.0
 10
-13.05612455311445
 20
-3.396577214068238
 30
0.0
 10
-13.89328423374586
 20
-3.119478954426222
 30
0.0
 10
-14.73037372784625
 20
-2.823184361860118
 30
0.0
 10
-15.56739686792317
 20
-2.509514230124229
 30
0.0
 10
-16.40436141547275
 20
-2.180402993943551
 30
0.0
 10
-17.24127665254509
 20
-1.837881006821951
 30
0.0
 10
-18.07814992435521
 20
-1.484054616921171
 30
0.0
 10
-18.91498935285351
 20
-1.121099994180958
 30
0.0
 10
-19.75180389257749
 20
-0.7512510811831207
 30
0.0
 10
-20.5886008831872
 20
-0.3767815570501799
 30
0.0
 10
-21.4253921415524
 20
-0.0000004830551741
 30
0.0
 10
-22.26217964342502
 20
0.3767873732339765
 30
0.0
 10
-23.09897943879584
 20
0.7512510658859315
 30
0.0
 10
-23.93579294546106
 20
1.121101098395374
 30
0.0
 10
-24.7726338660348
 20
1.484057103830923
 30
0.0
 10
-25.60951060959669
 20
1.837880474115159
 30
0.0
 10
-26.44642716754237
 20
2.180404198299813
 30
0.0
 10
-27.28339183592181
 20
2.509515167605208
 30
0.0
 10
-28.12041494554213
 20
2.823185365304747
 30
0.0
 10
-28.957504441786
 20
3.119479958304275
 30
0.0
 10
-29.79466414374051
 20
3.396578151687919
 30
0.0
 10
-30.63190438413021
 20
3.652755332932017
 30
0.0
 10
-31.46922400089192
 20
3.886441028847188
 30
0.0
 10
-32.3066290998064
 20
4.096175540987355
 30
0.0
 10
-33.14412042424069
 20
4.280667281474054
 30
0.0
 10
-33.98169197075182
 20
4.438763802316837
 30
0.0
 10
-34.81933703662935
 20
4.569480261920158
 30
0.0
 10
-35.65703979122804
 20
4.672014926171076
 30
0.0
 10
-36.49479472836115
 20
4.745705216623641
 30
0.0
 10
-37.33258413515215
 20
4.790109063871792
 30
0.0
 10
-38.1703919518573
 20
4.804942919956254
 30
0.0
 10
-39.0081997673297
 20
4.790109063848603
 30
0.0
 10
-39.84598917782601
 20
4.745705216717074
 30
0.0
 10
-40.68374410131716
 20
4.672014925819625
 30
0.0
 10
-41.5214469070629
 20
4.569480263241748
 30
0.0
 10
-42.35908769697991
 20
4.43876443461234
 30
0.0
 10
-43.19665594377798
 20
4.280668897925917
 30
0.0
 10
-43.99606835519072
 20
4.104550297981548
 30
0.0
 10
-44.51473623168265
 20
3.975753100874483
 30
0.0
 10
-44.75536789622465
 20
3.912983943618559
 30
0.0
  0
LINE
  5
2F1D
330
1F
100
AcDbEntity
  8
AM_0
100
AcDbLine
 10
-51.6545333609535
 20
-4.12384892214557
 30
0.0
 11
-51.6545333609535
 21
-4.800530802619558
 31
0.0
  0
LINE
  5
2F1E
330
1F
100
AcDbEntity
  8
AM_0
100
AcDbLine
 10
-51.6545333609535
 20
-0.444900786670113
 30
0.0
 11
-51.6545333609535
 21
-2.437585566406943
 31
0.0
  0
VIEWPORT
  5
110
330
101
100
AcDbEntity
 67
     1
  8
0
100
AcDbViewport
 10
420.5
 20
297.0
 30
0.0
 40
948.9782706766916
 41
628.452
 68
     1
 69
     1
1001
ACAD
1000
MVIEW
1002
{
1070
    16
1010
0.0
1020
0.0
1030
0.0
1010
0.0
1020
0.0
1030
1.0
1040
0.0
1040
628.452
1040
420.5
1040
297.0
1040
50.0
1040
0.0
1040
0.0
1070
     0
1070
   100
1070
     1
1070
     1
1070
     0
1070
     0
1070
     0
1070
     0
1040
0.0
1040
0.0
1040
0.0
1040
10.0
1040
10.0
1040
10.0
1040
10.0
1070
     0
1002
{
1002
}
1002
}
  0
ENDSEC
  0
SECTION
  2
OBJECTS
  0
DICTIONARY
  5
C
330
0
100
AcDbDictionary
  3
ACAD_GROUP
350
D
  3
ACAD_LAYOUT
350
1A
  3
ACAD_MLINESTYLE
350
17
  3
ACAD_PLOTSETTINGS
350
19
  3
ACAD_PLOTSTYLENAME
350
E
  3
ACDBVARIABLEDICTIONARY
350
34
  3
ACMDICTIONARY
350
43
  3
AMG
350
2B
  3
AMGSNAPSETTINGS
350
6E
  3
DWGPROPS
350
2FA9
  3
ACDBHEADERROUNDTRIPXREC
350
2FB5
  0
DICTIONARY
  5
74
330
1F
100
AcDbDictionary
280
     1
  3
ACAD_INDEX
360
2FAB
  3
ACAD_LAYOUTSELFREF
360
2FD8
  0
DICTIONARY
  5
2FDD
330
101
100
AcDbDictionary
280
     1
  3
ACAD_LAYOUTSELFREF
360
2FDE
  0
DICTIONARY
  5
D
102
{ACAD_REACTORS
330
C
102
}
330
C
100
AcDbDictionary
  0
DICTIONARY
  5
1A
102
{ACAD_REACTORS
330
C
102
}
330
C
100
AcDbDictionary
  0
DICTIONARY
  5
17
102
{ACAD_REACTORS
330
C
102
}
330
C
100
AcDbDictionary
  3
STANDARD
350
18
  0
DICTIONARY
  5
19
102
{ACAD_REACTORS
330
C
102
}
330
C
100
AcDbDictionary
  0
ACDBDICTIONARYWDFLT
  5
E
102
{ACAD_REACTORS
330
C
102
}
330
C
100
AcDbDictionary
281
     1
  3
Normal
350
F
100
AcDbDictionaryWithDefault
340
F
  0
DICTIONARY
  5
34
102
{ACAD_REACTORS
330
C
102
}
330
C
100
AcDbDictionary
  3
INDEXCTL
350
35
  3
SORTENTS
350
B5E
  0
DICTIONARY
  5
43
102
{ACAD_REACTORS
330
C
102
}
330
C
100
AcDbDictionary
  3
ACMSTDDICTIONARY
350
260
  0
DICTIONARY
  5
2B
102
{ACAD_REACTORS
330
C
102
}
330
C
100
AcDbDictionary
  3
ACMGSETTINGS
350
2C
  0
DICTIONARY
  5
6E
102
{ACAD_REACTORS
330
C
102
}
330
C
100
AcDbDictionary
  0
XRECORD
  5
2FA9
102
{ACAD_REACTORS
330
C
102
}
330
C
100
AcDbXrecord
  1
DWGPROPS COOKIE
  2

  3

  4

  6

  7

  8

  9

300
AmdtFileType=82
301
=
302
=
303
=
304
=
305
=
306
=
307
=
308
=
309
=
 40
0.0575046875
 41
2452800.443498622
 42
2452946.618748553
  1

 90
        1
  0
DICTIONARY
  5
2FB5
102
{ACAD_REACTORS
330
C
102
}
330
C
100
AcDbDictionary
  3
TSTACKALIGN
350
2FB6
  3
TSTACKSIZE
350
2FB7
  3
HYPERLINKBASE
350
2FB8
  3
STYLESHEET
350
2FB9
  3
LAYOUTDICT
350
2FBA
  3
PLOTSETDICT
350
2FBB
  3
PLOTSTYLNAMDICT
350
2FBC
  3
LWETCUNION
350
2FBD
  3
INSUNITS
350
2FBE
  3
CEPSNTYPE
350
2FBF
  3
FINGERPRINTGUID
350
2FC0
  3
VERSIONGUID
350
2FC1
  3
PSVPSCALE
350
2FC2
  3
DIMSTYLEDATA
350
2FC3
  3
PUCSORTHOREF
350
2FC4
  3
PUCSORTHOVIEW
350
2FC5
  3
PUCSBASE
350
2FC6
  3
PUCSORGTOP
350
2FC7
  3
PUCSORGBOTTOM
350
2FC8
  3
PUCSORGLEFT
350
2FC9
  3
PUCSORGRIGHT
350
2FCA
  3
PUCSORGFRONT
350
2FCB
  3
PUCSORGBACK
350
2FCC
  3
UCSORTHOREF
350
2FCD
  3
UCSORTHOVIEW
350
2FCE
  3
UCSBASE
350
2FCF
  3
UCSORGTOP
350
2FD0
  3
UCSORGBOTTOM
350
2FD1
  3
UCSORGLEFT
350
2FD2
  3
UCSORGRIGHT
350
2FD3
  3
UCSORGFRONT
350
2FD4
  3
UCSORGBACK
350
2FD5
  0
DICTIONARY
  5
2FAB
102
{ACAD_REACTORS
330
74
102
}
330
74
100
AcDbDictionary
  3
*A1
350
2FAC
  0
XRECORD
  5
2FD8
102
{ACAD_REACTORS
330
74
102
}
330
74
100
AcDbXrecord
340
1F
  0
XRECORD
  5
2FDE
102
{ACAD_REACTORS
330
2FDD
102
}
330
2FDD
100
AcDbXrecord
340
101
  0
MLINESTYLE
  5
18
102
{ACAD_REACTORS
330
17
102
}
330
17
100
AcDbMlineStyle
  2
STANDARD
 70
     0
  3

 62
   256
 51
90.0
 52
90.0
 71
     2
 49
0.5
 62
   256
  6
BYLAYER
 49
-0.5
 62
   256
  6
BYLAYER
  0
ACDBPLACEHOLDER
  5
F
102
{ACAD_REACTORS
330
E
102
}
330
E
100
AcDbPlaceHolder
280
     0
  0
DICTIONARYVAR
  5
35
102
{ACAD_REACTORS
330
34
102
}
330
34
100
DictionaryVariables
280
     0
  1
1
  0
DICTIONARYVAR
  5
B5E
102
{ACAD_REACTORS
330
34
102
}
330
34
100
DictionaryVariables
280
     0
  1
96
  0
DICTIONARY
  5
260
102
{ACAD_REACTORS
330
43
102
}
330
43
100
AcDbDictionary
  0
DICTIONARY
  5
2C
102
{ACAD_REACTORS
330
2B
102
}
330
2B
100
AcDbDictionary
  3
DWGSETTINGS
350
2D
  0
XRECORD
  5
2FB6
102
{ACAD_REACTORS
330
2FB5
102
}
330
2FB5
100
AcDbXrecord
 90
        1
  0
XRECORD
  5
2FB7
102
{ACAD_REACTORS
330
2FB5
102
}
330
2FB5
100
AcDbXrecord
 90
       70
  0
XRECORD
  5
2FB8
102
{ACAD_REACTORS
330
2FB5
102
}
330
2FB5
100
AcDbXrecord
  1

  0
XRECORD
  5
2FB9
102
{ACAD_REACTORS
330
2FB5
102
}
330
2FB5
100
AcDbXrecord
  1
ASAMI.ctb
  0
XRECORD
  5
2FBA
102
{ACAD_REACTORS
330
2FB5
102
}
330
2FB5
100
AcDbXrecord
340
1A
  0
XRECORD
  5
2FBB
102
{ACAD_REACTORS
330
2FB5
102
}
330
2FB5
100
AcDbXrecord
340
19
  0
XRECORD
  5
2FBC
102
{ACAD_REACTORS
330
2FB5
102
}
330
2FB5
100
AcDbXrecord
340
E
  0
XRECORD
  5
2FBD
102
{ACAD_REACTORS
330
2FB5
102
}
330
2FB5
100
AcDbXrecord
 90
    10781
  0
XRECORD
  5
2FBE
102
{ACAD_REACTORS
330
2FB5
102
}
330
2FB5
100
AcDbXrecord
 90
        4
  0
XRECORD
  5
2FBF
102
{ACAD_REACTORS
330
2FB5
102
}
330
2FB5
100
AcDbXrecord
 90
        0
  0
XRECORD
  5
2FC0
102
{ACAD_REACTORS
330
2FB5
102
}
330
2FB5
100
AcDbXrecord
  1
{AFB28963-8C59-40AE-9337-C84526B81ACE}
  0
XRECORD
  5
2FC1
102
{ACAD_REACTORS
330
2FB5
102
}
330
2FB5
100
AcDbXrecord
  1
{EC3D3727-748F-4C9C-9EB7-303C978820B2}
  0
XRECORD
  5
2FC2
102
{ACAD_REACTORS
330
2FB5
102
}
330
2FB5
100
AcDbXrecord
 40
0.0
  0
XRECORD
  5
2FC3
102
{ACAD_REACTORS
330
2FB5
102
}
330
2FB5
100
AcDbXrecord
1000
DSTYLE
1002
{
1070
    79
 70
     2
1070
   341
340
59
1070
   342
340
59
1070
   371
 70
    -1
1070
   372
 70
    -1
1002
}
  0
XRECORD
  5
2FC4
102
{ACAD_REACTORS
330
2FB5
102
}
330
2FB5
100
AcDbXrecord
340
0
  0
XRECORD
  5
2FC5
102
{ACAD_REACTORS
330
2FB5
102
}
330
2FB5
100
AcDbXrecord
 70
     0
  0
XRECORD
  5
2FC6
102
{ACAD_REACTORS
330
2FB5
102
}
330
2FB5
100
AcDbXrecord
340
0
  0
XRECORD
  5
2FC7
102
{ACAD_REACTORS
330
2FB5
102
}
330
2FB5
100
AcDbXrecord
 10
0.0
 20
0.0
 30
0.0
  0
XRECORD
  5
2FC8
102
{ACAD_REACTORS
330
2FB5
102
}
330
2FB5
100
AcDbXrecord
 10
0.0
 20
0.0
 30
0.0
  0
XRECORD
  5
2FC9
102
{ACAD_REACTORS
330
2FB5
102
}
330
2FB5
100
AcDbXrecord
 10
0.0
 20
0.0
 30
0.0
  0
XRECORD
  5
2FCA
102
{ACAD_REACTORS
330
2FB5
102
}
330
2FB5
100
AcDbXrecord
 10
0.0
 20
0.0
 30
0.0
  0
XRECORD
  5
2FCB
102
{ACAD_REACTORS
330
2FB5
102
}
330
2FB5
100
AcDbXrecord
 10
0.0
 20
0.0
 30
0.0
  0
XRECORD
  5
2FCC
102
{ACAD_REACTORS
330
2FB5
102
}
330
2FB5
100
AcDbXrecord
 10
0.0
 20
0.0
 30
0.0
  0
XRECORD
  5
2FCD
102
{ACAD_REACTORS
330
2FB5
102
}
330
2FB5
100
AcDbXrecord
340
0
  0
XRECORD
  5
2FCE
102
{ACAD_REACTORS
330
2FB5
102
}
330
2FB5
100
AcDbXrecord
 70
     0
  0
XRECORD
  5
2FCF
102
{ACAD_REACTORS
330
2FB5
102
}
330
2FB5
100
AcDbXrecord
340
0
  0
XRECORD
  5
2FD0
102
{ACAD_REACTORS
330
2FB5
102
}
330
2FB5
100
AcDbXrecord
 10
0.0
 20
0.0
 30
0.0
  0
XRECORD
  5
2FD1
102
{ACAD_REACTORS
330
2FB5
102
}
330
2FB5
100
AcDbXrecord
 10
0.0
 20
0.0
 30
0.0
  0
XRECORD
  5
2FD2
102
{ACAD_REACTORS
330
2FB5
102
}
330
2FB5
100
AcDbXrecord
 10
0.0
 20
0.0
 30
0.0
  0
XRECORD
  5
2FD3
102
{ACAD_REACTORS
330
2FB5
102
}
330
2FB5
100
AcDbXrecord
 10
0.0
 20
0.0
 30
0.0
  0
XRECORD
  5
2FD4
102
{ACAD_REACTORS
330
2FB5
102
}
330
2FB5
100
AcDbXrecord
 10
0.0
 20
0.0
 30
0.0
  0
XRECORD
  5
2FD5
102
{ACAD_REACTORS
330
2FB5
102
}
330
2FB5
100
AcDbXrecord
 10
0.0
 20
0.0
 30
0.0
  0
LAYER_INDEX
  5
2FAC
102
{ACAD_REACTORS
330
2FAB
102
}
330
2FAB
100
AcDbIndex
 40
2453151.5723714
100
AcDbLayerIndex
  8
0
360
2FAD
 90
        0
  8
AM_0
360
2FAE
 90
       47
  8
AM_7
360
2FAF
 90
        1
  8
AM_11
360
2FB0
 90
       17
  8
AM_5
360
2FB1
 90
        5
  8
Defpoints
360
2FB2
 90
        0
  8
AM_6
360
2FB3
 90
        1
  0
XRECORD
  5
2D
102
{ACAD_REACTORS
330
2C
102
}
330
2C
100
AcDbXrecord
  1
VERSION
140
15.0
  1
PRODUCT
  2
AutoCAD Mechanical 2000
  0
IDBUFFER
  5
2FAD
330
0
100
AcDbIdBuffer
  0
IDBUFFER
  5
2FAE
330
0
100
AcDbIdBuffer
330
2E9A
330
2E9B
330
2E9C
330
2EAF
330
2EB4
330
2EB5
330
2EB6
330
2EB7
330
2EB8
330
2EB9
330
2F04
330
2F05
330
2F06
330
2F0A
330
2F0B
330
2F0C
330
2F0D
330
2F0E
330
2F0F
330
2F10
330
2F11
330
2F12
330
2F13
330
2F16
330
2F17
330
2F18
330
2F19
330
2F1A
330
2F1B
330
2F1D
330
2F1E
330
C1D
330
C20
330
24A7
330
24BE
330
2567
330
2568
330
2569
330
256C
330
256E
330
256F
330
2571
330
2572
330
279A
330
279D
330
2C43
330
2C44
  0
IDBUFFER
  5
2FAF
330
0
100
AcDbIdBuffer
330
23EF
  0
IDBUFFER
  5
2FB0
330
0
100
AcDbIdBuffer
330
2F15
330
24B7
330
24B8
330
24B9
330
24C7
330
24C8
330
24C9
330
24CA
330
24D4
330
24D5
330
24E6
330
24E7
330
278C
330
278D
330
2F08
330
2F09
330
2F14
  0
IDBUFFER
  5
2FB1
330
0
100
AcDbIdBuffer
330
CC6
330
2069
330
2599
330
29BA
330
2C54
  0
IDBUFFER
  5
2FB2
330
0
100
AcDbIdBuffer
  0
IDBUFFER
  5
2FB3
330
0
100
AcDbIdBuffer
330
19BD
  0
ENDSEC
  0
EOF
