  0
SECTION
  2
HEADER
  9
$ACADVER
  1
AC1014
  9
$ACADMAINTVER
 70
     9
  9
$DWGCODEPAGE
  3
ANSI_932
  9
$INSBASE
 10
0.0
 20
0.0
 30
0.0
  9
$EXTMIN
 10
-150.1500010000004
 20
-28.25000074281868
 30
-0.00000001
  9
$EXTMAX
 10
14.89237678714813
 20
14.51790221239033
 30
0.00000001
  9
$LIMMIN
 10
-154.3602888796998
 20
-42.37784611347206
  9
$LIMMAX
 10
21.29048764497105
 20
29.79619459598478
  9
$ORTHOMODE
 70
     0
  9
$REGENMODE
 70
     1
  9
$FILLMODE
 70
     1
  9
$QTEXTMODE
 70
     0
  9
$MIRRTEXT
 70
     0
  9
$DRAGMODE
 70
     2
  9
$LTSCALE
 40
1.0
  9
$OSMODE
 70
    55
  9
$ATTMODE
 70
     1
  9
$TEXTSIZE
 40
2.5
  9
$TRACEWID
 40
1.0
  9
$TEXTSTYLE
  7
STANDARD
  9
$CLAYER
  8
AM_0
  9
$CELTYPE
  6
BYLAYER
  9
$CECOLOR
 62
   256
  9
$CELTSCALE
 40
1.0
  9
$DELOBJ
 70
     1
  9
$DISPSILH
 70
     0
  9
$DIMSCALE
 40
0.5
  9
$DIMASZ
 40
2.5
  9
$DIMEXO
 40
1.0
  9
$DIMDLI
 40
12.0
  9
$DIMRND
 40
0.0
  9
$DIMDLE
 40
0.0
  9
$DIMEXE
 40
1.0
  9
$DIMTP
 40
0.1
  9
$DIMTM
 40
0.1
  9
$DIMTXT
 40
3.2
  9
$DIMCEN
 40
0.0
  9
$DIMTSZ
 40
0.0
  9
$DIMTOL
 70
     0
  9
$DIMLIM
 70
     0
  9
$DIMTIH
 70
     0
  9
$DIMTOH
 70
     0
  9
$DIMSE1
 70
     0
  9
$DIMSE2
 70
     0
  9
$DIMTAD
 70
     3
  9
$DIMZIN
 70
     8
  9
$DIMBLK
  1
OPEN30
  9
$DIMASO
 70
     1
  9
$DIMSHO
 70
     1
  9
$DIMPOST
  1

  9
$DIMAPOST
  1
"
  9
$DIMALT
 70
     0
  9
$DIMALTD
 70
     2
  9
$DIMALTF
 40
0.0393701
  9
$DIMLFAC
 40
1.0
  9
$DIMTOFL
 70
     1
  9
$DIMTVP
 40
0.0
  9
$DIMTIX
 70
     0
  9
$DIMSOXD
 70
     0
  9
$DIMSAH
 70
     0
  9
$DIMBLK1
  1

  9
$DIMBLK2
  1

  9
$DIMSTYLE
  2
AM_JIS
  9
$DIMCLRD
 70
   256
  9
$DIMCLRE
 70
   256
  9
$DIMCLRT
 70
     2
  9
$DIMTFAC
 40
0.71
  9
$DIMGAP
 40
1.5
  9
$DIMJUST
 70
     0
  9
$DIMSD1
 70
     0
  9
$DIMSD2
 70
     0
  9
$DIMTOLJ
 70
     0
  9
$DIMTZIN
 70
     0
  9
$DIMALTZ
 70
     0
  9
$DIMALTTZ
 70
     0
  9
$DIMFIT
 70
     3
  9
$DIMUPT
 70
     0
  9
$DIMUNIT
 70
     2
  9
$DIMDEC
 70
     3
  9
$DIMTDEC
 70
     3
  9
$DIMALTU
 70
     2
  9
$DIMALTTD
 70
     2
  9
$DIMTXSTY
  7
ASAMI
  9
$DIMAUNIT
 70
     0
  9
$LUNITS
 70
     2
  9
$LUPREC
 70
     2
  9
$SKETCHINC
 40
1.0
  9
$FILLETRAD
 40
2.5
  9
$AUNITS
 70
     0
  9
$AUPREC
 70
     0
  9
$MENU
  1
.
  9
$ELEVATION
 40
0.0
  9
$PELEVATION
 40
0.0
  9
$THICKNESS
 40
0.0
  9
$LIMCHECK
 70
     0
  9
$BLIPMODE
 70
     0
  9
$CHAMFERA
 40
2.5
  9
$CHAMFERB
 40
2.5
  9
$CHAMFERC
 40
20.0
  9
$CHAMFERD
 40
0.0
  9
$SKPOLY
 70
     0
  9
$TDCREATE
 40
2452800.443498622
  9
$TDUPDATE
 40
2453151.682128889
  9
$TDINDWG
 40
0.0331579167
  9
$TDUSRTIMER
 40
0.0331579167
  9
$USRTIMER
 70
     1
  9
$ANGBASE
 50
0.0
  9
$ANGDIR
 70
     0
  9
$PDMODE
 70
     0
  9
$PDSIZE
 40
0.0
  9
$PLINEWID
 40
0.0
  9
$COORDS
 70
     1
  9
$SPLFRAME
 70
     0
  9
$SPLINETYPE
 70
     6
  9
$SPLINESEGS
 70
     8
  9
$ATTDIA
 70
     1
  9
$ATTREQ
 70
     1
  9
$HANDLING
 70
 12289
  9
$HANDSEED
  5
25B0
  9
$SURFTAB1
 70
     6
  9
$SURFTAB2
 70
     6
  9
$SURFTYPE
 70
     6
  9
$SURFU
 70
     6
  9
$SURFV
 70
     6
  9
$UCSNAME
  2

  9
$UCSORG
 10
-0.0000000000004263
 20
0.0
 30
0.0
  9
$UCSXDIR
 10
1.0
 20
0.0000000000000027
 30
0.0
  9
$UCSYDIR
 10
-0.0000000000000027
 20
1.0
 30
0.0
  9
$PUCSNAME
  2

  9
$PUCSORG
 10
0.0
 20
0.0
 30
0.0
  9
$PUCSXDIR
 10
1.0
 20
0.0
 30
0.0
  9
$PUCSYDIR
 10
0.0
 20
1.0
 30
0.0
  9
$USERI1
 70
     0
  9
$USERI2
 70
     0
  9
$USERI3
 70
     0
  9
$USERI4
 70
     0
  9
$USERI5
 70
     0
  9
$USERR1
 40
0.0
  9
$USERR2
 40
0.0
  9
$USERR3
 40
0.0
  9
$USERR4
 40
0.0
  9
$USERR5
 40
0.0
  9
$WORLDVIEW
 70
     1
  9
$SHADEDGE
 70
     3
  9
$SHADEDIF
 70
    70
  9
$TILEMODE
 70
     1
  9
$MAXACTVP
 70
    64
  9
$PINSBASE
 10
0.0
 20
0.0
 30
0.0
  9
$PLIMCHECK
 70
     0
  9
$PEXTMIN
 10
1.000000000000000E+20
 20
1.000000000000000E+20
 30
1.000000000000000E+20
  9
$PEXTMAX
 10
-1.000000000000000E+20
 20
-1.000000000000000E+20
 30
-1.000000000000000E+20
  9
$PLIMMIN
 10
0.0
 20
0.0
  9
$PLIMMAX
 10
841.0
 20
594.0
  9
$UNITMODE
 70
     0
  9
$VISRETAIN
 70
     1
  9
$PLINEGEN
 70
     0
  9
$PSLTSCALE
 70
     0
  9
$TREEDEPTH
 70
  3020
  9
$PICKSTYLE
 70
     0
  9
$CMLSTYLE
  2
STANDARD
  9
$CMLJUST
 70
     0
  9
$CMLSCALE
 40
20.0
  9
$PROXYGRAPHICS
 70
     1
  9
$MEASUREMENT
 70
     1
  0
ENDSEC
  0
SECTION
  2
CLASSES
  0
CLASS
  1
ACDBDICTIONARYWDFLT
  2
AcDbDictionaryWithDefault
  3
AutoCAD 2000
 90
        0
280
     0
281
     0
  0
CLASS
  1
ACDBPLACEHOLDER
  2
AcDbPlaceHolder
  3
AutoCAD 2000
 90
        0
280
     0
281
     0
  0
CLASS
  1
LAYOUT
  2
AcDbLayout
  3
AutoCAD 2000
 90
        0
280
     0
281
     0
  0
CLASS
  1
AMGSETTINGSOBJ
  2
AmgSettingsObj
  3
"AcadM|Product Description: AutoCAD Mechanical 2000|Company: Autodesk"
 90
        0
280
     0
281
     0
  0
CLASS
  1
ACME_DOCUMENT
  2
AcMeDbDoc
  3
AcMeServices
 90
        0
280
     0
281
     0
  0
CLASS
  1
ACMESCOPE
  2
AcMeScope
  3
AcMeServices
 90
        0
280
     0
281
     0
  0
CLASS
  1
ACMECOMMANDHISTORY
  2
AcMeCommandHistory
  3
AcMeServices
 90
        0
280
     0
281
     0
  0
CLASS
  1
DICTIONARYVAR
  2
AcDbDictionaryVar
  3
AutoCAD 2000
 90
        0
280
     0
281
     0
  0
CLASS
  1
ACIMSYSVARMAN
  2
AcImSysVarManager
  3
AcMeServices
 90
        0
280
     0
281
     0
  0
CLASS
  1
ACIMREALSYSVAR
  2
AcImRealSysVar
  3
AcMeServices
 90
        0
280
     0
281
     0
  0
CLASS
  1
ACIMINTSYSVAR
  2
AcImIntSysVar
  3
AcMeServices
 90
        0
280
     0
281
     0
  0
CLASS
  1
ACMEDRAWINGMAN
  2
AcMeDrawingMan
  3
AcMeServices
 90
        0
280
     0
281
     0
  0
CLASS
  1
ACMEVIEW
  2
AcMeView
  3
AcMeServices
 90
        0
280
     0
281
     0
  0
CLASS
  1
ACDBENTITYCACHE
  2
AcMeEntityCache
  3
AcMeServices
 90
        0
280
     0
281
     0
  0
CLASS
  1
GSMANAGER
  2
AcMeGSManager
  3
AcMeServices
 90
        0
280
     0
281
     0
  0
CLASS
  1
AmdtInternalReactor
  2
AmdtInternalReactor
  3
AcMeServices
 90
        0
280
     0
281
     0
  0
CLASS
  1
ACMESTATEMGR
  2
AcMeStateMgr
  3
AcMeServices
 90
        0
280
     0
281
     0
  0
CLASS
  1
ACME_DATABASE
  2
AcMeDbDatabase
  3
AcMeServices
 90
        0
280
     0
281
     0
  0
CLASS
  1
ACRFINSADJUSTERMGR
  2
AcRfInsAdjusterMgr
  3
AcMeServices
 90
        0
280
     0
281
     0
  0
CLASS
  1
ACMDATADICTIONARY
  2
AcmDataDictionary
  3
"AcmSymBB|Product Description: AutoCAD Mechanical 2000|Company: Autodesk"
 90
        0
280
     0
281
     0
  0
CLASS
  1
ACMDATAENTRYBLOCK
  2
AcmDataEntryBlock
  3
"AcmSymBB|Product Description: AutoCAD Mechanical 2000|Company: Autodesk"
 90
        0
280
     0
281
     0
  0
CLASS
  1
AMGOBJPROPCFG
  2
AmgObjPropCfg
  3
"AmgLay|Product Description: AutoCAD Mechanical 2000|Company: Autodesk"
 90
        1
280
     0
281
     0
  0
CLASS
  1
ACAMGFILTERDAT
  2
AcAmgFilterDat
  3
"AcadM|Product Description: AutoCAD Mechanical 2000|Company: Autodesk"
 90
        0
280
     0
281
     0
  0
CLASS
  1
LAYER_INDEX
  2
AcDbLayerIndex
  3
AutoCAD 2000
 90
        0
280
     0
281
     0
  0
CLASS
  1
IDBUFFER
  2
AcDbIdBuffer
  3
AutoCAD 2000
 90
        0
280
     0
281
     0
  0
CLASS
  1
ACIMSTRSYSVAR
  2
AcImStrSysVar
  3
AcMeServices
 90
        0
280
     0
281
     0
  0
CLASS
  1
ACMSTANDARDJIS
  2
AcmStandardJIS
  3
"AcmSymBB|Product Description: AutoCAD Mechanical 2000|Company: Autodesk"
 90
        0
280
     0
281
     0
  0
CLASS
  1
ACMSURFSTANDARDJIS
  2
AcmSurfTextStdJIS
  3
"AcmSymBB|Product Description: AutoCAD Mechanical 2000|Company: Autodesk"
 90
        0
280
     0
281
     0
  0
CLASS
  1
ACMFCFSTANDARDJIS
  2
AcmFCFStdJIS
  3
"AcmSymBB|Product Description: AutoCAD Mechanical 2000|Company: Autodesk"
 90
        0
280
     0
281
     0
  0
CLASS
  1
ACMWELDSTANDARDJIS
  2
AcmWeldingStdJIS
  3
"AcmSymBB|Product Description: AutoCAD Mechanical 2000|Company: Autodesk"
 90
        0
280
     0
281
     0
  0
CLASS
  1
ACMIDSTANDARDJIS
  2
AcmIdStdJIS
  3
"AcmSymBB|Product Description: AutoCAD Mechanical 2000|Company: Autodesk"
 90
        0
280
     0
281
     0
  0
CLASS
  1
ACMDATUMSTANDARDJIS
  2
AcmDatumStdJIS
  3
"AcmSymBB|Product Description: AutoCAD Mechanical 2000|Company: Autodesk"
 90
        0
280
     0
281
     0
  0
CLASS
  1
ACMBOMSTANDARDJIS
  2
AcmBOMStdJIS
  3
"AcmSymBB|Product Description: AutoCAD Mechanical 2000|Company: Autodesk"
 90
        0
280
     0
281
     0
  0
CLASS
  1
ACMSTANDARDANSI
  2
AcmStandardANSI
  3
"AcmSymBB|Product Description: AutoCAD Mechanical 2000|Company: Autodesk"
 90
        0
280
     0
281
     0
  0
CLASS
  1
ACMSURFSTANDARDANSI
  2
AcmSurfTextStdANSI
  3
"AcmSymBB|Product Description: AutoCAD Mechanical 2000|Company: Autodesk"
 90
        0
280
     0
281
     0
  0
CLASS
  1
ACMFCFSTANDARDANSI
  2
AcmFCFStdANSI
  3
"AcmSymBB|Product Description: AutoCAD Mechanical 2000|Company: Autodesk"
 90
        0
280
     0
281
     0
  0
CLASS
  1
ACMWELDSTANDARDANSI
  2
AcmWeldingStdANSI
  3
"AcmSymBB|Product Description: AutoCAD Mechanical 2000|Company: Autodesk"
 90
        0
280
     0
281
     0
  0
CLASS
  1
ACMIDSTANDARDANSI
  2
AcmIdStdANSI
  3
"AcmSymBB|Product Description: AutoCAD Mechanical 2000|Company: Autodesk"
 90
        0
280
     0
281
     0
  0
CLASS
  1
ACMDATUMSTANDARDANSI
  2
AcmDatumStdANSI
  3
"AcmSymBB|Product Description: AutoCAD Mechanical 2000|Company: Autodesk"
 90
        0
280
     0
281
     0
  0
CLASS
  1
ACMBOMSTANDARDANSI
  2
AcmBOMStdANSI
  3
"AcmSymBB|Product Description: AutoCAD Mechanical 2000|Company: Autodesk"
 90
        0
280
     0
281
     0
  0
CLASS
  1
ACMSTANDARDBSI
  2
AcmStandardBSI
  3
"AcmSymBB|Product Description: AutoCAD Mechanical 2000|Company: Autodesk"
 90
        0
280
     0
281
     0
  0
CLASS
  1
ACMSURFSTANDARDBSI
  2
AcmSurfTextStdBSI
  3
"AcmSymBB|Product Description: AutoCAD Mechanical 2000|Company: Autodesk"
 90
        0
280
     0
281
     0
  0
CLASS
  1
ACMFCFSTANDARDBSI
  2
AcmFCFStdBSI
  3
"AcmSymBB|Product Description: AutoCAD Mechanical 2000|Company: Autodesk"
 90
        0
280
     0
281
     0
  0
CLASS
  1
ACMWELDSTANDARDBSI
  2
AcmWeldingStdBSI
  3
"AcmSymBB|Product Description: AutoCAD Mechanical 2000|Company: Autodesk"
 90
        0
280
     0
281
     0
  0
CLASS
  1
ACMIDSTANDARDBSI
  2
AcmIdStdBSI
  3
"AcmSymBB|Product Description: AutoCAD Mechanical 2000|Company: Autodesk"
 90
        0
280
     0
281
     0
  0
CLASS
  1
ACMDATUMSTANDARDBSI
  2
AcmDatumStdBSI
  3
"AcmSymBB|Product Description: AutoCAD Mechanical 2000|Company: Autodesk"
 90
        0
280
     0
281
     0
  0
CLASS
  1
ACMBOMSTANDARDBSI
  2
AcmBOMStdBSI
  3
"AcmSymBB|Product Description: AutoCAD Mechanical 2000|Company: Autodesk"
 90
        0
280
     0
281
     0
  0
CLASS
  1
LONG_TRANSACTION
  2
AcDbLongTransaction
  3
AutoCAD 2000
 90
        0
280
     0
281
     0
  0
CLASS
  1
LWPOLYLINE
  2
AcDbPolyline
  3
AutoCAD 2000
 90
        0
280
     0
281
     1
  0
CLASS
  1
HATCH
  2
AcDbHatch
  3
AutoCAD 2000
 90
        0
280
     0
281
     1
  0
CLASS
  1
XRECORD
  2
AcDbXrecord
  3
AutoCAD 2000
 90
        0
280
     0
281
     0
  0
ENDSEC
  0
SECTION
  2
TABLES
  0
TABLE
  2
VPORT
  5
8
330
0
100
AcDbSymbolTable
 70
     3
  0
VPORT
  5
257A
330
8
100
AcDbSymbolTableRecord
100
AcDbViewportTableRecord
  2
*ACTIVE
 70
     0
 10
0.0
 20
0.0
 11
1.0
 21
1.0
 12
-64.54077773963575
 22
-6.866248813274097
 13
0.0
 23
0.0
 14
2.5
 24
2.5
 15
10.0
 25
10.0
 16
0.0
 26
0.0
 36
1.0
 17
0.0
 27
0.0
 37
0.0
 40
109.8895393735443
 41
1.56570841889117
 42
50.0
 43
0.0
 44
0.0
 50
0.0
 51
0.0
 71
     0
 72
   100
 73
     1
 74
     1
 75
     0
 76
     0
 77
     0
 78
     0
  0
ENDTAB
  0
TABLE
  2
LTYPE
  5
5
330
0
100
AcDbSymbolTable
 70
    10
  0
LTYPE
  5
14
330
5
100
AcDbSymbolTableRecord
100
AcDbLinetypeTableRecord
  2
BYBLOCK
 70
     0
  3

 72
    65
 73
     0
 40
0.0
  0
LTYPE
  5
15
330
5
100
AcDbSymbolTableRecord
100
AcDbLinetypeTableRecord
  2
BYLAYER
 70
     0
  3

 72
    65
 73
     0
 40
0.0
  0
LTYPE
  5
16
330
5
100
AcDbSymbolTableRecord
100
AcDbLinetypeTableRecord
  2
CONTINUOUS
 70
     0
  3
Solid line
 72
    65
 73
     0
 40
0.0
  0
LTYPE
  5
4B
330
5
100
AcDbSymbolTableRecord
100
AcDbLinetypeTableRecord
  2
AM_ISO02W050
 70
     0
  3
__ __ __ __ __ __ __ __ __ __ __ __ __ __ __
 72
    65
 73
     2
 40
7.5
 49
6.0
 74
     0
 49
-1.5
 74
     0
  0
LTYPE
  5
4C
330
5
100
AcDbSymbolTableRecord
100
AcDbLinetypeTableRecord
  2
AM_ISO08W050
 70
     0
  3
____ . ____ . ____ . ____ . ____ . ____ . ____
 72
    65
 73
     4
 40
18.0
 49
12.0
 74
     0
 49
-1.5
 74
     0
 49
3.0
 74
     0
 49
-1.5
 74
     0
  0
LTYPE
  5
4D
330
5
100
AcDbSymbolTableRecord
100
AcDbLinetypeTableRecord
  2
AM_ISO09W050
 70
     0
  3
_____ . . _____ . . _____ . . ____ .. ____
 72
    65
 73
     6
 40
22.5
 49
12.0
 74
     0
 49
-1.5
 74
     0
 49
3.0
 74
     0
 49
-1.5
 74
     0
 49
3.0
 74
     0
 49
-1.5
 74
     0
  0
LTYPE
  5
4E
330
5
100
AcDbSymbolTableRecord
100
AcDbLinetypeTableRecord
  2
AMCONSTR
 70
     0
  3
_______________________
 72
    65
 73
     2
 40
9999.0
 49
9999.0
 74
     0
 49
0.0
 74
     0
  0
LTYPE
  5
4F
330
5
100
AcDbSymbolTableRecord
100
AcDbLinetypeTableRecord
  2
AM_ISO02W050X2
 70
     0
  3
 _ _ _ _ _ _ _ _ _ _ _ _
 72
    65
 73
     2
 40
3.75
 49
3.0
 74
     0
 49
-0.75
 74
     0
  0
LTYPE
  5
50
330
5
100
AcDbSymbolTableRecord
100
AcDbLinetypeTableRecord
  2
AM_ISO08W050X2
 70
     0
  3
__ . __ . __ . __ . __ . __
 72
    65
 73
     4
 40
9.0
 49
6.0
 74
     0
 49
-0.75
 74
     0
 49
1.5
 74
     0
 49
-0.75
 74
     0
  0
LTYPE
  5
53
330
5
100
AcDbSymbolTableRecord
100
AcDbLinetypeTableRecord
  2
AMZIGZAG
 70
     0
  3
/\/-/\/-/\/-/\/-/\/-/\/
 72
    65
 73
     2
 40
11.00009999999999
 49
0.0001
 74
     4
 75
   135
340
52
 46
0.04
 50
0.0
 44
0.0
 45
0.0
 49
-11.0
 74
     0
  0
LTYPE
  5
166
330
5
100
AcDbSymbolTableRecord
100
AcDbLinetypeTableRecord
  2
ACJISTGL
 70
     0
  3
_ _ _ _ _
 72
    65
 73
     2
 40
3.0
 49
2.0
 74
     0
 49
-1.0
 74
     0
  0
LTYPE
  5
26A
330
5
100
AcDbSymbolTableRecord
100
AcDbLinetypeTableRecord
  2
ACJISTGB
 70
     0
  3
__ . . __ . .
 72
    65
 73
     6
 40
9.0
 49
4.0
 74
     0
 49
-1.0
 74
     0
 49
1.0
 74
     0
 49
-1.0
 74
     0
 49
1.0
 74
     0
 49
-1.0
 74
     0
  0
ENDTAB
  0
TABLE
  2
LAYER
  5
2
330
0
100
AcDbSymbolTable
 70
     7
  0
LAYER
  5
10
330
2
100
AcDbSymbolTableRecord
100
AcDbLayerTableRecord
  2
0
 70
     0
 62
     7
  6
CONTINUOUS
  0
LAYER
  5
3F9
330
2
100
AcDbSymbolTableRecord
100
AcDbLayerTableRecord
  2
AM_0
 70
     0
 62
     7
  6
CONTINUOUS
  0
LAYER
  5
C7C
330
2
100
AcDbSymbolTableRecord
100
AcDbLayerTableRecord
  2
AM_7
 70
     0
 62
     4
  6
AM_ISO08W050
  0
LAYER
  5
C97
330
2
100
AcDbSymbolTableRecord
100
AcDbLayerTableRecord
  2
AM_11
 70
     0
 62
     3
  6
AM_ISO09W050
  0
LAYER
  5
CC5
330
2
100
AcDbSymbolTableRecord
100
AcDbLayerTableRecord
  2
AM_5
 70
     0
 62
     3
  6
CONTINUOUS
  0
LAYER
  5
CC7
330
2
100
AcDbSymbolTableRecord
100
AcDbLayerTableRecord
  2
DEFPOINTS
 70
     0
 62
     7
  6
CONTINUOUS
  0
LAYER
  5
19BC
330
2
100
AcDbSymbolTableRecord
100
AcDbLayerTableRecord
  2
AM_6
 70
     0
 62
     2
  6
CONTINUOUS
  0
ENDTAB
  0
TABLE
  2
STYLE
  5
3
330
0
100
AcDbSymbolTable
 70
     5
  0
STYLE
  5
11
330
3
100
AcDbSymbolTableRecord
100
AcDbTextStyleTableRecord
  2
STANDARD
 70
     0
 40
0.0
 41
1.0
 50
0.0
 71
     0
 42
2.5
  3
simplex.shx
  4
EXTFONT.SHX
  0
STYLE
  5
52
330
3
100
AcDbSymbolTableRecord
100
AcDbTextStyleTableRecord
  2

 70
     1
 40
0.0
 41
1.0
 50
0.0
 71
     0
 42
2.5
  3
ltypeshp.shx
  4

  0
STYLE
  5
6B
330
3
100
AcDbSymbolTableRecord
100
AcDbTextStyleTableRecord
  2
ASAMI
 70
     0
 40
0.0
 41
1.0
 50
0.0
 71
     0
 42
2.5
  3
simplex.shx
  4
EXTFONT.SHX
  0
STYLE
  5
262
330
3
100
AcDbSymbolTableRecord
100
AcDbTextStyleTableRecord
  2
ACJISTS
 70
     0
 40
1.0
 41
1.0
 50
0.0
 71
     0
 42
2.5
  3
simplex.shx
  4
bigfont.shx
  0
STYLE
  5
269
330
3
100
AcDbSymbolTableRecord
100
AcDbTextStyleTableRecord
  2
ACJISGDT
 70
     0
 40
0.0
 41
1.0
 50
0.0
 71
     0
 42
2.5
  3
amgdtans.shx
  4

  0
ENDTAB
  0
TABLE
  2
VIEW
  5
6
330
0
100
AcDbSymbolTable
 70
     0
  0
ENDTAB
  0
TABLE
  2
UCS
  5
7
330
0
100
AcDbSymbolTable
 70
     0
  0
ENDTAB
  0
TABLE
  2
APPID
  5
9
330
0
100
AcDbSymbolTable
 70
    14
  0
APPID
  5
12
330
9
100
AcDbSymbolTableRecord
100
AcDbRegAppTableRecord
  2
ACAD
 70
     0
  0
APPID
  5
30
330
9
100
AcDbSymbolTableRecord
100
AcDbRegAppTableRecord
  2
MCAD_NO_VIS
 70
     0
  0
APPID
  5
31
330
9
100
AcDbSymbolTableRecord
100
AcDbRegAppTableRecord
  2
ACAD_TEMP_GRAPHIC
 70
     0
  0
APPID
  5
2C2
330
9
100
AcDbSymbolTableRecord
100
AcDbRegAppTableRecord
  2
GENIUS_GENDTOL_13
 70
     0
  0
APPID
  5
339
330
9
100
AcDbSymbolTableRecord
100
AcDbRegAppTableRecord
  2
GENIUS_GENODEF_13
 70
     0
  0
APPID
  5
33A
330
9
100
AcDbSymbolTableRecord
100
AcDbRegAppTableRecord
  2
GENIUS_GENOBJ-N-RSBK_13
 70
     0
  0
APPID
  5
33B
330
9
100
AcDbSymbolTableRecord
100
AcDbRegAppTableRecord
  2
GENIUS_GENOBJ-N-LIB_13
 70
     0
  0
APPID
  5
33C
330
9
100
AcDbSymbolTableRecord
100
AcDbRegAppTableRecord
  2
GENIUS_GENSCALE_13
 70
     0
  0
APPID
  5
378
330
9
100
AcDbSymbolTableRecord
100
AcDbRegAppTableRecord
  2
GENIUS_GENDIMSH_14
 70
     0
  0
APPID
  5
C82
330
9
100
AcDbSymbolTableRecord
100
AcDbRegAppTableRecord
  2
GENIUS_GENOBJ-N-CRS_13
 70
     0
  0
APPID
  5
C83
330
9
100
AcDbSymbolTableRecord
100
AcDbRegAppTableRecord
  2
GENIUS_GENOENT_13
 70
     0
  0
APPID
  5
C84
330
9
100
AcDbSymbolTableRecord
100
AcDbRegAppTableRecord
  2
GENIUS_GENOREF_13
 70
     0
  0
APPID
  5
C85
330
9
100
AcDbSymbolTableRecord
100
AcDbRegAppTableRecord
  2
GENIUS_GENOLIS_13
 70
     0
  0
APPID
  5
CA0
330
9
100
AcDbSymbolTableRecord
100
AcDbRegAppTableRecord
  2
GENIUS_GENOBJ-N-CEN_13
 70
     0
  0
ENDTAB
  0
TABLE
  2
DIMSTYLE
  5
A
330
0
100
AcDbSymbolTable
 70
     9
  0
DIMSTYLE
105
58
330
A
100
AcDbSymbolTableRecord
100
AcDbDimStyleTableRecord
  2
AM_JIS
 70
     0
  3

  4
"
  5
OPEN30
  6

  7

 40
0.5
 41
2.5
 42
1.0
 43
12.0
 44
1.0
 45
0.0
 46
0.0
 47
0.1
 48
0.1
140
3.2
141
0.0
142
0.0
143
0.0393701
144
1.0
145
0.0
146
0.71
147
1.5
 71
     0
 72
     0
 73
     0
 74
     0
 75
     0
 76
     0
 77
     3
 78
     8
170
     0
171
     2
172
     1
173
     0
174
     0
175
     0
176
   256
177
   256
178
     2
270
     2
271
     3
272
     3
273
     2
274
     2
340
6B
275
     0
280
     0
281
     0
282
     0
283
     0
284
     0
285
     0
286
     0
287
     3
288
     0
  0
DIMSTYLE
105
5F
330
A
100
AcDbSymbolTableRecord
100
AcDbDimStyleTableRecord
  2
AM_JIS$3
 70
     0
  3

  4
"
  5
OPEN30
  6

  7

 40
0.5
 41
2.5
 42
1.0
 43
10.0
 44
1.0
 45
0.0
 46
0.0
 47
0.1
 48
0.1
140
3.2
141
0.0
142
0.0
143
0.0393701
144
1.0
145
0.0
146
0.71
147
1.5
 71
     0
 72
     0
 73
     0
 74
     1
 75
     0
 76
     0
 77
     3
 78
     8
170
     0
171
     2
172
     0
173
     0
174
     0
175
     0
176
   256
177
   256
178
     2
270
     2
271
     2
272
     3
273
     2
274
     2
340
6B
275
     0
280
     0
281
     0
282
     0
283
     0
284
     0
285
     0
286
     0
287
     0
288
     1
  0
DIMSTYLE
105
60
330
A
100
AcDbSymbolTableRecord
100
AcDbDimStyleTableRecord
  2
AM_JIS$4
 70
     0
  3

  4
"
  5
OPEN30
  6

  7

 40
0.5
 41
2.5
 42
1.0
 43
10.0
 44
1.0
 45
0.0
 46
0.0
 47
0.1
 48
0.1
140
3.2
141
0.0
142
0.0
143
0.0393701
144
1.0
145
0.0
146
0.71
147
1.5
 71
     0
 72
     0
 73
     0
 74
     1
 75
     0
 76
     0
 77
     3
 78
     8
170
     0
171
     2
172
     0
173
     0
174
     0
175
     0
176
   256
177
   256
178
     2
270
     2
271
     2
272
     3
273
     2
274
     2
340
6B
275
     0
280
     0
281
     0
282
     0
283
     0
284
     0
285
     0
286
     0
287
     0
288
     1
  0
DIMSTYLE
105
61
330
A
100
AcDbSymbolTableRecord
100
AcDbDimStyleTableRecord
  2
AM_JIS$6
 70
     0
  3

  4
"
  5
OPEN30
  6

  7

 40
0.5
 41
2.5
 42
1.0
 43
10.0
 44
1.0
 45
0.0
 46
0.0
 47
0.1
 48
0.1
140
3.2
141
0.0
142
0.0
143
0.0393701
144
1.0
145
0.0
146
0.71
147
1.5
 71
     0
 72
     0
 73
     0
 74
     0
 75
     0
 76
     0
 77
     0
 78
     8
170
     0
171
     2
172
     1
173
     0
174
     0
175
     0
176
   256
177
   256
178
     2
270
     2
271
     2
272
     2
273
     2
274
     2
340
6B
275
     0
280
     0
281
     0
282
     0
283
     0
284
     0
285
     0
286
     0
287
     3
288
     0
  0
DIMSTYLE
105
62
330
A
100
AcDbSymbolTableRecord
100
AcDbDimStyleTableRecord
  2
AM_JIS$7
 70
     0
  3

  4
"
  5
OPEN30
  6

  7

 40
0.5
 41
2.5
 42
1.0
 43
10.0
 44
1.0
 45
0.0
 46
0.0
 47
0.1
 48
0.1
140
3.2
141
0.0
142
0.0
143
0.0393701
144
1.0
145
0.0
146
0.71
147
1.5
 71
     0
 72
     0
 73
     0
 74
     0
 75
     0
 76
     0
 77
     3
 78
     8
170
     0
171
     2
172
     1
173
     0
174
     0
175
     0
176
   256
177
   256
178
     2
270
     2
271
     2
272
     3
273
     2
274
     2
340
6B
275
     0
280
     0
281
     0
282
     0
283
     0
284
     0
285
     0
286
     0
287
     3
288
     0
  0
DIMSTYLE
105
63
330
A
100
AcDbSymbolTableRecord
100
AcDbDimStyleTableRecord
  2
AM_JIS$SF
 70
     0
  3

  4
"
  5
OPEN30
  6

  7

 40
0.5
 41
2.5
 42
1.0
 43
10.0
 44
1.0
 45
0.0
 46
0.0
 47
0.1
 48
0.1
140
3.2
141
0.0
142
0.0
143
0.0393701
144
1.0
145
0.0
146
0.71
147
1.5
 71
     0
 72
     0
 73
     0
 74
     0
 75
     1
 76
     1
 77
     3
 78
     8
170
     0
171
     2
172
     1
173
     0
174
     0
175
     0
176
   256
177
   256
178
     2
270
     2
271
     2
272
     2
273
     2
274
     2
340
6B
275
     0
280
     0
281
     0
282
     0
283
     0
284
     0
285
     0
286
     0
287
     3
288
     0
  0
DIMSTYLE
105
68
330
A
100
AcDbSymbolTableRecord
100
AcDbDimStyleTableRecord
  2
AM_JIS$SH
 70
     0
  3

  4
"
  5

  6
GENAXEH
  7
OPEN30
 40
0.5
 41
2.5
 42
1.0
 43
10.0
 44
1.0
 45
0.0
 46
0.0
 47
0.1
 48
0.1
140
3.2
141
0.0
142
0.0
143
0.0393701
144
2.0
145
0.0
146
0.71
147
1.5
 71
     0
 72
     0
 73
     0
 74
     0
 75
     1
 76
     1
 77
     3
 78
     8
170
     0
171
     2
172
     1
173
     1
174
     0
175
     0
176
   256
177
   256
178
     2
270
     2
271
     2
272
     2
273
     2
274
     2
340
6B
275
     0
280
     0
281
     0
282
     0
283
     0
284
     0
285
     0
286
     0
287
     3
288
     0
  0
DIMSTYLE
105
B34
102
{ACAD_REACTORS
330
2377
102
}
330
A
100
AcDbSymbolTableRecord
100
AcDbDimStyleTableRecord
  2
AM_JIS$2
 70
     0
  3

  4
"
  5
OPEN30
  6

  7

 40
0.5
 41
2.5
 42
1.0
 43
12.0
 44
1.0
 45
0.0
 46
0.0
 47
0.1
 48
0.1
140
3.2
141
0.0
142
0.0
143
0.0393701
144
1.0
145
0.0
146
0.71
147
1.5
 71
     0
 72
     0
 73
     0
 74
     0
 75
     0
 76
     0
 77
     3
 78
     8
170
     0
171
     2
172
     1
173
     0
174
     0
175
     0
176
   256
177
   256
178
     2
270
     2
271
     3
272
     3
273
     2
274
     2
340
6B
275
     0
280
     0
281
     0
282
     0
283
     0
284
     0
285
     0
286
     0
287
     3
288
     0
  0
DIMSTYLE
105
BA5
102
{ACAD_REACTORS
330
CC6
330
DF5
330
1F03
330
220E
102
}
330
A
100
AcDbSymbolTableRecord
100
AcDbDimStyleTableRecord
  2
AM_JIS$0
 70
     0
  3

  4
"
  5
OPEN30
  6

  7

 40
0.5
 41
2.5
 42
0.0
 43
10.0
 44
1.0
 45
0.0
 46
0.0
 47
0.1
 48
0.1000000001
140
3.799999999999999
141
0.0
142
0.0
143
0.0393701
144
1.0
145
0.0
146
0.71
147
1.5
 71
     0
 72
     0
 73
     0
 74
     0
 75
     0
 76
     0
 77
     3
 78
     1
170
     0
171
     2
172
     1
173
     0
174
     0
175
     0
176
     3
177
     3
178
     2
270
     2
271
     2
272
     2
273
     2
274
     2
340
11
275
     1
280
     0
281
     0
282
     0
283
     0
284
     8
285
     0
286
     0
287
     0
288
     0
  0
ENDTAB
  0
TABLE
  2
BLOCK_RECORD
  5
1
330
0
100
AcDbSymbolTable
 70
    10
  0
BLOCK_RECORD
  5
1F
102
{ACAD_XDICTIONARY
360
74
102
}
330
1
100
AcDbSymbolTableRecord
100
AcDbBlockTableRecord
  2
*MODEL_SPACE
  0
BLOCK_RECORD
  5
101
102
{ACAD_XDICTIONARY
360
25A3
102
}
330
1
100
AcDbSymbolTableRecord
100
AcDbBlockTableRecord
  2
*PAPER_SPACE
  0
BLOCK_RECORD
  5
59
330
1
100
AcDbSymbolTableRecord
100
AcDbBlockTableRecord
  2
_OPEN30
  0
BLOCK_RECORD
  5
64
330
1
100
AcDbSymbolTableRecord
100
AcDbBlockTableRecord
  2
GENAXEH
  0
BLOCK_RECORD
  5
CC8
330
1
100
AcDbSymbolTableRecord
100
AcDbBlockTableRecord
  2
*D5
  0
BLOCK_RECORD
  5
DF6
330
1
100
AcDbSymbolTableRecord
100
AcDbBlockTableRecord
  2
*D6
  0
BLOCK_RECORD
  5
1F04
330
1
100
AcDbSymbolTableRecord
100
AcDbBlockTableRecord
  2
*D7
  0
BLOCK_RECORD
  5
220F
330
1
100
AcDbSymbolTableRecord
100
AcDbBlockTableRecord
  2
*D8
  0
BLOCK_RECORD
  5
2378
330
1
100
AcDbSymbolTableRecord
100
AcDbBlockTableRecord
  2
*D9
  0
ENDTAB
  0
ENDSEC
  0
SECTION
  2
BLOCKS
  0
BLOCK
  5
20
330
1F
100
AcDbEntity
  8
0
100
AcDbBlockBegin
  2
*MODEL_SPACE
 70
     0
 10
0.0
 20
0.0
 30
0.0
  3
*MODEL_SPACE
  1

  0
ENDBLK
  5
21
330
1F
100
AcDbEntity
  8
0
100
AcDbBlockEnd
  0
BLOCK
  5
103
330
101
100
AcDbEntity
 67
     1
  8
0
100
AcDbBlockBegin
  2
*PAPER_SPACE
 70
     0
 10
0.0
 20
0.0
 30
0.0
  3
*PAPER_SPACE
  1

  0
ENDBLK
  5
104
330
101
100
AcDbEntity
 67
     1
  8
0
100
AcDbBlockEnd
  0
BLOCK
  5
5D
330
59
100
AcDbEntity
  8
0
100
AcDbBlockBegin
  2
_OPEN30
 70
     0
 10
0.0
 20
0.0
 30
0.0
  3
_OPEN30
  1

  0
LINE
  5
5A
330
59
100
AcDbEntity
  8
0
 62
     0
100
AcDbLine
 10
-1.0
 20
0.26794919
 30
0.0
 11
0.0
 21
0.0
 31
0.0
  0
LINE
  5
5B
330
59
100
AcDbEntity
  8
0
 62
     0
100
AcDbLine
 10
0.0
 20
0.0
 30
0.0
 11
-1.0
 21
-0.26794919
 31
0.0
  0
LINE
  5
5C
330
59
100
AcDbEntity
  8
0
 62
     0
100
AcDbLine
 10
0.0
 20
0.0
 30
0.0
 11
-1.0
 21
0.0
 31
0.0
  0
ENDBLK
  5
5E
330
59
100
AcDbEntity
  8
0
100
AcDbBlockEnd
  0
BLOCK
  5
66
330
64
100
AcDbEntity
  8
0
100
AcDbBlockBegin
  2
GENAXEH
 70
     0
 10
0.0
 20
0.0
 30
0.0
  3
GENAXEH
  1

  0
LINE
  5
65
330
64
100
AcDbEntity
  8
0
100
AcDbLine
 10
-1.0
 20
0.0
 30
0.0
 11
1.0
 21
0.0
 31
0.0
  0
ENDBLK
  5
67
330
64
100
AcDbEntity
  8
0
100
AcDbBlockEnd
  0
BLOCK
  5
CD2
330
CC8
100
AcDbEntity
  8
0
100
AcDbBlockBegin
  2
*D5
 70
     1
 10
0.0
 20
0.0
 30
0.0
  3
*D5
  1

  0
LINE
  5
253C
330
CC8
100
AcDbEntity
  8
AM_5
 62
     3
100
AcDbLine
 10
-138.0000000000004
 20
-4.71715672524051
 30
0.0
 11
-138.0000000000004
 21
-17.50000074281865
 31
0.0
  0
LINE
  5
253D
330
CC8
100
AcDbEntity
  8
AM_5
 62
     3
100
AcDbLine
 10
-1.999949137376317
 20
-4.849999739999051
 30
0.0
 11
-1.999949137376318
 21
-17.50000074281865
 31
0.0
  0
LINE
  5
253E
330
CC8
100
AcDbEntity
  8
AM_5
 62
     3
100
AcDbLine
 10
-136.7500000000004
 20
-17.00000074281866
 30
0.0
 11
-3.249949137376318
 21
-17.00000074281866
 31
0.0
  0
INSERT
  5
253F
330
CC8
100
AcDbEntity
  8
AM_5
 62
     3
100
AcDbBlockReference
  2
_OPEN30
 10
-138.0000000000004
 20
-17.00000074281866
 30
0.0
 41
1.25
 42
1.25
 43
1.25
 50
180.0
  0
INSERT
  5
2540
330
CC8
100
AcDbEntity
  8
AM_5
 62
     3
100
AcDbBlockReference
  2
_OPEN30
 10
-1.999949137376318
 20
-17.00000074281866
 30
0.0
 41
1.25
 42
1.25
 43
1.25
  0
MTEXT
  5
2541
330
CC8
100
AcDbEntity
  8
AM_5
 62
     2
100
AcDbMText
 10
-69.99997456868837
 20
-15.30000074281866
 30
0.0
 40
1.9
 41
0.0
 71
     5
 72
     1
  1
136
1001
ACAD
1000
MTEXTBEGIN
1070
    73
1070
     1
1070
    44
1040
1.0
1070
    74
1070
     0
1000
MTEXTEND
  0
POINT
  5
2542
330
CC8
100
AcDbEntity
  8
DEFPOINTS
 62
     0
100
AcDbPoint
 10
-138.0000000000004
 20
-4.71715672524051
 30
0.0
  0
POINT
  5
2543
330
CC8
100
AcDbEntity
  8
DEFPOINTS
 62
     0
100
AcDbPoint
 10
-1.999949137376317
 20
-4.849999739999051
 30
0.0
  0
POINT
  5
2544
330
CC8
100
AcDbEntity
  8
DEFPOINTS
 62
     0
100
AcDbPoint
 10
-1.999949137376318
 20
-17.00000074281866
 30
0.0
  0
ENDBLK
  5
CD3
330
CC8
100
AcDbEntity
  8
0
100
AcDbBlockEnd
  0
BLOCK
  5
E00
330
DF6
100
AcDbEntity
  8
0
100
AcDbBlockBegin
  2
*D6
 70
     1
 10
0.0
 20
0.0
 30
0.0
  3
*D6
  1

  0
LINE
  5
2533
330
DF6
100
AcDbEntity
  8
AM_5
 62
     3
100
AcDbLine
 10
-82.00000000000043
 20
-4.999975328756379
 30
0.0
 11
-82.00000000000043
 21
-12.50000074281857
 31
0.0
  0
LINE
  5
2534
330
DF6
100
AcDbEntity
  8
AM_5
 62
     3
100
AcDbLine
 10
-1.999949137376317
 20
-4.849999739999051
 30
0.0
 11
-1.999949137376318
 21
-12.50000074281857
 31
0.0
  0
LINE
  5
2535
330
DF6
100
AcDbEntity
  8
AM_5
 62
     3
100
AcDbLine
 10
-80.75000000000043
 20
-12.00000074281857
 30
0.0
 11
-3.249949137376318
 21
-12.00000074281857
 31
0.0
  0
INSERT
  5
2536
330
DF6
100
AcDbEntity
  8
AM_5
 62
     3
100
AcDbBlockReference
  2
_OPEN30
 10
-82.00000000000043
 20
-12.00000074281857
 30
0.0
 41
1.25
 42
1.25
 43
1.25
 50
180.0
  0
INSERT
  5
2537
330
DF6
100
AcDbEntity
  8
AM_5
 62
     3
100
AcDbBlockReference
  2
_OPEN30
 10
-1.999949137376318
 20
-12.00000074281857
 30
0.0
 41
1.25
 42
1.25
 43
1.25
  0
MTEXT
  5
2538
330
DF6
100
AcDbEntity
  8
AM_5
 62
     2
100
AcDbMText
 10
-41.99997456868837
 20
-10.30000074281857
 30
0.0
 40
1.9
 41
0.0
 71
     5
 72
     1
  1
80
1001
ACAD
1000
MTEXTBEGIN
1070
    73
1070
     1
1070
    44
1040
1.0
1070
    74
1070
     0
1000
MTEXTEND
  0
POINT
  5
2539
330
DF6
100
AcDbEntity
  8
DEFPOINTS
 62
     0
100
AcDbPoint
 10
-82.00000000000043
 20
-4.999975328756379
 30
0.0
  0
POINT
  5
253A
330
DF6
100
AcDbEntity
  8
DEFPOINTS
 62
     0
100
AcDbPoint
 10
-1.999949137376317
 20
-4.849999739999051
 30
0.0
  0
POINT
  5
253B
330
DF6
100
AcDbEntity
  8
DEFPOINTS
 62
     0
100
AcDbPoint
 10
-1.999949137376318
 20
-12.00000074281857
 30
0.0
  0
ENDBLK
  5
E01
330
DF6
100
AcDbEntity
  8
0
100
AcDbBlockEnd
  0
BLOCK
  5
1F0E
330
1F04
100
AcDbEntity
  8
0
100
AcDbBlockBegin
  2
*D7
 70
     1
 10
0.0
 20
0.0
 30
0.0
  3
*D7
  1

  0
LINE
  5
248C
330
1F04
100
AcDbEntity
  8
AM_5
 62
     3
100
AcDbLine
 10
-137.7053782145253
 20
-4.999999742819356
 30
0.0
 11
-148.0000010000004
 21
-4.999999742819385
 31
0.0
  0
LINE
  5
248D
330
1F04
100
AcDbEntity
  8
AM_5
 62
     3
100
AcDbLine
 10
-137.7053782145255
 20
5.000000257462256
 30
0.0
 11
-148.0000010000004
 21
5.000000257462228
 31
0.0
  0
LINE
  5
248E
330
1F04
100
AcDbEntity
  8
AM_5
 62
     3
100
AcDbLine
 10
-147.5000010000004
 20
-3.749999742819384
 30
0.0
 11
-147.5000010000004
 21
3.750000257462229
 31
0.0
  0
INSERT
  5
248F
330
1F04
100
AcDbEntity
  8
AM_5
 62
     3
100
AcDbBlockReference
  2
_OPEN30
 10
-147.5000010000004
 20
-4.999999742819383
 30
0.0
 41
1.25
 42
1.25
 43
1.25
 50
270.0000000000001
  0
INSERT
  5
2490
330
1F04
100
AcDbEntity
  8
AM_5
 62
     3
100
AcDbBlockReference
  2
_OPEN30
 10
-147.5000010000005
 20
5.00000025746223
 30
0.0
 41
1.25
 42
1.25
 43
1.25
 50
90.00000000000015
  0
MTEXT
  5
2491
330
1F04
100
AcDbEntity
  8
AM_5
 62
     2
100
AcDbMText
 10
-149.2000010000004
 20
0.0000002573214391
 30
0.0
 40
1.9
 41
0.0
 71
     5
 72
     1
  1
%%c10
 11
-0.0000000000000028
 21
1.0
 31
0.0
1001
ACAD
1000
MTEXTBEGIN
1070
    73
1070
     1
1070
    44
1040
1.0
1070
    74
1070
     0
1000
MTEXTEND
  0
POINT
  5
2492
330
1F04
100
AcDbEntity
  8
DEFPOINTS
 62
     0
100
AcDbPoint
 10
-137.7053782145254
 20
-4.999999742818928
 30
0.0
  0
POINT
  5
2493
330
1F04
100
AcDbEntity
  8
DEFPOINTS
 62
     0
100
AcDbPoint
 10
-137.7053782145254
 20
5.000000257462684
 30
0.0
  0
POINT
  5
2494
330
1F04
100
AcDbEntity
  8
DEFPOINTS
 62
     0
100
AcDbPoint
 10
-147.5000010000004
 20
5.000000257462688
 30
0.0
  0
ENDBLK
  5
1F0F
330
1F04
100
AcDbEntity
  8
0
100
AcDbBlockEnd
  0
BLOCK
  5
2219
330
220F
100
AcDbEntity
  8
0
100
AcDbBlockBegin
  2
*D8
 70
     1
 10
0.0
 20
0.0
 30
0.0
  3
*D8
  1

  0
LINE
  5
252A
330
220F
100
AcDbEntity
  8
AM_5
 62
     3
100
AcDbLine
 10
-1.999949137376245
 20
4.850000260000949
 30
0.0
 11
9.819901031071964
 21
4.850000260000982
 31
0.0
  0
LINE
  5
252B
330
220F
100
AcDbEntity
  8
AM_5
 62
     3
100
AcDbLine
 10
-1.999949137376317
 20
-4.849999739999051
 30
0.0
 11
9.819901031071992
 21
-4.849999739999018
 31
0.0
  0
LINE
  5
252C
330
220F
100
AcDbEntity
  8
AM_5
 62
     3
100
AcDbLine
 10
9.319901031071967
 20
3.60000026000098
 30
0.0
 11
9.319901031071989
 21
-3.59999973999902
 31
0.0
  0
INSERT
  5
252D
330
220F
100
AcDbEntity
  8
AM_5
 62
     3
100
AcDbBlockReference
  2
_OPEN30
 10
9.319901031071964
 20
4.85000026000098
 30
0.0
 41
1.25
 42
1.25
 43
1.25
 50
90.00000000000017
  0
INSERT
  5
252E
330
220F
100
AcDbEntity
  8
AM_5
 62
     3
100
AcDbBlockReference
  2
_OPEN30
 10
9.319901031071992
 20
-4.84999973999902
 30
0.0
 41
1.25
 42
1.25
 43
1.25
 50
270.0000000000001
  0
MTEXT
  5
252F
330
220F
100
AcDbEntity
  8
AM_5
 62
     2
100
AcDbMText
 10
7.619901031071978
 20
0.000000260000975
 30
0.0
 40
1.9
 41
0.0
 71
     5
 72
     1
  1
%%c9.7
 11
-0.0000000000000028
 21
1.0
 31
0.0
1001
ACAD
1000
MTEXTBEGIN
1070
    73
1070
     1
1070
    44
1040
1.0
1070
    74
1070
     0
1000
MTEXTEND
  0
POINT
  5
2530
330
220F
100
AcDbEntity
  8
DEFPOINTS
 62
     0
100
AcDbPoint
 10
-1.99994913737623
 20
4.850000260000954
 30
0.0
  0
POINT
  5
2531
330
220F
100
AcDbEntity
  8
DEFPOINTS
 62
     0
100
AcDbPoint
 10
-1.999949137376333
 20
-4.849999739999046
 30
0.0
  0
POINT
  5
2532
330
220F
100
AcDbEntity
  8
DEFPOINTS
 62
     0
100
AcDbPoint
 10
9.319901031071976
 20
-4.849999739999049
 30
0.0
  0
ENDBLK
  5
221A
330
220F
100
AcDbEntity
  8
0
100
AcDbBlockEnd
  0
BLOCK
  5
2388
330
2378
100
AcDbEntity
  8
0
100
AcDbBlockBegin
  2
*D9
 70
     1
 10
0.0
 20
0.0
 30
0.0
  3
*D9
  1

  0
LINE
  5
25A5
330
2378
100
AcDbEntity
  8
AM_5
100
AcDbLine
 10
0.1710100716625229
 20
-0.4698463103927054
 30
0.0
 11
5.284084269297386
 21
-14.51790221238957
 31
0.0
  0
LINE
  5
25A6
330
2378
100
AcDbEntity
  8
AM_5
100
AcDbLine
 10
0.1710100716624993
 20
0.469846310393204
 30
0.0
 11
5.284084269296656
 21
14.51790221239033
 31
0.0
  0
ARC
  5
25A7
330
2378
100
AcDbEntity
  8
AM_5
100
AcDbCircle
 10
-0.000000000000322
 20
0.000000000000245
 30
0.0
 40
14.94962883740424
100
AcDbArc
 50
294.7921326196141
 51
65.20786738038875
  0
INSERT
  5
25A8
330
2378
100
AcDbEntity
  8
AM_5
100
AcDbBlockReference
  2
_OPEN30
 10
5.113074197634541
 20
-14.04805590199663
 30
0.0
 41
1.25
 42
1.25
 43
1.25
 50
202.3960663098077
  0
INSERT
  5
25A9
330
2378
100
AcDbEntity
  8
AM_5
100
AcDbBlockReference
  2
_OPEN30
 10
5.113074197633834
 20
14.04805590199737
 30
0.0
 41
1.25
 42
1.25
 43
1.25
 50
157.6039336901951
  0
MTEXT
  5
25AA
330
2378
100
AcDbEntity
  8
AM_5
 62
     2
100
AcDbMText
 10
13.39962883740392
 20
0.0000000000006124
 30
0.0
 40
1.6
 41
0.0
 71
     5
 72
     1
  1
140°
  7
ASAMI
 11
-0.0000000000000028
 21
1.0
 31
0.0
  0
POINT
  5
25AB
330
2378
100
AcDbEntity
  8
DEFPOINTS
 62
     0
100
AcDbPoint
 10
13.7269899903862
 20
-5.921245492290769
 30
0.0
  0
POINT
  5
25AC
330
2378
100
AcDbEntity
  8
DEFPOINTS
 62
     0
100
AcDbPoint
 10
-0.000000000000322
 20
0.000000000000245
 30
0.0
  0
POINT
  5
25AD
330
2378
100
AcDbEntity
  8
DEFPOINTS
 62
     0
100
AcDbPoint
 10
-0.4390659435118814
 20
1.20632376544972
 30
0.0
  0
POINT
  5
25AE
330
2378
100
AcDbEntity
  8
DEFPOINTS
 62
     0
100
AcDbPoint
 10
-0.000000000000322
 20
0.000000000000245
 30
0.0
  0
POINT
  5
25AF
330
2378
100
AcDbEntity
  8
DEFPOINTS
 62
     0
100
AcDbPoint
 10
-0.4390659435118245
 20
-1.206323765449241
 30
0.0
  0
ENDBLK
  5
2389
330
2378
100
AcDbEntity
  8
0
100
AcDbBlockEnd
  0
ENDSEC
  0
SECTION
  2
ENTITIES
  0
DIMENSION
  5
CC6
330
1F
100
AcDbEntity
  8
AM_5
100
AcDbDimension
  2
*D5
 10
-1.999949137376318
 20
-17.00000074281866
 30
0.0
 11
-69.99997456868837
 21
-15.30000074281866
 31
0.0
 70
    32
  1
<>
  3
AM_JIS$0
100
AcDbAlignedDimension
 13
-138.0000000000004
 23
-4.71715672524051
 33
0.0
 14
-1.999949137376317
 24
-4.849999739999051
 34
0.0
 50
0.0000000000001132
100
AcDbRotatedDimension
1001
GENIUS_GENDTOL_13
1000

1000
h7
1000

1040
0.0
1001
ACAD
1000
DSTYLE
1002
{
1070
   271
1070
     0
1002
}
  0
DIMENSION
  5
DF5
330
1F
100
AcDbEntity
  8
AM_5
100
AcDbDimension
  2
*D6
 10
-1.999949137376318
 20
-12.00000074281857
 30
0.0
 11
-41.99997456868837
 21
-10.30000074281857
 31
0.0
 70
    32
  1
<>
  3
AM_JIS$0
100
AcDbAlignedDimension
 13
-82.00000000000043
 23
-4.999975328756379
 33
0.0
 14
-1.999949137376317
 24
-4.849999739999051
 34
0.0
 50
0.0000000000001527
100
AcDbRotatedDimension
1001
GENIUS_GENDTOL_13
1000

1000
h7
1000

1040
0.0
1001
ACAD
1000
DSTYLE
1002
{
1070
   271
1070
     0
1002
}
  0
TEXT
  5
19BD
330
1F
100
AcDbEntity
  8
AM_6
100
AcDbText
 10
-80.83330790202168
 20
-28.25000074281868
 30
0.0
 40
2.5
  1
MDW097LHK
 50
0.0000000000001527
 72
     4
 11
-69.99997456868836
 21
-27.00000074281866
 31
0.0
100
AcDbText
  0
LINE
  5
1DA9
330
1F
100
AcDbEntity
  8
AM_7
100
AcDbLine
 10
-140.5000000000004
 20
0.0000000000002844
 30
0.0
 11
2.319900031072104
 21
-0.0000000000000047
 31
0.0
1001
GENIUS_GENODEF_13
1002
{
1000
HIER
1070
     0
1002
}
1002
{
1000
MANEDIT
1070
     0
1002
}
1002
{
1000
NOSEL
1070
     0
1002
}
1002
{
1000
BEHIND
1070
     0
1002
}
1002
{
1000
REACTOR
1002
}
1001
GENIUS_GENOBJ-N-CEN_13
1002
{
1000
OWNER
1000
GEN
1002
}
  0
ELLIPSE
  5
1E77
330
1F
100
AcDbEntity
  8
AM_11
 48
0.5
100
AcDbEllipse
 10
-80.73223622640011
 20
21.20144483407477
 30
0.0
 11
-24.41816012064584
 21
0.0000000000002617
 31
0.0
210
0.0
220
0.0
230
1.0
 40
0.9599999999999997
 41
1.130070686340306
 42
2.011520147323598
  0
ELLIPSE
  5
1E78
330
1F
100
AcDbEntity
  8
AM_11
 48
0.5
100
AcDbEllipse
 10
-80.73223622640059
 20
-21.20142992178441
 30
0.0
 11
24.41816012064585
 21
0.0000000000002238
 31
0.0
210
0.0
220
0.0
230
1.0
 40
0.9599999999999988
 41
1.130071552591874
 42
2.01152101357518
  0
ELLIPSE
  5
1E79
330
1F
100
AcDbEntity
  8
AM_11
 48
0.5
100
AcDbEllipse
 10
-101.5655695597337
 20
-21.20142992178426
 30
0.0
 11
-24.41816012064583
 21
0.000000000000213
 31
0.0
210
0.0
220
0.0
230
1.0
 40
0.9600000000000003
 41
4.271664206181685
 42
5.153113667164992
  0
ELLIPSE
  5
1E7A
330
1F
100
AcDbEntity
  8
AM_11
 48
0.5
100
AcDbEllipse
 10
-101.5655695597332
 20
21.20144483407492
 30
0.0
 11
-24.41816012064587
 21
0.0000000000002021
 31
0.0
210
0.0
220
0.0
230
1.0
 40
0.959999999999998
 41
1.130070686340304
 42
2.011520147323594
  0
LINE
  5
1E7F
330
1F
100
AcDbEntity
  8
AM_0
 48
0.5
100
AcDbLine
 10
-137.9999618530338
 20
4.717105360001882
 30
0.0
 11
-137.705327351892
 21
4.999948377579484
 31
0.0
  0
LINE
  5
1E80
330
1F
100
AcDbEntity
  8
AM_0
 48
0.5
100
AcDbLine
 10
-137.9999618530338
 20
-4.717132311178122
 30
0.0
 11
-137.705327351892
 21
-4.99997532875652
 31
0.0
  0
LINE
  5
1E81
330
1F
100
AcDbEntity
  8
AM_0
 48
0.5
100
AcDbLine
 10
-138.0000000000004
 20
-4.71715672524051
 30
0.0
 11
-138.0000000000004
 21
4.717157239884286
 31
0.0
  0
LINE
  5
1E82
330
1F
100
AcDbEntity
  8
AM_0
 48
0.5
100
AcDbLine
 10
-137.7053782145254
 20
-4.999999742818929
 30
0.0
 11
-137.7053782145254
 21
5.000000257462684
 31
0.0
  0
ELLIPSE
  5
1E83
330
1F
100
AcDbEntity
  8
AM_11
 48
0.5
100
AcDbEllipse
 10
-143.2322362261875
 20
-21.20142992178397
 30
0.0
 11
-24.41816012064657
 21
0.0000000000065078
 31
0.0
210
0.0
220
0.0
230
1.0
 40
0.9599999999999736
 41
4.271664206181946
 42
4.496437984741183
  0
ELLIPSE
  5
1E84
330
1F
100
AcDbEntity
  8
AM_11
 48
0.5
100
AcDbEllipse
 10
-143.232236226187
 20
21.20144483407522
 30
0.0
 11
-24.41816012064482
 21
0.0000000000079609
 31
0.0
210
0.0
220
0.0
230
1.0
 40
0.9600000000000354
 41
1.786747322438963
 42
2.011520147323918
  0
ELLIPSE
  5
1E85
330
1F
100
AcDbEntity
  8
AM_11
 48
0.5
100
AcDbEllipse
 10
-122.3989454504018
 20
-21.20141065184521
 30
0.0
 11
24.41816012064577
 21
0.0000000000003322
 31
0.0
210
0.0
220
0.0
230
1.0
 40
0.9600000000000024
 41
1.130071552591869
 42
2.011521013575176
  0
ELLIPSE
  5
1E86
330
1F
100
AcDbEntity
  8
AM_11
 48
0.5
100
AcDbEllipse
 10
-122.3989454504013
 20
21.20146410401399
 30
0.0
 11
-24.41816012064583
 21
0.0000000000003593
 31
0.0
210
0.0
220
0.0
230
1.0
 40
0.9599999999999997
 41
1.130070686340309
 42
2.011520147323601
  0
DIMENSION
  5
1F03
330
1F
100
AcDbEntity
  8
AM_5
100
AcDbDimension
  2
*D7
 10
-147.5000010000004
 20
5.000000257462688
 30
0.0
 11
-147.5000010000004
 21
0.000000257321873
 31
0.0
 70
   160
  1
%%c<>
 51
359.9999999999998
  3
AM_JIS$0
100
AcDbAlignedDimension
 13
-137.7053782145254
 23
-4.999999742818928
 33
0.0
 14
-137.7053782145254
 24
5.000000257462684
 34
0.0
 50
270.0000000000002
100
AcDbRotatedDimension
1001
ACAD
1000
DSTYLE
1002
{
1070
   271
1070
     0
1002
}
1001
GENIUS_GENDTOL_13
1000

1000
h7
1000

1040
0.0
  0
LINE
  5
2157
330
1F
100
AcDbEntity
  8
AM_0
100
AcDbLine
 10
-137.7053782145254
 20
5.000000257462684
 30
0.0
 11
-81.99994913737635
 21
5.000000257462832
 31
0.0
  0
LINE
  5
2158
330
1F
100
AcDbEntity
  8
AM_0
100
AcDbLine
 10
-137.705327351892
 20
-4.99997532875652
 30
0.0
 11
-82.00000000000043
 21
-4.999975328756379
 31
0.0
  0
LINE
  5
2159
330
1F
100
AcDbEntity
  8
AM_0
100
AcDbLine
 10
-82.00000000000043
 20
-4.999975328756379
 30
0.0
 11
-82.00000000000043
 21
5.000000257462831
 31
0.0
  0
LINE
  5
215A
330
1F
100
AcDbEntity
  8
AM_0
100
AcDbLine
 10
-82.00000000000043
 20
5.000000257462831
 30
0.0
 11
-81.74028210297281
 21
4.85005205970057
 31
0.0
  0
LINE
  5
215B
330
1F
100
AcDbEntity
  8
AM_0
100
AcDbLine
 10
-82.00000000000043
 20
-4.999975328756379
 30
0.0
 11
-81.74023554871993
 21
-4.850000252883692
 31
0.0
  0
DIMENSION
  5
220E
330
1F
100
AcDbEntity
  8
AM_5
100
AcDbDimension
  2
*D8
 10
9.319901031071976
 20
-4.849999739999049
 30
0.0
 11
7.619901031071978
 21
0.0000002600009528
 31
0.0
 70
    32
  1
%%c<>
 51
359.9999999999998
  3
AM_JIS$0
100
AcDbAlignedDimension
 13
-1.99994913737623
 23
4.850000260000954
 33
0.0
 14
-1.999949137376333
 24
-4.849999739999046
 34
0.0
 50
89.99999999999932
100
AcDbRotatedDimension
1001
ACAD
1000
DSTYLE
1002
{
1070
   271
1070
     1
1002
}
1001
GENIUS_GENDTOL_13
1000

1000
h7
1000

1040
0.0
  0
ELLIPSE
  5
2339
330
1F
100
AcDbEntity
  8
AM_0
 48
0.5
100
AcDbEllipse
 10
8.177603596891184
 20
-7.616269164718213
 30
0.0
 11
-7.593892084762607
 21
-7.593892084766983
 31
0.0
210
0.0
220
0.0
230
-1.0
 40
0.9999999999999978
 41
1.171329590070667
 42
1.424984195904709
  0
ELLIPSE
  5
233A
330
1F
100
AcDbEntity
  8
AM_0
 48
0.5
100
AcDbEllipse
 10
8.177603596888944
 20
7.616269164720616
 30
0.0
 11
-7.593892084764848
 21
7.593892084764736
 31
0.0
210
0.0
220
0.0
230
1.0
 40
0.9999999999999982
 41
1.171329590070667
 42
1.424984195904709
  0
LINE
  5
233C
330
1F
100
AcDbEntity
  8
AM_0
 48
0.5
100
AcDbLine
 10
-1.771880737316138
 20
-3.573725970951645
 30
0.0
 11
-1.999949137376317
 21
-4.849999739999051
 31
0.0
  0
LINE
  5
233E
330
1F
100
AcDbEntity
  8
AM_0
100
AcDbLine
 10
-0.4390659435118814
 20
1.20632376544972
 30
0.0
 11
-0.000000000000322
 21
0.000000000000245
 31
0.0
  0
LINE
  5
233F
330
1F
100
AcDbEntity
  8
AM_0
100
AcDbLine
 10
-0.000000000000322
 20
0.000000000000245
 30
0.0
 11
-0.4390659435118245
 21
-1.206323765449241
 31
0.0
  0
LINE
  5
2341
330
1F
100
AcDbEntity
  8
AM_0
 48
0.5
100
AcDbLine
 10
-1.771880737317229
 20
3.573725970951073
 30
0.0
 11
-1.99994913737623
 21
4.850000260000954
 31
0.0
  0
DIMENSION
  5
2377
330
1F
100
AcDbEntity
  8
AM_5
100
AcDbDimension
  2
*D9
 10
-0.4390659435118245
 20
-1.206323765449241
 30
0.0
 11
13.39962883740392
 21
0.0000000000005713
 31
0.0
 70
    34
  1
<>
 51
359.9999999999998
  3
AM_JIS$2
100
AcDb2LineAngularDimension
 13
-0.4390659435118814
 23
1.20632376544972
 33
0.0
 14
-0.000000000000322
 24
0.000000000000245
 34
0.0
 15
-0.000000000000322
 25
0.000000000000245
 35
0.0
 16
13.7269899903862
 26
-5.921245492290769
 36
0.0
1001
GENIUS_GENDTOL_13
1000

1000
h7
1000

1040
0.0
1001
ACAD
1000
DSTYLE
1002
{
1070
   271
1070
     1
1070
   179
1070
     1
1002
}
  0
LINE
  5
24ED
330
1F
100
AcDbEntity
  8
AM_0
 48
0.5
100
AcDbLine
 10
-4.698287963873744
 20
4.850000260000992
 30
0.0
 11
-1.99994913737623
 21
4.850000260000954
 31
0.0
  0
LINE
  5
24EE
330
1F
100
AcDbEntity
  8
AM_0
 48
0.5
100
AcDbLine
 10
-0.0000000000002647
 20
0.0000000000002368
 30
0.0
 11
-1.911381673570108
 21
1.836388675525896
 31
0.0
  0
LINE
  5
24EF
330
1F
100
AcDbEntity
  8
AM_0
 48
0.5
100
AcDbLine
 10
-4.698287963873875
 20
-4.849999739999007
 30
0.0
 11
-1.99994913737636
 21
-4.849999739999046
 31
0.0
  0
LINE
  5
24F0
330
1F
100
AcDbEntity
  8
AM_0
 48
0.5
100
AcDbLine
 10
-38.3841247558654
 20
4.850000260001436
 30
0.0
 11
-16.78969041790118
 21
4.850000624298958
 31
0.0
  0
LINE
  5
24F1
330
1F
100
AcDbEntity
  8
AM_0
 48
0.5
100
AcDbLine
 10
-34.69786707676596
 20
-4.849999739998713
 30
0.0
 11
-20.57238769531886
 21
-4.849999739998801
 31
0.0
  0
LINE
  5
24F2
330
1F
100
AcDbEntity
  8
AM_11
 48
0.5
100
AcDbLine
 10
-50.57196680820894
 20
-4.849999739998505
 30
0.0
 11
-34.69786707676597
 21
-4.85068877051707
 31
0.0
  0
LINE
  5
24F3
330
1F
100
AcDbEntity
  8
AM_11
 48
0.5
100
AcDbLine
 10
-48.51435294402148
 20
4.850689290519942
 30
0.0
 11
-38.38411108359668
 21
4.850000260001436
 31
0.0
  0
LINE
  5
24F4
330
1F
100
AcDbEntity
  8
AM_11
 48
0.5
100
AcDbLine
 10
-16.78969041790118
 20
4.850000624298958
 30
0.0
 11
-4.698287963873744
 21
4.850000260000992
 31
0.0
  0
LINE
  5
24F5
330
1F
100
AcDbEntity
  8
AM_11
 48
0.5
100
AcDbLine
 10
-20.57238769531886
 20
-4.849999739998801
 30
0.0
 11
-4.698287963873875
 21
-4.849999739999007
 31
0.0
  0
SPLINE
  5
24F6
330
1F
100
AcDbEntity
  8
AM_0
 48
0.5
100
AcDbSpline
210
0.0
220
0.0
230
1.0
 70
     8
 71
     3
 72
    15
 73
    11
 74
     0
 42
0.0000000001
 43
0.0000000001
 40
0.0
 40
0.0
 40
0.0
 40
0.0
 40
1.010743614677189
 40
2.022833924044153
 40
3.037578959561199
 40
4.056212747067873
 40
5.079857613375832
 40
6.109500119648989
 40
7.14596120163808
 40
8.03038073837828
 40
8.03038073837828
 40
8.03038073837828
 40
8.03038073837828
 10
-4.698287963873744
 20
4.850000260000992
 30
0.0
 10
-4.979065688475298
 20
4.847116707026521
 30
0.0
 10
-5.540995240334388
 20
4.841345759088999
 30
0.0
 10
-6.383684004954557
 20
4.794779163226304
 30
0.0
 10
-7.226338076567433
 20
4.720778525289787
 30
0.0
 10
-8.068939742268286
 20
4.617052634638603
 30
0.0
 10
-8.911478966915398
 20
4.485008252438167
 30
0.0
 10
-9.753945459725011
 20
4.325257583701107
 30
0.0
 10
-10.55312196607405
 20
4.148390952035861
 30
0.0
 10
-11.06997938592962
 20
4.019602725309729
 30
0.0
 10
-11.30718836768222
 20
3.957566593705189
 30
0.0
  0
ELLIPSE
  5
24F7
330
1F
100
AcDbEntity
  8
AM_0
 48
0.5
100
AcDbEllipse
 10
4.567290876525435
 20
-2.356921164709629
 30
0.0
 11
7.228795618651763
 21
0.8188727588185759
 31
0.0
210
0.0
220
0.0
230
0.9999999999999998
 40
0.6764219218869887
 41
2.983346633842448
 42
3.502567211388317
  0
SPLINE
  5
24F8
330
1F
100
AcDbEntity
  8
AM_0
 48
0.5
100
AcDbSpline
210
0.0
220
0.0
230
1.0
 70
     8
 71
     3
 72
    25
 73
    21
 74
     0
 42
0.0000000001
 43
0.0000000001
 40
6.846175049578289
 40
6.846175049578289
 40
6.846175049578289
 40
6.846175049578289
 40
7.604337694224321
 40
8.711974558287883
 40
9.814980593243754
 40
10.91239053451967
 40
12.0033633515982
 40
13.08720139956839
 40
14.16337181880432
 40
15.23152222380919
 40
16.29148850140128
 40
17.34331105512262
 40
18.38723020264746
 40
19.42369128463655
 40
20.45333379090873
 40
21.47697865721768
 40
22.49561244472435
 40
23.5103574802404
 40
24.52244778960836
 40
25.53320666051913
 40
25.53320666051913
 40
25.53320666051913
 40
25.53320666051913
 10
-4.436328849050613
 20
0.8778823765250503
 30
0.0
 10
-4.595133295072449
 20
0.9630397508318175
 30
0.0
 10
-4.986277129365602
 20
1.171755547237541
 30
0.0
 10
-5.610341633263299
 20
1.499514481679991
 30
0.0
 10
-6.308645075361376
 20
1.857026769965427
 30
0.0
 10
-7.006983635593067
 20
2.203116638994118
 30
0.0
 10
-7.705363313988087
 20
2.535656133622642
 30
0.0
 10
-8.403791892219524
 20
2.852593652033737
 30
0.0
 10
-9.10227582855796
 20
3.151974672209202
 30
0.0
 10
-9.800818356616073
 20
3.431959281085087
 30
0.0
 10
-10.49942808064585
 20
3.690805045023509
 30
0.0
 10
-11.19810405464633
 20
3.926924712074796
 30
0.0
 10
-11.8968512970604
 20
4.138844897988754
 30
0.0
 10
-12.59566734197692
 20
4.325254061775633
 30
0.0
 10
-13.29454945946723
 20
4.485009648630954
 30
0.0
 10
-13.99349376058085
 20
4.617052724424409
 30
0.0
 10
-14.69248937002509
 20
4.720778963299141
 30
0.0
 10
-15.39152858415893
 20
4.794779505581313
 30
0.0
 10
-16.09060005546947
 20
4.841346371614547
 30
0.0
 10
-16.5567625730799
 20
4.847117139509805
 30
0.0
 10
-16.78969041790118
 20
4.850000624298958
 30
0.0
  0
SPLINE
  5
24F9
330
1F
100
AcDbEntity
  8
AM_0
 48
0.5
100
AcDbSpline
210
0.0
220
0.0
230
1.0
 70
     8
 71
     3
 72
    10
 73
     6
 74
     0
 42
0.0000000001
 43
0.0000000001
 40
0.0
 40
0.0
 40
0.0
 40
0.0
 40
2.69986029516136
 40
4.147722969032201
 40
6.285750005020438
 40
6.285750005020438
 40
6.285750005020438
 40
6.285750005020438
 10
-4.436217083379054
 20
0.8778247718407111
 30
0.0
 10
-3.938675878261581
 20
0.4272262568301743
 30
0.0
 10
-3.174316667452012
 20
-0.2650161580349648
 30
0.0
 10
-1.366709812108126
 20
0.0701105220652034
 30
0.0
 10
-1.707134760456375
 20
1.198861524502917
 30
0.0
 10
-1.932065815683612
 20
1.886870025083885
 30
0.0
  0
ELLIPSE
  5
24FA
330
1F
100
AcDbEntity
  8
AM_0
 48
0.5
100
AcDbEllipse
 10
3.915558349127802
 20
4.783865275843254
 30
0.0
 11
-0.0000000000000894
 21
10.5178250825598
 31
0.0
210
0.0
220
0.0
230
1.0
 40
0.8552251508090989
 41
1.951257656000316
 42
2.322034022628302
  0
ELLIPSE
  5
24FB
330
1F
100
AcDbEntity
  8
AM_0
 48
0.5
100
AcDbEllipse
 10
-7.053017019947233
 20
8.140058887441121
 30
0.0
 11
7.137564391231377
 21
11.02116667796039
 31
0.0
210
0.0
220
0.0
230
0.9999999999999998
 40
0.8233758750651388
 41
4.198561564139281
 42
4.258492083337151
  0
ELLIPSE
  5
24FC
330
1F
100
AcDbEntity
  8
AM_0
 48
0.5
100
AcDbEllipse
 10
-1.723942012606762
 20
-1.724019705036488
 30
0.0
 11
-0.1103185401852414
 21
0.7977246893629428
 31
0.0
210
0.0
220
0.0
230
0.9999999999999998
 40
0.4308187271274797
 41
1.834288442858433
 42
4.96963033257041
  0
ELLIPSE
  5
24FD
330
1F
100
AcDbEntity
  8
AM_0
 48
0.5
100
AcDbEllipse
 10
-1.723942012606762
 20
-1.724019705036488
 30
0.0
 11
-0.5781108697167701
 21
0.437535607160405
 31
0.0
210
0.0
220
0.0
230
1.0
 40
0.5315412615355082
 41
4.58528135657594
 42
7.72872169790545
  0
ELLIPSE
  5
24FE
330
1F
100
AcDbEntity
  8
AM_0
 48
0.5
100
AcDbEllipse
 10
-7.309664396086634
 20
9.225234418011618
 30
0.0
 11
-5.579987645141493
 21
10.87674608494013
 31
0.0
210
0.0
220
0.0
230
1.0
 40
0.5703464693843388
 41
3.192715228173005
 42
3.476677766112686
  0
SPLINE
  5
24FF
330
1F
100
AcDbEntity
  8
AM_0
100
AcDbSpline
210
0.0
220
0.0
230
1.0
 70
     8
 71
     3
 72
    22
 73
    18
 74
     0
 42
0.0000000001
 43
0.0000000001
 40
17.17441611292
 40
17.17441611292
 40
17.17441611292
 40
17.17441611292
 40
17.38177636558528
 40
18.41823744757437
 40
19.46215659509824
 40
20.51397914882054
 40
21.57394542641293
 40
22.64209583141747
 40
23.71826625065247
 40
24.80210429862395
 40
25.8930771157021
 40
26.99048705697709
 40
28.09349309193389
 40
29.20112995599786
 40
30.31233024745139
 40
31.42594771747373
 40
32.5407895042663
 40
32.54078950426994
 40
32.54078950426994
 40
32.54078950426994
 10
-23.78874673988073
 20
-4.355334842596692
 30
0.0
 10
-23.8451744272329
 20
-4.344107568293274
 30
0.0
 10
-24.18342759595417
 20
-4.275721013339834
 30
0.0
 10
-24.80308834056138
 20
-4.138597069949885
 30
0.0
 10
-25.64539042487313
 20
-3.926677214462614
 30
0.0
 10
-26.48760668037057
 20
-3.690557457867142
 30
0.0
 10
-27.32974305305328
 20
-3.431711718230767
 30
0.0
 10
-28.17179843051763
 20
-3.15172710264569
 30
0.0
 10
-29.01378317748893
 20
-2.852346084754076
 30
0.0
 10
-29.85570119259321
 20
-2.535408563965835
 30
0.0
 10
-30.69756026557416
 20
-2.202869076605499
 30
0.0
 10
-31.5393697573709
 20
-1.85677918067606
 30
0.0
 10
-32.38113697438194
 20
-1.499266993413601
 30
0.0
 10
-33.22287039035521
 20
-1.132531990206464
 30
0.0
 10
-34.06457746652488
 20
-0.7588291762042222
 30
0.0
 10
-34.90627067204926
 20
-0.3804644997586264
 30
0.0
 10
-35.46728933286782
 20
-0.1267033371860297
 30
0.0
 10
-35.7479527791423
 20
0.0002469437585314
 30
0.0
  0
ELLIPSE
  5
2500
330
1F
100
AcDbEntity
  8
AM_11
 48
0.5
100
AcDbEllipse
 10
-39.06556955973924
 20
21.42229321776273
 30
0.0
 11
24.41816012064582
 21
0.0000000000000503
 31
0.0
210
0.0
220
0.0
230
1.0
 40
0.9700000000000004
 41
4.271663339930082
 42
5.153112800913374
  0
ELLIPSE
  5
2501
330
1F
100
AcDbEntity
  8
AM_11
 48
0.5
100
AcDbEllipse
 10
-39.06556955973981
 20
-21.42227815013667
 30
0.0
 11
-24.41816012064579
 21
0.0000000000004244
 31
0.0
210
0.0
220
0.0
230
1.0
 40
0.9700000000000017
 41
4.271664206181689
 42
5.153113667164999
  0
SPLINE
  5
2502
330
1F
100
AcDbEntity
  8
AM_0
100
AcDbSpline
210
0.0
220
0.0
230
1.0
 70
     8
 71
     3
 72
    46
 73
    42
 74
     0
 42
0.0000000001
 43
0.0000000001
 40
0.0
 40
0.0
 40
0.0
 40
0.0
 40
1.685415058684573
 40
2.531036209541122
 40
3.379897699130124
 40
4.232934581347651
 40
5.090970612202446
 40
5.954688180526682
 40
6.824620803463244
 40
7.701151815239691
 40
8.584457046566678
 40
9.474582384070743
 40
10.37139106676737
 40
11.27458944007583
 40
12.18373345430765
 40
13.09824173870457
 40
14.0174134345011
 40
14.94044415455409
 40
15.86644439743313
 40
16.79446029130533
 40
17.72349377129849
 40
18.65252725129241
 40
19.5805431451646
 40
20.5065433880429
 40
21.42957410809586
 40
22.34874580389317
 40
23.26325408828901
 40
24.17239810252111
 40
25.07560240389441
 40
25.97241108659103
 40
26.8625364240951
 40
27.74584165542183
 40
28.62236045019041
 40
29.49229307312697
 40
30.35601064145121
 40
31.21404606334469
 40
32.06708345193547
 40
32.91595755657689
 40
33.76157841950692
 40
34.60498701064691
 40
35.44727335621125
 40
35.44727335621125
 40
35.44727335621125
 40
35.44727335621125
 10
-32.33890915033346
 20
-4.849999739998748
 30
0.0
 10
-32.90086591952798
 20
-4.838951065089304
 30
0.0
 10
-33.74477254282479
 20
-4.822358952589092
 30
0.0
 10
-34.86695198110252
 20
-4.72020436405856
 30
0.0
 10
-35.70956238531189
 20
-4.617205364494634
 30
0.0
 10
-36.55210076639037
 20
-4.484972145070592
 30
0.0
 10
-37.39456490480342
 20
-4.325263058801187
 30
0.0
 10
-38.23695047264753
 20
-4.13884165117824
 30
0.0
 10
-39.07925605905342
 20
-3.926922339332817
 30
0.0
 10
-39.92147791546378
 20
-3.690806339210426
 30
0.0
 10
-40.76361772527806
 20
-3.431958129805913
 30
0.0
 10
-41.60567322339627
 20
-3.151973860067644
 30
0.0
 10
-42.44765793789046
 20
-2.852592748914866
 30
0.0
 10
-43.28957596097467
 20
-2.535655251677049
 30
0.0
 10
-44.13143503487038
 20
-2.203115764378475
 30
0.0
 10
-44.97324451484669
 20
-1.857025844207959
 30
0.0
 10
-45.8150117785646
 20
-1.49951375457411
 30
0.0
 10
-46.65674501854335
 20
-1.132778383022646
 30
0.0
 10
-47.49845315955486
 20
-0.7590767708734214
 30
0.0
 10
-48.34014389065805
 20
-0.3807069203519384
 30
0.0
 10
-49.18182754636028
 20
0.0000002599244467
 30
0.0
 10
-50.02351120187761
 20
0.3807074406634679
 30
0.0
 10
-50.8652019335354
 20
0.7590772897977197
 30
0.0
 10
-51.7069100725197
 20
1.132778907016659
 30
0.0
 10
-52.54864332001559
 20
1.499514259766394
 30
0.0
 10
-53.39041055586056
 20
1.857026419115144
 30
0.0
 10
-54.23222013905985
 20
2.203116081106871
 30
0.0
 10
-55.07408066130104
 20
2.535657246337819
 30
0.0
 10
-55.91600195567256
 20
2.852591864037808
 30
0.0
 10
-56.75798817213845
 20
3.151974510314399
 30
0.0
 10
-57.60004365065118
 20
3.431958863362891
 30
0.0
 10
-58.44218000105083
 20
3.690804694173563
 30
0.0
 10
-59.28439624591011
 20
3.92692434681046
 30
0.0
 10
-60.12669839408111
 20
4.13884452436947
 30
0.0
 10
-60.96908347439671
 20
4.325253735325231
 30
0.0
 10
-61.81154823045287
 20
4.48500914352317
 30
0.0
 10
-62.65409198867637
 20
4.617053532214281
 30
0.0
 10
-63.49669805112788
 20
4.720777625547294
 30
0.0
 10
-64.3393562452065
 20
4.794779304432101
 30
0.0
 10
-65.18204502715071
 20
4.841345723881651
 30
0.0
 10
-65.74397457670457
 20
4.847116695296438
 30
0.0
 10
-66.02475230015418
 20
4.850000260001699
 30
0.0
  0
SPLINE
  5
2503
330
1F
100
AcDbEntity
  8
AM_0
100
AcDbSpline
210
0.0
220
0.0
230
1.0
 70
     8
 71
     3
 72
    23
 73
    19
 74
     0
 42
0.0000000001
 43
0.0000000001
 40
16.03460024169435
 40
16.03460024169435
 40
16.03460024169435
 40
16.03460024169435
 40
16.35212704903564
 40
17.38177054169784
 40
18.41822485651776
 40
19.46214173629503
 40
20.51396345435107
 40
21.57393551351153
 40
22.64208202342361
 40
23.7182574881101
 40
24.80209208578934
 40
25.89306333925047
 40
26.99048218457928
 40
28.09348763352352
 40
29.20111863782268
 40
30.31232390128032
 40
31.42594612798585
 40
32.5407912310448
 40
32.5407912310486
 40
32.5407912310486
 40
32.5407912310486
 10
-48.51435294402148
 20
4.850689290519941
 30
0.0
 10
-48.42777695675803
 20
4.834316544603075
 30
0.0
 10
-48.06082987987711
 20
4.763017844345361
 30
0.0
 10
-47.41444865220212
 20
4.623318922743803
 30
0.0
 10
-46.57738327023555
 20
4.415588154054816
 30
0.0
 10
-45.7410953939686
 20
4.182341126030704
 30
0.0
 10
-44.90553560648378
 20
3.924927753501284
 30
0.0
 10
-44.07067425228349
 20
3.644783121781133
 30
0.0
 10
-43.23646307838229
 20
3.343508655725837
 30
0.0
 10
-42.40284399348474
 20
3.022857697157424
 30
0.0
 10
-41.56976962836042
 20
2.684646073759132
 30
0.0
 10
-40.73717319241665
 20
2.330841760162437
 30
0.0
 10
-39.90498721302292
 20
1.963501219898534
 30
0.0
 10
-39.07315624400096
 20
1.584736507074916
 30
0.0
 10
-38.24161068706391
 20
1.196750086626937
 30
0.0
 10
-37.41027352348218
 20
0.8018075146010234
 30
0.0
 10
-36.57907705894321
 20
0.4021973762553871
 30
0.0
 10
-36.02509492197084
 20
0.1342806289511667
 30
0.0
 10
-35.74795277913858
 20
0.0002469437567889
 30
0.0
  0
SPLINE
  5
2504
330
1F
100
AcDbEntity
  8
AM_0
100
AcDbSpline
210
0.0
220
0.0
230
1.0
 70
     8
 71
     3
 72
    46
 73
    42
 74
     0
 42
0.0000000001
 43
0.0000000001
 40
0.0
 40
0.0
 40
0.0
 40
0.0
 40
1.685415058684571
 40
2.531036209541119
 40
3.379897699130121
 40
4.232934581347655
 40
5.090970612202441
 40
5.954688180526682
 40
6.824620803463246
 40
7.701151815239689
 40
8.584457046566678
 40
9.474582384070741
 40
10.37139106676737
 40
11.27458944007583
 40
12.18373345430765
 40
13.09824173870457
 40
14.01741343450111
 40
14.9404441545541
 40
15.86644439743314
 40
16.79446029130534
 40
17.7234937712985
 40
18.65252725129241
 40
19.58054314516461
 40
20.50654338804289
 40
21.42957410809586
 40
22.34874580389317
 40
23.26325408828901
 40
24.17239810252111
 40
25.07560240389441
 40
25.97241108659103
 40
26.8625364240951
 40
27.74584165542183
 40
28.62236045019041
 40
29.49229307312697
 40
30.35601064145121
 40
31.21404606334468
 40
32.06708345193547
 40
32.91595755657689
 40
33.76157841950693
 40
34.60498701064689
 40
35.44727335621125
 40
35.44727335621125
 40
35.44727335621125
 40
35.44727335621125
 10
-2.33933003744137
 20
-4.849999739999042
 30
0.0
 10
-2.901286806635891
 20
-4.838951065089598
 30
0.0
 10
-3.74519342993269
 20
-4.822358952589384
 30
0.0
 10
-4.86737286821044
 20
-4.720204364058856
 30
0.0
 10
-5.709983272419783
 20
-4.617205364494929
 30
0.0
 10
-6.552521653498275
 20
-4.484972145070889
 30
0.0
 10
-7.394985791911323
 20
-4.325263058801483
 30
0.0
 10
-8.237371359755433
 20
-4.138841651178537
 30
0.0
 10
-9.079676946161347
 20
-3.926922339333112
 30
0.0
 10
-9.921898802571703
 20
-3.690806339210721
 30
0.0
 10
-10.76403861238598
 20
-3.43195812980621
 30
0.0
 10
-11.60609411050418
 20
-3.151973860067939
 30
0.0
 10
-12.44807882499836
 20
-2.852592748915161
 30
0.0
 10
-13.2899968480826
 20
-2.535655251677348
 30
0.0
 10
-14.13185592197827
 20
-2.203115764378766
 30
0.0
 10
-14.97366540195461
 20
-1.857025844208257
 30
0.0
 10
-15.81543266567249
 20
-1.499513754574404
 30
0.0
 10
-16.65716590565127
 20
-1.132778383022943
 30
0.0
 10
-17.49887404666281
 20
-0.759076770873716
 30
0.0
 10
-18.34056477776595
 20
-0.3807069203522346
 30
0.0
 10
-19.1822484334682
 20
0.0000002599241509
 30
0.0
 10
-20.02393208898553
 20
0.3807074406631726
 30
0.0
 10
-20.8656228206433
 20
0.7590772897974219
 30
0.0
 10
-21.70733095962759
 20
1.132778907016365
 30
0.0
 10
-22.54906420712351
 20
1.499514259766099
 30
0.0
 10
-23.39083144296847
 20
1.857026419114846
 30
0.0
 10
-24.23264102616776
 20
2.203116081106575
 30
0.0
 10
-25.07450154840896
 20
2.535657246337525
 30
0.0
 10
-25.91642284278047
 20
2.85259186403751
 30
0.0
 10
-26.75840905924635
 20
3.151974510314104
 30
0.0
 10
-27.60046453775909
 20
3.431958863362595
 30
0.0
 10
-28.44260088815872
 20
3.690804694173268
 30
0.0
 10
-29.28481713301803
 20
3.926924346810165
 30
0.0
 10
-30.12711928118903
 20
4.138844524369173
 30
0.0
 10
-30.96950436150462
 20
4.325253735324932
 30
0.0
 10
-31.81196911756082
 20
4.485009143522873
 30
0.0
 10
-32.65451287578426
 20
4.617053532213986
 30
0.0
 10
-33.49711893823581
 20
4.720777625547001
 30
0.0
 10
-34.33977713231439
 20
4.794779304431804
 30
0.0
 10
-35.18246591425861
 20
4.841345723881357
 30
0.0
 10
-35.74439546381249
 20
4.847116695296145
 30
0.0
 10
-36.02517318726208
 20
4.850000260001406
 30
0.0
  0
SPLINE
  5
2505
330
1F
100
AcDbEntity
  8
AM_0
100
AcDbSpline
210
0.0
220
0.0
230
1.0
 70
     8
 71
     3
 72
    22
 73
    18
 74
     0
 42
0.0000000001
 43
0.0000000001
 40
17.17441611292
 40
17.17441611292
 40
17.17441611292
 40
17.17441611292
 40
17.38177636558528
 40
18.41823744757437
 40
19.46215659509824
 40
20.51397914882054
 40
21.57394542641293
 40
22.64209583141747
 40
23.71826625065247
 40
24.80210429862395
 40
25.8930771157021
 40
26.99048705697709
 40
28.09349309193389
 40
29.20112995599786
 40
30.31233024745139
 40
31.42594771747373
 40
32.5407895042663
 40
32.54078950426994
 40
32.54078950426994
 40
32.54078950426994
 10
-53.78832585277284
 20
-4.355334842596396
 30
0.0
 10
-53.84475354012501
 20
-4.344107568292979
 30
0.0
 10
-54.18300670884628
 20
-4.275721013339537
 30
0.0
 10
-54.80266745345349
 20
-4.138597069949589
 30
0.0
 10
-55.64496953776521
 20
-3.926677214462317
 30
0.0
 10
-56.48718579326265
 20
-3.690557457866846
 30
0.0
 10
-57.32932216594535
 20
-3.431711718230471
 30
0.0
 10
-58.17137754340972
 20
-3.151727102645394
 30
0.0
 10
-59.01336229038102
 20
-2.852346084753781
 30
0.0
 10
-59.85528030548531
 20
-2.535408563965539
 30
0.0
 10
-60.69713937846625
 20
-2.202869076605205
 30
0.0
 10
-61.538948870263
 20
-1.856779180675765
 30
0.0
 10
-62.38071608727404
 20
-1.499266993413305
 30
0.0
 10
-63.2224495032473
 20
-1.132531990206168
 30
0.0
 10
-64.06415657941699
 20
-0.7588291762039264
 30
0.0
 10
-64.90584978494135
 20
-0.3804644997583307
 30
0.0
 10
-65.4668684457599
 20
-0.1267033371857339
 30
0.0
 10
-65.74753189203438
 20
0.0002469437588272
 30
0.0
  0
SPLINE
  5
2506
330
1F
100
AcDbEntity
  8
AM_0
100
AcDbSpline
210
0.0
220
0.0
230
1.0
 70
     8
 71
     3
 72
    17
 73
    13
 74
     0
 42
0.0000000001
 43
0.0000000001
 40
1.580019955310467
 40
1.580019955310467
 40
1.580019955310467
 40
1.580019955310467
 40
2.030549285115227
 40
3.082371838836284
 40
4.126290986361125
 40
5.162752068350215
 40
6.192395305374981
 40
7.216039564037012
 40
8.234688489606833
 40
9.249433870634691
 40
10.26152376260694
 40
11.27226744710342
 40
11.27226744710342
 40
11.27226744710342
 40
11.27226744710352
 10
-42.63429769861397
 20
-3.579442555961855
 30
0.0
 10
-42.75352419349648
 20
-3.616307843387481
 30
0.0
 10
-43.15178074199905
 20
-3.73713874698796
 30
0.0
 10
-43.83170343378386
 20
-3.926666342690063
 30
0.0
 10
-44.67388827157266
 20
-4.138912107321006
 30
0.0
 10
-45.5163049620588
 20
-4.325235708447604
 30
0.0
 10
-46.35876025178362
 20
-4.485011429540458
 30
0.0
 10
-47.20130732550238
 20
-4.617077054288313
 30
0.0
 10
-48.04391260838075
 20
-4.720678942403615
 30
0.0
 10
-48.88657035860903
 20
-4.795145718985764
 30
0.0
 10
-49.72925981528246
 20
-4.839998032745929
 30
0.0
 10
-50.2911891384118
 20
-4.849999767750466
 30
0.0
 10
-50.57196680821087
 20
-4.849999739998506
 30
0.0
  0
SPLINE
  5
2507
330
1F
100
AcDbEntity
  8
AM_0
100
AcDbSpline
210
0.0
220
0.0
230
1.0
 70
     8
 71
     3
 72
    11
 73
     7
 74
     0
 42
0.0000000001
 43
0.0000000001
 40
11.27226913003534
 40
11.27226913003534
 40
11.27226913003534
 40
11.2722691300354
 40
12.28301561507924
 40
13.29510212255852
 40
14.30984805882082
 40
15.18258238371378
 40
15.18258238371378
 40
15.18258238371378
 40
15.18258238371378
 10
-50.57196680821093
 20
-4.849999739998506
 30
0.0
 10
-50.85167682307952
 20
-4.826262430597707
 30
0.0
 10
-51.41056926653993
 20
-4.768795437628256
 30
0.0
 10
-52.24602191534505
 20
-4.652870298381874
 30
0.0
 10
-53.03888121038528
 20
-4.514410430247862
 30
0.0
 10
-53.55165606251036
 20
-4.407972208783227
 30
0.0
 10
-53.78795731562016
 20
-4.355394667309309
 30
0.0
  0
ELLIPSE
  5
2508
330
1F
100
AcDbEntity
  8
AM_11
 48
0.5
100
AcDbEllipse
 10
2.601097106927455
 20
21.42229321776218
 30
0.0
 11
-24.41816012064643
 21
0.0000000000094627
 31
0.0
210
0.0
220
0.0
230
1.0
 40
0.9699999999999803
 41
1.13007068634068
 42
1.291800737381366
  0
ELLIPSE
  5
2509
330
1F
100
AcDbEntity
  8
AM_11
 48
0.5
100
AcDbEllipse
 10
-18.23223622640647
 20
-21.42227815013693
 30
0.0
 11
-24.41816012064583
 21
0.0000000000003973
 31
0.0
210
0.0
220
0.0
230
1.0
 40
0.9699999999999995
 41
4.271664206181689
 42
5.153113667164998
  0
ELLIPSE
  5
250A
330
1F
100
AcDbEntity
  8
AM_11
 48
0.5
100
AcDbEllipse
 10
-18.2322362264059
 20
21.42229321776246
 30
0.0
 11
-24.41816012064582
 21
0.0000000000002834
 31
0.0
210
0.0
220
0.0
230
1.0
 40
0.9699999999999999
 41
1.130070686340304
 42
2.011520147323594
  0
SPLINE
  5
250B
330
1F
100
AcDbEntity
  8
AM_0
100
AcDbSpline
210
0.0
220
0.0
230
1.0
 70
     8
 71
     3
 72
    17
 73
    13
 74
     0
 42
0.0000000001
 43
0.0000000001
 40
1.580019955310467
 40
1.580019955310467
 40
1.580019955310467
 40
1.580019955310467
 40
2.030549285115227
 40
3.082371838836284
 40
4.126290986361125
 40
5.162752068350215
 40
6.192395305374981
 40
7.216039564037012
 40
8.234688489606833
 40
9.249433870634691
 40
10.26152376260694
 40
11.27226744710342
 40
11.27226744710342
 40
11.27226744710342
 40
11.27226744710352
 10
-12.63471858572189
 20
-3.57944255596215
 30
0.0
 10
-12.7539450806044
 20
-3.616307843387776
 30
0.0
 10
-13.15220162910697
 20
-3.737138746988256
 30
0.0
 10
-13.83212432089177
 20
-3.92666634269036
 30
0.0
 10
-14.67430915868056
 20
-4.138912107321302
 30
0.0
 10
-15.5167258491667
 20
-4.3252357084479
 30
0.0
 10
-16.35918113889151
 20
-4.485011429540753
 30
0.0
 10
-17.20172821261028
 20
-4.61707705428861
 30
0.0
 10
-18.04433349548866
 20
-4.720678942403909
 30
0.0
 10
-18.88699124571695
 20
-4.795145718986061
 30
0.0
 10
-19.72968070239037
 20
-4.839998032746223
 30
0.0
 10
-20.29161002551972
 20
-4.849999767750762
 30
0.0
 10
-20.57238769531879
 20
-4.849999739998802
 30
0.0
  0
SPLINE
  5
250C
330
1F
100
AcDbEntity
  8
AM_0
100
AcDbSpline
210
0.0
220
0.0
230
1.0
 70
     8
 71
     3
 72
    11
 73
     7
 74
     0
 42
0.0000000001
 43
0.0000000001
 40
11.27226913003534
 40
11.27226913003534
 40
11.27226913003534
 40
11.2722691300354
 40
12.28301561507924
 40
13.29510212255852
 40
14.30984805882082
 40
15.18258238371378
 40
15.18258238371378
 40
15.18258238371378
 40
15.18258238371378
 10
-20.57238769531884
 20
-4.849999739998802
 30
0.0
 10
-20.85209771018742
 20
-4.826262430598
 30
0.0
 10
-21.41099015364783
 20
-4.768795437628553
 30
0.0
 10
-22.24644280245296
 20
-4.652870298382171
 30
0.0
 10
-23.03930209749317
 20
-4.514410430248156
 30
0.0
 10
-23.55207694961825
 20
-4.407972208783523
 30
0.0
 10
-23.78837820272806
 20
-4.355394667309605
 30
0.0
  0
SPLINE
  5
250D
330
1F
100
AcDbEntity
  8
AM_0
100
AcDbSpline
210
0.0
220
0.0
230
1.0
 70
     8
 71
     3
 72
    55
 73
    51
 74
     0
 42
0.0000000001
 43
0.0000000001
 40
0.0
 40
0.0
 40
0.0
 40
0.0
 40
1.010743684496582
 40
2.022833576467832
 40
3.037578957496688
 40
4.056212745003489
 40
5.079857003664532
 40
6.109500240690281
 40
7.145961322679372
 40
8.189895241603872
 40
9.241717795325891
 40
10.30168407291828
 40
11.36983447792315
 40
12.44600489715814
 40
13.52984294512926
 40
14.62081576220742
 40
15.7182257034828
 40
16.82123173843959
 40
17.92886860250316
 40
19.0400688939571
 40
20.15368796660465
 40
21.26852814259644
 40
22.38336992938901
 40
23.49698739941135
 40
24.6081876908653
 40
25.71582455492886
 40
26.81883757994213
 40
27.91624752121713
 40
29.00722033829659
 40
30.09105838626677
 40
31.16722880550176
 40
32.23537921050758
 40
33.29534548809967
 40
34.347168041821
 40
35.39108718934584
 40
36.42754827133493
 40
37.45720575381954
 40
38.48085062012849
 40
39.49948440763516
 40
40.51422944315121
 40
41.52631975251916
 40
42.53706336719636
 40
43.54780698187354
 40
44.55989729124051
 40
45.57464232675757
 40
46.59327611426424
 40
47.6169209805722
 40
48.64656348684535
 40
49.68302456883444
 40
50.58557219878025
 40
50.58557219878025
 40
50.58557219878025
 40
50.58557219878025
 10
-4.698287963873875
 20
-4.849999739999008
 30
0.0
 10
-4.979065637377249
 20
-4.847114107497439
 30
0.0
 10
-5.540994951601001
 20
-4.841338999126201
 30
0.0
 10
-6.383684426148335
 20
-4.794785142281147
 30
0.0
 10
-7.226337929459326
 20
-4.720776671121698
 30
0.0
 10
-8.068939280791388
 20
-4.617050984037637
 30
0.0
 10
-8.911480072309435
 20
-4.485013762957953
 30
0.0
 10
-9.753943682567433
 20
-4.325252156363219
 30
0.0
 10
-10.5963329295688
 20
-4.138842375379323
 30
0.0
 10
-11.43864034302338
 20
-3.926925904314771
 30
0.0
 10
-12.28086018528255
 20
-3.690803897446207
 30
0.0
 10
-13.12299665434663
 20
-3.431958468202506
 30
0.0
 10
-13.96505200562502
 20
-3.151973768355911
 30
0.0
 10
-14.80703675992484
 20
-2.852592773783931
 30
0.0
 10
-15.64895477216595
 20
-2.535655244842485
 30
0.0
 10
-16.49081384923339
 20
-2.203115766618283
 30
0.0
 10
-17.33262332745821
 20
-1.85702584213086
 30
0.0
 10
-18.17439059500991
 20
-1.499513760668636
 30
0.0
 10
-19.01612382133569
 20
-1.132778360608239
 30
0.0
 10
-19.85783201333876
 20
-0.7590768547666968
 30
0.0
 10
-20.69952255360119
 20
-0.3807066064240623
 30
0.0
 10
-21.54120732809719
 20
-0.0000007295749659
 30
0.0
 10
-22.3828883241328
 20
0.3807120002171725
 30
0.0
 10
-23.22458168555846
 20
0.7590763563342282
 30
0.0
 10
-24.0662888384615
 20
1.132778993348953
 30
0.0
 10
-24.9080235655883
 20
1.499515790507763
 30
0.0
 10
-25.7497943251944
 20
1.857024820899105
 30
0.0
 10
-26.591605132017
 20
2.203116500543988
 30
0.0
 10
-27.43346433062089
 20
2.53565570911296
 30
0.0
 10
-28.27538231222729
 20
2.852593304705177
 30
0.0
 10
-29.1173670686831
 20
3.151974299715091
 30
0.0
 10
-29.9594224414093
 20
3.431958932613123
 30
0.0
 10
-30.8015588235557
 20
3.690804626161822
 30
0.0
 10
-31.64377504626338
 20
3.926924548076089
 30
0.0
 10
-32.48607725101946
 20
4.13884379471769
 30
0.0
 10
-33.32846618553815
 20
4.325257324167772
 30
0.0
 10
-34.17093581126869
 20
4.485000683769304
 30
0.0
 10
-35.01347938630342
 20
4.617078773160137
 30
0.0
 10
-35.85608098742022
 20
4.720681506830308
 30
0.0
 10
-36.69873507623248
 20
4.795139404475065
 30
0.0
 10
-37.54142383627956
 20
4.840005791798699
 30
0.0
 10
-38.3841311139011
 20
4.854994167217343
 30
0.0
 10
-39.2268383902827
 20
4.840005791775218
 30
0.0
 10
-40.06952715405677
 20
4.795139404569372
 30
0.0
 10
-40.91218122914728
 20
4.720681506475054
 30
0.0
 10
-41.75478288171024
 20
4.617078774495304
 30
0.0
 10
-42.59732215577883
 20
4.485001322650978
 30
0.0
 10
-43.4397884624997
 20
4.32525895745738
 30
0.0
 10
-44.24387580029492
 20
4.147305788763566
 30
0.0
 10
-44.76557682226338
 20
4.017166954186621
 30
0.0
 10
-45.00761568952198
 20
3.953743951542605
 30
0.0
  0
LINE
  5
250E
330
1F
100
AcDbEntity
  8
AM_11
 48
0.5
100
AcDbLine
 10
-78.51040570468206
 20
4.850000260001865
 30
0.0
 11
-68.38381958008456
 21
4.850000260001733
 31
0.0
  0
LINE
  5
250F
330
1F
100
AcDbEntity
  8
AM_11
 48
0.5
100
AcDbLine
 10
-80.1817754109772
 20
-4.849999739998113
 30
0.0
 11
-68.3838195800847
 21
-4.849999739998268
 31
0.0
  0
LINE
  5
2510
330
1F
100
AcDbEntity
  8
AM_0
100
AcDbLine
 10
-81.74028210297278
 20
-0.3023159263735486
 30
0.0
 11
-81.74028210297279
 21
4.850052069746719
 31
0.0
  0
LINE
  5
2511
330
1F
100
AcDbEntity
  8
AM_0
100
AcDbLine
 10
-81.74023554871993
 20
-4.850000252865963
 30
0.0
 11
-81.74023554871993
 21
-4.099741715916112
 31
0.0
  0
LINE
  5
2512
330
1F
100
AcDbEntity
  8
AM_0
100
AcDbLine
 10
-81.74023554871993
 20
-2.542386984127322
 30
0.0
 11
-81.74023554871993
 21
-0.5479204227032808
 31
0.0
  0
LINE
  5
2513
330
1F
100
AcDbEntity
  8
AM_0
 48
0.5
100
AcDbLine
 10
-71.03568903605793
 20
2.457405254965998
 30
0.0
 11
-82.00000000000043
 21
-0.392242330584571
 31
0.0
  0
LINE
  5
2514
330
1F
100
AcDbEntity
  8
AM_0
100
AcDbLine
 10
-78.51404776824065
 20
4.850689290520234
 30
0.0
 11
-81.74028210297279
 21
4.850052059700571
 31
0.0
  0
LINE
  5
2515
330
1F
100
AcDbEntity
  8
AM_0
 48
0.5
100
AcDbLine
 10
-80.1817754109772
 20
-4.849999739998113
 30
0.0
 11
-81.74023560098916
 21
-4.85000028306135
 31
0.0
  0
ELLIPSE
  5
2516
330
1F
100
AcDbEntity
  8
AM_0
 48
0.5
100
AcDbEllipse
 10
-80.74994913737636
 20
-3.28258965241261
 30
0.0
 11
1.241110002730672
 21
0.1590015484516112
 31
0.0
210
0.0
220
0.0
230
1.0
 40
0.97276370391534
 41
1.157180275694195
 42
2.985125625871152
  0
ELLIPSE
  5
2517
330
1F
100
AcDbEntity
  8
AM_0
 48
0.5
100
AcDbEllipse
 10
-80.33297729492884
 20
-3.233333073331466
 30
0.0
 11
-1.667117508471726
 21
0.0075054869195399
 31
0.0
210
0.0
220
0.0
230
0.9999999999999998
 40
0.9697272676182087
 41
0.0158893626880827
 42
1.575161769455949
  0
SPLINE
  5
2518
330
1F
100
AcDbEntity
  8
AM_0
100
AcDbSpline
210
0.0
220
0.0
230
1.0
 70
     8
 71
     3
 72
    13
 73
     9
 74
     0
 42
0.0000000001
 43
0.0000000001
 40
16.03460056234195
 40
16.03460056234195
 40
16.03460056234195
 40
16.03460056234195
 40
16.35212717791071
 40
17.38177067057215
 40
18.41822498539278
 40
19.46214186516937
 40
20.5139635832251
 40
21.34083983469381
 40
21.34083983469381
 40
21.34083983469381
 40
21.34083983469381
 10
-80.18139479185403
 20
-4.850440826123021
 30
0.0
 10
-80.09481876950632
 20
-4.83406856239845
 30
0.0
 10
-79.72787138898421
 20
-4.762771818347188
 30
0.0
 10
-79.0814905136616
 20
-4.623071265727937
 30
0.0
 10
-78.24442502635413
 20
-4.415341073026623
 30
0.0
 10
-77.40813717861563
 20
-4.182093889015308
 30
0.0
 10
-76.6342958064468
 20
-3.943694332402285
 30
0.0
 10
-76.14059863827579
 20
-3.779539271658333
 30
0.0
 10
-75.92401664953387
 20
-3.705339688420881
 30
0.0
  0
SPLINE
  5
2519
330
1F
100
AcDbEntity
  8
AM_0
 48
0.5
100
AcDbSpline
210
0.0
220
0.0
230
1.0
 70
     8
 71
     3
 72
    22
 73
    18
 74
     0
 42
0.0000000001
 43
0.0000000001
 40
0.0
 40
0.0
 40
0.0
 40
0.0
 40
1.010743684496582
 40
2.022833993863546
 40
3.037578683882831
 40
4.056212471389632
 40
5.079857945358201
 40
6.109499720892564
 40
7.145961650132166
 40
8.189873411961459
 40
9.241710626092514
 40
10.30166235592959
 40
11.36982472628033
 40
12.44598212828784
 40
13.52983440361964
 40
14.62080578343036
 40
14.90544694398022
 40
14.90544694398022
 40
14.90544694398022
 40
14.90544694398022
 10
-68.38382593791386
 20
-4.849999739998269
 30
0.0
 10
-68.66460366506906
 20
-4.847114969585262
 30
0.0
 10
-69.2265332026176
 20
-4.84134158534809
 30
0.0
 10
-70.06922179418463
 20
-4.794774760390357
 30
0.0
 10
-70.91187620933583
 20
-4.720778748820523
 30
0.0
 10
-71.75447800870852
 20
-4.617052966116377
 30
0.0
 10
-72.59701650542577
 20
-4.485003426538419
 30
0.0
 10
-73.43948290987381
 20
-4.325255249271176
 30
0.0
 10
-74.2818648769297
 20
-4.138841027292395
 30
0.0
 10
-75.12416819910581
 20
-3.926917198430169
 30
0.0
 10
-75.96638529022103
 20
-3.690806979643056
 30
0.0
 10
-76.80852055161917
 20
-3.431947364318862
 30
0.0
 10
-77.65057941197841
 20
-3.151985594541954
 30
0.0
 10
-78.49256123881374
 20
-2.852586031181973
 30
0.0
 10
-79.33448180566273
 20
-2.535655985011683
 30
0.0
 10
-79.96724394878642
 20
-2.285722353043678
 30
0.0
 10
-80.31984109603738
 20
-2.142868322911247
 30
0.0
 10
-80.39274646134115
 20
-2.113184526999664
 30
0.0
  0
SPLINE
  5
251A
330
1F
100
AcDbEntity
  8
AM_0
 48
0.5
100
AcDbSpline
210
0.0
220
0.0
230
1.0
 70
     8
 71
     3
 72
    26
 73
    22
 74
     0
 42
0.0000000001
 43
0.0000000001
 40
0.0
 40
0.0
 40
0.0
 40
0.0
 40
0.8422864037471089
 40
1.685694647057321
 40
2.531315797913884
 40
3.380177287502886
 40
4.233214169721234
 40
5.09125020057522
 40
5.954967768899448
 40
6.824900391836836
 40
7.701419186604396
 40
8.584724417931369
 40
9.47485577056355
 40
10.37165251267315
 40
11.27486274211709
 40
12.18400675634887
 40
13.09851504074504
 40
14.01768673654235
 40
14.94071745659532
 40
15.8667176994736
 40
16.76607142455336
 40
16.76607142455336
 40
16.76607142455336
 40
16.76607142455336
 10
-66.02486801148138
 20
-4.8499997399983
 30
0.0
 10
-66.30564568501853
 20
-4.847114107622477
 30
0.0
 10
-66.86757499931015
 20
-4.841338999502882
 30
0.0
 10
-67.71026447334953
 20
-4.794785140766903
 30
0.0
 10
-68.55291797859874
 20
-4.720776676822698
 30
0.0
 10
-69.3955193226452
 20
-4.617050962616978
 30
0.0
 10
-70.23806014156014
 20
-4.485013843525702
 30
0.0
 10
-71.0805236486621
 20
-4.325251852919903
 30
0.0
 10
-71.92290928349762
 20
-4.138844404796163
 30
0.0
 10
-72.76521130101518
 20
-3.926923644112097
 30
0.0
 10
-73.60742770993131
 20
-3.69080450377972
 30
0.0
 10
-74.44956544171848
 20
-3.431956608968121
 30
0.0
 10
-75.29162100683295
 20
-3.151978261992252
 30
0.0
 10
-76.13360394600144
 20
-2.852586919459742
 30
0.0
 10
-76.97552551711611
 20
-2.535658533026581
 30
0.0
 10
-77.81738753925314
 20
-2.203115671958396
 30
0.0
 10
-78.65919628805163
 20
-1.857024348930637
 30
0.0
 10
-79.50096722233869
 20
-1.499519872684766
 30
0.0
 10
-80.34268643091522
 20
-1.132755282289971
 30
0.0
 10
-81.17575935448327
 20
-0.7630192731387746
 30
0.0
 10
-81.72770150981042
 20
-0.5146280286453847
 30
0.0
 10
-82.00000000000043
 20
-0.3922423305845709
 30
0.0
  0
SPLINE
  5
251B
330
1F
100
AcDbEntity
  8
AM_0
100
AcDbSpline
210
0.0
220
0.0
230
1.0
 70
     8
 71
     3
 72
    55
 73
    51
 74
     0
 42
0.0000000001
 43
0.0000000001
 40
0.0
 40
0.0
 40
0.0
 40
0.0
 40
1.010743684496582
 40
2.022833576467832
 40
3.037578957496688
 40
4.056212745003489
 40
5.079857003664532
 40
6.109500240690281
 40
7.145961322679372
 40
8.189895241603872
 40
9.241717795325891
 40
10.30168407291828
 40
11.36983447792315
 40
12.44600489715814
 40
13.52984294512926
 40
14.62081576220742
 40
15.7182257034828
 40
16.82123173843959
 40
17.92886860250316
 40
19.0400688939571
 40
20.15368796660465
 40
21.26852814259644
 40
22.38336992938901
 40
23.49698739941135
 40
24.6081876908653
 40
25.71582455492886
 40
26.81883757994213
 40
27.91624752121713
 40
29.00722033829659
 40
30.09105838626677
 40
31.16722880550176
 40
32.23537921050758
 40
33.29534548809967
 40
34.347168041821
 40
35.39108718934584
 40
36.42754827133493
 40
37.45720575381954
 40
38.48085062012849
 40
39.49948440763516
 40
40.51422944315121
 40
41.52631975251916
 40
42.53706336719636
 40
43.54780698187354
 40
44.55989729124051
 40
45.57464232675757
 40
46.59327611426424
 40
47.6169209805722
 40
48.64656348684535
 40
49.68302456883444
 40
50.58557219878025
 40
50.58557219878025
 40
50.58557219878025
 40
50.58557219878025
 10
-34.69786707676596
 20
-4.849999739998714
 30
0.0
 10
-34.97864475026934
 20
-4.847114107497145
 30
0.0
 10
-35.54057406449309
 20
-4.841338999125905
 30
0.0
 10
-36.38326353904043
 20
-4.794785142280852
 30
0.0
 10
-37.22591704235142
 20
-4.720776671121403
 30
0.0
 10
-38.06851839368348
 20
-4.617050984037342
 30
0.0
 10
-38.91105918520153
 20
-4.485013762957658
 30
0.0
 10
-39.75352279545953
 20
-4.325252156362923
 30
0.0
 10
-40.59591204246092
 20
-4.138842375379027
 30
0.0
 10
-41.43821945591547
 20
-3.926925904314476
 30
0.0
 10
-42.28043929817462
 20
-3.690803897445912
 30
0.0
 10
-43.12257576723871
 20
-3.43195846820221
 30
0.0
 10
-43.96463111851709
 20
-3.151973768355615
 30
0.0
 10
-44.80661587281693
 20
-2.852592773783635
 30
0.0
 10
-45.64853388505804
 20
-2.535655244842189
 30
0.0
 10
-46.49039296212548
 20
-2.203115766617987
 30
0.0
 10
-47.33220244035033
 20
-1.857025842130564
 30
0.0
 10
-48.17396970790202
 20
-1.49951376066834
 30
0.0
 10
-49.01570293422776
 20
-1.132778360607943
 30
0.0
 10
-49.85741112623083
 20
-0.7590768547664012
 30
0.0
 10
-50.69910166649329
 20
-0.3807066064237665
 30
0.0
 10
-51.54078644098928
 20
-0.0000007295746702
 30
0.0
 10
-52.38246743702489
 20
0.3807120002174682
 30
0.0
 10
-53.22416079845058
 20
0.7590763563345241
 30
0.0
 10
-54.06586795135361
 20
1.132778993349249
 30
0.0
 10
-54.90760267848037
 20
1.499515790508059
 30
0.0
 10
-55.74937343808648
 20
1.857024820899401
 30
0.0
 10
-56.59118424490909
 20
2.203116500544284
 30
0.0
 10
-57.43304344351297
 20
2.535655709113255
 30
0.0
 10
-58.27496142511939
 20
2.852593304705473
 30
0.0
 10
-59.11694618157519
 20
3.151974299715388
 30
0.0
 10
-59.9590015543014
 20
3.43195893261342
 30
0.0
 10
-60.8011379364478
 20
3.690804626162118
 30
0.0
 10
-61.64335415915547
 20
3.926924548076385
 30
0.0
 10
-62.48565636391155
 20
4.138843794717985
 30
0.0
 10
-63.32804529843023
 20
4.325257324168067
 30
0.0
 10
-64.17051492416077
 20
4.485000683769601
 30
0.0
 10
-65.01305849919552
 20
4.617078773160431
 30
0.0
 10
-65.85566010031232
 20
4.720681506830604
 30
0.0
 10
-66.69831418912456
 20
4.795139404475361
 30
0.0
 10
-67.54100294917164
 20
4.840005791798994
 30
0.0
 10
-68.38371022679318
 20
4.854994167217639
 30
0.0
 10
-69.2264175031748
 20
4.840005791775514
 30
0.0
 10
-70.06910626694888
 20
4.795139404569668
 30
0.0
 10
-70.91176034203939
 20
4.72068150647535
 30
0.0
 10
-71.75436199460235
 20
4.617078774495599
 30
0.0
 10
-72.59690126867091
 20
4.485001322651273
 30
0.0
 10
-73.4393675753918
 20
4.325258957457676
 30
0.0
 10
-74.24345491318702
 20
4.147305788763861
 30
0.0
 10
-74.76515593515545
 20
4.017166954186917
 30
0.0
 10
-75.00719480241406
 20
3.953743951542902
 30
0.0
  0
ELLIPSE
  5
251C
330
1F
100
AcDbEntity
  8
AM_11
 48
0.5
100
AcDbEllipse
 10
-59.89890289306729
 20
-21.42227815013638
 30
0.0
 11
-24.41816012064579
 21
0.0000000000002455
 31
0.0
210
0.0
220
0.0
230
1.0
 40
0.9700000000000008
 41
4.271664206181683
 42
5.15311366716499
  0
ELLIPSE
  5
251D
330
1F
100
AcDbEntity
  8
AM_11
 48
0.5
100
AcDbEllipse
 10
-59.89890289306672
 20
21.42229321776301
 30
0.0
 11
-24.41816012064585
 21
0.0000000000004244
 31
0.0
210
0.0
220
0.0
230
1.0
 40
0.9699999999999986
 41
1.130070686340311
 42
2.011520147323599
  0
SPLINE
  5
251E
330
1F
100
AcDbEntity
  8
AM_0
100
AcDbSpline
210
0.0
220
0.0
230
1.0
 70
     8
 71
     3
 72
    23
 73
    19
 74
     0
 42
0.0000000001
 43
0.0000000001
 40
16.03460024169435
 40
16.03460024169435
 40
16.03460024169435
 40
16.03460024169435
 40
16.35212704903564
 40
17.38177054169784
 40
18.41822485651776
 40
19.46214173629503
 40
20.51396345435107
 40
21.57393551351153
 40
22.64208202342361
 40
23.7182574881101
 40
24.80209208578934
 40
25.89306333925047
 40
26.99048218457928
 40
28.09348763352352
 40
29.20111863782268
 40
30.31232390128032
 40
31.42594612798585
 40
32.5407912310448
 40
32.5407912310486
 40
32.5407912310486
 40
32.5407912310486
 10
-78.51404776824065
 20
4.850689290520234
 30
0.0
 10
-78.4274717809772
 20
4.834316544603368
 30
0.0
 10
-78.06052470409628
 20
4.763017844345652
 30
0.0
 10
-77.4141434764213
 20
4.623318922744096
 30
0.0
 10
-76.57707809445472
 20
4.415588154055108
 30
0.0
 10
-75.74079021818779
 20
4.182341126030995
 30
0.0
 10
-74.90523043070293
 20
3.924927753501576
 30
0.0
 10
-74.07036907650263
 20
3.644783121781426
 30
0.0
 10
-73.23615790260141
 20
3.343508655726129
 30
0.0
 10
-72.40253881770389
 20
3.022857697157717
 30
0.0
 10
-71.56946445257957
 20
2.684646073759425
 30
0.0
 10
-70.73686801663583
 20
2.33084176016273
 30
0.0
 10
-69.90468203724211
 20
1.963501219898827
 30
0.0
 10
-69.07285106822016
 20
1.584736507075209
 30
0.0
 10
-68.24130551128309
 20
1.19675008662723
 30
0.0
 10
-67.40996834770135
 20
0.8018075146013162
 30
0.0
 10
-66.57877188316238
 20
0.4021973762556798
 30
0.0
 10
-66.02478974619002
 20
0.1342806289514594
 30
0.0
 10
-65.74764760335774
 20
0.0002469437570816
 30
0.0
  0
LINE
  5
251F
330
1F
100
AcDbEntity
  8
AM_0
100
AcDbLine
 10
-68.38381958008456
 20
4.850000260001733
 30
0.0
 11
-48.51435294402148
 21
4.850689290519942
 31
0.0
  0
LINE
  5
2520
330
1F
100
AcDbEntity
  8
AM_0
 48
0.5
100
AcDbLine
 10
-68.38382593794304
 20
-4.849999739998204
 30
0.0
 11
-50.57196446943397
 21
-4.849999739998404
 31
0.0
  0
VIEWPORT
  5
110
330
101
100
AcDbEntity
 67
     1
  8
0
100
AcDbViewport
 10
420.5
 20
297.0
 30
0.0
 40
948.9782706766916
 41
628.452
 68
     1
 69
     1
1001
ACAD
1000
MVIEW
1002
{
1070
    16
1010
0.0
1020
0.0
1030
0.0
1010
0.0
1020
0.0
1030
1.0
1040
0.0
1040
628.452
1040
420.5
1040
297.0
1040
50.0
1040
0.0
1040
0.0
1070
     0
1070
   100
1070
     1
1070
     1
1070
     0
1070
     0
1070
     0
1070
     0
1040
0.0
1040
0.0
1040
0.0
1040
10.0
1040
10.0
1040
10.0
1040
10.0
1070
     0
1002
{
1002
}
1002
}
  0
ENDSEC
  0
SECTION
  2
OBJECTS
  0
DICTIONARY
  5
C
330
0
100
AcDbDictionary
  3
ACAD_GROUP
350
D
  3
ACAD_LAYOUT
350
1A
  3
ACAD_MLINESTYLE
350
17
  3
ACAD_PLOTSETTINGS
350
19
  3
ACAD_PLOTSTYLENAME
350
E
  3
ACDBVARIABLEDICTIONARY
350
34
  3
ACMDICTIONARY
350
43
  3
AMG
350
2B
  3
AMGSNAPSETTINGS
350
6E
  3
DWGPROPS
350
256F
  3
ACDBHEADERROUNDTRIPXREC
350
257B
  0
DICTIONARY
  5
74
330
1F
100
AcDbDictionary
280
     1
  3
ACAD_INDEX
360
2571
  3
ACAD_LAYOUTSELFREF
360
259E
  0
DICTIONARY
  5
25A3
330
101
100
AcDbDictionary
280
     1
  3
ACAD_LAYOUTSELFREF
360
25A4
  0
DICTIONARY
  5
D
102
{ACAD_REACTORS
330
C
102
}
330
C
100
AcDbDictionary
  0
DICTIONARY
  5
1A
102
{ACAD_REACTORS
330
C
102
}
330
C
100
AcDbDictionary
  0
DICTIONARY
  5
17
102
{ACAD_REACTORS
330
C
102
}
330
C
100
AcDbDictionary
  3
STANDARD
350
18
  0
DICTIONARY
  5
19
102
{ACAD_REACTORS
330
C
102
}
330
C
100
AcDbDictionary
  0
ACDBDICTIONARYWDFLT
  5
E
102
{ACAD_REACTORS
330
C
102
}
330
C
100
AcDbDictionary
281
     1
  3
Normal
350
F
100
AcDbDictionaryWithDefault
340
F
  0
DICTIONARY
  5
34
102
{ACAD_REACTORS
330
C
102
}
330
C
100
AcDbDictionary
  3
INDEXCTL
350
35
  3
SORTENTS
350
B5E
  0
DICTIONARY
  5
43
102
{ACAD_REACTORS
330
C
102
}
330
C
100
AcDbDictionary
  3
ACMSTDDICTIONARY
350
260
  0
DICTIONARY
  5
2B
102
{ACAD_REACTORS
330
C
102
}
330
C
100
AcDbDictionary
  3
ACMGSETTINGS
350
2C
  0
DICTIONARY
  5
6E
102
{ACAD_REACTORS
330
C
102
}
330
C
100
AcDbDictionary
  0
XRECORD
  5
256F
102
{ACAD_REACTORS
330
C
102
}
330
C
100
AcDbXrecord
  1
DWGPROPS COOKIE
  2

  3

  4

  6

  7

  8

  9

300
AmdtFileType=82
301
=
302
=
303
=
304
=
305
=
306
=
307
=
308
=
309
=
 40
0.0329998611111111
 41
2452800.443498622
 42
2452948.692519711
  1

 90
        1
  0
DICTIONARY
  5
257B
102
{ACAD_REACTORS
330
C
102
}
330
C
100
AcDbDictionary
  3
TSTACKALIGN
350
257C
  3
TSTACKSIZE
350
257D
  3
HYPERLINKBASE
350
257E
  3
STYLESHEET
350
257F
  3
LAYOUTDICT
350
2580
  3
PLOTSETDICT
350
2581
  3
PLOTSTYLNAMDICT
350
2582
  3
LWETCUNION
350
2583
  3
INSUNITS
350
2584
  3
CEPSNTYPE
350
2585
  3
FINGERPRINTGUID
350
2586
  3
VERSIONGUID
350
2587
  3
PSVPSCALE
350
2588
  3
DIMSTYLEDATA
350
2589
  3
PUCSORTHOREF
350
258A
  3
PUCSORTHOVIEW
350
258B
  3
PUCSBASE
350
258C
  3
PUCSORGTOP
350
258D
  3
PUCSORGBOTTOM
350
258E
  3
PUCSORGLEFT
350
258F
  3
PUCSORGRIGHT
350
2590
  3
PUCSORGFRONT
350
2591
  3
PUCSORGBACK
350
2592
  3
UCSORTHOREF
350
2593
  3
UCSORTHOVIEW
350
2594
  3
UCSBASE
350
2595
  3
UCSORGTOP
350
2596
  3
UCSORGBOTTOM
350
2597
  3
UCSORGLEFT
350
2598
  3
UCSORGRIGHT
350
2599
  3
UCSORGFRONT
350
259A
  3
UCSORGBACK
350
259B
  0
DICTIONARY
  5
2571
102
{ACAD_REACTORS
330
74
102
}
330
74
100
AcDbDictionary
  3
*A1
350
2572
  0
XRECORD
  5
259E
102
{ACAD_REACTORS
330
74
102
}
330
74
100
AcDbXrecord
340
1F
  0
XRECORD
  5
25A4
102
{ACAD_REACTORS
330
25A3
102
}
330
25A3
100
AcDbXrecord
340
101
  0
MLINESTYLE
  5
18
102
{ACAD_REACTORS
330
17
102
}
330
17
100
AcDbMlineStyle
  2
STANDARD
 70
     0
  3

 62
   256
 51
90.0
 52
90.0
 71
     2
 49
0.5
 62
   256
  6
BYLAYER
 49
-0.5
 62
   256
  6
BYLAYER
  0
ACDBPLACEHOLDER
  5
F
102
{ACAD_REACTORS
330
E
102
}
330
E
100
AcDbPlaceHolder
280
     0
  0
DICTIONARYVAR
  5
35
102
{ACAD_REACTORS
330
34
102
}
330
34
100
DictionaryVariables
280
     0
  1
1
  0
DICTIONARYVAR
  5
B5E
102
{ACAD_REACTORS
330
34
102
}
330
34
100
DictionaryVariables
280
     0
  1
96
  0
DICTIONARY
  5
260
102
{ACAD_REACTORS
330
43
102
}
330
43
100
AcDbDictionary
  0
DICTIONARY
  5
2C
102
{ACAD_REACTORS
330
2B
102
}
330
2B
100
AcDbDictionary
  3
DWGSETTINGS
350
2D
  0
XRECORD
  5
257C
102
{ACAD_REACTORS
330
257B
102
}
330
257B
100
AcDbXrecord
 90
        1
  0
XRECORD
  5
257D
102
{ACAD_REACTORS
330
257B
102
}
330
257B
100
AcDbXrecord
 90
       70
  0
XRECORD
  5
257E
102
{ACAD_REACTORS
330
257B
102
}
330
257B
100
AcDbXrecord
  1

  0
XRECORD
  5
257F
102
{ACAD_REACTORS
330
257B
102
}
330
257B
100
AcDbXrecord
  1
ASAMI.ctb
  0
XRECORD
  5
2580
102
{ACAD_REACTORS
330
257B
102
}
330
257B
100
AcDbXrecord
340
1A
  0
XRECORD
  5
2581
102
{ACAD_REACTORS
330
257B
102
}
330
257B
100
AcDbXrecord
340
19
  0
XRECORD
  5
2582
102
{ACAD_REACTORS
330
257B
102
}
330
257B
100
AcDbXrecord
340
E
  0
XRECORD
  5
2583
102
{ACAD_REACTORS
330
257B
102
}
330
257B
100
AcDbXrecord
 90
    10781
  0
XRECORD
  5
2584
102
{ACAD_REACTORS
330
257B
102
}
330
257B
100
AcDbXrecord
 90
        4
  0
XRECORD
  5
2585
102
{ACAD_REACTORS
330
257B
102
}
330
257B
100
AcDbXrecord
 90
        0
  0
XRECORD
  5
2586
102
{ACAD_REACTORS
330
257B
102
}
330
257B
100
AcDbXrecord
  1
{AFB28963-8C59-40AE-9337-C84526B81ACE}
  0
XRECORD
  5
2587
102
{ACAD_REACTORS
330
257B
102
}
330
257B
100
AcDbXrecord
  1
{456DFEAC-A833-4F94-8D86-6C3ABB5E5C63}
  0
XRECORD
  5
2588
102
{ACAD_REACTORS
330
257B
102
}
330
257B
100
AcDbXrecord
 40
0.0
  0
XRECORD
  5
2589
102
{ACAD_REACTORS
330
257B
102
}
330
257B
100
AcDbXrecord
1000
DSTYLE
1002
{
1070
    79
 70
     2
1070
   341
340
59
1070
   342
340
59
1070
   371
 70
    -1
1070
   372
 70
    -1
1002
}
  0
XRECORD
  5
258A
102
{ACAD_REACTORS
330
257B
102
}
330
257B
100
AcDbXrecord
340
0
  0
XRECORD
  5
258B
102
{ACAD_REACTORS
330
257B
102
}
330
257B
100
AcDbXrecord
 70
     0
  0
XRECORD
  5
258C
102
{ACAD_REACTORS
330
257B
102
}
330
257B
100
AcDbXrecord
340
0
  0
XRECORD
  5
258D
102
{ACAD_REACTORS
330
257B
102
}
330
257B
100
AcDbXrecord
 10
0.0
 20
0.0
 30
0.0
  0
XRECORD
  5
258E
102
{ACAD_REACTORS
330
257B
102
}
330
257B
100
AcDbXrecord
 10
0.0
 20
0.0
 30
0.0
  0
XRECORD
  5
258F
102
{ACAD_REACTORS
330
257B
102
}
330
257B
100
AcDbXrecord
 10
0.0
 20
0.0
 30
0.0
  0
XRECORD
  5
2590
102
{ACAD_REACTORS
330
257B
102
}
330
257B
100
AcDbXrecord
 10
0.0
 20
0.0
 30
0.0
  0
XRECORD
  5
2591
102
{ACAD_REACTORS
330
257B
102
}
330
257B
100
AcDbXrecord
 10
0.0
 20
0.0
 30
0.0
  0
XRECORD
  5
2592
102
{ACAD_REACTORS
330
257B
102
}
330
257B
100
AcDbXrecord
 10
0.0
 20
0.0
 30
0.0
  0
XRECORD
  5
2593
102
{ACAD_REACTORS
330
257B
102
}
330
257B
100
AcDbXrecord
340
0
  0
XRECORD
  5
2594
102
{ACAD_REACTORS
330
257B
102
}
330
257B
100
AcDbXrecord
 70
     0
  0
XRECORD
  5
2595
102
{ACAD_REACTORS
330
257B
102
}
330
257B
100
AcDbXrecord
340
0
  0
XRECORD
  5
2596
102
{ACAD_REACTORS
330
257B
102
}
330
257B
100
AcDbXrecord
 10
0.0
 20
0.0
 30
0.0
  0
XRECORD
  5
2597
102
{ACAD_REACTORS
330
257B
102
}
330
257B
100
AcDbXrecord
 10
0.0
 20
0.0
 30
0.0
  0
XRECORD
  5
2598
102
{ACAD_REACTORS
330
257B
102
}
330
257B
100
AcDbXrecord
 10
0.0
 20
0.0
 30
0.0
  0
XRECORD
  5
2599
102
{ACAD_REACTORS
330
257B
102
}
330
257B
100
AcDbXrecord
 10
0.0
 20
0.0
 30
0.0
  0
XRECORD
  5
259A
102
{ACAD_REACTORS
330
257B
102
}
330
257B
100
AcDbXrecord
 10
0.0
 20
0.0
 30
0.0
  0
XRECORD
  5
259B
102
{ACAD_REACTORS
330
257B
102
}
330
257B
100
AcDbXrecord
 10
0.0
 20
0.0
 30
0.0
  0
LAYER_INDEX
  5
2572
102
{ACAD_REACTORS
330
2571
102
}
330
2571
100
AcDbIndex
 40
2453151.682128889
100
AcDbLayerIndex
  8
0
360
2573
 90
        0
  8
AM_0
360
2574
 90
       54
  8
AM_7
360
2575
 90
        1
  8
AM_11
360
2576
 90
       21
  8
AM_5
360
2577
 90
        5
  8
Defpoints
360
2578
 90
        0
  8
AM_6
360
2579
 90
        1
  0
XRECORD
  5
2D
102
{ACAD_REACTORS
330
2C
102
}
330
2C
100
AcDbXrecord
  1
VERSION
140
15.0
  1
PRODUCT
  2
AutoCAD Mechanical 2000
  0
IDBUFFER
  5
2573
330
0
100
AcDbIdBuffer
  0
IDBUFFER
  5
2574
330
0
100
AcDbIdBuffer
330
2519
330
251A
330
251B
330
251E
330
251F
330
2520
330
1E7F
330
1E80
330
1E81
330
1E82
330
2157
330
2158
330
2159
330
215A
330
215B
330
2339
330
233A
330
233C
330
233E
330
233F
330
2341
330
24ED
330
24EE
330
24EF
330
24F0
330
24F1
330
24F6
330
24F7
330
24F8
330
24F9
330
24FA
330
24FB
330
24FC
330
24FD
330
24FE
330
24FF
330
2502
330
2503
330
2504
330
2505
330
2506
330
2507
330
250B
330
250C
330
250D
330
2510
330
2511
330
2512
330
2513
330
2514
330
2515
330
2516
330
2517
330
2518
  0
IDBUFFER
  5
2575
330
0
100
AcDbIdBuffer
330
1DA9
  0
IDBUFFER
  5
2576
330
0
100
AcDbIdBuffer
330
250A
330
250E
330
250F
330
251C
330
251D
330
1E77
330
1E78
330
1E79
330
1E7A
330
1E83
330
1E84
330
1E85
330
1E86
330
24F2
330
24F3
330
24F4
330
24F5
330
2500
330
2501
330
2508
330
2509
  0
IDBUFFER
  5
2577
330
0
100
AcDbIdBuffer
330
CC6
330
DF5
330
1F03
330
220E
330
2377
  0
IDBUFFER
  5
2578
330
0
100
AcDbIdBuffer
  0
IDBUFFER
  5
2579
330
0
100
AcDbIdBuffer
330
19BD
  0
ENDSEC
  0
EOF
