  0
SECTION
  2
HEADER
  9
$ACADVER
  1
AC1014
  9
$ACADMAINTVER
 70
     9
  9
$DWGCODEPAGE
  3
ANSI_932
  9
$INSBASE
 10
0.0
 20
0.0
 30
0.0
  9
$EXTMIN
 10
-120.150001
 20
-28.25000402524004
 30
-0.00000001
  9
$EXTMAX
 10
13.73115421205165
 20
13.3728998294627
 30
0.00000001
  9
$LIMMIN
 10
-156.1444050923396
 20
-44.51020785580943
  9
$LIMMAX
 10
20.31336096277607
 20
28.16015358894219
  9
$ORTHOMODE
 70
     0
  9
$REGENMODE
 70
     1
  9
$FILLMODE
 70
     1
  9
$QTEXTMODE
 70
     0
  9
$MIRRTEXT
 70
     0
  9
$DRAGMODE
 70
     2
  9
$LTSCALE
 40
1.0
  9
$OSMODE
 70
    55
  9
$ATTMODE
 70
     1
  9
$TEXTSIZE
 40
2.5
  9
$TRACEWID
 40
1.0
  9
$TEXTSTYLE
  7
STANDARD
  9
$CLAYER
  8
AM_0
  9
$CELTYPE
  6
BYLAYER
  9
$CECOLOR
 62
   256
  9
$CELTSCALE
 40
1.0
  9
$DELOBJ
 70
     1
  9
$DISPSILH
 70
     0
  9
$DIMSCALE
 40
0.5
  9
$DIMASZ
 40
2.5
  9
$DIMEXO
 40
1.0
  9
$DIMDLI
 40
12.0
  9
$DIMRND
 40
0.0
  9
$DIMDLE
 40
0.0
  9
$DIMEXE
 40
1.0
  9
$DIMTP
 40
0.1
  9
$DIMTM
 40
0.1
  9
$DIMTXT
 40
3.2
  9
$DIMCEN
 40
0.0
  9
$DIMTSZ
 40
0.0
  9
$DIMTOL
 70
     0
  9
$DIMLIM
 70
     0
  9
$DIMTIH
 70
     0
  9
$DIMTOH
 70
     0
  9
$DIMSE1
 70
     0
  9
$DIMSE2
 70
     0
  9
$DIMTAD
 70
     3
  9
$DIMZIN
 70
     8
  9
$DIMBLK
  1
OPEN30
  9
$DIMASO
 70
     1
  9
$DIMSHO
 70
     1
  9
$DIMPOST
  1

  9
$DIMAPOST
  1
"
  9
$DIMALT
 70
     0
  9
$DIMALTD
 70
     2
  9
$DIMALTF
 40
0.0393701
  9
$DIMLFAC
 40
1.0
  9
$DIMTOFL
 70
     1
  9
$DIMTVP
 40
0.0
  9
$DIMTIX
 70
     0
  9
$DIMSOXD
 70
     0
  9
$DIMSAH
 70
     0
  9
$DIMBLK1
  1

  9
$DIMBLK2
  1

  9
$DIMSTYLE
  2
AM_JIS
  9
$DIMCLRD
 70
   256
  9
$DIMCLRE
 70
   256
  9
$DIMCLRT
 70
     2
  9
$DIMTFAC
 40
0.71
  9
$DIMGAP
 40
1.5
  9
$DIMJUST
 70
     0
  9
$DIMSD1
 70
     0
  9
$DIMSD2
 70
     0
  9
$DIMTOLJ
 70
     0
  9
$DIMTZIN
 70
     0
  9
$DIMALTZ
 70
     0
  9
$DIMALTTZ
 70
     0
  9
$DIMFIT
 70
     3
  9
$DIMUPT
 70
     0
  9
$DIMUNIT
 70
     2
  9
$DIMDEC
 70
     3
  9
$DIMTDEC
 70
     3
  9
$DIMALTU
 70
     2
  9
$DIMALTTD
 70
     2
  9
$DIMTXSTY
  7
ASAMI
  9
$DIMAUNIT
 70
     0
  9
$LUNITS
 70
     2
  9
$LUPREC
 70
     2
  9
$SKETCHINC
 40
1.0
  9
$FILLETRAD
 40
2.5
  9
$AUNITS
 70
     0
  9
$AUPREC
 70
     0
  9
$MENU
  1
.
  9
$ELEVATION
 40
0.0
  9
$PELEVATION
 40
0.0
  9
$THICKNESS
 40
0.0
  9
$LIMCHECK
 70
     0
  9
$BLIPMODE
 70
     0
  9
$CHAMFERA
 40
0.5
  9
$CHAMFERB
 40
0.5
  9
$CHAMFERC
 40
20.0
  9
$CHAMFERD
 40
0.0
  9
$SKPOLY
 70
     0
  9
$TDCREATE
 40
2452800.443498622
  9
$TDUPDATE
 40
2453151.572599086
  9
$TDINDWG
 40
0.0614903241
  9
$TDUSRTIMER
 40
0.0614903241
  9
$USRTIMER
 70
     1
  9
$ANGBASE
 50
0.0
  9
$ANGDIR
 70
     0
  9
$PDMODE
 70
     0
  9
$PDSIZE
 40
0.0
  9
$PLINEWID
 40
0.0
  9
$COORDS
 70
     1
  9
$SPLFRAME
 70
     0
  9
$SPLINETYPE
 70
     6
  9
$SPLINESEGS
 70
     8
  9
$ATTDIA
 70
     1
  9
$ATTREQ
 70
     1
  9
$HANDLING
 70
 12289
  9
$HANDSEED
  5
311D
  9
$SURFTAB1
 70
     6
  9
$SURFTAB2
 70
     6
  9
$SURFTYPE
 70
     6
  9
$SURFU
 70
     6
  9
$SURFV
 70
     6
  9
$UCSNAME
  2

  9
$UCSORG
 10
0.0
 20
0.0
 30
0.0
  9
$UCSXDIR
 10
1.0
 20
0.0000000000000027
 30
0.0
  9
$UCSYDIR
 10
-0.0000000000000027
 20
1.0
 30
0.0
  9
$PUCSNAME
  2

  9
$PUCSORG
 10
0.0
 20
0.0
 30
0.0
  9
$PUCSXDIR
 10
1.0
 20
0.0
 30
0.0
  9
$PUCSYDIR
 10
0.0
 20
1.0
 30
0.0
  9
$USERI1
 70
     0
  9
$USERI2
 70
     0
  9
$USERI3
 70
     0
  9
$USERI4
 70
     0
  9
$USERI5
 70
     0
  9
$USERR1
 40
0.0
  9
$USERR2
 40
0.0
  9
$USERR3
 40
0.0
  9
$USERR4
 40
0.0
  9
$USERR5
 40
0.0
  9
$WORLDVIEW
 70
     1
  9
$SHADEDGE
 70
     3
  9
$SHADEDIF
 70
    70
  9
$TILEMODE
 70
     1
  9
$MAXACTVP
 70
    64
  9
$PINSBASE
 10
0.0
 20
0.0
 30
0.0
  9
$PLIMCHECK
 70
     0
  9
$PEXTMIN
 10
1.000000000000000E+20
 20
1.000000000000000E+20
 30
1.000000000000000E+20
  9
$PEXTMAX
 10
-1.000000000000000E+20
 20
-1.000000000000000E+20
 30
-1.000000000000000E+20
  9
$PLIMMIN
 10
0.0
 20
0.0
  9
$PLIMMAX
 10
841.0
 20
594.0
  9
$UNITMODE
 70
     0
  9
$VISRETAIN
 70
     1
  9
$PLINEGEN
 70
     0
  9
$PSLTSCALE
 70
     0
  9
$TREEDEPTH
 70
  3020
  9
$PICKSTYLE
 70
     0
  9
$CMLSTYLE
  2
STANDARD
  9
$CMLJUST
 70
     0
  9
$CMLSCALE
 40
20.0
  9
$PROXYGRAPHICS
 70
     1
  9
$MEASUREMENT
 70
     1
  0
ENDSEC
  0
SECTION
  2
CLASSES
  0
CLASS
  1
ACDBDICTIONARYWDFLT
  2
AcDbDictionaryWithDefault
  3
AutoCAD 2000
 90
        0
280
     0
281
     0
  0
CLASS
  1
ACDBPLACEHOLDER
  2
AcDbPlaceHolder
  3
AutoCAD 2000
 90
        0
280
     0
281
     0
  0
CLASS
  1
LAYOUT
  2
AcDbLayout
  3
AutoCAD 2000
 90
        0
280
     0
281
     0
  0
CLASS
  1
AMGSETTINGSOBJ
  2
AmgSettingsObj
  3
"AcadM|Product Description: AutoCAD Mechanical 2000|Company: Autodesk"
 90
        0
280
     0
281
     0
  0
CLASS
  1
ACME_DOCUMENT
  2
AcMeDbDoc
  3
AcMeServices
 90
        0
280
     0
281
     0
  0
CLASS
  1
ACMESCOPE
  2
AcMeScope
  3
AcMeServices
 90
        0
280
     0
281
     0
  0
CLASS
  1
ACMECOMMANDHISTORY
  2
AcMeCommandHistory
  3
AcMeServices
 90
        0
280
     0
281
     0
  0
CLASS
  1
DICTIONARYVAR
  2
AcDbDictionaryVar
  3
AutoCAD 2000
 90
        0
280
     0
281
     0
  0
CLASS
  1
ACIMSYSVARMAN
  2
AcImSysVarManager
  3
AcMeServices
 90
        0
280
     0
281
     0
  0
CLASS
  1
ACIMREALSYSVAR
  2
AcImRealSysVar
  3
AcMeServices
 90
        0
280
     0
281
     0
  0
CLASS
  1
ACIMINTSYSVAR
  2
AcImIntSysVar
  3
AcMeServices
 90
        0
280
     0
281
     0
  0
CLASS
  1
ACMEDRAWINGMAN
  2
AcMeDrawingMan
  3
AcMeServices
 90
        0
280
     0
281
     0
  0
CLASS
  1
ACMEVIEW
  2
AcMeView
  3
AcMeServices
 90
        0
280
     0
281
     0
  0
CLASS
  1
ACDBENTITYCACHE
  2
AcMeEntityCache
  3
AcMeServices
 90
        0
280
     0
281
     0
  0
CLASS
  1
GSMANAGER
  2
AcMeGSManager
  3
AcMeServices
 90
        0
280
     0
281
     0
  0
CLASS
  1
AmdtInternalReactor
  2
AmdtInternalReactor
  3
AcMeServices
 90
        0
280
     0
281
     0
  0
CLASS
  1
ACMESTATEMGR
  2
AcMeStateMgr
  3
AcMeServices
 90
        0
280
     0
281
     0
  0
CLASS
  1
ACME_DATABASE
  2
AcMeDbDatabase
  3
AcMeServices
 90
        0
280
     0
281
     0
  0
CLASS
  1
ACRFINSADJUSTERMGR
  2
AcRfInsAdjusterMgr
  3
AcMeServices
 90
        0
280
     0
281
     0
  0
CLASS
  1
ACMDATADICTIONARY
  2
AcmDataDictionary
  3
"AcmSymBB|Product Description: AutoCAD Mechanical 2000|Company: Autodesk"
 90
        0
280
     0
281
     0
  0
CLASS
  1
ACMDATAENTRYBLOCK
  2
AcmDataEntryBlock
  3
"AcmSymBB|Product Description: AutoCAD Mechanical 2000|Company: Autodesk"
 90
        0
280
     0
281
     0
  0
CLASS
  1
AMGOBJPROPCFG
  2
AmgObjPropCfg
  3
"AmgLay|Product Description: AutoCAD Mechanical 2000|Company: Autodesk"
 90
        1
280
     0
281
     0
  0
CLASS
  1
ACAMGFILTERDAT
  2
AcAmgFilterDat
  3
"AcadM|Product Description: AutoCAD Mechanical 2000|Company: Autodesk"
 90
        0
280
     0
281
     0
  0
CLASS
  1
LAYER_INDEX
  2
AcDbLayerIndex
  3
AutoCAD 2000
 90
        0
280
     0
281
     0
  0
CLASS
  1
IDBUFFER
  2
AcDbIdBuffer
  3
AutoCAD 2000
 90
        0
280
     0
281
     0
  0
CLASS
  1
ACIMSTRSYSVAR
  2
AcImStrSysVar
  3
AcMeServices
 90
        0
280
     0
281
     0
  0
CLASS
  1
ACMSTANDARDJIS
  2
AcmStandardJIS
  3
"AcmSymBB|Product Description: AutoCAD Mechanical 2000|Company: Autodesk"
 90
        0
280
     0
281
     0
  0
CLASS
  1
ACMSURFSTANDARDJIS
  2
AcmSurfTextStdJIS
  3
"AcmSymBB|Product Description: AutoCAD Mechanical 2000|Company: Autodesk"
 90
        0
280
     0
281
     0
  0
CLASS
  1
ACMFCFSTANDARDJIS
  2
AcmFCFStdJIS
  3
"AcmSymBB|Product Description: AutoCAD Mechanical 2000|Company: Autodesk"
 90
        0
280
     0
281
     0
  0
CLASS
  1
ACMWELDSTANDARDJIS
  2
AcmWeldingStdJIS
  3
"AcmSymBB|Product Description: AutoCAD Mechanical 2000|Company: Autodesk"
 90
        0
280
     0
281
     0
  0
CLASS
  1
ACMIDSTANDARDJIS
  2
AcmIdStdJIS
  3
"AcmSymBB|Product Description: AutoCAD Mechanical 2000|Company: Autodesk"
 90
        0
280
     0
281
     0
  0
CLASS
  1
ACMDATUMSTANDARDJIS
  2
AcmDatumStdJIS
  3
"AcmSymBB|Product Description: AutoCAD Mechanical 2000|Company: Autodesk"
 90
        0
280
     0
281
     0
  0
CLASS
  1
ACMBOMSTANDARDJIS
  2
AcmBOMStdJIS
  3
"AcmSymBB|Product Description: AutoCAD Mechanical 2000|Company: Autodesk"
 90
        0
280
     0
281
     0
  0
CLASS
  1
ACMSTANDARDANSI
  2
AcmStandardANSI
  3
"AcmSymBB|Product Description: AutoCAD Mechanical 2000|Company: Autodesk"
 90
        0
280
     0
281
     0
  0
CLASS
  1
ACMSURFSTANDARDANSI
  2
AcmSurfTextStdANSI
  3
"AcmSymBB|Product Description: AutoCAD Mechanical 2000|Company: Autodesk"
 90
        0
280
     0
281
     0
  0
CLASS
  1
ACMFCFSTANDARDANSI
  2
AcmFCFStdANSI
  3
"AcmSymBB|Product Description: AutoCAD Mechanical 2000|Company: Autodesk"
 90
        0
280
     0
281
     0
  0
CLASS
  1
ACMWELDSTANDARDANSI
  2
AcmWeldingStdANSI
  3
"AcmSymBB|Product Description: AutoCAD Mechanical 2000|Company: Autodesk"
 90
        0
280
     0
281
     0
  0
CLASS
  1
ACMIDSTANDARDANSI
  2
AcmIdStdANSI
  3
"AcmSymBB|Product Description: AutoCAD Mechanical 2000|Company: Autodesk"
 90
        0
280
     0
281
     0
  0
CLASS
  1
ACMDATUMSTANDARDANSI
  2
AcmDatumStdANSI
  3
"AcmSymBB|Product Description: AutoCAD Mechanical 2000|Company: Autodesk"
 90
        0
280
     0
281
     0
  0
CLASS
  1
ACMBOMSTANDARDANSI
  2
AcmBOMStdANSI
  3
"AcmSymBB|Product Description: AutoCAD Mechanical 2000|Company: Autodesk"
 90
        0
280
     0
281
     0
  0
CLASS
  1
ACMSTANDARDBSI
  2
AcmStandardBSI
  3
"AcmSymBB|Product Description: AutoCAD Mechanical 2000|Company: Autodesk"
 90
        0
280
     0
281
     0
  0
CLASS
  1
ACMSURFSTANDARDBSI
  2
AcmSurfTextStdBSI
  3
"AcmSymBB|Product Description: AutoCAD Mechanical 2000|Company: Autodesk"
 90
        0
280
     0
281
     0
  0
CLASS
  1
ACMFCFSTANDARDBSI
  2
AcmFCFStdBSI
  3
"AcmSymBB|Product Description: AutoCAD Mechanical 2000|Company: Autodesk"
 90
        0
280
     0
281
     0
  0
CLASS
  1
ACMWELDSTANDARDBSI
  2
AcmWeldingStdBSI
  3
"AcmSymBB|Product Description: AutoCAD Mechanical 2000|Company: Autodesk"
 90
        0
280
     0
281
     0
  0
CLASS
  1
ACMIDSTANDARDBSI
  2
AcmIdStdBSI
  3
"AcmSymBB|Product Description: AutoCAD Mechanical 2000|Company: Autodesk"
 90
        0
280
     0
281
     0
  0
CLASS
  1
ACMDATUMSTANDARDBSI
  2
AcmDatumStdBSI
  3
"AcmSymBB|Product Description: AutoCAD Mechanical 2000|Company: Autodesk"
 90
        0
280
     0
281
     0
  0
CLASS
  1
ACMBOMSTANDARDBSI
  2
AcmBOMStdBSI
  3
"AcmSymBB|Product Description: AutoCAD Mechanical 2000|Company: Autodesk"
 90
        0
280
     0
281
     0
  0
CLASS
  1
LONG_TRANSACTION
  2
AcDbLongTransaction
  3
AutoCAD 2000
 90
        0
280
     0
281
     0
  0
CLASS
  1
LWPOLYLINE
  2
AcDbPolyline
  3
AutoCAD 2000
 90
        0
280
     0
281
     1
  0
CLASS
  1
HATCH
  2
AcDbHatch
  3
AutoCAD 2000
 90
        0
280
     0
281
     1
  0
CLASS
  1
XRECORD
  2
AcDbXrecord
  3
AutoCAD 2000
 90
        0
280
     0
281
     0
  0
ENDSEC
  0
SECTION
  2
TABLES
  0
TABLE
  2
VPORT
  5
8
330
0
100
AcDbSymbolTable
 70
     3
  0
VPORT
  5
30E7
330
8
100
AcDbSymbolTableRecord
100
AcDbViewportTableRecord
  2
*ACTIVE
 70
     0
 10
0.0
 20
0.0
 11
1.0
 21
1.0
 12
-50.72671201406722
 22
-7.437633921982879
 13
0.0
 23
0.0
 14
2.5
 24
2.5
 15
10.0
 25
10.0
 16
0.0
 26
0.0
 36
1.0
 17
0.0
 27
0.0
 37
0.0
 40
89.10578188690735
 41
1.56570841889117
 42
50.0
 43
0.0
 44
0.0
 50
0.0
 51
0.0
 71
     0
 72
   100
 73
     1
 74
     1
 75
     0
 76
     0
 77
     0
 78
     0
  0
ENDTAB
  0
TABLE
  2
LTYPE
  5
5
330
0
100
AcDbSymbolTable
 70
    10
  0
LTYPE
  5
14
330
5
100
AcDbSymbolTableRecord
100
AcDbLinetypeTableRecord
  2
BYBLOCK
 70
     0
  3

 72
    65
 73
     0
 40
0.0
  0
LTYPE
  5
15
330
5
100
AcDbSymbolTableRecord
100
AcDbLinetypeTableRecord
  2
BYLAYER
 70
     0
  3

 72
    65
 73
     0
 40
0.0
  0
LTYPE
  5
16
330
5
100
AcDbSymbolTableRecord
100
AcDbLinetypeTableRecord
  2
CONTINUOUS
 70
     0
  3
Solid line
 72
    65
 73
     0
 40
0.0
  0
LTYPE
  5
4B
330
5
100
AcDbSymbolTableRecord
100
AcDbLinetypeTableRecord
  2
AM_ISO02W050
 70
     0
  3
__ __ __ __ __ __ __ __ __ __ __ __ __ __ __
 72
    65
 73
     2
 40
7.5
 49
6.0
 74
     0
 49
-1.5
 74
     0
  0
LTYPE
  5
4C
330
5
100
AcDbSymbolTableRecord
100
AcDbLinetypeTableRecord
  2
AM_ISO08W050
 70
     0
  3
____ . ____ . ____ . ____ . ____ . ____ . ____
 72
    65
 73
     4
 40
18.0
 49
12.0
 74
     0
 49
-1.5
 74
     0
 49
3.0
 74
     0
 49
-1.5
 74
     0
  0
LTYPE
  5
4D
330
5
100
AcDbSymbolTableRecord
100
AcDbLinetypeTableRecord
  2
AM_ISO09W050
 70
     0
  3
_____ . . _____ . . _____ . . ____ .. ____
 72
    65
 73
     6
 40
22.5
 49
12.0
 74
     0
 49
-1.5
 74
     0
 49
3.0
 74
     0
 49
-1.5
 74
     0
 49
3.0
 74
     0
 49
-1.5
 74
     0
  0
LTYPE
  5
4E
330
5
100
AcDbSymbolTableRecord
100
AcDbLinetypeTableRecord
  2
AMCONSTR
 70
     0
  3
_______________________
 72
    65
 73
     2
 40
9999.0
 49
9999.0
 74
     0
 49
0.0
 74
     0
  0
LTYPE
  5
4F
330
5
100
AcDbSymbolTableRecord
100
AcDbLinetypeTableRecord
  2
AM_ISO02W050X2
 70
     0
  3
 _ _ _ _ _ _ _ _ _ _ _ _
 72
    65
 73
     2
 40
3.75
 49
3.0
 74
     0
 49
-0.75
 74
     0
  0
LTYPE
  5
50
330
5
100
AcDbSymbolTableRecord
100
AcDbLinetypeTableRecord
  2
AM_ISO08W050X2
 70
     0
  3
__ . __ . __ . __ . __ . __
 72
    65
 73
     4
 40
9.0
 49
6.0
 74
     0
 49
-0.75
 74
     0
 49
1.5
 74
     0
 49
-0.75
 74
     0
  0
LTYPE
  5
53
330
5
100
AcDbSymbolTableRecord
100
AcDbLinetypeTableRecord
  2
AMZIGZAG
 70
     0
  3
/\/-/\/-/\/-/\/-/\/-/\/
 72
    65
 73
     2
 40
11.00009999999999
 49
0.0001
 74
     4
 75
   135
340
52
 46
0.04
 50
0.0
 44
0.0
 45
0.0
 49
-11.0
 74
     0
  0
LTYPE
  5
166
330
5
100
AcDbSymbolTableRecord
100
AcDbLinetypeTableRecord
  2
ACJISTGL
 70
     0
  3
_ _ _ _ _
 72
    65
 73
     2
 40
3.0
 49
2.0
 74
     0
 49
-1.0
 74
     0
  0
LTYPE
  5
26A
330
5
100
AcDbSymbolTableRecord
100
AcDbLinetypeTableRecord
  2
ACJISTGB
 70
     0
  3
__ . . __ . .
 72
    65
 73
     6
 40
9.0
 49
4.0
 74
     0
 49
-1.0
 74
     0
 49
1.0
 74
     0
 49
-1.0
 74
     0
 49
1.0
 74
     0
 49
-1.0
 74
     0
  0
ENDTAB
  0
TABLE
  2
LAYER
  5
2
330
0
100
AcDbSymbolTable
 70
     7
  0
LAYER
  5
10
330
2
100
AcDbSymbolTableRecord
100
AcDbLayerTableRecord
  2
0
 70
     0
 62
     7
  6
CONTINUOUS
  0
LAYER
  5
3F9
330
2
100
AcDbSymbolTableRecord
100
AcDbLayerTableRecord
  2
AM_0
 70
     0
 62
     7
  6
CONTINUOUS
  0
LAYER
  5
C7C
330
2
100
AcDbSymbolTableRecord
100
AcDbLayerTableRecord
  2
AM_7
 70
     0
 62
     4
  6
AM_ISO08W050
  0
LAYER
  5
C97
330
2
100
AcDbSymbolTableRecord
100
AcDbLayerTableRecord
  2
AM_11
 70
     0
 62
     3
  6
AM_ISO09W050
  0
LAYER
  5
CC5
330
2
100
AcDbSymbolTableRecord
100
AcDbLayerTableRecord
  2
AM_5
 70
     0
 62
     3
  6
CONTINUOUS
  0
LAYER
  5
CC7
330
2
100
AcDbSymbolTableRecord
100
AcDbLayerTableRecord
  2
DEFPOINTS
 70
     0
 62
     7
  6
CONTINUOUS
  0
LAYER
  5
19BC
330
2
100
AcDbSymbolTableRecord
100
AcDbLayerTableRecord
  2
AM_6
 70
     0
 62
     2
  6
CONTINUOUS
  0
ENDTAB
  0
TABLE
  2
STYLE
  5
3
330
0
100
AcDbSymbolTable
 70
     5
  0
STYLE
  5
11
330
3
100
AcDbSymbolTableRecord
100
AcDbTextStyleTableRecord
  2
STANDARD
 70
     0
 40
0.0
 41
1.0
 50
0.0
 71
     0
 42
2.5
  3
simplex.shx
  4
EXTFONT.SHX
  0
STYLE
  5
52
330
3
100
AcDbSymbolTableRecord
100
AcDbTextStyleTableRecord
  2

 70
     1
 40
0.0
 41
1.0
 50
0.0
 71
     0
 42
2.5
  3
ltypeshp.shx
  4

  0
STYLE
  5
6B
330
3
100
AcDbSymbolTableRecord
100
AcDbTextStyleTableRecord
  2
ASAMI
 70
     0
 40
0.0
 41
1.0
 50
0.0
 71
     0
 42
2.5
  3
simplex.shx
  4
EXTFONT.SHX
  0
STYLE
  5
262
330
3
100
AcDbSymbolTableRecord
100
AcDbTextStyleTableRecord
  2
ACJISTS
 70
     0
 40
1.0
 41
1.0
 50
0.0
 71
     0
 42
2.5
  3
simplex.shx
  4
bigfont.shx
  0
STYLE
  5
269
330
3
100
AcDbSymbolTableRecord
100
AcDbTextStyleTableRecord
  2
ACJISGDT
 70
     0
 40
0.0
 41
1.0
 50
0.0
 71
     0
 42
2.5
  3
amgdtans.shx
  4

  0
ENDTAB
  0
TABLE
  2
VIEW
  5
6
330
0
100
AcDbSymbolTable
 70
     0
  0
ENDTAB
  0
TABLE
  2
UCS
  5
7
330
0
100
AcDbSymbolTable
 70
     0
  0
ENDTAB
  0
TABLE
  2
APPID
  5
9
330
0
100
AcDbSymbolTable
 70
    16
  0
APPID
  5
12
330
9
100
AcDbSymbolTableRecord
100
AcDbRegAppTableRecord
  2
ACAD
 70
     0
  0
APPID
  5
30
330
9
100
AcDbSymbolTableRecord
100
AcDbRegAppTableRecord
  2
MCAD_NO_VIS
 70
     0
  0
APPID
  5
31
330
9
100
AcDbSymbolTableRecord
100
AcDbRegAppTableRecord
  2
ACAD_TEMP_GRAPHIC
 70
     0
  0
APPID
  5
2C2
330
9
100
AcDbSymbolTableRecord
100
AcDbRegAppTableRecord
  2
GENIUS_GENDTOL_13
 70
     0
  0
APPID
  5
339
330
9
100
AcDbSymbolTableRecord
100
AcDbRegAppTableRecord
  2
GENIUS_GENODEF_13
 70
     0
  0
APPID
  5
33A
330
9
100
AcDbSymbolTableRecord
100
AcDbRegAppTableRecord
  2
GENIUS_GENOBJ-N-RSBK_13
 70
     0
  0
APPID
  5
33B
330
9
100
AcDbSymbolTableRecord
100
AcDbRegAppTableRecord
  2
GENIUS_GENOBJ-N-LIB_13
 70
     0
  0
APPID
  5
33C
330
9
100
AcDbSymbolTableRecord
100
AcDbRegAppTableRecord
  2
GENIUS_GENSCALE_13
 70
     0
  0
APPID
  5
378
330
9
100
AcDbSymbolTableRecord
100
AcDbRegAppTableRecord
  2
GENIUS_GENDIMSH_14
 70
     0
  0
APPID
  5
C82
330
9
100
AcDbSymbolTableRecord
100
AcDbRegAppTableRecord
  2
GENIUS_GENOBJ-N-CRS_13
 70
     0
  0
APPID
  5
C83
330
9
100
AcDbSymbolTableRecord
100
AcDbRegAppTableRecord
  2
GENIUS_GENOENT_13
 70
     0
  0
APPID
  5
C84
330
9
100
AcDbSymbolTableRecord
100
AcDbRegAppTableRecord
  2
GENIUS_GENOREF_13
 70
     0
  0
APPID
  5
C85
330
9
100
AcDbSymbolTableRecord
100
AcDbRegAppTableRecord
  2
GENIUS_GENOLIS_13
 70
     0
  0
APPID
  5
CA0
330
9
100
AcDbSymbolTableRecord
100
AcDbRegAppTableRecord
  2
GENIUS_GENOBJ-N-CEN_13
 70
     0
  0
APPID
  5
2796
330
9
100
AcDbSymbolTableRecord
100
AcDbRegAppTableRecord
  2
GENIUS_GENFIL_13
 70
     0
  0
APPID
  5
2797
330
9
100
AcDbSymbolTableRecord
100
AcDbRegAppTableRecord
  2
GENIUS_GENOBJ-N-CHA_13
 70
     0
  0
ENDTAB
  0
TABLE
  2
DIMSTYLE
  5
A
330
0
100
AcDbSymbolTable
 70
     9
  0
DIMSTYLE
105
58
330
A
100
AcDbSymbolTableRecord
100
AcDbDimStyleTableRecord
  2
AM_JIS
 70
     0
  3

  4
"
  5
OPEN30
  6

  7

 40
0.5
 41
2.5
 42
1.0
 43
12.0
 44
1.0
 45
0.0
 46
0.0
 47
0.1
 48
0.1
140
3.2
141
0.0
142
0.0
143
0.0393701
144
1.0
145
0.0
146
0.71
147
1.5
 71
     0
 72
     0
 73
     0
 74
     0
 75
     0
 76
     0
 77
     3
 78
     8
170
     0
171
     2
172
     1
173
     0
174
     0
175
     0
176
   256
177
   256
178
     2
270
     2
271
     3
272
     3
273
     2
274
     2
340
6B
275
     0
280
     0
281
     0
282
     0
283
     0
284
     0
285
     0
286
     0
287
     3
288
     0
  0
DIMSTYLE
105
5F
330
A
100
AcDbSymbolTableRecord
100
AcDbDimStyleTableRecord
  2
AM_JIS$3
 70
     0
  3

  4
"
  5
OPEN30
  6

  7

 40
0.5
 41
2.5
 42
1.0
 43
10.0
 44
1.0
 45
0.0
 46
0.0
 47
0.1
 48
0.1
140
3.2
141
0.0
142
0.0
143
0.0393701
144
1.0
145
0.0
146
0.71
147
1.5
 71
     0
 72
     0
 73
     0
 74
     1
 75
     0
 76
     0
 77
     3
 78
     8
170
     0
171
     2
172
     0
173
     0
174
     0
175
     0
176
   256
177
   256
178
     2
270
     2
271
     2
272
     3
273
     2
274
     2
340
6B
275
     0
280
     0
281
     0
282
     0
283
     0
284
     0
285
     0
286
     0
287
     0
288
     1
  0
DIMSTYLE
105
60
330
A
100
AcDbSymbolTableRecord
100
AcDbDimStyleTableRecord
  2
AM_JIS$4
 70
     0
  3

  4
"
  5
OPEN30
  6

  7

 40
0.5
 41
2.5
 42
1.0
 43
10.0
 44
1.0
 45
0.0
 46
0.0
 47
0.1
 48
0.1
140
3.2
141
0.0
142
0.0
143
0.0393701
144
1.0
145
0.0
146
0.71
147
1.5
 71
     0
 72
     0
 73
     0
 74
     1
 75
     0
 76
     0
 77
     3
 78
     8
170
     0
171
     2
172
     0
173
     0
174
     0
175
     0
176
   256
177
   256
178
     2
270
     2
271
     2
272
     3
273
     2
274
     2
340
6B
275
     0
280
     0
281
     0
282
     0
283
     0
284
     0
285
     0
286
     0
287
     0
288
     1
  0
DIMSTYLE
105
61
330
A
100
AcDbSymbolTableRecord
100
AcDbDimStyleTableRecord
  2
AM_JIS$6
 70
     0
  3

  4
"
  5
OPEN30
  6

  7

 40
0.5
 41
2.5
 42
1.0
 43
10.0
 44
1.0
 45
0.0
 46
0.0
 47
0.1
 48
0.1
140
3.2
141
0.0
142
0.0
143
0.0393701
144
1.0
145
0.0
146
0.71
147
1.5
 71
     0
 72
     0
 73
     0
 74
     0
 75
     0
 76
     0
 77
     0
 78
     8
170
     0
171
     2
172
     1
173
     0
174
     0
175
     0
176
   256
177
   256
178
     2
270
     2
271
     2
272
     2
273
     2
274
     2
340
6B
275
     0
280
     0
281
     0
282
     0
283
     0
284
     0
285
     0
286
     0
287
     3
288
     0
  0
DIMSTYLE
105
62
330
A
100
AcDbSymbolTableRecord
100
AcDbDimStyleTableRecord
  2
AM_JIS$7
 70
     0
  3

  4
"
  5
OPEN30
  6

  7

 40
0.5
 41
2.5
 42
1.0
 43
10.0
 44
1.0
 45
0.0
 46
0.0
 47
0.1
 48
0.1
140
3.2
141
0.0
142
0.0
143
0.0393701
144
1.0
145
0.0
146
0.71
147
1.5
 71
     0
 72
     0
 73
     0
 74
     0
 75
     0
 76
     0
 77
     3
 78
     8
170
     0
171
     2
172
     1
173
     0
174
     0
175
     0
176
   256
177
   256
178
     2
270
     2
271
     2
272
     3
273
     2
274
     2
340
6B
275
     0
280
     0
281
     0
282
     0
283
     0
284
     0
285
     0
286
     0
287
     3
288
     0
  0
DIMSTYLE
105
63
330
A
100
AcDbSymbolTableRecord
100
AcDbDimStyleTableRecord
  2
AM_JIS$SF
 70
     0
  3

  4
"
  5
OPEN30
  6

  7

 40
0.5
 41
2.5
 42
1.0
 43
10.0
 44
1.0
 45
0.0
 46
0.0
 47
0.1
 48
0.1
140
3.2
141
0.0
142
0.0
143
0.0393701
144
1.0
145
0.0
146
0.71
147
1.5
 71
     0
 72
     0
 73
     0
 74
     0
 75
     1
 76
     1
 77
     3
 78
     8
170
     0
171
     2
172
     1
173
     0
174
     0
175
     0
176
   256
177
   256
178
     2
270
     2
271
     2
272
     2
273
     2
274
     2
340
6B
275
     0
280
     0
281
     0
282
     0
283
     0
284
     0
285
     0
286
     0
287
     3
288
     0
  0
DIMSTYLE
105
68
330
A
100
AcDbSymbolTableRecord
100
AcDbDimStyleTableRecord
  2
AM_JIS$SH
 70
     0
  3

  4
"
  5

  6
GENAXEH
  7
OPEN30
 40
0.5
 41
2.5
 42
1.0
 43
10.0
 44
1.0
 45
0.0
 46
0.0
 47
0.1
 48
0.1
140
3.2
141
0.0
142
0.0
143
0.0393701
144
2.0
145
0.0
146
0.71
147
1.5
 71
     0
 72
     0
 73
     0
 74
     0
 75
     1
 76
     1
 77
     3
 78
     8
170
     0
171
     2
172
     1
173
     1
174
     0
175
     0
176
   256
177
   256
178
     2
270
     2
271
     2
272
     2
273
     2
274
     2
340
6B
275
     0
280
     0
281
     0
282
     0
283
     0
284
     0
285
     0
286
     0
287
     3
288
     0
  0
DIMSTYLE
105
B34
102
{ACAD_REACTORS
330
29BA
102
}
330
A
100
AcDbSymbolTableRecord
100
AcDbDimStyleTableRecord
  2
AM_JIS$2
 70
     0
  3

  4
"
  5
OPEN30
  6

  7

 40
0.5
 41
2.5
 42
1.0
 43
12.0
 44
1.0
 45
0.0
 46
0.0
 47
0.1
 48
0.1
140
3.2
141
0.0
142
0.0
143
0.0393701
144
1.0
145
0.0
146
0.71
147
1.5
 71
     0
 72
     0
 73
     0
 74
     0
 75
     0
 76
     0
 77
     3
 78
     8
170
     0
171
     2
172
     1
173
     0
174
     0
175
     0
176
   256
177
   256
178
     2
270
     2
271
     3
272
     3
273
     2
274
     2
340
6B
275
     0
280
     0
281
     0
282
     0
283
     0
284
     0
285
     0
286
     0
287
     3
288
     0
  0
DIMSTYLE
105
BA5
102
{ACAD_REACTORS
330
CC6
330
2069
330
2599
330
2C54
102
}
330
A
100
AcDbSymbolTableRecord
100
AcDbDimStyleTableRecord
  2
AM_JIS$0
 70
     0
  3

  4
"
  5
OPEN30
  6

  7

 40
0.5
 41
2.5
 42
0.0
 43
10.0
 44
1.0
 45
0.0
 46
0.0
 47
0.1
 48
0.1000000001
140
3.799999999999999
141
0.0
142
0.0
143
0.0393701
144
1.0
145
0.0
146
0.71
147
1.5
 71
     0
 72
     0
 73
     0
 74
     0
 75
     0
 76
     0
 77
     3
 78
     1
170
     0
171
     2
172
     1
173
     0
174
     0
175
     0
176
     3
177
     3
178
     2
270
     2
271
     2
272
     2
273
     2
274
     2
340
11
275
     1
280
     0
281
     0
282
     0
283
     0
284
     8
285
     0
286
     0
287
     0
288
     0
  0
ENDTAB
  0
TABLE
  2
BLOCK_RECORD
  5
1
330
0
100
AcDbSymbolTable
 70
    10
  0
BLOCK_RECORD
  5
1F
102
{ACAD_XDICTIONARY
360
74
102
}
330
1
100
AcDbSymbolTableRecord
100
AcDbBlockTableRecord
  2
*MODEL_SPACE
  0
BLOCK_RECORD
  5
101
102
{ACAD_XDICTIONARY
360
3110
102
}
330
1
100
AcDbSymbolTableRecord
100
AcDbBlockTableRecord
  2
*PAPER_SPACE
  0
BLOCK_RECORD
  5
59
330
1
100
AcDbSymbolTableRecord
100
AcDbBlockTableRecord
  2
_OPEN30
  0
BLOCK_RECORD
  5
64
330
1
100
AcDbSymbolTableRecord
100
AcDbBlockTableRecord
  2
GENAXEH
  0
BLOCK_RECORD
  5
CC8
330
1
100
AcDbSymbolTableRecord
100
AcDbBlockTableRecord
  2
*D5
  0
BLOCK_RECORD
  5
206A
330
1
100
AcDbSymbolTableRecord
100
AcDbBlockTableRecord
  2
*D6
  0
BLOCK_RECORD
  5
259A
330
1
100
AcDbSymbolTableRecord
100
AcDbBlockTableRecord
  2
*D7
  0
BLOCK_RECORD
  5
29BB
330
1
100
AcDbSymbolTableRecord
100
AcDbBlockTableRecord
  2
*D8
  0
BLOCK_RECORD
  5
2C55
330
1
100
AcDbSymbolTableRecord
100
AcDbBlockTableRecord
  2
*D9
  0
ENDTAB
  0
ENDSEC
  0
SECTION
  2
BLOCKS
  0
BLOCK
  5
20
330
1F
100
AcDbEntity
  8
0
100
AcDbBlockBegin
  2
*MODEL_SPACE
 70
     0
 10
0.0
 20
0.0
 30
0.0
  3
*MODEL_SPACE
  1

  0
ENDBLK
  5
21
330
1F
100
AcDbEntity
  8
0
100
AcDbBlockEnd
  0
BLOCK
  5
103
330
101
100
AcDbEntity
 67
     1
  8
0
100
AcDbBlockBegin
  2
*PAPER_SPACE
 70
     0
 10
0.0
 20
0.0
 30
0.0
  3
*PAPER_SPACE
  1

  0
ENDBLK
  5
104
330
101
100
AcDbEntity
 67
     1
  8
0
100
AcDbBlockEnd
  0
BLOCK
  5
5D
330
59
100
AcDbEntity
  8
0
100
AcDbBlockBegin
  2
_OPEN30
 70
     0
 10
0.0
 20
0.0
 30
0.0
  3
_OPEN30
  1

  0
LINE
  5
5A
330
59
100
AcDbEntity
  8
0
 62
     0
100
AcDbLine
 10
-1.0
 20
0.26794919
 30
0.0
 11
0.0
 21
0.0
 31
0.0
  0
LINE
  5
5B
330
59
100
AcDbEntity
  8
0
 62
     0
100
AcDbLine
 10
0.0
 20
0.0
 30
0.0
 11
-1.0
 21
-0.26794919
 31
0.0
  0
LINE
  5
5C
330
59
100
AcDbEntity
  8
0
 62
     0
100
AcDbLine
 10
0.0
 20
0.0
 30
0.0
 11
-1.0
 21
0.0
 31
0.0
  0
ENDBLK
  5
5E
330
59
100
AcDbEntity
  8
0
100
AcDbBlockEnd
  0
BLOCK
  5
66
330
64
100
AcDbEntity
  8
0
100
AcDbBlockBegin
  2
GENAXEH
 70
     0
 10
0.0
 20
0.0
 30
0.0
  3
GENAXEH
  1

  0
LINE
  5
65
330
64
100
AcDbEntity
  8
0
100
AcDbLine
 10
-1.0
 20
0.0
 30
0.0
 11
1.0
 21
0.0
 31
0.0
  0
ENDBLK
  5
67
330
64
100
AcDbEntity
  8
0
100
AcDbBlockEnd
  0
BLOCK
  5
CD2
330
CC8
100
AcDbEntity
  8
0
100
AcDbBlockBegin
  2
*D5
 70
     1
 10
0.0
 20
0.0
 30
0.0
  3
*D5
  1

  0
LINE
  5
3095
330
CC8
100
AcDbEntity
  8
AM_5
 62
     3
100
AcDbLine
 10
-107.9999999999999
 20
-4.49999242885897
 30
0.0
 11
-107.9999999999999
 21
-17.49999342885878
 31
0.0
  0
LINE
  5
3096
330
CC8
100
AcDbEntity
  8
AM_5
 62
     3
100
AcDbLine
 10
-2.000000000000154
 20
-4.900008838910114
 30
0.0
 11
-2.000000000000155
 21
-17.49999342885878
 31
0.0
  0
LINE
  5
3097
330
CC8
100
AcDbEntity
  8
AM_5
 62
     3
100
AcDbLine
 10
-106.7499999999999
 20
-16.99999342885878
 30
0.0
 11
-3.250000000000155
 21
-16.99999342885878
 31
0.0
  0
INSERT
  5
3098
330
CC8
100
AcDbEntity
  8
AM_5
 62
     3
100
AcDbBlockReference
  2
_OPEN30
 10
-107.9999999999999
 20
-16.99999342885878
 30
0.0
 41
1.25
 42
1.25
 43
1.25
 50
180.0
  0
INSERT
  5
3099
330
CC8
100
AcDbEntity
  8
AM_5
 62
     3
100
AcDbBlockReference
  2
_OPEN30
 10
-2.000000000000155
 20
-16.99999342885878
 30
0.0
 41
1.25
 42
1.25
 43
1.25
  0
MTEXT
  5
309A
330
CC8
100
AcDbEntity
  8
AM_5
 62
     2
100
AcDbMText
 10
-55.00000000000007
 20
-15.29999342885878
 30
0.0
 40
1.9
 41
0.0
 71
     5
 72
     1
  1
106
1001
ACAD
1000
MTEXTBEGIN
1070
    73
1070
     1
1070
    44
1040
1.0
1070
    74
1070
     0
1000
MTEXTEND
  0
POINT
  5
309B
330
CC8
100
AcDbEntity
  8
DEFPOINTS
 62
     0
100
AcDbPoint
 10
-107.9999999999999
 20
-4.49999242885897
 30
0.0
  0
POINT
  5
309C
330
CC8
100
AcDbEntity
  8
DEFPOINTS
 62
     0
100
AcDbPoint
 10
-2.000000000000154
 20
-4.900008838910114
 30
0.0
  0
POINT
  5
309D
330
CC8
100
AcDbEntity
  8
DEFPOINTS
 62
     0
100
AcDbPoint
 10
-2.000000000000155
 20
-16.99999342885878
 30
0.0
  0
ENDBLK
  5
CD3
330
CC8
100
AcDbEntity
  8
0
100
AcDbBlockEnd
  0
BLOCK
  5
2074
330
206A
100
AcDbEntity
  8
0
100
AcDbBlockBegin
  2
*D6
 70
     1
 10
0.0
 20
0.0
 30
0.0
  3
*D6
  1

  0
LINE
  5
30B2
330
206A
100
AcDbEntity
  8
AM_5
 62
     3
100
AcDbLine
 10
-51.99999999999995
 20
-4.999992428858928
 30
0.0
 11
-51.99999999999993
 21
-12.4999934288589
 31
0.0
  0
LINE
  5
30B3
330
206A
100
AcDbEntity
  8
AM_5
 62
     3
100
AcDbLine
 10
-2.00000000000014
 20
-4.90000883891012
 30
0.0
 11
-2.000000000000119
 21
-12.49999342885875
 31
0.0
  0
LINE
  5
30B4
330
206A
100
AcDbEntity
  8
AM_5
 62
     3
100
AcDbLine
 10
-50.74999999999993
 20
-11.9999934288589
 30
0.0
 11
-3.25000000000012
 21
-11.99999342885876
 31
0.0
  0
INSERT
  5
30B5
330
206A
100
AcDbEntity
  8
AM_5
 62
     3
100
AcDbBlockReference
  2
_OPEN30
 10
-51.99999999999993
 20
-11.9999934288589
 30
0.0
 41
1.25
 42
1.25
 43
1.25
 50
180.0000000000001
  0
INSERT
  5
30B6
330
206A
100
AcDbEntity
  8
AM_5
 62
     3
100
AcDbBlockReference
  2
_OPEN30
 10
-2.00000000000012
 20
-11.99999342885875
 30
0.0
 41
1.25
 42
1.25
 43
1.25
 50
0.0000000000001527
  0
MTEXT
  5
30B7
330
206A
100
AcDbEntity
  8
AM_5
 62
     2
100
AcDbMText
 10
-27.00000000000003
 20
-10.29999342885883
 30
0.0
 40
1.9
 41
0.0
 71
     5
 72
     1
  1
50
1001
ACAD
1000
MTEXTBEGIN
1070
    73
1070
     1
1070
    44
1040
1.0
1070
    74
1070
     0
1000
MTEXTEND
  0
POINT
  5
30B8
330
206A
100
AcDbEntity
  8
DEFPOINTS
 62
     0
100
AcDbPoint
 10
-51.99999999999997
 20
-4.999992428858777
 30
0.0
  0
POINT
  5
30B9
330
206A
100
AcDbEntity
  8
DEFPOINTS
 62
     0
100
AcDbPoint
 10
-2.000000000000154
 20
-4.900008838910114
 30
0.0
  0
POINT
  5
30BA
330
206A
100
AcDbEntity
  8
DEFPOINTS
 62
     0
100
AcDbPoint
 10
-2.000000000000155
 20
-11.99999342885875
 30
0.0
  0
ENDBLK
  5
2075
330
206A
100
AcDbEntity
  8
0
100
AcDbBlockEnd
  0
BLOCK
  5
25A4
330
259A
100
AcDbEntity
  8
0
100
AcDbBlockBegin
  2
*D7
 70
     1
 10
0.0
 20
0.0
 30
0.0
  3
*D7
  1

  0
LINE
  5
309E
330
259A
100
AcDbEntity
  8
AM_5
 62
     3
100
AcDbLine
 10
-107.4999999999999
 20
-4.999992428859302
 30
0.0
 11
-118.000001
 21
-4.999992428859332
 31
0.0
  0
LINE
  5
309F
330
259A
100
AcDbEntity
  8
AM_5
 62
     3
100
AcDbLine
 10
-107.5
 20
5.000024525351125
 30
0.0
 11
-118.000001
 21
5.000024525351094
 31
0.0
  0
LINE
  5
30A0
330
259A
100
AcDbEntity
  8
AM_5
 62
     3
100
AcDbLine
 10
-117.500001
 20
-3.74999242885933
 30
0.0
 11
-117.500001
 21
3.750024525351096
 31
0.0
  0
INSERT
  5
30A1
330
259A
100
AcDbEntity
  8
AM_5
 62
     3
100
AcDbBlockReference
  2
_OPEN30
 10
-117.500001
 20
-4.99999242885933
 30
0.0
 41
1.25
 42
1.25
 43
1.25
 50
270.0000000000001
  0
INSERT
  5
30A2
330
259A
100
AcDbEntity
  8
AM_5
 62
     3
100
AcDbBlockReference
  2
_OPEN30
 10
-117.500001
 20
5.000024525351096
 30
0.0
 41
1.25
 42
1.25
 43
1.25
 50
90.00000000000015
  0
MTEXT
  5
30A3
330
259A
100
AcDbEntity
  8
AM_5
 62
     2
100
AcDbMText
 10
-119.200001
 20
0.0000107500552656
 30
0.0
 40
1.9
 41
0.0
 71
     5
 72
     1
  1
%%c10
 11
-0.0000000000000028
 21
1.0
 31
0.0
1001
ACAD
1000
MTEXTBEGIN
1070
    73
1070
     1
1070
    44
1040
1.0
1070
    74
1070
     0
1000
MTEXTEND
  0
POINT
  5
30A4
330
259A
100
AcDbEntity
  8
DEFPOINTS
 62
     0
100
AcDbPoint
 10
-107.4999999999999
 20
-4.999992428858968
 30
0.0
  0
POINT
  5
30A5
330
259A
100
AcDbEntity
  8
DEFPOINTS
 62
     0
100
AcDbPoint
 10
-107.5
 20
5.000024525351459
 30
0.0
  0
POINT
  5
30A6
330
259A
100
AcDbEntity
  8
DEFPOINTS
 62
     0
100
AcDbPoint
 10
-117.500001
 20
5.000024525351461
 30
0.0
  0
ENDBLK
  5
25A5
330
259A
100
AcDbEntity
  8
0
100
AcDbBlockEnd
  0
BLOCK
  5
29C9
330
29BB
100
AcDbEntity
  8
0
100
AcDbBlockBegin
  2
*D8
 70
     1
 10
0.0
 20
0.0
 30
0.0
  3
*D8
  1

  0
LINE
  5
3112
330
29BB
100
AcDbEntity
  8
AM_5
100
AcDbLine
 10
0.1710100704080684
 20
-0.469846310849651
 30
0.0
 11
4.86734136758495
 21
-13.37291061133781
 31
0.0
  0
LINE
  5
3113
330
29BB
100
AcDbEntity
  8
AM_5
100
AcDbLine
 10
0.1710111111829816
 20
0.4698459320372716
 30
0.0
 11
4.867370990441536
 21
13.3728998294627
 31
0.0
  0
ARC
  5
3114
330
29BB
100
AcDbEntity
  8
AM_5
100
AcDbCircle
 10
-0.0000000000000022
 20
0.0000000000000061
 30
0.0
 40
13.73115421206008
100
AcDbArc
 50
295.217658650686
 51
64.78221443114371
  0
INSERT
  5
3115
330
29BB
100
AcDbEntity
  8
AM_5
100
AcDbBlockReference
  2
_OPEN30
 10
4.696331297176882
 20
-12.90306430048816
 30
0.0
 41
1.25
 42
1.25
 43
1.25
 50
202.6088292488362
  0
INSERT
  5
3116
330
29BB
100
AcDbEntity
  8
AM_5
100
AcDbBlockReference
  2
_OPEN30
 10
4.696359879258554
 20
12.90305389742544
 30
0.0
 41
1.25
 42
1.25
 43
1.25
 50
157.3910438329935
  0
MTEXT
  5
3117
330
29BB
100
AcDbEntity
  8
AM_5
 62
     2
100
AcDbMText
 10
12.1811542120526
 20
-0.0000134914806569
 30
0.0
 40
1.6
 41
0.0
 71
     5
 72
     1
  1
140°
  7
ASAMI
 11
0.0000011075699751
 21
0.9999999999993868
 31
0.0
  0
POINT
  5
3118
330
29BB
100
AcDbEntity
  8
DEFPOINTS
 62
     0
100
AcDbPoint
 10
12.60816294294831
 20
-5.43864166860074
 30
0.0
  0
POINT
  5
3119
330
29BB
100
AcDbEntity
  8
DEFPOINTS
 62
     0
100
AcDbPoint
 10
-0.0000000000000004
 20
0.0000000000000113
 30
0.0
  0
POINT
  5
311A
330
29BB
100
AcDbEntity
  8
DEFPOINTS
 62
     0
100
AcDbPoint
 10
-0.0000000000000002
 20
0.0000000000000006
 30
0.0
  0
POINT
  5
311B
330
29BB
100
AcDbEntity
  8
DEFPOINTS
 62
     0
100
AcDbPoint
 10
-0.5665999554321625
 20
1.556720596349281
 30
0.0
  0
POINT
  5
311C
330
29BB
100
AcDbEntity
  8
DEFPOINTS
 62
     0
100
AcDbPoint
 10
-0.5666112811907093
 20
-1.556740984093216
 30
0.0
  0
ENDBLK
  5
29CA
330
29BB
100
AcDbEntity
  8
0
100
AcDbBlockEnd
  0
BLOCK
  5
2C5F
330
2C55
100
AcDbEntity
  8
0
100
AcDbBlockBegin
  2
*D9
 70
     1
 10
0.0
 20
0.0
 30
0.0
  3
*D9
  1

  0
LINE
  5
30BB
330
2C55
100
AcDbEntity
  8
AM_5
 62
     3
100
AcDbLine
 10
-1.999999999999927
 20
4.900000506658343
 30
0.0
 11
9.819901031072232
 21
4.900000506658376
 31
0.0
  0
LINE
  5
30BC
330
2C55
100
AcDbEntity
  8
AM_5
 62
     3
100
AcDbLine
 10
-2.000000000000082
 20
-4.900008839122768
 30
0.0
 11
9.81990103107226
 21
-4.900008839122734
 31
0.0
  0
LINE
  5
30BD
330
2C55
100
AcDbEntity
  8
AM_5
 62
     3
100
AcDbLine
 10
9.319901031072236
 20
3.650000506658374
 30
0.0
 11
9.319901031072257
 21
-3.650008839122735
 31
0.0
  0
INSERT
  5
30BE
330
2C55
100
AcDbEntity
  8
AM_5
 62
     3
100
AcDbBlockReference
  2
_OPEN30
 10
9.319901031072232
 20
4.900000506658374
 30
0.0
 41
1.25
 42
1.25
 43
1.25
 50
90.00000000000017
  0
INSERT
  5
30BF
330
2C55
100
AcDbEntity
  8
AM_5
 62
     3
100
AcDbBlockReference
  2
_OPEN30
 10
9.31990103107226
 20
-4.900008839122736
 30
0.0
 41
1.25
 42
1.25
 43
1.25
 50
270.0000000000001
  0
MTEXT
  5
30C0
330
2C55
100
AcDbEntity
  8
AM_5
 62
     2
100
AcDbMText
 10
7.619901031072246
 20
-0.0000041662321859
 30
0.0
 40
1.9
 41
0.0
 71
     5
 72
     1
  1
%%c9.8
 11
-0.0000000000000028
 21
1.0
 31
0.0
1001
ACAD
1000
MTEXTBEGIN
1070
    73
1070
     1
1070
    44
1040
1.0
1070
    74
1070
     0
1000
MTEXTEND
  0
POINT
  5
30C1
330
2C55
100
AcDbEntity
  8
DEFPOINTS
 62
     0
100
AcDbPoint
 10
-1.999999999999912
 20
4.900000506658348
 30
0.0
  0
POINT
  5
30C2
330
2C55
100
AcDbEntity
  8
DEFPOINTS
 62
     0
100
AcDbPoint
 10
-2.000000000000097
 20
-4.900008839122761
 30
0.0
  0
POINT
  5
30C3
330
2C55
100
AcDbEntity
  8
DEFPOINTS
 62
     0
100
AcDbPoint
 10
9.319901031072244
 20
-4.900008839122764
 30
0.0
  0
ENDBLK
  5
2C60
330
2C55
100
AcDbEntity
  8
0
100
AcDbBlockEnd
  0
ENDSEC
  0
SECTION
  2
ENTITIES
  0
LINE
  5
C1D
330
1F
100
AcDbEntity
  8
AM_0
 48
0.5
100
AcDbLine
 10
-0.0000000000000002
 20
0.0000000000000006
 30
0.0
 11
-0.5665999554321625
 21
1.556720596349281
 31
0.0
  0
LINE
  5
C20
330
1F
100
AcDbEntity
  8
AM_0
 48
0.5
100
AcDbLine
 10
-0.0000000000000004
 20
0.0000000000000113
 30
0.0
 11
-0.5666112811907093
 21
-1.556740984093216
 31
0.0
  0
DIMENSION
  5
CC6
330
1F
100
AcDbEntity
  8
AM_5
100
AcDbDimension
  2
*D5
 10
-2.000000000000155
 20
-16.99999342885878
 30
0.0
 11
-55.00000000000007
 21
-15.29999342885878
 31
0.0
 70
    32
  1
<>
  3
AM_JIS$0
100
AcDbAlignedDimension
 13
-107.9999999999999
 23
-4.49999242885897
 33
0.0
 14
-2.000000000000154
 24
-4.900008838910114
 34
0.0
 50
0.0000000000001132
100
AcDbRotatedDimension
1001
GENIUS_GENDTOL_13
1000

1000
h7
1000

1040
0.0
1001
ACAD
1000
DSTYLE
1002
{
1070
   271
1070
     0
1002
}
  0
TEXT
  5
19BD
330
1F
100
AcDbEntity
  8
AM_6
100
AcDbText
 10
-66.24999999999994
 20
-28.25000402524004
 30
0.0
 40
2.5
  1
MDW098MHK
 50
0.0000000000001527
 72
     4
 11
-54.99999999999995
 21
-27.00000402524001
 31
0.0
100
AcDbText
  0
DIMENSION
  5
2069
330
1F
100
AcDbEntity
  8
AM_5
100
AcDbDimension
  2
*D6
 10
-2.000000000000155
 20
-11.99999342885875
 30
0.0
 11
-27.00000000000006
 21
-10.29999342885875
 31
0.0
 70
    32
  1
<>
 51
359.9999999999998
  3
AM_JIS$0
100
AcDbAlignedDimension
 13
-51.99999999999997
 23
-4.999992428858777
 33
0.0
 14
-2.000000000000154
 24
-4.900008838910114
 34
0.0
 50
0.0000000000001527
100
AcDbRotatedDimension
1001
ACAD
1000
DSTYLE
1002
{
1070
   271
1070
     0
1070
   174
1070
     1
1002
}
1001
GENIUS_GENDTOL_13
1000

1000
h7
1000

1040
0.0
  0
LINE
  5
23EF
330
1F
100
AcDbEntity
  8
AM_7
100
AcDbLine
 10
-110.4999999999999
 20
0.0000000000007193
 30
0.0
 11
2.319900031072544
 21
-0.0000000000000052
 31
0.0
1001
GENIUS_GENODEF_13
1002
{
1000
HIER
1070
     0
1002
}
1002
{
1000
MANEDIT
1070
     0
1002
}
1002
{
1000
NOSEL
1070
     0
1002
}
1002
{
1000
BEHIND
1070
     0
1002
}
1002
{
1000
REACTOR
1002
}
1001
GENIUS_GENOBJ-N-CEN_13
1002
{
1000
OWNER
1000
GEN
1002
}
  0
LINE
  5
24A7
330
1F
100
AcDbEntity
  8
AM_0
 48
0.5
100
AcDbLine
 10
-1.584795172291386
 20
4.170854053486501
 30
0.0
 11
-1.999999999999912
 21
4.900000506658348
 31
0.0
  0
ELLIPSE
  5
24B7
330
1F
100
AcDbEntity
  8
AM_11
 48
0.5
100
AcDbEllipse
 10
-17.32962994420974
 20
20.09720314218304
 30
0.0
 11
-23.19725211461353
 21
0.0000000000001765
 31
0.0
210
0.0
220
0.0
230
1.0
 40
0.9578947368421058
 41
1.130070686340284
 42
2.011520147323574
  0
ELLIPSE
  5
24B8
330
1F
100
AcDbEntity
  8
AM_11
 48
0.5
100
AcDbEllipse
 10
-17.32962994421084
 20
-20.09718855347516
 30
0.0
 11
-23.1972521146135
 21
0.0000000000001044
 31
0.0
210
0.0
220
0.0
230
1.0
 40
0.9578947368421054
 41
4.271664206181664
 42
5.153113667164971
  0
ELLIPSE
  5
24BE
330
1F
100
AcDbEntity
  8
AM_0
 48
0.5
100
AcDbEllipse
 10
6.650934204183231
 20
5.62517483392229
 30
0.0
 11
-8.374499956766587
 21
0.0000000000003389
 31
0.0
210
0.0
220
0.0
230
1.0
 40
0.9578947368421003
 41
0.1823039054871158
 42
0.5318968824397438
  0
ELLIPSE
  5
24C7
330
1F
100
AcDbEntity
  8
AM_11
 48
0.5
100
AcDbEllipse
 10
-76.70462994420417
 20
20.09720314218455
 30
0.0
 11
-23.19725211461353
 21
0.0000000000005165
 31
0.0
210
0.0
220
0.0
230
1.0
 40
0.9578947368421058
 41
1.130070686340301
 42
2.011520147323591
  0
ELLIPSE
  5
24C8
330
1F
100
AcDbEntity
  8
AM_11
 48
0.5
100
AcDbEllipse
 10
-76.70462994420531
 20
-20.09718855347364
 30
0.0
 11
23.1972521146135
 21
0.0000000000003877
 31
0.0
210
0.0
220
0.0
230
1.0
 40
0.957894736842107
 41
1.13007155259185
 42
2.011521013575156
  0
ELLIPSE
  5
24C9
330
1F
100
AcDbEntity
  8
AM_11
 48
0.5
100
AcDbEllipse
 10
-96.49629661087182
 20
-20.09718855347318
 30
0.0
 11
-23.19725211461353
 21
0.0000000000000787
 31
0.0
210
0.0
220
0.0
230
1.0
 40
0.9578947368421061
 41
4.271664206181663
 42
5.153113667164971
  0
ELLIPSE
  5
24CA
330
1F
100
AcDbEntity
  8
AM_11
 48
0.5
100
AcDbEllipse
 10
-96.49629661087068
 20
20.09720314218501
 30
0.0
 11
-23.19725211461357
 21
0.0000000000000117
 31
0.0
210
0.0
220
0.0
230
1.0
 40
0.9578947368421045
 41
1.130070686340277
 42
2.011520147323567
  0
ELLIPSE
  5
24D4
330
1F
100
AcDbEntity
  8
AM_11
 48
0.5
100
AcDbEllipse
 10
-56.91296327753751
 20
20.09720314218407
 30
0.0
 11
-23.19725211461356
 21
0.0000000000001353
 31
0.0
210
0.0
220
0.0
230
1.0
 40
0.9578947368421049
 41
1.130070686340283
 42
2.011520147323574
  0
ELLIPSE
  5
24D5
330
1F
100
AcDbEntity
  8
AM_11
 48
0.5
100
AcDbEllipse
 10
-56.91296327753862
 20
-20.09718855347413
 30
0.0
 11
-23.19725211461346
 21
0.0000000000004186
 31
0.0
210
0.0
220
0.0
230
1.0
 40
0.9578947368421083
 41
4.271664206181676
 42
5.153113667164986
  0
ELLIPSE
  5
24E6
330
1F
100
AcDbEntity
  8
AM_11
 48
0.5
100
AcDbEllipse
 10
-37.1212966108775
 20
-20.09718855347466
 30
0.0
 11
-23.19725211461349
 21
0.0000000000006298
 31
0.0
210
0.0
220
0.0
230
1.0
 40
0.957894736842106
 41
4.271664206181685
 42
5.153113667164993
  0
ELLIPSE
  5
24E7
330
1F
100
AcDbEntity
  8
AM_11
 48
0.5
100
AcDbEllipse
 10
-37.1212966108764
 20
20.09720314218355
 30
0.0
 11
23.19725211461354
 21
0.0000000000000375
 31
0.0
210
0.0
220
0.0
230
1.0
 40
0.9578947368421051
 41
4.271663339930067
 42
5.153112800913361
  0
LINE
  5
2567
330
1F
100
AcDbEntity
  8
AM_0
 48
0.5
100
AcDbLine
 10
-107.9999999999999
 20
-4.49999242885897
 30
0.0
 11
-108.0
 21
4.500011279874365
 31
0.0
  0
LINE
  5
2568
330
1F
100
AcDbEntity
  8
AM_0
 48
0.5
100
AcDbLine
 10
-107.4999999999999
 20
-4.999992428858995
 30
0.0
 11
-107.5
 21
5.000011279874366
 31
0.0
  0
LINE
  5
2569
330
1F
100
AcDbEntity
  8
AM_0
 48
0.5
100
AcDbLine
 10
-51.99999999999997
 20
-4.999992428858777
 30
0.0
 11
-52.0
 21
5.00002452535165
 31
0.0
  0
LINE
  5
256C
330
1F
100
AcDbEntity
  8
AM_0
100
AcDbLine
 10
-107.4999999999999
 20
-4.999992428858968
 30
0.0
 11
-51.99999999999998
 21
-4.999992428858761
 31
0.0
  0
LINE
  5
256E
330
1F
100
AcDbEntity
  8
AM_0
 48
0.5
100
AcDbLine
 10
-51.82682605024712
 20
-4.900004158521242
 30
0.0
 11
-52.00001059638123
 21
-4.999992428858777
 31
0.0
  0
LINE
  5
256F
330
1F
100
AcDbEntity
  8
AM_0
100
AcDbLine
 10
-52.00000000000001
 20
5.000011279874571
 30
0.0
 11
-107.5
 21
5.000011279874366
 31
0.0
  0
LINE
  5
2571
330
1F
100
AcDbEntity
  8
AM_0
 48
0.5
100
AcDbLine
 10
-51.82781472305528
 20
4.90003240490464
 30
0.0
 11
-52.00000000000001
 21
4.999443697290738
 31
0.0
  0
LINE
  5
2572
330
1F
100
AcDbEntity
  8
AM_0
100
AcDbLine
 10
-51.82781472305528
 20
4.900032404904643
 30
0.0
 11
-51.82781472305528
 21
-0.2333860841400295
 31
0.0
  0
DIMENSION
  5
2599
330
1F
100
AcDbEntity
  8
AM_5
100
AcDbDimension
  2
*D7
 10
-117.500001
 20
5.000024525351461
 30
0.0
 11
-117.500001
 21
0.0000107500556122
 31
0.0
 70
   160
  1
%%c<>
 51
359.9999999999998
  3
AM_JIS$0
100
AcDbAlignedDimension
 13
-107.4999999999999
 23
-4.999992428858968
 33
0.0
 14
-107.5
 24
5.000024525351459
 34
0.0
 50
270.0000000000002
100
AcDbRotatedDimension
1001
ACAD
1000
DSTYLE
1002
{
1070
   271
1070
     0
1002
}
1001
GENIUS_GENDTOL_13
1000

1000
h7
1000

1040
0.0
  0
ELLIPSE
  5
278C
330
1F
100
AcDbEntity
  8
AM_11
 48
0.5
100
AcDbEllipse
 10
-116.287959372568
 20
-20.09716981670649
 30
0.0
 11
-23.19725211461353
 21
0.0000000000000787
 31
0.0
210
0.0
220
0.0
230
1.0
 40
0.9578947368421061
 41
4.271664206181663
 42
4.347032845605132
  0
ELLIPSE
  5
278D
330
1F
100
AcDbEntity
  8
AM_11
 48
0.5
100
AcDbEllipse
 10
-116.2879593725669
 20
20.0972218789517
 30
0.0
 11
-23.19725211461357
 21
0.0000000000000117
 31
0.0
210
0.0
220
0.0
230
1.0
 40
0.9578947368421045
 41
1.936152461574404
 42
2.011520147323567
  0
LINE
  5
279A
330
1F
100
AcDbEntity
  8
AM_0
 48
0.5
100
AcDbLine
 10
-107.4999999999999
 20
-4.999992428858968
 30
0.0
 11
-107.9999999999999
 21
-4.49999242885897
 31
0.0
1001
GENIUS_GENFIL_13
1070
     0
1040
0.5
1040
0.5
1040
20.0
1040
0.0
1002
{
1002
}
1001
GENIUS_GENODEF_13
1002
{
1000
HIER
1070
     0
1002
}
1002
{
1000
MANEDIT
1070
     0
1002
}
1002
{
1000
NOSEL
1070
     0
1002
}
1002
{
1000
BEHIND
1070
     0
1002
}
1002
{
1000
REACTOR
1002
}
1001
GENIUS_GENOBJ-N-CHA_13
1002
{
1000
OWNER
1000
GEN
1002
}
  0
LINE
  5
279D
330
1F
100
AcDbEntity
  8
AM_0
 48
0.5
100
AcDbLine
 10
-107.5
 20
5.000011279874366
 30
0.0
 11
-108.0
 21
4.500011279874365
 31
0.0
1001
GENIUS_GENFIL_13
1070
     0
1040
0.5
1040
0.5
1040
20.0
1040
0.0
1002
{
1002
}
1001
GENIUS_GENODEF_13
1002
{
1000
HIER
1070
     0
1002
}
1002
{
1000
MANEDIT
1070
     0
1002
}
1002
{
1000
NOSEL
1070
     0
1002
}
1002
{
1000
BEHIND
1070
     0
1002
}
1002
{
1000
REACTOR
1002
}
1001
GENIUS_GENOBJ-N-CHA_13
1002
{
1000
OWNER
1000
GEN
1002
}
  0
DIMENSION
  5
29BA
330
1F
100
AcDbEntity
  8
AM_5
100
AcDbDimension
  2
*D8
 10
-0.5666112811907093
 20
-1.556740984093216
 30
0.0
 11
12.1811542120526
 21
-0.000013491480693
 31
0.0
 70
    34
  1
<>
 51
359.9999999999998
  3
AM_JIS$2
100
AcDb2LineAngularDimension
 13
-0.0000000000000002
 23
0.0000000000000006
 33
0.0
 14
-0.5665999554321625
 24
1.556720596349281
 34
0.0
 15
-0.0000000000000004
 25
0.0000000000000113
 35
0.0
 16
12.60816294294831
 26
-5.43864166860074
 36
0.0
1001
GENIUS_GENDTOL_13
1000

1000
h7
1000

1040
0.0
1001
ACAD
1000
DSTYLE
1002
{
1070
   271
1070
     1
1070
   179
1070
     1
1002
}
  0
ELLIPSE
  5
2C43
330
1F
100
AcDbEntity
  8
AM_0
 48
0.5
100
AcDbEllipse
 10
6.650934204183204
 20
-5.625174833922321
 30
0.0
 11
-8.374499956766587
 21
-0.0000000000002981
 31
0.0
210
0.0
220
0.0
230
-1.0
 40
0.9578947368421003
 41
0.1823039054871158
 42
0.5318968824397438
  0
LINE
  5
2C44
330
1F
100
AcDbEntity
  8
AM_0
 48
0.5
100
AcDbLine
 10
-1.584795172291406
 20
-4.170854053486492
 30
0.0
 11
-2.000000000000097
 21
-4.900008839122761
 31
0.0
  0
DIMENSION
  5
2C54
330
1F
100
AcDbEntity
  8
AM_5
100
AcDbDimension
  2
*D9
 10
9.319901031072244
 20
-4.900008839122764
 30
0.0
 11
7.619901031072246
 21
-0.000004166232208
 31
0.0
 70
    32
  1
%%c<>
 51
359.9999999999998
  3
AM_JIS$0
100
AcDbAlignedDimension
 13
-1.999999999999912
 23
4.900000506658348
 33
0.0
 14
-2.000000000000097
 24
-4.900008839122761
 34
0.0
 50
89.9999999999982
100
AcDbRotatedDimension
1001
ACAD
1000
DSTYLE
1002
{
1070
   271
1070
     1
1002
}
1001
GENIUS_GENDTOL_13
1000

1000
h7
1000

1040
0.0
  0
LINE
  5
2F1D
330
1F
100
AcDbEntity
  8
AM_0
100
AcDbLine
 10
-51.82781472305529
 20
-3.93126554057521
 30
0.0
 11
-51.82781472305529
 21
-4.900574969752531
 31
0.0
  0
LINE
  5
2F1E
330
1F
100
AcDbEntity
  8
AM_0
100
AcDbLine
 10
-51.82781472305529
 20
-0.3676589286542756
 30
0.0
 11
-51.82781472305529
 21
-2.724311424683899
 31
0.0
  0
ELLIPSE
  5
303B
330
1F
100
AcDbEntity
  8
AM_0
 48
0.5
100
AcDbEllipse
 10
-50.71146020654969
 20
-3.289816840924692
 30
0.0
 11
1.11744881481623
 21
0.690157148594035
 31
0.0
210
0.0
220
0.0
230
1.0
 40
0.9368196562022498
 41
0.7268669522691727
 42
2.555113134530973
  0
LINE
  5
303C
330
1F
100
AcDbEntity
  8
AM_0
 48
0.5
100
AcDbLine
 10
-51.82682605024711
 20
-4.900004158521241
 30
0.0
 11
-50.28262496848007
 21
-4.89999957261355
 31
0.0
  0
LINE
  5
303D
330
1F
100
AcDbEntity
  8
AM_11
 48
0.5
100
AcDbLine
 10
-50.28304866093981
 20
-4.900007605286067
 30
0.0
 11
-34.50555968238028
 21
-4.900695627265952
 31
0.0
  0
ELLIPSE
  5
303F
330
1F
100
AcDbEntity
  8
AM_0
 48
0.5
100
AcDbEllipse
 10
-50.34312805020491
 20
-3.266915893552791
 30
0.0
 11
-1.37902208889906
 21
0.9673254663102595
 31
0.0
210
0.0
220
0.0
230
1.0
 40
0.9541859618184327
 41
0.6451689087645947
 42
2.196785217214956
  0
SPLINE
  5
3040
330
1F
100
AcDbEntity
  8
AM_0
 48
0.5
100
AcDbSpline
210
0.0
220
0.0
230
1.0
 70
     8
 71
     3
 72
    22
 73
    18
 74
     0
 42
0.0000000001
 43
0.0000000001
 40
0.0
 40
0.0
 40
0.0
 40
0.0
 40
1.010743684496582
 40
2.022833993863546
 40
3.037578683882831
 40
4.056212471389632
 40
5.079857945358201
 40
6.109499720892564
 40
7.145961650132166
 40
8.189873411961459
 40
9.241710626092514
 40
10.30166235592959
 40
11.36982472628033
 40
12.44598212828784
 40
13.52983440361964
 40
14.62080578343036
 40
14.90544694398022
 40
14.90544694398022
 40
14.90544694398022
 40
14.90544694398022
 10
-38.26567561127483
 20
-4.900249226886676
 30
0.0
 10
-38.54482090978377
 20
-4.897334716572492
 30
0.0
 10
-39.10348341513726
 20
-4.89150181291017
 30
0.0
 10
-39.94127265442773
 20
-4.844454917592023
 30
0.0
 10
-40.77902791600247
 20
-4.76969606054206
 30
0.0
 10
-41.61673086770441
 20
-4.664900939871862
 30
0.0
 10
-42.45437088478957
 20
-4.53149006483431
 30
0.0
 10
-43.29193922874662
 20
-4.370094999141596
 30
0.0
 10
-44.12942362622659
 20
-4.181758981059919
 30
0.0
 10
-44.96682983606443
 20
-3.967650370456813
 30
0.0
 10
-45.80415031618479
 20
-3.729106025702792
 30
0.0
 10
-46.64138944234225
 20
-3.467577754550487
 30
0.0
 10
-47.47855261165289
 20
-3.184729780961415
 30
0.0
 10
-48.31563919530895
 20
-2.882243624164706
 30
0.0
 10
-49.15266487514131
 20
-2.562046257930774
 30
0.0
 10
-49.78174816859567
 20
-2.309535990581634
 30
0.0
 10
-50.05768845916771
 20
-2.165209238489064
 30
0.0
 10
-50.30113793795013
 20
-2.078426268063552
 30
0.0
  0
SPLINE
  5
3041
330
1F
100
AcDbEntity
  8
AM_0
100
AcDbSpline
210
0.0
220
0.0
230
1.0
 70
     8
 71
     3
 72
    13
 73
     9
 74
     0
 42
0.0000000001
 43
0.0000000001
 40
16.03460056234195
 40
16.03460056234195
 40
16.03460056234195
 40
16.03460056234195
 40
16.35212717791071
 40
17.38177067057215
 40
18.41822498539278
 40
19.46214186516937
 40
20.5139635832251
 40
21.34083983469381
 40
21.34083983469381
 40
21.34083983469381
 40
21.34083983469381
 10
-50.28315180923344
 20
-4.900009558759518
 30
0.0
 10
-49.8941751633371
 20
-4.892644461523778
 30
0.0
 10
-49.54376730972268
 20
-4.812122048310964
 30
0.0
 10
-48.90114446274496
 20
-4.67098128380906
 30
0.0
 10
-48.06894563524743
 20
-4.461109542729416
 30
0.0
 10
-47.23751992615855
 20
-4.225457748573679
 30
0.0
 10
-46.46817763173484
 20
-3.98460046457292
 30
0.0
 10
-45.97735079593692
 20
-3.818753083615129
 30
0.0
 10
-45.76202800480395
 20
-3.743788556220599
 30
0.0
  0
SPLINE
  5
3042
330
1F
100
AcDbEntity
  8
AM_0
 48
0.5
100
AcDbSpline
210
0.0
220
0.0
230
1.0
 70
     8
 71
     3
 72
    26
 73
    22
 74
     0
 42
0.0000000001
 43
0.0000000001
 40
0.0
 40
0.0
 40
0.0
 40
0.0
 40
0.8422864037471089
 40
1.685694647057321
 40
2.531315797913884
 40
3.380177287502886
 40
4.233214169721234
 40
5.09125020057522
 40
5.954967768899448
 40
6.824900391836836
 40
7.701419186604396
 40
8.584724417931369
 40
9.47485577056355
 40
10.37165251267315
 40
11.27486274211709
 40
12.18400675634887
 40
13.09851504074504
 40
14.01768673654235
 40
14.94071745659532
 40
15.8667176994736
 40
16.76607142455336
 40
16.76607142455336
 40
16.76607142455336
 40
16.76607142455336
 10
-35.92043255650764
 20
-4.900249226886784
 30
0.0
 10
-36.19957780171027
 20
-4.897333845723578
 30
0.0
 10
-36.75824008510483
 20
-4.891499200406851
 30
0.0
 10
-37.59603020173702
 20
-4.844465404982845
 30
0.0
 10
-38.43378455869991
 20
-4.76969396718351
 30
0.0
 10
-39.27148705772284
 20
-4.664898915717913
 30
0.0
 10
-40.10912938350456
 20
-4.531500589213295
 30
0.0
 10
-40.94669484696058
 20
-4.370091567776478
 30
0.0
 10
-41.78418289089586
 20
-4.181762393383396
 30
0.0
 10
-42.62158780366038
 20
-3.967656882589152
 30
0.0
 10
-43.45890760554793
 20
-3.729103524315173
 30
0.0
 10
-44.29614918773168
 20
-3.46758709450549
 30
0.0
 10
-45.13330908095595
 20
-3.184722372818498
 30
0.0
 10
-45.97039677047813
 20
-2.882244521600059
 30
0.0
 10
-46.80742344873738
 20
-2.562048832213948
 30
0.0
 10
-47.6443909242341
 20
-2.226077694227506
 30
0.0
 10
-48.48130543612096
 20
-1.876418419415926
 30
0.0
 10
-49.31818235334821
 20
-1.515228330012852
 30
0.0
 10
-50.15500784559574
 20
-1.144682661366535
 30
0.0
 10
-50.98323732193375
 20
-0.7711349407807616
 30
0.0
 10
-51.53197051124156
 20
-0.5201829618080395
 30
0.0
 10
-51.99999999999999
 20
-0.2800373637188594
 30
0.0
  0
LINE
  5
3043
330
1F
100
AcDbEntity
  8
AM_0
 48
0.5
100
AcDbLine
 10
-48.24171714343044
 20
4.900096809291285
 30
0.0
 11
-51.82781472305528
 21
4.900032404904641
 31
0.0
  0
LINE
  5
3044
330
1F
100
AcDbEntity
  8
AM_0
 48
0.5
100
AcDbLine
 10
-40.90212090070851
 20
2.455796401048782
 30
0.0
 11
-51.99999999999999
 21
-0.2757666998241337
 31
0.0
  0
LINE
  5
3045
330
1F
100
AcDbEntity
  8
AM_0
 48
0.5
100
AcDbLine
 10
-4.680396727120785
 20
4.900000506658487
 30
0.0
 11
-1.999999999999912
 21
4.900000506658348
 31
0.0
  0
LINE
  5
3046
330
1F
100
AcDbEntity
  8
AM_0
 48
0.5
100
AcDbLine
 10
-0.0000000000000146
 20
0.0000000000000117
 30
0.0
 11
-2.334417835153606
 21
1.881451668360499
 31
0.0
  0
LINE
  5
3047
330
1F
100
AcDbEntity
  8
AM_0
 48
0.5
100
AcDbLine
 10
-4.68039672712013
 20
-4.899999493341527
 30
0.0
 11
-2.000000000000088
 21
-4.900008839349292
 31
0.0
  0
LINE
  5
3048
330
1F
100
AcDbEntity
  8
AM_0
 48
0.5
100
AcDbLine
 10
-38.17038563078689
 20
4.900000506660099
 30
0.0
 11
-20.46220518105736
 21
4.900000506659242
 31
0.0
  0
LINE
  5
3049
330
1F
100
AcDbEntity
  8
AM_0
 48
0.5
100
AcDbLine
 10
-34.50555968238028
 20
-4.899999493340188
 30
0.0
 11
-20.4621999375139
 21
-4.90000883934898
 31
0.0
  0
LINE
  5
304A
330
1F
100
AcDbEntity
  8
AM_11
 48
0.5
100
AcDbLine
 10
-48.24171714343042
 20
4.900696640586359
 30
0.0
 11
-38.17037203800809
 21
4.900000506660099
 31
0.0
  0
LINE
  5
304B
330
1F
100
AcDbEntity
  8
AM_11
 48
0.5
100
AcDbLine
 10
-20.46220518105736
 20
4.900000506659242
 30
0.0
 11
-4.680396727120785
 21
4.900000506658487
 31
0.0
  0
LINE
  5
304C
330
1F
100
AcDbEntity
  8
AM_11
 48
0.5
100
AcDbLine
 10
-20.4621999375139
 20
-4.90000883934898
 30
0.0
 11
-4.680396727121254
 21
-4.899999493341516
 31
0.0
  0
ELLIPSE
  5
304D
330
1F
100
AcDbEntity
  8
AM_11
 48
0.5
100
AcDbEllipse
 10
2.462036722457
 20
20.30439080344212
 30
0.0
 11
-23.1972521146142
 21
0.0000000000114311
 31
0.0
210
0.0
220
0.0
230
1.0
 40
0.9677699403146878
 41
1.130070686340763
 42
1.291800737381449
  0
SPLINE
  5
304E
330
1F
100
AcDbEntity
  8
AM_0
 48
0.5
100
AcDbSpline
210
0.0
220
0.0
230
1.0
 70
     8
 71
     3
 72
    10
 73
     6
 74
     0
 42
0.0000000001
 43
0.0000000001
 40
0.0
 40
0.0
 40
0.0
 40
0.0
 40
2.69986029516136
 40
4.147722969032201
 40
6.285750005020438
 40
6.285750005020438
 40
6.285750005020438
 40
6.285750005020438
 10
-5.657269745673803
 20
0.8868743876805559
 30
0.0
 10
-4.836128572894455
 20
0.4316305271544422
 30
0.0
 10
-3.96080442419126
 20
-0.2677484074515837
 30
0.0
 10
-1.890780396917352
 20
0.0708331868763909
 30
0.0
 10
-2.280626131614029
 20
1.211220797586668
 30
0.0
 10
-2.334417835153606
 20
1.881451668360499
 30
0.0
  0
ELLIPSE
  5
304F
330
1F
100
AcDbEntity
  8
AM_0
 48
0.5
100
AcDbEllipse
 10
2.852144195194669
 20
5.882751971501849
 30
0.0
 11
-9.699551597385951
 21
9.622303295097784
 31
0.0
210
0.0
220
0.0
230
0.9999999999999998
 40
0.710440755129733
 41
1.385072466791506
 42
1.687714486766592
  0
SPLINE
  5
3050
330
1F
100
AcDbEntity
  8
AM_0
100
AcDbSpline
210
0.0
220
0.0
230
1.0
 70
     8
 71
     3
 72
    23
 73
    19
 74
     0
 42
0.0000000001
 43
0.0000000001
 40
16.03460024169435
 40
16.03460024169435
 40
16.03460024169435
 40
16.03460024169435
 40
16.35212704903564
 40
17.38177054169784
 40
18.41822485651776
 40
19.46214173629503
 40
20.51396345435107
 40
21.57393551351153
 40
22.64208202342361
 40
23.7182574881101
 40
24.80209208578934
 40
25.89306333925047
 40
26.99048218457928
 40
28.09348763352352
 40
29.20111863782268
 40
30.31232390128032
 40
31.42594612798585
 40
32.5407912310448
 40
32.5407912310486
 40
32.5407912310486
 40
32.5407912310486
 10
-48.24171714343042
 20
4.900696640586358
 30
0.0
 10
-48.15564450493014
 20
4.884155103474474
 30
0.0
 10
-47.79083084128689
 20
4.812121365069751
 30
0.0
 10
-47.14820764400537
 20
4.670982248400122
 30
0.0
 10
-46.31600892123628
 20
4.46110992539472
 30
0.0
 10
-45.48458318378485
 20
4.22545828883425
 30
0.0
 10
-44.6538813020413
 20
3.96539117019625
 30
0.0
 10
-43.82387379292357
 20
3.682358449489263
 30
0.0
 10
-42.99451268398691
 20
3.377978061103468
 30
0.0
 10
-42.16574022167598
 20
3.054021422549789
 30
0.0
 10
-41.33750931216283
 20
2.712323081384474
 30
0.0
 10
-40.50975355317222
 20
2.354871300637269
 30
0.0
 10
-39.68240586435637
 20
1.983743744494329
 30
0.0
 10
-38.8554111218985
 20
1.60107424081683
 30
0.0
 10
-38.02870013215304
 20
1.209087960364205
 30
0.0
 10
-37.20219632417353
 20
0.8100738154307782
 30
0.0
 10
-36.37583239721908
 20
0.4063439849372197
 30
0.0
 10
-35.82507108662446
 20
0.135665209310256
 30
0.0
 10
-35.5495402353203
 20
0.0002497335468544
 30
0.0
  0
SPLINE
  5
3051
330
1F
100
AcDbEntity
  8
AM_0
100
AcDbSpline
210
0.0
220
0.0
230
1.0
 70
     8
 71
     3
 72
    46
 73
    42
 74
     0
 42
0.0000000001
 43
0.0000000001
 40
0.0
 40
0.0
 40
0.0
 40
0.0
 40
1.685415058684571
 40
2.531036209541119
 40
3.379897699130121
 40
4.232934581347655
 40
5.090970612202441
 40
5.954688180526682
 40
6.824620803463246
 40
7.701151815239689
 40
8.584457046566678
 40
9.474582384070741
 40
10.37139106676737
 40
11.27458944007583
 40
12.18373345430765
 40
13.09824173870457
 40
14.01741343450111
 40
14.9404441545541
 40
15.86644439743314
 40
16.79446029130534
 40
17.7234937712985
 40
18.65252725129241
 40
19.58054314516461
 40
20.50654338804289
 40
21.42957410809586
 40
22.34874580389317
 40
23.26325408828901
 40
24.17239810252111
 40
25.07560240389441
 40
25.97241108659103
 40
26.8625364240951
 40
27.74584165542183
 40
28.62236045019041
 40
29.49229307312697
 40
30.35601064145121
 40
31.21404606334468
 40
32.06708345193547
 40
32.91595755657689
 40
33.76157841950693
 40
34.60498701064689
 40
35.44727335621125
 40
35.44727335621125
 40
35.44727335621125
 40
35.44727335621125
 10
-2.335153672354055
 20
-4.899999493341637
 30
0.0
 10
-2.893843251030004
 20
-4.888836914567123
 30
0.0
 10
-3.732843440470426
 20
-4.872073749360694
 30
0.0
 10
-4.848498579688416
 20
-4.768866020742186
 30
0.0
 10
-5.686210086198865
 20
-4.664805175821896
 30
0.0
 10
-6.523849988317592
 20
-4.531208727331604
 30
0.0
 10
-7.361416079414281
 20
-4.369853155636704
 30
0.0
 10
-8.198904056747663
 20
-4.181509877832056
 30
0.0
 10
-9.036312517651216
 20
-3.967405830812934
 30
0.0
 10
-9.873637735361491
 20
-3.728855645122243
 30
0.0
 10
-10.7108813834908
 20
-3.467338897476421
 30
0.0
 10
-11.5480412101083
 20
-3.184468191967622
 30
0.0
 10
-12.38513066463448
 20
-2.882000677607054
 30
0.0
 10
-13.22215381549148
 20
-2.561795783490472
 30
0.0
 10
-14.05911835988774
 20
-2.22582805405476
 30
0.0
 10
-14.89603359870142
 20
-1.876170196562878
 30
0.0
 10
-15.7329068667
 20
-1.514972415283286
 30
0.0
 10
-16.56974630877192
 20
-1.144456266705492
 30
0.0
 10
-17.40656079780083
 20
-0.7669020606165536
 30
0.0
 10
-18.24335797814169
 20
-0.3846314899865741
 30
0.0
 10
-19.08014812421776
 20
0.0000005065813497
 30
0.0
 10
-19.91693827011
 20
0.3846325036166792
 30
0.0
 10
-20.75373545100227
 20
0.7669030728451255
 30
0.0
 10
-21.59054993801571
 20
1.144457284056044
 30
0.0
 10
-22.42738938756109
 20
1.51497341363828
 30
0.0
 10
-23.26426262784881
 20
1.876171265351478
 30
0.0
 10
-24.10117796928526
 20
2.225828862002942
 30
0.0
 10
-24.93814395360646
 20
2.561798286669292
 30
0.0
 10
-25.77517035673161
 20
2.882000271562092
 30
0.0
 10
-26.61226130449712
 20
3.18446933687249
 30
0.0
 10
-27.44942111162313
 20
3.467340126550376
 30
0.0
 10
-28.28666132045064
 20
3.728854471080778
 30
0.0
 10
-29.12398095923519
 20
3.967408346940766
 30
0.0
 10
-29.96138600189357
 20
4.181513268598346
 30
0.0
 10
-30.79887349453291
 20
4.369844223996981
 30
0.0
 10
-31.63644019968181
 20
4.531246595166061
 30
0.0
 10
-32.47408544768301
 20
4.664652266214849
 30
0.0
 10
-33.31179263767843
 20
4.769445680097714
 30
0.0
 10
-34.14955165621
 20
4.844210262888569
 30
0.0
 10
-34.98734108477082
 20
4.891256748518051
 30
0.0
 10
-35.54600360205986
 20
4.897087214483522
 30
0.0
 10
-35.82514889688475
 20
4.900000506659983
 30
0.0
  0
SPLINE
  5
3052
330
1F
100
AcDbEntity
  8
AM_0
 48
0.5
100
AcDbSpline
210
0.0
220
0.0
230
1.0
 70
     8
 71
     3
 72
    25
 73
    21
 74
     0
 42
0.0000000001
 43
0.0000000001
 40
6.846175049578289
 40
6.846175049578289
 40
6.846175049578289
 40
6.846175049578289
 40
7.604337694224321
 40
8.711974558287883
 40
9.814980593243754
 40
10.91239053451967
 40
12.0033633515982
 40
13.08720139956839
 40
14.16337181880432
 40
15.23152222380919
 40
16.29148850140128
 40
17.34331105512262
 40
18.38723020264746
 40
19.42369128463655
 40
20.45333379090873
 40
21.47697865721768
 40
22.49561244472435
 40
23.5103574802404
 40
24.52244778960836
 40
25.53320666051913
 40
25.53320666051913
 40
25.53320666051913
 40
25.53320666051913
 10
-5.657470870702364
 20
0.8869325862276371
 30
0.0
 10
-5.847788106828968
 20
0.97296787160973
 30
0.0
 10
-6.316549626644373
 20
1.183835377256773
 30
0.0
 10
-7.064452059616614
 20
1.514973269786267
 30
0.0
 10
-7.901325235444015
 20
1.87617125176537
 30
0.0
 10
-8.738240498166963
 20
2.225829057588191
 30
0.0
 10
-9.57520503844726
 20
2.561796794429389
 30
0.0
 10
-10.41222818213541
 20
2.882001709937517
 30
0.0
 10
-11.24931766906631
 20
3.184469132382849
 30
0.0
 10
-12.08647737452346
 20
3.467340180525512
 30
0.0
 10
-12.92371761016675
 20
3.728854457494243
 30
0.0
 10
-13.76103724227299
 20
3.967408347917196
 30
0.0
 10
-14.59844228513342
 20
4.181513278015843
 30
0.0
 10
-15.43592978350709
 20
4.369844185759314
 30
0.0
 10
-16.2734964657446
 20
4.531246737427583
 30
0.0
 10
-17.11113767118102
 20
4.664651082043676
 30
0.0
 10
-17.94884036645551
 20
4.769446663587231
 30
0.0
 10
-18.78659531923421
 20
4.844210098057881
 30
0.0
 10
-19.62438893022981
 20
4.89125703487498
 30
0.0
 10
-20.18305566885025
 20
4.897087295222775
 30
0.0
 10
-20.46220518105736
 20
4.900000506659242
 30
0.0
  0
SPLINE
  5
3053
330
1F
100
AcDbEntity
  8
AM_0
 48
0.5
100
AcDbSpline
210
0.0
220
0.0
230
1.0
 70
     8
 71
     3
 72
    16
 73
    12
 74
     0
 42
0.0000000001
 43
0.0000000001
 40
0.0
 40
0.0
 40
0.0
 40
0.0
 40
1.010743614677189
 40
2.022833924044153
 40
3.037578959561199
 40
4.056212747067873
 40
5.079857613375832
 40
6.109500119648989
 40
7.14596120163808
 40
8.18989512056258
 40
8.545190612624931
 40
8.545190612624931
 40
8.545190612624931
 40
8.545190612624931
 10
-4.680396727120785
 20
4.900000506658487
 30
0.0
 10
-4.959526504429867
 20
4.8999710618271
 30
0.0
 10
-5.518211756209671
 20
4.889916690593192
 30
0.0
 10
-6.355992007820598
 20
4.84457037894714
 30
0.0
 10
-7.193749423963205
 20
4.769349627643707
 30
0.0
 10
-8.031451447859287
 20
4.664677250841332
 30
0.0
 10
-8.869092863264922
 20
4.531239708341631
 30
0.0
 10
-9.70665938040079
 20
4.36984593091008
 30
0.0
 10
-10.54415130962139
 20
4.181512500509949
 30
0.0
 10
-11.19534010110698
 20
4.01501640124535
 30
0.0
 10
-11.56754630014972
 20
3.912617177770906
 30
0.0
 10
-11.66193571349499
 20
3.886192314939501
 30
0.0
  0
SPLINE
  5
3054
330
1F
100
AcDbEntity
  8
AM_0
 48
0.5
100
AcDbSpline
210
0.0
220
0.0
230
1.0
 70
     8
 71
     3
 72
    17
 73
    13
 74
     0
 42
0.0000000001
 43
0.0000000001
 40
0.0
 40
0.0
 40
0.0
 40
0.0
 40
1.010743614677189
 40
2.022833924044153
 40
3.037578959561199
 40
4.056212747067873
 40
5.079857613375832
 40
6.109500119648989
 40
7.14596120163808
 40
8.18989512056258
 40
9.241717674284874
 40
9.693948937866434
 40
9.693948937866434
 40
9.693948937866434
 40
9.693948937866434
 10
-4.680396727120785
 20
4.900000506658487
 30
0.0
 10
-4.959542023090936
 20
4.897087226333775
 30
0.0
 10
-5.518204542671775
 20
4.891256784087631
 30
0.0
 10
-6.35599395400927
 20
4.84421012022639
 30
0.0
 10
-7.193748874043003
 20
4.769446589115291
 30
0.0
 10
-8.03145169285025
 20
4.664651359385256
 30
0.0
 10
-8.869092433633138
 20
4.531245694894126
 30
0.0
 10
-9.70666086543806
 20
4.369848112046401
 30
0.0
 10
-10.54414574668896
 20
4.181497580458945
 30
0.0
 10
-11.38157957516101
 20
3.967462124418214
 30
0.0
 10
-12.05757799866051
 20
3.774648532455422
 30
0.0
 10
-12.45456390745688
 20
3.654112309670905
 30
0.0
 10
-12.57371777872024
 20
3.617216978781459
 30
0.0
  0
SPLINE
  5
3055
330
1F
100
AcDbEntity
  8
AM_0
100
AcDbSpline
210
0.0
220
0.0
230
1.0
 70
     8
 71
     3
 72
    17
 73
    13
 74
     0
 42
0.0000000001
 43
0.0000000001
 40
1.580019955310467
 40
1.580019955310467
 40
1.580019955310467
 40
1.580019955310467
 40
2.030549285115227
 40
3.082371838836284
 40
4.126290986361125
 40
5.162752068350215
 40
6.192395305374981
 40
7.216039564037012
 40
8.234688489606833
 40
9.249433870634691
 40
10.26152376260694
 40
11.27226744710342
 40
11.27226744710342
 40
11.27226744710342
 40
11.27226744710352
 10
-12.5706853104701
 20
-3.616343781633904
 30
0.0
 10
-12.68921862805678
 20
-3.653589123569068
 30
0.0
 10
-13.08515973150993
 20
-3.775665706588096
 30
0.0
 10
-13.76112938438902
 20
-3.967147195029372
 30
0.0
 10
-14.5984177987023
 20
-4.181581060326587
 30
0.0
 10
-15.43593671773212
 20
-4.369825523320434
 30
0.0
 10
-16.27349401158644
 20
-4.531248416795665
 30
0.0
 10
-17.11114255580684
 20
-4.664675542829546
 30
0.0
 10
-17.94884897076153
 20
-4.76934549164704
 30
0.0
 10
-18.78660754802338
 20
-4.844579966956816
 30
0.0
 10
-19.62439764739056
 20
-4.889894675704164
 30
0.0
 10
-20.18305993957148
 20
-4.89999952137884
 30
0.0
 10
-20.4621999375139
 20
-4.90000883934898
 30
0.0
  0
SPLINE
  5
3056
330
1F
100
AcDbEntity
  8
AM_0
100
AcDbSpline
210
0.0
220
0.0
230
1.0
 70
     8
 71
     3
 72
    11
 73
     7
 74
     0
 42
0.0000000001
 43
0.0000000001
 40
11.27226913003534
 40
11.27226913003534
 40
11.27226913003534
 40
11.2722691300354
 40
12.28301561507924
 40
13.29510212255852
 40
14.30984805882082
 40
15.18258238371378
 40
15.18258238371378
 40
15.18258238371378
 40
15.18258238371378
 10
-20.46219993751394
 20
-4.90000883934898
 30
0.0
 10
-20.74028897490973
 20
-4.876017469410044
 30
0.0
 10
-21.29593204369885
 20
-4.817958033214085
 30
0.0
 10
-22.12652740966206
 20
-4.700837789439365
 30
0.0
 10
-22.91477705763808
 20
-4.560950499984357
 30
0.0
 10
-23.42457066062291
 20
-4.453414977267486
 30
0.0
 10
-23.65949806923789
 20
-4.400295399283528
 30
0.0
  0
SPLINE
  5
3057
330
1F
100
AcDbEntity
  8
AM_0
100
AcDbSpline
210
0.0
220
0.0
230
1.0
 70
     8
 71
     3
 72
    22
 73
    18
 74
     0
 42
0.0000000001
 43
0.0000000001
 40
17.17441611292
 40
17.17441611292
 40
17.17441611292
 40
17.17441611292
 40
17.38177636558528
 40
18.41823744757437
 40
19.46215659509824
 40
20.51397914882054
 40
21.57394542641293
 40
22.64209583141747
 40
23.71826625065247
 40
24.80210429862395
 40
25.8930771157021
 40
26.99048705697709
 40
28.09349309193389
 40
29.20112995599786
 40
30.31233024745139
 40
31.42594771747373
 40
32.5407895042663
 40
32.54078950426994
 40
32.54078950426994
 40
32.54078950426994
 10
-23.6598644637327
 20
-4.400234957820998
 30
0.0
 10
-23.71596408313514
 20
-4.388891938421667
 30
0.0
 10
-24.05225066366618
 20
-4.319800367437765
 30
0.0
 10
-24.66830872952566
 20
-4.18126277514687
 30
0.0
 10
-25.50571370869607
 20
-3.967158178881347
 30
0.0
 10
-26.3430333580569
 20
-3.728604197991046
 30
0.0
 10
-27.18027358903793
 20
-3.467089945574884
 30
0.0
 10
-28.01743329570306
 20
-3.184218890653848
 30
0.0
 10
-28.85452278251754
 20
-2.881751470515905
 30
0.0
 10
-29.69154592544099
 20
-2.561546552606104
 30
0.0
 10
-30.52851046892786
 20
-2.225578823108003
 30
0.0
 10
-31.36542571949317
 20
-1.875920990107099
 30
0.0
 10
-32.20229894105649
 20
-1.514723110192419
 30
0.0
 10
-33.03913855809967
 20
-1.144207333756312
 30
0.0
 10
-33.87595198847761
 20
-0.7666519134241218
 30
0.0
 10
-34.71275162885359
 20
-0.3843865702110166
 30
0.0
 10
-35.27050855327204
 20
-0.1280093131788896
 30
0.0
 10
-35.54954023532399
 20
0.0002497335486149
 30
0.0
  0
ELLIPSE
  5
3058
330
1F
100
AcDbEntity
  8
AM_0
 48
0.5
100
AcDbEllipse
 10
4.755094354391792
 20
-1.308617154457311
 30
0.0
 11
0.9130638285363271
 21
7.722579223276608
 31
0.0
210
0.0
220
0.0
230
1.0
 40
0.9762953770113492
 41
1.785578306828907
 42
2.165948115149465
  0
ELLIPSE
  5
3059
330
1F
100
AcDbEntity
  8
AM_0
 48
0.5
100
AcDbEllipse
 10
-1.415220911579976
 20
-1.277010029535843
 30
0.0
 11
-0.6818451200885467
 21
0.4147751536095482
 31
0.0
210
0.0
220
0.0
230
1.0
 40
0.5075196942874034
 41
4.502249682323236
 42
7.645690023652749
  0
ELLIPSE
  5
305A
330
1F
100
AcDbEntity
  8
AM_0
 48
0.5
100
AcDbEllipse
 10
-1.415152657029717
 20
-1.275272126533363
 30
0.0
 11
-0.1336292513314113
 21
0.804656839248541
 31
0.0
210
0.0
220
0.0
230
1.0
 40
0.4847625948514408
 41
1.811248492215591
 42
4.946590381927567
  0
ELLIPSE
  5
305B
330
1F
100
AcDbEntity
  8
AM_0
 48
0.5
100
AcDbEllipse
 10
-5.398042737136639
 20
4.998926385893794
 30
0.0
 11
0.0000000000006633
 21
7.612878435402421
 31
0.0
210
0.0
220
0.0
230
1.0
 40
0.9285714285714352
 41
3.51705450908275
 42
3.68182157085625
  0
ELLIPSE
  5
305C
330
1F
100
AcDbEntity
  8
AM_0
 48
0.5
100
AcDbEllipse
 10
-8.2224839680167
 20
8.307047333338759
 30
0.0
 11
8.08917686349746
 21
10.65852974723017
 31
0.0
210
0.0
220
0.0
230
0.9999999999999998
 40
0.8714420044666322
 41
4.477975516778523
 42
4.589043036196379
  0
SPLINE
  5
305D
330
1F
100
AcDbEntity
  8
AM_0
100
AcDbSpline
210
0.0
220
0.0
230
1.0
 70
     8
 71
     3
 72
    55
 73
    51
 74
     0
 42
0.0000000001
 43
0.0000000001
 40
0.0
 40
0.0
 40
0.0
 40
0.0
 40
1.010743684496582
 40
2.022833576467832
 40
3.037578957496688
 40
4.056212745003489
 40
5.079857003664532
 40
6.109500240690281
 40
7.145961322679372
 40
8.189895241603872
 40
9.241717795325891
 40
10.30168407291828
 40
11.36983447792315
 40
12.44600489715814
 40
13.52984294512926
 40
14.62081576220742
 40
15.7182257034828
 40
16.82123173843959
 40
17.92886860250316
 40
19.0400688939571
 40
20.15368796660465
 40
21.26852814259644
 40
22.38336992938901
 40
23.49698739941135
 40
24.6081876908653
 40
25.71582455492886
 40
26.81883757994213
 40
27.91624752121713
 40
29.00722033829659
 40
30.09105838626677
 40
31.16722880550176
 40
32.23537921050758
 40
33.29534548809967
 40
34.347168041821
 40
35.39108718934584
 40
36.42754827133493
 40
37.45720575381954
 40
38.48085062012849
 40
39.49948440763516
 40
40.51422944315121
 40
41.52631975251916
 40
42.53706336719636
 40
43.54780698187354
 40
44.55989729124051
 40
45.57464232675757
 40
46.59327611426424
 40
47.6169209805722
 40
48.64656348684535
 40
49.68302456883444
 40
50.58557219878025
 40
50.58557219878025
 40
50.58557219878025
 40
50.58557219878025
 10
-4.680396727121254
 20
-4.899999493341517
 30
0.0
 10
-4.959541972290306
 20
-4.897084112051263
 30
0.0
 10
-5.518204255617409
 20
-4.891249466480307
 30
0.0
 10
-6.355994372754582
 20
-4.84421567296671
 30
0.0
 10
-7.193748727790508
 20
-4.769444227877759
 30
0.0
 10
-8.031451234056682
 20
-4.664649203813424
 30
0.0
 10
-8.869093532600784
 20
-4.531250774268965
 30
0.0
 10
-9.70665909861308
 20
-4.369842140802093
 30
0.0
 10
-10.54415073371328
 20
-4.181510609498746
 30
0.0
 10
-11.38156101104312
 20
-3.967409432546903
 30
0.0
 10
-12.2188842263124
 20
-3.728853178184818
 30
0.0
 10
-13.05612455311447
 20
-3.467339239361256
 30
0.0
 10
-13.89328423374588
 20
-3.184468099310027
 30
0.0
 10
-14.73037372784626
 20
-2.882000702732124
 30
0.0
 10
-15.56739686792318
 20
-2.561795776585066
 30
0.0
 10
-16.40436141547277
 20
-2.225828056317286
 30
0.0
 10
-17.2412766525451
 20
-1.876170194463981
 30
0.0
 10
-18.07814992435521
 20
-1.514972421440264
 30
0.0
 10
-18.91498935285352
 20
-1.144456244059626
 30
0.0
 10
-19.7518038925775
 20
-0.7669021453743288
 30
0.0
 10
-20.5886008831872
 20
-0.3846311728219472
 30
0.0
 10
-21.4253921415524
 20
-0.0000004931187076
 30
0.0
 10
-22.26217964342502
 20
0.3846371101764715
 30
0.0
 10
-23.09897943879583
 20
0.7669021297586803
 30
0.0
 10
-23.93579294546106
 20
1.144457371278741
 30
0.0
 10
-24.7726338660348
 20
1.514974960160868
 30
0.0
 10
-25.60951060959668
 20
1.876169650659364
 30
0.0
 10
-26.44642716754235
 20
2.225829285764536
 30
0.0
 10
-27.2833918359218
 20
2.561796733597131
 30
0.0
 10
-28.12041494554211
 20
2.882001727082082
 30
0.0
 10
-28.95750444178598
 20
3.184469124102438
 30
0.0
 10
-29.79466414374048
 20
3.467340196514913
 30
0.0
 10
-30.6319043841302
 20
3.728854402368267
 30
0.0
 10
-31.4692240008919
 20
3.967408550281676
 30
0.0
 10
-32.30662909980638
 20
4.181512531424765
 30
0.0
 10
-33.14412042424066
 20
4.369847849838276
 30
0.0
 10
-33.98169197075179
 20
4.531238048198621
 30
0.0
 10
-34.81933703662932
 20
4.664677767377017
 30
0.0
 10
-35.65703979122801
 20
4.769348570466499
 30
0.0
 10
-36.49479472836112
 20
4.844574075303499
 30
0.0
 10
-37.33258413515212
 20
4.889903002702656
 30
0.0
 10
-38.17039195185726
 20
4.90504589745555
 30
0.0
 10
-39.00819976732967
 20
4.889903002678993
 30
0.0
 10
-39.84598917782598
 20
4.844574075398896
 30
0.0
 10
-40.68374410131712
 20
4.769348570107754
 30
0.0
 10
-41.52144690706287
 20
4.664677768726177
 30
0.0
 10
-42.35908769697988
 20
4.531238693666995
 30
0.0
 10
-43.19665594377795
 20
4.369849499966274
 30
0.0
 10
-43.99606835519069
 20
4.190061762523068
 30
0.0
 10
-44.51473623168263
 20
4.058581290476276
 30
0.0
 10
-44.75536789622463
 20
3.994504442444188
 30
0.0
  0
VIEWPORT
  5
110
330
101
100
AcDbEntity
 67
     1
  8
0
100
AcDbViewport
 10
420.5
 20
297.0
 30
0.0
 40
948.9782706766916
 41
628.452
 68
     1
 69
     1
1001
ACAD
1000
MVIEW
1002
{
1070
    16
1010
0.0
1020
0.0
1030
0.0
1010
0.0
1020
0.0
1030
1.0
1040
0.0
1040
628.452
1040
420.5
1040
297.0
1040
50.0
1040
0.0
1040
0.0
1070
     0
1070
   100
1070
     1
1070
     1
1070
     0
1070
     0
1070
     0
1070
     0
1040
0.0
1040
0.0
1040
0.0
1040
10.0
1040
10.0
1040
10.0
1040
10.0
1070
     0
1002
{
1002
}
1002
}
  0
ENDSEC
  0
SECTION
  2
OBJECTS
  0
DICTIONARY
  5
C
330
0
100
AcDbDictionary
  3
ACAD_GROUP
350
D
  3
ACAD_LAYOUT
350
1A
  3
ACAD_MLINESTYLE
350
17
  3
ACAD_PLOTSETTINGS
350
19
  3
ACAD_PLOTSTYLENAME
350
E
  3
ACDBVARIABLEDICTIONARY
350
34
  3
ACMDICTIONARY
350
43
  3
AMG
350
2B
  3
AMGSNAPSETTINGS
350
6E
  3
DWGPROPS
350
30DC
  3
ACDBHEADERROUNDTRIPXREC
350
30E8
  0
DICTIONARY
  5
74
330
1F
100
AcDbDictionary
280
     1
  3
ACAD_INDEX
360
30DE
  3
ACAD_LAYOUTSELFREF
360
310B
  0
DICTIONARY
  5
3110
330
101
100
AcDbDictionary
280
     1
  3
ACAD_LAYOUTSELFREF
360
3111
  0
DICTIONARY
  5
D
102
{ACAD_REACTORS
330
C
102
}
330
C
100
AcDbDictionary
  0
DICTIONARY
  5
1A
102
{ACAD_REACTORS
330
C
102
}
330
C
100
AcDbDictionary
  0
DICTIONARY
  5
17
102
{ACAD_REACTORS
330
C
102
}
330
C
100
AcDbDictionary
  3
STANDARD
350
18
  0
DICTIONARY
  5
19
102
{ACAD_REACTORS
330
C
102
}
330
C
100
AcDbDictionary
  0
ACDBDICTIONARYWDFLT
  5
E
102
{ACAD_REACTORS
330
C
102
}
330
C
100
AcDbDictionary
281
     1
  3
Normal
350
F
100
AcDbDictionaryWithDefault
340
F
  0
DICTIONARY
  5
34
102
{ACAD_REACTORS
330
C
102
}
330
C
100
AcDbDictionary
  3
INDEXCTL
350
35
  3
SORTENTS
350
B5E
  0
DICTIONARY
  5
43
102
{ACAD_REACTORS
330
C
102
}
330
C
100
AcDbDictionary
  3
ACMSTDDICTIONARY
350
260
  0
DICTIONARY
  5
2B
102
{ACAD_REACTORS
330
C
102
}
330
C
100
AcDbDictionary
  3
ACMGSETTINGS
350
2C
  0
DICTIONARY
  5
6E
102
{ACAD_REACTORS
330
C
102
}
330
C
100
AcDbDictionary
  0
XRECORD
  5
30DC
102
{ACAD_REACTORS
330
C
102
}
330
C
100
AcDbXrecord
  1
DWGPROPS COOKIE
  2

  3

  4

  6

  7

  8

  9

300
AmdtFileType=82
301
=
302
=
303
=
304
=
305
=
306
=
307
=
308
=
309
=
 40
0.0614067708333333
 41
2452800.443498622
 42
2452946.619042962
  1

 90
        1
  0
DICTIONARY
  5
30E8
102
{ACAD_REACTORS
330
C
102
}
330
C
100
AcDbDictionary
  3
TSTACKALIGN
350
30E9
  3
TSTACKSIZE
350
30EA
  3
HYPERLINKBASE
350
30EB
  3
STYLESHEET
350
30EC
  3
LAYOUTDICT
350
30ED
  3
PLOTSETDICT
350
30EE
  3
PLOTSTYLNAMDICT
350
30EF
  3
LWETCUNION
350
30F0
  3
INSUNITS
350
30F1
  3
CEPSNTYPE
350
30F2
  3
FINGERPRINTGUID
350
30F3
  3
VERSIONGUID
350
30F4
  3
PSVPSCALE
350
30F5
  3
DIMSTYLEDATA
350
30F6
  3
PUCSORTHOREF
350
30F7
  3
PUCSORTHOVIEW
350
30F8
  3
PUCSBASE
350
30F9
  3
PUCSORGTOP
350
30FA
  3
PUCSORGBOTTOM
350
30FB
  3
PUCSORGLEFT
350
30FC
  3
PUCSORGRIGHT
350
30FD
  3
PUCSORGFRONT
350
30FE
  3
PUCSORGBACK
350
30FF
  3
UCSORTHOREF
350
3100
  3
UCSORTHOVIEW
350
3101
  3
UCSBASE
350
3102
  3
UCSORGTOP
350
3103
  3
UCSORGBOTTOM
350
3104
  3
UCSORGLEFT
350
3105
  3
UCSORGRIGHT
350
3106
  3
UCSORGFRONT
350
3107
  3
UCSORGBACK
350
3108
  0
DICTIONARY
  5
30DE
102
{ACAD_REACTORS
330
74
102
}
330
74
100
AcDbDictionary
  3
*A1
350
30DF
  0
XRECORD
  5
310B
102
{ACAD_REACTORS
330
74
102
}
330
74
100
AcDbXrecord
340
1F
  0
XRECORD
  5
3111
102
{ACAD_REACTORS
330
3110
102
}
330
3110
100
AcDbXrecord
340
101
  0
MLINESTYLE
  5
18
102
{ACAD_REACTORS
330
17
102
}
330
17
100
AcDbMlineStyle
  2
STANDARD
 70
     0
  3

 62
   256
 51
90.0
 52
90.0
 71
     2
 49
0.5
 62
   256
  6
BYLAYER
 49
-0.5
 62
   256
  6
BYLAYER
  0
ACDBPLACEHOLDER
  5
F
102
{ACAD_REACTORS
330
E
102
}
330
E
100
AcDbPlaceHolder
280
     0
  0
DICTIONARYVAR
  5
35
102
{ACAD_REACTORS
330
34
102
}
330
34
100
DictionaryVariables
280
     0
  1
1
  0
DICTIONARYVAR
  5
B5E
102
{ACAD_REACTORS
330
34
102
}
330
34
100
DictionaryVariables
280
     0
  1
96
  0
DICTIONARY
  5
260
102
{ACAD_REACTORS
330
43
102
}
330
43
100
AcDbDictionary
  0
DICTIONARY
  5
2C
102
{ACAD_REACTORS
330
2B
102
}
330
2B
100
AcDbDictionary
  3
DWGSETTINGS
350
2D
  0
XRECORD
  5
30E9
102
{ACAD_REACTORS
330
30E8
102
}
330
30E8
100
AcDbXrecord
 90
        1
  0
XRECORD
  5
30EA
102
{ACAD_REACTORS
330
30E8
102
}
330
30E8
100
AcDbXrecord
 90
       70
  0
XRECORD
  5
30EB
102
{ACAD_REACTORS
330
30E8
102
}
330
30E8
100
AcDbXrecord
  1

  0
XRECORD
  5
30EC
102
{ACAD_REACTORS
330
30E8
102
}
330
30E8
100
AcDbXrecord
  1
ASAMI.ctb
  0
XRECORD
  5
30ED
102
{ACAD_REACTORS
330
30E8
102
}
330
30E8
100
AcDbXrecord
340
1A
  0
XRECORD
  5
30EE
102
{ACAD_REACTORS
330
30E8
102
}
330
30E8
100
AcDbXrecord
340
19
  0
XRECORD
  5
30EF
102
{ACAD_REACTORS
330
30E8
102
}
330
30E8
100
AcDbXrecord
340
E
  0
XRECORD
  5
30F0
102
{ACAD_REACTORS
330
30E8
102
}
330
30E8
100
AcDbXrecord
 90
    10781
  0
XRECORD
  5
30F1
102
{ACAD_REACTORS
330
30E8
102
}
330
30E8
100
AcDbXrecord
 90
        4
  0
XRECORD
  5
30F2
102
{ACAD_REACTORS
330
30E8
102
}
330
30E8
100
AcDbXrecord
 90
        0
  0
XRECORD
  5
30F3
102
{ACAD_REACTORS
330
30E8
102
}
330
30E8
100
AcDbXrecord
  1
{AFB28963-8C59-40AE-9337-C84526B81ACE}
  0
XRECORD
  5
30F4
102
{ACAD_REACTORS
330
30E8
102
}
330
30E8
100
AcDbXrecord
  1
{FF56A71B-83A5-46EA-8AE0-1F022A246AA2}
  0
XRECORD
  5
30F5
102
{ACAD_REACTORS
330
30E8
102
}
330
30E8
100
AcDbXrecord
 40
0.0
  0
XRECORD
  5
30F6
102
{ACAD_REACTORS
330
30E8
102
}
330
30E8
100
AcDbXrecord
1000
DSTYLE
1002
{
1070
    79
 70
     2
1070
   341
340
59
1070
   342
340
59
1070
   371
 70
    -1
1070
   372
 70
    -1
1002
}
  0
XRECORD
  5
30F7
102
{ACAD_REACTORS
330
30E8
102
}
330
30E8
100
AcDbXrecord
340
0
  0
XRECORD
  5
30F8
102
{ACAD_REACTORS
330
30E8
102
}
330
30E8
100
AcDbXrecord
 70
     0
  0
XRECORD
  5
30F9
102
{ACAD_REACTORS
330
30E8
102
}
330
30E8
100
AcDbXrecord
340
0
  0
XRECORD
  5
30FA
102
{ACAD_REACTORS
330
30E8
102
}
330
30E8
100
AcDbXrecord
 10
0.0
 20
0.0
 30
0.0
  0
XRECORD
  5
30FB
102
{ACAD_REACTORS
330
30E8
102
}
330
30E8
100
AcDbXrecord
 10
0.0
 20
0.0
 30
0.0
  0
XRECORD
  5
30FC
102
{ACAD_REACTORS
330
30E8
102
}
330
30E8
100
AcDbXrecord
 10
0.0
 20
0.0
 30
0.0
  0
XRECORD
  5
30FD
102
{ACAD_REACTORS
330
30E8
102
}
330
30E8
100
AcDbXrecord
 10
0.0
 20
0.0
 30
0.0
  0
XRECORD
  5
30FE
102
{ACAD_REACTORS
330
30E8
102
}
330
30E8
100
AcDbXrecord
 10
0.0
 20
0.0
 30
0.0
  0
XRECORD
  5
30FF
102
{ACAD_REACTORS
330
30E8
102
}
330
30E8
100
AcDbXrecord
 10
0.0
 20
0.0
 30
0.0
  0
XRECORD
  5
3100
102
{ACAD_REACTORS
330
30E8
102
}
330
30E8
100
AcDbXrecord
340
0
  0
XRECORD
  5
3101
102
{ACAD_REACTORS
330
30E8
102
}
330
30E8
100
AcDbXrecord
 70
     0
  0
XRECORD
  5
3102
102
{ACAD_REACTORS
330
30E8
102
}
330
30E8
100
AcDbXrecord
340
0
  0
XRECORD
  5
3103
102
{ACAD_REACTORS
330
30E8
102
}
330
30E8
100
AcDbXrecord
 10
0.0
 20
0.0
 30
0.0
  0
XRECORD
  5
3104
102
{ACAD_REACTORS
330
30E8
102
}
330
30E8
100
AcDbXrecord
 10
0.0
 20
0.0
 30
0.0
  0
XRECORD
  5
3105
102
{ACAD_REACTORS
330
30E8
102
}
330
30E8
100
AcDbXrecord
 10
0.0
 20
0.0
 30
0.0
  0
XRECORD
  5
3106
102
{ACAD_REACTORS
330
30E8
102
}
330
30E8
100
AcDbXrecord
 10
0.0
 20
0.0
 30
0.0
  0
XRECORD
  5
3107
102
{ACAD_REACTORS
330
30E8
102
}
330
30E8
100
AcDbXrecord
 10
0.0
 20
0.0
 30
0.0
  0
XRECORD
  5
3108
102
{ACAD_REACTORS
330
30E8
102
}
330
30E8
100
AcDbXrecord
 10
0.0
 20
0.0
 30
0.0
  0
LAYER_INDEX
  5
30DF
102
{ACAD_REACTORS
330
30DE
102
}
330
30DE
100
AcDbIndex
 40
2453151.572599086
100
AcDbLayerIndex
  8
0
360
30E0
 90
        0
  8
AM_0
360
30E1
 90
       47
  8
AM_7
360
30E2
 90
        1
  8
AM_11
360
30E3
 90
       17
  8
AM_5
360
30E4
 90
        5
  8
Defpoints
360
30E5
 90
        0
  8
AM_6
360
30E6
 90
        1
  0
XRECORD
  5
2D
102
{ACAD_REACTORS
330
2C
102
}
330
2C
100
AcDbXrecord
  1
VERSION
140
15.0
  1
PRODUCT
  2
AutoCAD Mechanical 2000
  0
IDBUFFER
  5
30E0
330
0
100
AcDbIdBuffer
  0
IDBUFFER
  5
30E1
330
0
100
AcDbIdBuffer
330
2F1D
330
2F1E
330
303B
330
303C
330
303F
330
3040
330
3041
330
3042
330
3043
330
3044
330
3045
330
3046
330
3047
330
3048
330
3049
330
304E
330
304F
330
3050
330
3051
330
3052
330
3053
330
3054
330
3055
330
3056
330
3057
330
3058
330
3059
330
305A
330
305B
330
305C
330
305D
330
C1D
330
C20
330
24A7
330
24BE
330
2567
330
2568
330
2569
330
256C
330
256E
330
256F
330
2571
330
2572
330
279A
330
279D
330
2C43
330
2C44
  0
IDBUFFER
  5
30E2
330
0
100
AcDbIdBuffer
330
23EF
  0
IDBUFFER
  5
30E3
330
0
100
AcDbIdBuffer
330
304D
330
24B7
330
24B8
330
24C7
330
24C8
330
24C9
330
24CA
330
24D4
330
24D5
330
24E6
330
24E7
330
278C
330
278D
330
303D
330
304A
330
304B
330
304C
  0
IDBUFFER
  5
30E4
330
0
100
AcDbIdBuffer
330
CC6
330
2069
330
2599
330
29BA
330
2C54
  0
IDBUFFER
  5
30E5
330
0
100
AcDbIdBuffer
  0
IDBUFFER
  5
30E6
330
0
100
AcDbIdBuffer
330
19BD
  0
ENDSEC
  0
EOF
