  0
SECTION
  2
HEADER
  9
$ACADVER
  1
AC1014
  9
$ACADMAINTVER
 70
     9
  9
$DWGCODEPAGE
  3
ANSI_932
  9
$INSBASE
 10
0.0
 20
0.0
 30
0.0
  9
$EXTMIN
 10
-170.3000009999999
 20
-51.99998879310997
 30
-0.00000001
  9
$EXTMAX
 10
34.54131093886835
 20
33.45739783996875
 30
0.00000001
  9
$LIMMIN
 10
-181.7530699316048
 20
-80.78228125506441
  9
$LIMMAX
 10
40.19963407029672
 20
52.07017141896585
  9
$ORTHOMODE
 70
     0
  9
$REGENMODE
 70
     1
  9
$FILLMODE
 70
     1
  9
$QTEXTMODE
 70
     0
  9
$MIRRTEXT
 70
     0
  9
$DRAGMODE
 70
     2
  9
$LTSCALE
 40
1.0
  9
$OSMODE
 70
    55
  9
$ATTMODE
 70
     1
  9
$TEXTSIZE
 40
2.5
  9
$TRACEWID
 40
1.0
  9
$TEXTSTYLE
  7
STANDARD
  9
$CLAYER
  8
AM_0
  9
$CELTYPE
  6
BYLAYER
  9
$CECOLOR
 62
   256
  9
$CELTSCALE
 40
1.0
  9
$DELOBJ
 70
     1
  9
$DISPSILH
 70
     0
  9
$DIMSCALE
 40
1.0
  9
$DIMASZ
 40
2.5
  9
$DIMEXO
 40
1.0
  9
$DIMDLI
 40
12.0
  9
$DIMRND
 40
0.0
  9
$DIMDLE
 40
0.0
  9
$DIMEXE
 40
1.0
  9
$DIMTP
 40
0.1
  9
$DIMTM
 40
0.1
  9
$DIMTXT
 40
3.2
  9
$DIMCEN
 40
0.0
  9
$DIMTSZ
 40
0.0
  9
$DIMTOL
 70
     0
  9
$DIMLIM
 70
     0
  9
$DIMTIH
 70
     0
  9
$DIMTOH
 70
     0
  9
$DIMSE1
 70
     0
  9
$DIMSE2
 70
     0
  9
$DIMTAD
 70
     3
  9
$DIMZIN
 70
     8
  9
$DIMBLK
  1
OPEN30
  9
$DIMASO
 70
     1
  9
$DIMSHO
 70
     1
  9
$DIMPOST
  1

  9
$DIMAPOST
  1
"
  9
$DIMALT
 70
     0
  9
$DIMALTD
 70
     2
  9
$DIMALTF
 40
0.0393701
  9
$DIMLFAC
 40
1.0
  9
$DIMTOFL
 70
     1
  9
$DIMTVP
 40
0.0
  9
$DIMTIX
 70
     0
  9
$DIMSOXD
 70
     0
  9
$DIMSAH
 70
     0
  9
$DIMBLK1
  1

  9
$DIMBLK2
  1

  9
$DIMSTYLE
  2
AM_JIS
  9
$DIMCLRD
 70
   256
  9
$DIMCLRE
 70
   256
  9
$DIMCLRT
 70
     2
  9
$DIMTFAC
 40
0.71
  9
$DIMGAP
 40
1.5
  9
$DIMJUST
 70
     0
  9
$DIMSD1
 70
     0
  9
$DIMSD2
 70
     0
  9
$DIMTOLJ
 70
     0
  9
$DIMTZIN
 70
     0
  9
$DIMALTZ
 70
     0
  9
$DIMALTTZ
 70
     0
  9
$DIMFIT
 70
     3
  9
$DIMUPT
 70
     0
  9
$DIMUNIT
 70
     2
  9
$DIMDEC
 70
     3
  9
$DIMTDEC
 70
     3
  9
$DIMALTU
 70
     2
  9
$DIMALTTD
 70
     2
  9
$DIMTXSTY
  7
ASAMI
  9
$DIMAUNIT
 70
     0
  9
$LUNITS
 70
     2
  9
$LUPREC
 70
     2
  9
$SKETCHINC
 40
1.0
  9
$FILLETRAD
 40
2.5
  9
$AUNITS
 70
     0
  9
$AUPREC
 70
     0
  9
$MENU
  1
.
  9
$ELEVATION
 40
0.0
  9
$PELEVATION
 40
0.0
  9
$THICKNESS
 40
0.0
  9
$LIMCHECK
 70
     0
  9
$BLIPMODE
 70
     0
  9
$CHAMFERA
 40
2.5
  9
$CHAMFERB
 40
2.5
  9
$CHAMFERC
 40
20.0
  9
$CHAMFERD
 40
0.0
  9
$SKPOLY
 70
     0
  9
$TDCREATE
 40
2452800.443498622
  9
$TDUPDATE
 40
2453151.683664629
  9
$TDINDWG
 40
0.0579390972
  9
$TDUSRTIMER
 40
0.0579390972
  9
$USRTIMER
 70
     1
  9
$ANGBASE
 50
0.0
  9
$ANGDIR
 70
     0
  9
$PDMODE
 70
     0
  9
$PDSIZE
 40
0.0
  9
$PLINEWID
 40
0.0
  9
$COORDS
 70
     1
  9
$SPLFRAME
 70
     0
  9
$SPLINETYPE
 70
     6
  9
$SPLINESEGS
 70
     8
  9
$ATTDIA
 70
     1
  9
$ATTREQ
 70
     1
  9
$HANDLING
 70
 12289
  9
$HANDSEED
  5
2B88
  9
$SURFTAB1
 70
     6
  9
$SURFTAB2
 70
     6
  9
$SURFTYPE
 70
     6
  9
$SURFU
 70
     6
  9
$SURFV
 70
     6
  9
$UCSNAME
  2

  9
$UCSORG
 10
-0.0000000000000115
 20
-0.0000000000000176
 30
0.0
  9
$UCSXDIR
 10
1.0
 20
0.0000000000000027
 30
0.0
  9
$UCSYDIR
 10
-0.0000000000000027
 20
1.0
 30
0.0
  9
$PUCSNAME
  2

  9
$PUCSORG
 10
0.0
 20
0.0
 30
0.0
  9
$PUCSXDIR
 10
1.0
 20
0.0
 30
0.0
  9
$PUCSYDIR
 10
0.0
 20
1.0
 30
0.0
  9
$USERI1
 70
     0
  9
$USERI2
 70
     0
  9
$USERI3
 70
     0
  9
$USERI4
 70
     0
  9
$USERI5
 70
     0
  9
$USERR1
 40
0.0
  9
$USERR2
 40
0.0
  9
$USERR3
 40
0.0
  9
$USERR4
 40
0.0
  9
$USERR5
 40
0.0
  9
$WORLDVIEW
 70
     1
  9
$SHADEDGE
 70
     3
  9
$SHADEDIF
 70
    70
  9
$TILEMODE
 70
     1
  9
$MAXACTVP
 70
    64
  9
$PINSBASE
 10
0.0
 20
0.0
 30
0.0
  9
$PLIMCHECK
 70
     0
  9
$PEXTMIN
 10
1.000000000000000E+20
 20
1.000000000000000E+20
 30
1.000000000000000E+20
  9
$PEXTMAX
 10
-1.000000000000000E+20
 20
-1.000000000000000E+20
 30
-1.000000000000000E+20
  9
$PLIMMIN
 10
0.0
 20
0.0
  9
$PLIMMAX
 10
841.0
 20
594.0
  9
$UNITMODE
 70
     0
  9
$VISRETAIN
 70
     1
  9
$PLINEGEN
 70
     0
  9
$PSLTSCALE
 70
     0
  9
$TREEDEPTH
 70
  3020
  9
$PICKSTYLE
 70
     0
  9
$CMLSTYLE
  2
STANDARD
  9
$CMLJUST
 70
     0
  9
$CMLSCALE
 40
20.0
  9
$PROXYGRAPHICS
 70
     1
  9
$MEASUREMENT
 70
     1
  0
ENDSEC
  0
SECTION
  2
CLASSES
  0
CLASS
  1
ACDBDICTIONARYWDFLT
  2
AcDbDictionaryWithDefault
  3
AutoCAD 2000
 90
        0
280
     0
281
     0
  0
CLASS
  1
ACDBPLACEHOLDER
  2
AcDbPlaceHolder
  3
AutoCAD 2000
 90
        0
280
     0
281
     0
  0
CLASS
  1
LAYOUT
  2
AcDbLayout
  3
AutoCAD 2000
 90
        0
280
     0
281
     0
  0
CLASS
  1
AMGSETTINGSOBJ
  2
AmgSettingsObj
  3
"AcadM|Product Description: AutoCAD Mechanical 2000|Company: Autodesk"
 90
        0
280
     0
281
     0
  0
CLASS
  1
ACME_DOCUMENT
  2
AcMeDbDoc
  3
AcMeServices
 90
        0
280
     0
281
     0
  0
CLASS
  1
ACMESCOPE
  2
AcMeScope
  3
AcMeServices
 90
        0
280
     0
281
     0
  0
CLASS
  1
ACMECOMMANDHISTORY
  2
AcMeCommandHistory
  3
AcMeServices
 90
        0
280
     0
281
     0
  0
CLASS
  1
DICTIONARYVAR
  2
AcDbDictionaryVar
  3
AutoCAD 2000
 90
        0
280
     0
281
     0
  0
CLASS
  1
ACIMSYSVARMAN
  2
AcImSysVarManager
  3
AcMeServices
 90
        0
280
     0
281
     0
  0
CLASS
  1
ACIMREALSYSVAR
  2
AcImRealSysVar
  3
AcMeServices
 90
        0
280
     0
281
     0
  0
CLASS
  1
ACIMINTSYSVAR
  2
AcImIntSysVar
  3
AcMeServices
 90
        0
280
     0
281
     0
  0
CLASS
  1
ACMEDRAWINGMAN
  2
AcMeDrawingMan
  3
AcMeServices
 90
        0
280
     0
281
     0
  0
CLASS
  1
ACMEVIEW
  2
AcMeView
  3
AcMeServices
 90
        0
280
     0
281
     0
  0
CLASS
  1
ACDBENTITYCACHE
  2
AcMeEntityCache
  3
AcMeServices
 90
        0
280
     0
281
     0
  0
CLASS
  1
GSMANAGER
  2
AcMeGSManager
  3
AcMeServices
 90
        0
280
     0
281
     0
  0
CLASS
  1
AmdtInternalReactor
  2
AmdtInternalReactor
  3
AcMeServices
 90
        0
280
     0
281
     0
  0
CLASS
  1
ACMESTATEMGR
  2
AcMeStateMgr
  3
AcMeServices
 90
        0
280
     0
281
     0
  0
CLASS
  1
ACME_DATABASE
  2
AcMeDbDatabase
  3
AcMeServices
 90
        0
280
     0
281
     0
  0
CLASS
  1
ACRFINSADJUSTERMGR
  2
AcRfInsAdjusterMgr
  3
AcMeServices
 90
        0
280
     0
281
     0
  0
CLASS
  1
ACMDATADICTIONARY
  2
AcmDataDictionary
  3
"AcmSymBB|Product Description: AutoCAD Mechanical 2000|Company: Autodesk"
 90
        0
280
     0
281
     0
  0
CLASS
  1
ACMDATAENTRYBLOCK
  2
AcmDataEntryBlock
  3
"AcmSymBB|Product Description: AutoCAD Mechanical 2000|Company: Autodesk"
 90
        0
280
     0
281
     0
  0
CLASS
  1
AMGOBJPROPCFG
  2
AmgObjPropCfg
  3
"AmgLay|Product Description: AutoCAD Mechanical 2000|Company: Autodesk"
 90
        1
280
     0
281
     0
  0
CLASS
  1
ACAMGFILTERDAT
  2
AcAmgFilterDat
  3
"AcadM|Product Description: AutoCAD Mechanical 2000|Company: Autodesk"
 90
        0
280
     0
281
     0
  0
CLASS
  1
LAYER_INDEX
  2
AcDbLayerIndex
  3
AutoCAD 2000
 90
        0
280
     0
281
     0
  0
CLASS
  1
IDBUFFER
  2
AcDbIdBuffer
  3
AutoCAD 2000
 90
        0
280
     0
281
     0
  0
CLASS
  1
ACIMSTRSYSVAR
  2
AcImStrSysVar
  3
AcMeServices
 90
        0
280
     0
281
     0
  0
CLASS
  1
ACMSTANDARDJIS
  2
AcmStandardJIS
  3
"AcmSymBB|Product Description: AutoCAD Mechanical 2000|Company: Autodesk"
 90
        0
280
     0
281
     0
  0
CLASS
  1
ACMSURFSTANDARDJIS
  2
AcmSurfTextStdJIS
  3
"AcmSymBB|Product Description: AutoCAD Mechanical 2000|Company: Autodesk"
 90
        0
280
     0
281
     0
  0
CLASS
  1
ACMFCFSTANDARDJIS
  2
AcmFCFStdJIS
  3
"AcmSymBB|Product Description: AutoCAD Mechanical 2000|Company: Autodesk"
 90
        0
280
     0
281
     0
  0
CLASS
  1
ACMWELDSTANDARDJIS
  2
AcmWeldingStdJIS
  3
"AcmSymBB|Product Description: AutoCAD Mechanical 2000|Company: Autodesk"
 90
        0
280
     0
281
     0
  0
CLASS
  1
ACMIDSTANDARDJIS
  2
AcmIdStdJIS
  3
"AcmSymBB|Product Description: AutoCAD Mechanical 2000|Company: Autodesk"
 90
        0
280
     0
281
     0
  0
CLASS
  1
ACMDATUMSTANDARDJIS
  2
AcmDatumStdJIS
  3
"AcmSymBB|Product Description: AutoCAD Mechanical 2000|Company: Autodesk"
 90
        0
280
     0
281
     0
  0
CLASS
  1
ACMBOMSTANDARDJIS
  2
AcmBOMStdJIS
  3
"AcmSymBB|Product Description: AutoCAD Mechanical 2000|Company: Autodesk"
 90
        0
280
     0
281
     0
  0
CLASS
  1
ACMSTANDARDANSI
  2
AcmStandardANSI
  3
"AcmSymBB|Product Description: AutoCAD Mechanical 2000|Company: Autodesk"
 90
        0
280
     0
281
     0
  0
CLASS
  1
ACMSURFSTANDARDANSI
  2
AcmSurfTextStdANSI
  3
"AcmSymBB|Product Description: AutoCAD Mechanical 2000|Company: Autodesk"
 90
        0
280
     0
281
     0
  0
CLASS
  1
ACMFCFSTANDARDANSI
  2
AcmFCFStdANSI
  3
"AcmSymBB|Product Description: AutoCAD Mechanical 2000|Company: Autodesk"
 90
        0
280
     0
281
     0
  0
CLASS
  1
ACMWELDSTANDARDANSI
  2
AcmWeldingStdANSI
  3
"AcmSymBB|Product Description: AutoCAD Mechanical 2000|Company: Autodesk"
 90
        0
280
     0
281
     0
  0
CLASS
  1
ACMIDSTANDARDANSI
  2
AcmIdStdANSI
  3
"AcmSymBB|Product Description: AutoCAD Mechanical 2000|Company: Autodesk"
 90
        0
280
     0
281
     0
  0
CLASS
  1
ACMDATUMSTANDARDANSI
  2
AcmDatumStdANSI
  3
"AcmSymBB|Product Description: AutoCAD Mechanical 2000|Company: Autodesk"
 90
        0
280
     0
281
     0
  0
CLASS
  1
ACMBOMSTANDARDANSI
  2
AcmBOMStdANSI
  3
"AcmSymBB|Product Description: AutoCAD Mechanical 2000|Company: Autodesk"
 90
        0
280
     0
281
     0
  0
CLASS
  1
ACMSTANDARDBSI
  2
AcmStandardBSI
  3
"AcmSymBB|Product Description: AutoCAD Mechanical 2000|Company: Autodesk"
 90
        0
280
     0
281
     0
  0
CLASS
  1
ACMSURFSTANDARDBSI
  2
AcmSurfTextStdBSI
  3
"AcmSymBB|Product Description: AutoCAD Mechanical 2000|Company: Autodesk"
 90
        0
280
     0
281
     0
  0
CLASS
  1
ACMFCFSTANDARDBSI
  2
AcmFCFStdBSI
  3
"AcmSymBB|Product Description: AutoCAD Mechanical 2000|Company: Autodesk"
 90
        0
280
     0
281
     0
  0
CLASS
  1
ACMWELDSTANDARDBSI
  2
AcmWeldingStdBSI
  3
"AcmSymBB|Product Description: AutoCAD Mechanical 2000|Company: Autodesk"
 90
        0
280
     0
281
     0
  0
CLASS
  1
ACMIDSTANDARDBSI
  2
AcmIdStdBSI
  3
"AcmSymBB|Product Description: AutoCAD Mechanical 2000|Company: Autodesk"
 90
        0
280
     0
281
     0
  0
CLASS
  1
ACMDATUMSTANDARDBSI
  2
AcmDatumStdBSI
  3
"AcmSymBB|Product Description: AutoCAD Mechanical 2000|Company: Autodesk"
 90
        0
280
     0
281
     0
  0
CLASS
  1
ACMBOMSTANDARDBSI
  2
AcmBOMStdBSI
  3
"AcmSymBB|Product Description: AutoCAD Mechanical 2000|Company: Autodesk"
 90
        0
280
     0
281
     0
  0
CLASS
  1
LONG_TRANSACTION
  2
AcDbLongTransaction
  3
AutoCAD 2000
 90
        0
280
     0
281
     0
  0
CLASS
  1
LWPOLYLINE
  2
AcDbPolyline
  3
AutoCAD 2000
 90
        0
280
     0
281
     1
  0
CLASS
  1
HATCH
  2
AcDbHatch
  3
AutoCAD 2000
 90
        0
280
     0
281
     1
  0
CLASS
  1
XRECORD
  2
AcDbXrecord
  3
AutoCAD 2000
 90
        0
280
     0
281
     0
  0
ENDSEC
  0
SECTION
  2
TABLES
  0
TABLE
  2
VPORT
  5
8
330
0
100
AcDbSymbolTable
 70
     3
  0
VPORT
  5
2B52
330
8
100
AcDbSymbolTableRecord
100
AcDbViewportTableRecord
  2
*ACTIVE
 70
     0
 10
0.0
 20
0.0
 11
1.0
 21
1.0
 12
-64.04965854462071
 22
-7.154167279221368
 13
0.0
 23
0.0
 14
2.5
 24
2.5
 15
10.0
 25
10.0
 16
0.0
 26
0.0
 36
1.0
 17
0.0
 27
0.0
 37
0.0
 40
136.3975920951044
 41
1.56570841889117
 42
50.0
 43
0.0
 44
0.0
 50
0.0
 51
0.0
 71
     0
 72
   100
 73
     1
 74
     1
 75
     0
 76
     0
 77
     0
 78
     0
  0
ENDTAB
  0
TABLE
  2
LTYPE
  5
5
330
0
100
AcDbSymbolTable
 70
    10
  0
LTYPE
  5
14
330
5
100
AcDbSymbolTableRecord
100
AcDbLinetypeTableRecord
  2
BYBLOCK
 70
     0
  3

 72
    65
 73
     0
 40
0.0
  0
LTYPE
  5
15
330
5
100
AcDbSymbolTableRecord
100
AcDbLinetypeTableRecord
  2
BYLAYER
 70
     0
  3

 72
    65
 73
     0
 40
0.0
  0
LTYPE
  5
16
330
5
100
AcDbSymbolTableRecord
100
AcDbLinetypeTableRecord
  2
CONTINUOUS
 70
     0
  3
Solid line
 72
    65
 73
     0
 40
0.0
  0
LTYPE
  5
4B
330
5
100
AcDbSymbolTableRecord
100
AcDbLinetypeTableRecord
  2
AM_ISO02W050
 70
     0
  3
__ __ __ __ __ __ __ __ __ __ __ __ __ __ __
 72
    65
 73
     2
 40
7.5
 49
6.0
 74
     0
 49
-1.5
 74
     0
  0
LTYPE
  5
4C
330
5
100
AcDbSymbolTableRecord
100
AcDbLinetypeTableRecord
  2
AM_ISO08W050
 70
     0
  3
____ . ____ . ____ . ____ . ____ . ____ . ____
 72
    65
 73
     4
 40
18.0
 49
12.0
 74
     0
 49
-1.5
 74
     0
 49
3.0
 74
     0
 49
-1.5
 74
     0
  0
LTYPE
  5
4D
330
5
100
AcDbSymbolTableRecord
100
AcDbLinetypeTableRecord
  2
AM_ISO09W050
 70
     0
  3
_____ . . _____ . . _____ . . ____ .. ____
 72
    65
 73
     6
 40
22.5
 49
12.0
 74
     0
 49
-1.5
 74
     0
 49
3.0
 74
     0
 49
-1.5
 74
     0
 49
3.0
 74
     0
 49
-1.5
 74
     0
  0
LTYPE
  5
4E
330
5
100
AcDbSymbolTableRecord
100
AcDbLinetypeTableRecord
  2
AMCONSTR
 70
     0
  3
_______________________
 72
    65
 73
     2
 40
9999.0
 49
9999.0
 74
     0
 49
0.0
 74
     0
  0
LTYPE
  5
4F
330
5
100
AcDbSymbolTableRecord
100
AcDbLinetypeTableRecord
  2
AM_ISO02W050X2
 70
     0
  3
 _ _ _ _ _ _ _ _ _ _ _ _
 72
    65
 73
     2
 40
3.75
 49
3.0
 74
     0
 49
-0.75
 74
     0
  0
LTYPE
  5
50
330
5
100
AcDbSymbolTableRecord
100
AcDbLinetypeTableRecord
  2
AM_ISO08W050X2
 70
     0
  3
__ . __ . __ . __ . __ . __
 72
    65
 73
     4
 40
9.0
 49
6.0
 74
     0
 49
-0.75
 74
     0
 49
1.5
 74
     0
 49
-0.75
 74
     0
  0
LTYPE
  5
53
330
5
100
AcDbSymbolTableRecord
100
AcDbLinetypeTableRecord
  2
AMZIGZAG
 70
     0
  3
/\/-/\/-/\/-/\/-/\/-/\/
 72
    65
 73
     2
 40
11.00009999999999
 49
0.0001
 74
     4
 75
   135
340
52
 46
0.04
 50
0.0
 44
0.0
 45
0.0
 49
-11.0
 74
     0
  0
LTYPE
  5
166
330
5
100
AcDbSymbolTableRecord
100
AcDbLinetypeTableRecord
  2
ACJISTGL
 70
     0
  3
_ _ _ _ _
 72
    65
 73
     2
 40
3.0
 49
2.0
 74
     0
 49
-1.0
 74
     0
  0
LTYPE
  5
26A
330
5
100
AcDbSymbolTableRecord
100
AcDbLinetypeTableRecord
  2
ACJISTGB
 70
     0
  3
__ . . __ . .
 72
    65
 73
     6
 40
9.0
 49
4.0
 74
     0
 49
-1.0
 74
     0
 49
1.0
 74
     0
 49
-1.0
 74
     0
 49
1.0
 74
     0
 49
-1.0
 74
     0
  0
ENDTAB
  0
TABLE
  2
LAYER
  5
2
330
0
100
AcDbSymbolTable
 70
     7
  0
LAYER
  5
10
330
2
100
AcDbSymbolTableRecord
100
AcDbLayerTableRecord
  2
0
 70
     0
 62
     7
  6
CONTINUOUS
  0
LAYER
  5
3F9
330
2
100
AcDbSymbolTableRecord
100
AcDbLayerTableRecord
  2
AM_0
 70
     0
 62
     7
  6
CONTINUOUS
  0
LAYER
  5
C7C
330
2
100
AcDbSymbolTableRecord
100
AcDbLayerTableRecord
  2
AM_7
 70
     0
 62
     4
  6
AM_ISO08W050
  0
LAYER
  5
C97
330
2
100
AcDbSymbolTableRecord
100
AcDbLayerTableRecord
  2
AM_11
 70
     0
 62
     3
  6
AM_ISO09W050
  0
LAYER
  5
CC5
330
2
100
AcDbSymbolTableRecord
100
AcDbLayerTableRecord
  2
AM_5
 70
     0
 62
     3
  6
CONTINUOUS
  0
LAYER
  5
CC7
330
2
100
AcDbSymbolTableRecord
100
AcDbLayerTableRecord
  2
DEFPOINTS
 70
     0
 62
     7
  6
CONTINUOUS
  0
LAYER
  5
19BC
330
2
100
AcDbSymbolTableRecord
100
AcDbLayerTableRecord
  2
AM_6
 70
     0
 62
     2
  6
CONTINUOUS
  0
ENDTAB
  0
TABLE
  2
STYLE
  5
3
330
0
100
AcDbSymbolTable
 70
     5
  0
STYLE
  5
11
330
3
100
AcDbSymbolTableRecord
100
AcDbTextStyleTableRecord
  2
STANDARD
 70
     0
 40
0.0
 41
1.0
 50
0.0
 71
     0
 42
2.5
  3
simplex.shx
  4
EXTFONT.SHX
  0
STYLE
  5
52
330
3
100
AcDbSymbolTableRecord
100
AcDbTextStyleTableRecord
  2

 70
     1
 40
0.0
 41
1.0
 50
0.0
 71
     0
 42
2.5
  3
ltypeshp.shx
  4

  0
STYLE
  5
6B
330
3
100
AcDbSymbolTableRecord
100
AcDbTextStyleTableRecord
  2
ASAMI
 70
     0
 40
0.0
 41
1.0
 50
0.0
 71
     0
 42
2.5
  3
simplex.shx
  4
EXTFONT.SHX
  0
STYLE
  5
262
330
3
100
AcDbSymbolTableRecord
100
AcDbTextStyleTableRecord
  2
ACJISTS
 70
     0
 40
1.0
 41
1.0
 50
0.0
 71
     0
 42
2.5
  3
simplex.shx
  4
bigfont.shx
  0
STYLE
  5
269
330
3
100
AcDbSymbolTableRecord
100
AcDbTextStyleTableRecord
  2
ACJISGDT
 70
     0
 40
0.0
 41
1.0
 50
0.0
 71
     0
 42
2.5
  3
amgdtans.shx
  4

  0
ENDTAB
  0
TABLE
  2
VIEW
  5
6
330
0
100
AcDbSymbolTable
 70
     0
  0
ENDTAB
  0
TABLE
  2
UCS
  5
7
330
0
100
AcDbSymbolTable
 70
     0
  0
ENDTAB
  0
TABLE
  2
APPID
  5
9
330
0
100
AcDbSymbolTable
 70
    14
  0
APPID
  5
12
330
9
100
AcDbSymbolTableRecord
100
AcDbRegAppTableRecord
  2
ACAD
 70
     0
  0
APPID
  5
30
330
9
100
AcDbSymbolTableRecord
100
AcDbRegAppTableRecord
  2
MCAD_NO_VIS
 70
     0
  0
APPID
  5
31
330
9
100
AcDbSymbolTableRecord
100
AcDbRegAppTableRecord
  2
ACAD_TEMP_GRAPHIC
 70
     0
  0
APPID
  5
2C2
330
9
100
AcDbSymbolTableRecord
100
AcDbRegAppTableRecord
  2
GENIUS_GENDTOL_13
 70
     0
  0
APPID
  5
339
330
9
100
AcDbSymbolTableRecord
100
AcDbRegAppTableRecord
  2
GENIUS_GENODEF_13
 70
     0
  0
APPID
  5
33A
330
9
100
AcDbSymbolTableRecord
100
AcDbRegAppTableRecord
  2
GENIUS_GENOBJ-N-RSBK_13
 70
     0
  0
APPID
  5
33B
330
9
100
AcDbSymbolTableRecord
100
AcDbRegAppTableRecord
  2
GENIUS_GENOBJ-N-LIB_13
 70
     0
  0
APPID
  5
33C
330
9
100
AcDbSymbolTableRecord
100
AcDbRegAppTableRecord
  2
GENIUS_GENSCALE_13
 70
     0
  0
APPID
  5
378
330
9
100
AcDbSymbolTableRecord
100
AcDbRegAppTableRecord
  2
GENIUS_GENDIMSH_14
 70
     0
  0
APPID
  5
C82
330
9
100
AcDbSymbolTableRecord
100
AcDbRegAppTableRecord
  2
GENIUS_GENOBJ-N-CRS_13
 70
     0
  0
APPID
  5
C83
330
9
100
AcDbSymbolTableRecord
100
AcDbRegAppTableRecord
  2
GENIUS_GENOENT_13
 70
     0
  0
APPID
  5
C84
330
9
100
AcDbSymbolTableRecord
100
AcDbRegAppTableRecord
  2
GENIUS_GENOREF_13
 70
     0
  0
APPID
  5
C85
330
9
100
AcDbSymbolTableRecord
100
AcDbRegAppTableRecord
  2
GENIUS_GENOLIS_13
 70
     0
  0
APPID
  5
CA0
330
9
100
AcDbSymbolTableRecord
100
AcDbRegAppTableRecord
  2
GENIUS_GENOBJ-N-CEN_13
 70
     0
  0
ENDTAB
  0
TABLE
  2
DIMSTYLE
  5
A
330
0
100
AcDbSymbolTable
 70
     9
  0
DIMSTYLE
105
58
330
A
100
AcDbSymbolTableRecord
100
AcDbDimStyleTableRecord
  2
AM_JIS
 70
     0
  3

  4
"
  5
OPEN30
  6

  7

 40
1.0
 41
2.5
 42
1.0
 43
12.0
 44
1.0
 45
0.0
 46
0.0
 47
0.1
 48
0.1
140
3.2
141
0.0
142
0.0
143
0.0393701
144
1.0
145
0.0
146
0.71
147
1.5
 71
     0
 72
     0
 73
     0
 74
     0
 75
     0
 76
     0
 77
     3
 78
     8
170
     0
171
     2
172
     1
173
     0
174
     0
175
     0
176
   256
177
   256
178
     2
270
     2
271
     3
272
     3
273
     2
274
     2
340
6B
275
     0
280
     0
281
     0
282
     0
283
     0
284
     0
285
     0
286
     0
287
     3
288
     0
  0
DIMSTYLE
105
5F
330
A
100
AcDbSymbolTableRecord
100
AcDbDimStyleTableRecord
  2
AM_JIS$3
 70
     0
  3

  4
"
  5
OPEN30
  6

  7

 40
1.0
 41
2.5
 42
1.0
 43
10.0
 44
1.0
 45
0.0
 46
0.0
 47
0.1
 48
0.1
140
3.2
141
0.0
142
0.0
143
0.0393701
144
1.0
145
0.0
146
0.71
147
1.5
 71
     0
 72
     0
 73
     0
 74
     1
 75
     0
 76
     0
 77
     3
 78
     8
170
     0
171
     2
172
     0
173
     0
174
     0
175
     0
176
   256
177
   256
178
     2
270
     2
271
     2
272
     3
273
     2
274
     2
340
6B
275
     0
280
     0
281
     0
282
     0
283
     0
284
     0
285
     0
286
     0
287
     0
288
     1
  0
DIMSTYLE
105
60
330
A
100
AcDbSymbolTableRecord
100
AcDbDimStyleTableRecord
  2
AM_JIS$4
 70
     0
  3

  4
"
  5
OPEN30
  6

  7

 40
1.0
 41
2.5
 42
1.0
 43
10.0
 44
1.0
 45
0.0
 46
0.0
 47
0.1
 48
0.1
140
3.2
141
0.0
142
0.0
143
0.0393701
144
1.0
145
0.0
146
0.71
147
1.5
 71
     0
 72
     0
 73
     0
 74
     1
 75
     0
 76
     0
 77
     3
 78
     8
170
     0
171
     2
172
     0
173
     0
174
     0
175
     0
176
   256
177
   256
178
     2
270
     2
271
     2
272
     3
273
     2
274
     2
340
6B
275
     0
280
     0
281
     0
282
     0
283
     0
284
     0
285
     0
286
     0
287
     0
288
     1
  0
DIMSTYLE
105
61
330
A
100
AcDbSymbolTableRecord
100
AcDbDimStyleTableRecord
  2
AM_JIS$6
 70
     0
  3

  4
"
  5
OPEN30
  6

  7

 40
1.0
 41
2.5
 42
1.0
 43
10.0
 44
1.0
 45
0.0
 46
0.0
 47
0.1
 48
0.1
140
3.2
141
0.0
142
0.0
143
0.0393701
144
1.0
145
0.0
146
0.71
147
1.5
 71
     0
 72
     0
 73
     0
 74
     0
 75
     0
 76
     0
 77
     0
 78
     8
170
     0
171
     2
172
     1
173
     0
174
     0
175
     0
176
   256
177
   256
178
     2
270
     2
271
     2
272
     2
273
     2
274
     2
340
6B
275
     0
280
     0
281
     0
282
     0
283
     0
284
     0
285
     0
286
     0
287
     3
288
     0
  0
DIMSTYLE
105
62
330
A
100
AcDbSymbolTableRecord
100
AcDbDimStyleTableRecord
  2
AM_JIS$7
 70
     0
  3

  4
"
  5
OPEN30
  6

  7

 40
1.0
 41
2.5
 42
1.0
 43
10.0
 44
1.0
 45
0.0
 46
0.0
 47
0.1
 48
0.1
140
3.2
141
0.0
142
0.0
143
0.0393701
144
1.0
145
0.0
146
0.71
147
1.5
 71
     0
 72
     0
 73
     0
 74
     0
 75
     0
 76
     0
 77
     3
 78
     8
170
     0
171
     2
172
     1
173
     0
174
     0
175
     0
176
   256
177
   256
178
     2
270
     2
271
     2
272
     3
273
     2
274
     2
340
6B
275
     0
280
     0
281
     0
282
     0
283
     0
284
     0
285
     0
286
     0
287
     3
288
     0
  0
DIMSTYLE
105
63
330
A
100
AcDbSymbolTableRecord
100
AcDbDimStyleTableRecord
  2
AM_JIS$SF
 70
     0
  3

  4
"
  5
OPEN30
  6

  7

 40
1.0
 41
2.5
 42
1.0
 43
10.0
 44
1.0
 45
0.0
 46
0.0
 47
0.1
 48
0.1
140
3.2
141
0.0
142
0.0
143
0.0393701
144
1.0
145
0.0
146
0.71
147
1.5
 71
     0
 72
     0
 73
     0
 74
     0
 75
     1
 76
     1
 77
     3
 78
     8
170
     0
171
     2
172
     1
173
     0
174
     0
175
     0
176
   256
177
   256
178
     2
270
     2
271
     2
272
     2
273
     2
274
     2
340
6B
275
     0
280
     0
281
     0
282
     0
283
     0
284
     0
285
     0
286
     0
287
     3
288
     0
  0
DIMSTYLE
105
68
330
A
100
AcDbSymbolTableRecord
100
AcDbDimStyleTableRecord
  2
AM_JIS$SH
 70
     0
  3

  4
"
  5

  6
GENAXEH
  7
OPEN30
 40
1.0
 41
2.5
 42
1.0
 43
10.0
 44
1.0
 45
0.0
 46
0.0
 47
0.1
 48
0.1
140
3.2
141
0.0
142
0.0
143
0.0393701
144
2.0
145
0.0
146
0.71
147
1.5
 71
     0
 72
     0
 73
     0
 74
     0
 75
     1
 76
     1
 77
     3
 78
     8
170
     0
171
     2
172
     1
173
     1
174
     0
175
     0
176
   256
177
   256
178
     2
270
     2
271
     2
272
     2
273
     2
274
     2
340
6B
275
     0
280
     0
281
     0
282
     0
283
     0
284
     0
285
     0
286
     0
287
     3
288
     0
  0
DIMSTYLE
105
B34
102
{ACAD_REACTORS
330
2700
102
}
330
A
100
AcDbSymbolTableRecord
100
AcDbDimStyleTableRecord
  2
AM_JIS$2
 70
     0
  3

  4
"
  5
OPEN30
  6

  7

 40
1.0
 41
2.5
 42
1.0
 43
12.0
 44
1.0
 45
0.0
 46
0.0
 47
0.1
 48
0.1
140
3.2
141
0.0
142
0.0
143
0.0393701
144
1.0
145
0.0
146
0.71
147
1.5
 71
     0
 72
     0
 73
     0
 74
     0
 75
     0
 76
     0
 77
     3
 78
     8
170
     0
171
     2
172
     1
173
     0
174
     0
175
     0
176
   256
177
   256
178
     2
270
     2
271
     3
272
     3
273
     2
274
     2
340
6B
275
     0
280
     0
281
     0
282
     0
283
     0
284
     0
285
     0
286
     0
287
     3
288
     0
  0
DIMSTYLE
105
BA5
102
{ACAD_REACTORS
330
DF5
330
10FC
330
2387
330
2606
102
}
330
A
100
AcDbSymbolTableRecord
100
AcDbDimStyleTableRecord
  2
AM_JIS$0
 70
     0
  3

  4
"
  5
OPEN30
  6

  7

 40
1.0
 41
2.5
 42
0.0
 43
10.0
 44
1.0
 45
0.0
 46
0.0
 47
0.1
 48
0.1000000001
140
3.799999999999999
141
0.0
142
0.0
143
0.0393701
144
1.0
145
0.0
146
0.71
147
1.5
 71
     0
 72
     0
 73
     0
 74
     0
 75
     0
 76
     0
 77
     3
 78
     1
170
     0
171
     2
172
     1
173
     0
174
     0
175
     0
176
     3
177
     3
178
     2
270
     2
271
     2
272
     2
273
     2
274
     2
340
11
275
     1
280
     0
281
     0
282
     0
283
     0
284
     8
285
     0
286
     0
287
     0
288
     0
  0
ENDTAB
  0
TABLE
  2
BLOCK_RECORD
  5
1
330
0
100
AcDbSymbolTable
 70
    10
  0
BLOCK_RECORD
  5
1F
102
{ACAD_XDICTIONARY
360
74
102
}
330
1
100
AcDbSymbolTableRecord
100
AcDbBlockTableRecord
  2
*MODEL_SPACE
  0
BLOCK_RECORD
  5
101
102
{ACAD_XDICTIONARY
360
2B7B
102
}
330
1
100
AcDbSymbolTableRecord
100
AcDbBlockTableRecord
  2
*PAPER_SPACE
  0
BLOCK_RECORD
  5
59
330
1
100
AcDbSymbolTableRecord
100
AcDbBlockTableRecord
  2
_OPEN30
  0
BLOCK_RECORD
  5
64
330
1
100
AcDbSymbolTableRecord
100
AcDbBlockTableRecord
  2
GENAXEH
  0
BLOCK_RECORD
  5
DF6
330
1
100
AcDbSymbolTableRecord
100
AcDbBlockTableRecord
  2
*D5
  0
BLOCK_RECORD
  5
10FD
330
1
100
AcDbSymbolTableRecord
100
AcDbBlockTableRecord
  2
*D6
  0
BLOCK_RECORD
  5
2388
330
1
100
AcDbSymbolTableRecord
100
AcDbBlockTableRecord
  2
*D7
  0
BLOCK_RECORD
  5
2607
330
1
100
AcDbSymbolTableRecord
100
AcDbBlockTableRecord
  2
*D8
  0
BLOCK_RECORD
  5
2701
330
1
100
AcDbSymbolTableRecord
100
AcDbBlockTableRecord
  2
*D9
  0
ENDTAB
  0
ENDSEC
  0
SECTION
  2
BLOCKS
  0
BLOCK
  5
20
330
1F
100
AcDbEntity
  8
0
100
AcDbBlockBegin
  2
*MODEL_SPACE
 70
     0
 10
0.0
 20
0.0
 30
0.0
  3
*MODEL_SPACE
  1

  0
ENDBLK
  5
21
330
1F
100
AcDbEntity
  8
0
100
AcDbBlockEnd
  0
BLOCK
  5
103
330
101
100
AcDbEntity
 67
     1
  8
0
100
AcDbBlockBegin
  2
*PAPER_SPACE
 70
     0
 10
0.0
 20
0.0
 30
0.0
  3
*PAPER_SPACE
  1

  0
ENDBLK
  5
104
330
101
100
AcDbEntity
 67
     1
  8
0
100
AcDbBlockEnd
  0
BLOCK
  5
5D
330
59
100
AcDbEntity
  8
0
100
AcDbBlockBegin
  2
_OPEN30
 70
     0
 10
0.0
 20
0.0
 30
0.0
  3
_OPEN30
  1

  0
LINE
  5
5A
330
59
100
AcDbEntity
  8
0
 62
     0
100
AcDbLine
 10
-1.0
 20
0.26794919
 30
0.0
 11
0.0
 21
0.0
 31
0.0
  0
LINE
  5
5B
330
59
100
AcDbEntity
  8
0
 62
     0
100
AcDbLine
 10
0.0
 20
0.0
 30
0.0
 11
-1.0
 21
-0.26794919
 31
0.0
  0
LINE
  5
5C
330
59
100
AcDbEntity
  8
0
 62
     0
100
AcDbLine
 10
0.0
 20
0.0
 30
0.0
 11
-1.0
 21
0.0
 31
0.0
  0
ENDBLK
  5
5E
330
59
100
AcDbEntity
  8
0
100
AcDbBlockEnd
  0
BLOCK
  5
66
330
64
100
AcDbEntity
  8
0
100
AcDbBlockBegin
  2
GENAXEH
 70
     0
 10
0.0
 20
0.0
 30
0.0
  3
GENAXEH
  1

  0
LINE
  5
65
330
64
100
AcDbEntity
  8
0
100
AcDbLine
 10
-1.0
 20
0.0
 30
0.0
 11
1.0
 21
0.0
 31
0.0
  0
ENDBLK
  5
67
330
64
100
AcDbEntity
  8
0
100
AcDbBlockEnd
  0
BLOCK
  5
E00
330
DF6
100
AcDbEntity
  8
0
100
AcDbBlockBegin
  2
*D5
 70
     1
 10
0.0
 20
0.0
 30
0.0
  3
*D5
  1

  0
LINE
  5
2B00
330
DF6
100
AcDbEntity
  8
AM_5
 62
     3
100
AcDbLine
 10
-89.99999999999991
 20
-5.499987793109898
 30
0.0
 11
-89.99999999999991
 21
-20.49998879310981
 31
0.0
  0
LINE
  5
2B01
330
DF6
100
AcDbEntity
  8
AM_5
 62
     3
100
AcDbLine
 10
-1.999999999999977
 20
-5.249999585507761
 30
0.0
 11
-1.999999999999977
 21
-20.49998879310981
 31
0.0
  0
LINE
  5
2B02
330
DF6
100
AcDbEntity
  8
AM_5
 62
     3
100
AcDbLine
 10
-87.49999999999991
 20
-19.49998879310981
 30
0.0
 11
-4.499999999999977
 21
-19.49998879310981
 31
0.0
  0
INSERT
  5
2B03
330
DF6
100
AcDbEntity
  8
AM_5
 62
     3
100
AcDbBlockReference
  2
_OPEN30
 10
-89.99999999999991
 20
-19.49998879310981
 30
0.0
 41
2.5
 42
2.5
 43
2.5
 50
180.0
  0
INSERT
  5
2B04
330
DF6
100
AcDbEntity
  8
AM_5
 62
     3
100
AcDbBlockReference
  2
_OPEN30
 10
-1.999999999999977
 20
-19.49998879310981
 30
0.0
 41
2.5
 42
2.5
 43
2.5
  0
MTEXT
  5
2B05
330
DF6
100
AcDbEntity
  8
AM_5
 62
     2
100
AcDbMText
 10
-45.99999999999993
 20
-16.09998879310981
 30
0.0
 40
3.799999999999999
 41
0.0
 71
     5
 72
     1
  1
88
1001
ACAD
1000
MTEXTBEGIN
1070
    73
1070
     1
1070
    44
1040
1.0
1070
    74
1070
     0
1000
MTEXTEND
  0
POINT
  5
2B06
330
DF6
100
AcDbEntity
  8
DEFPOINTS
 62
     0
100
AcDbPoint
 10
-89.99999999999991
 20
-5.499987793109898
 30
0.0
  0
POINT
  5
2B07
330
DF6
100
AcDbEntity
  8
DEFPOINTS
 62
     0
100
AcDbPoint
 10
-1.999999999999977
 20
-5.249999585507761
 30
0.0
  0
POINT
  5
2B08
330
DF6
100
AcDbEntity
  8
DEFPOINTS
 62
     0
100
AcDbPoint
 10
-1.999999999999977
 20
-19.49998879310981
 30
0.0
  0
ENDBLK
  5
E01
330
DF6
100
AcDbEntity
  8
0
100
AcDbBlockEnd
  0
BLOCK
  5
1107
330
10FD
100
AcDbEntity
  8
0
100
AcDbBlockBegin
  2
*D6
 70
     1
 10
0.0
 20
0.0
 30
0.0
  3
*D6
  1

  0
LINE
  5
2B12
330
10FD
100
AcDbEntity
  8
AM_5
 62
     3
100
AcDbLine
 10
-1.999999999999976
 20
-5.24999958550776
 30
0.0
 11
17.31955770832509
 21
-5.249999585507764
 31
0.0
  0
LINE
  5
2B13
330
10FD
100
AcDbEntity
  8
AM_5
 62
     3
100
AcDbLine
 10
-2.018674667155095
 20
5.250000115296254
 30
0.0
 11
17.31955770832509
 21
5.250000115296248
 31
0.0
  0
LINE
  5
2B14
330
10FD
100
AcDbEntity
  8
AM_5
 62
     3
100
AcDbLine
 10
16.31955770832508
 20
-7.749999585507764
 30
0.0
 11
16.31955770832508
 21
-10.24999958550776
 31
0.0
  0
LINE
  5
2B15
330
10FD
100
AcDbEntity
  8
AM_5
 62
     3
100
AcDbLine
 10
16.31955770832508
 20
7.750000115296248
 30
0.0
 11
16.31955770832509
 21
27.63571440101053
 31
0.0
  0
LINE
  5
2B16
330
10FD
100
AcDbEntity
  8
AM_5
 62
     3
100
AcDbLine
 10
16.31955770832508
 20
-5.249999585507764
 30
0.0
 11
16.31955770832508
 21
5.250000115296248
 31
0.0
  0
INSERT
  5
2B17
330
10FD
100
AcDbEntity
  8
AM_5
 62
     3
100
AcDbBlockReference
  2
_OPEN30
 10
16.31955770832508
 20
-5.249999585507764
 30
0.0
 41
2.5
 42
2.5
 43
2.5
 50
90.0
  0
INSERT
  5
2B18
330
10FD
100
AcDbEntity
  8
AM_5
 62
     3
100
AcDbBlockReference
  2
_OPEN30
 10
16.31955770832508
 20
5.250000115296248
 30
0.0
 41
2.5
 42
2.5
 43
2.5
 50
270.0
  0
MTEXT
  5
2B19
330
10FD
100
AcDbEntity
  8
AM_5
 62
     2
100
AcDbMText
 10
12.91955770832509
 20
18.98809535339148
 30
0.0
 40
3.799999999999999
 41
0.0
 71
     5
 72
     1
  1
%%c10.5
 11
0.0000000000000001
 21
1.0
 31
0.0
1001
ACAD
1000
MTEXTBEGIN
1070
    73
1070
     1
1070
    44
1040
1.0
1070
    74
1070
     0
1000
MTEXTEND
  0
POINT
  5
2B1A
330
10FD
100
AcDbEntity
  8
DEFPOINTS
 62
     0
100
AcDbPoint
 10
-1.999999999999976
 20
-5.24999958550776
 30
0.0
  0
POINT
  5
2B1B
330
10FD
100
AcDbEntity
  8
DEFPOINTS
 62
     0
100
AcDbPoint
 10
-2.018674667155095
 20
5.250000115296254
 30
0.0
  0
POINT
  5
2B1C
330
10FD
100
AcDbEntity
  8
DEFPOINTS
 62
     0
100
AcDbPoint
 10
16.31955770832508
 20
5.250000115296248
 30
0.0
  0
ENDBLK
  5
1108
330
10FD
100
AcDbEntity
  8
0
100
AcDbBlockEnd
  0
BLOCK
  5
2392
330
2388
100
AcDbEntity
  8
0
100
AcDbBlockBegin
  2
*D7
 70
     1
 10
0.0
 20
0.0
 30
0.0
  3
*D7
  1

  0
LINE
  5
2B09
330
2388
100
AcDbEntity
  8
AM_5
 62
     3
100
AcDbLine
 10
-1.999999999999961
 20
-5.249999585507767
 30
0.0
 11
-1.999999999999885
 21
-31.87432054701595
 31
0.0
  0
LINE
  5
2B0A
330
2388
100
AcDbEntity
  8
AM_5
 62
     3
100
AcDbLine
 10
-150.9999999999998
 20
-5.217144775532252
 30
0.0
 11
-150.9999999999997
 21
-31.87432054701638
 31
0.0
  0
LINE
  5
2B0B
330
2388
100
AcDbEntity
  8
AM_5
 62
     3
100
AcDbLine
 10
-4.499999999999888
 20
-30.87432054701595
 30
0.0
 11
-148.4999999999997
 21
-30.87432054701637
 31
0.0
  0
INSERT
  5
2B0C
330
2388
100
AcDbEntity
  8
AM_5
 62
     3
100
AcDbBlockReference
  2
_OPEN30
 10
-1.999999999999888
 20
-30.87432054701594
 30
0.0
 41
2.5
 42
2.5
 43
2.5
 50
0.0000000000001527
  0
INSERT
  5
2B0D
330
2388
100
AcDbEntity
  8
AM_5
 62
     3
100
AcDbBlockReference
  2
_OPEN30
 10
-150.9999999999997
 20
-30.87432054701638
 30
0.0
 41
2.5
 42
2.5
 43
2.5
 50
180.0000000000001
  0
MTEXT
  5
2B0E
330
2388
100
AcDbEntity
  8
AM_5
 62
     2
100
AcDbMText
 10
-76.49999999999983
 20
-27.47432054701616
 30
0.0
 40
3.799999999999999
 41
0.0
 71
     5
 72
     1
  1
149
1001
ACAD
1000
MTEXTBEGIN
1070
    73
1070
     1
1070
    44
1040
1.0
1070
    74
1070
     0
1000
MTEXTEND
  0
POINT
  5
2B0F
330
2388
100
AcDbEntity
  8
DEFPOINTS
 62
     0
100
AcDbPoint
 10
-1.999999999999977
 20
-5.249999585507761
 30
0.0
  0
POINT
  5
2B10
330
2388
100
AcDbEntity
  8
DEFPOINTS
 62
     0
100
AcDbPoint
 10
-150.9999999999998
 20
-5.217144775531813
 30
0.0
  0
POINT
  5
2B11
330
2388
100
AcDbEntity
  8
DEFPOINTS
 62
     0
100
AcDbPoint
 10
-150.9999999999998
 20
-30.87432054701594
 30
0.0
  0
ENDBLK
  5
2393
330
2388
100
AcDbEntity
  8
0
100
AcDbBlockEnd
  0
BLOCK
  5
2611
330
2607
100
AcDbEntity
  8
0
100
AcDbBlockBegin
  2
*D8
 70
     1
 10
0.0
 20
0.0
 30
0.0
  3
*D8
  1

  0
LINE
  5
2838
330
2607
100
AcDbEntity
  8
AM_5
 62
     3
100
AcDbLine
 10
-150.7054163614916
 20
5.499999999999405
 30
0.0
 11
-166.0000009999999
 21
5.499999999999362
 31
0.0
  0
LINE
  5
2839
330
2607
100
AcDbEntity
  8
AM_5
 62
     3
100
AcDbLine
 10
-150.7053654988582
 20
-5.500000000000593
 30
0.0
 11
-166.0000009999999
 21
-5.500000000000636
 31
0.0
  0
LINE
  5
283A
330
2607
100
AcDbEntity
  8
AM_5
 62
     3
100
AcDbLine
 10
-165.0000009999999
 20
2.999999999999365
 30
0.0
 11
-165.0000009999999
 21
-3.000000000000633
 31
0.0
  0
INSERT
  5
283B
330
2607
100
AcDbEntity
  8
AM_5
 62
     3
100
AcDbBlockReference
  2
_OPEN30
 10
-165.0000009999999
 20
5.499999999999365
 30
0.0
 41
2.5
 42
2.5
 43
2.5
 50
90.00000000000017
  0
INSERT
  5
283C
330
2607
100
AcDbEntity
  8
AM_5
 62
     3
100
AcDbBlockReference
  2
_OPEN30
 10
-165.0000009999998
 20
-5.500000000000633
 30
0.0
 41
2.5
 42
2.5
 43
2.5
 50
270.0000000000001
  0
MTEXT
  5
283D
330
2607
100
AcDbEntity
  8
AM_5
 62
     2
100
AcDbMText
 10
-168.4000009999999
 20
-0.0000000000006371
 30
0.0
 40
3.799999999999999
 41
0.0
 71
     5
 72
     1
  1
%%c11
 11
-0.0000000000000028
 21
1.0
 31
0.0
1001
ACAD
1000
MTEXTBEGIN
1070
    73
1070
     1
1070
    44
1040
1.0
1070
    74
1070
     0
1000
MTEXTEND
  0
POINT
  5
283E
330
2607
100
AcDbEntity
  8
DEFPOINTS
 62
     0
100
AcDbPoint
 10
-150.7054163614915
 20
5.499999999999874
 30
0.0
  0
POINT
  5
283F
330
2607
100
AcDbEntity
  8
DEFPOINTS
 62
     0
100
AcDbPoint
 10
-150.7053654988582
 20
-5.500000000000124
 30
0.0
  0
POINT
  5
2840
330
2607
100
AcDbEntity
  8
DEFPOINTS
 62
     0
100
AcDbPoint
 10
-165.0000009999999
 20
-5.50000000000012
 30
0.0
  0
ENDBLK
  5
2612
330
2607
100
AcDbEntity
  8
0
100
AcDbBlockEnd
  0
BLOCK
  5
270F
330
2701
100
AcDbEntity
  8
0
100
AcDbBlockBegin
  2
*D9
 70
     1
 10
0.0
 20
0.0
 30
0.0
  3
*D9
  1

  0
LINE
  5
2B7D
330
2701
100
AcDbEntity
  8
AM_5
100
AcDbLine
 10
0.3420201433256726
 20
-0.9396926207859074
 30
0.0
 11
12.17749692975108
 21
-33.45739783996867
 31
0.0
  0
LINE
  5
2B7E
330
2701
100
AcDbEntity
  8
AM_5
100
AcDbLine
 10
0.3420201433256659
 20
0.9396926207859099
 30
0.0
 11
12.17749692975084
 21
33.45739783996875
 31
0.0
  0
ARC
  5
2B7F
330
2701
100
AcDbEntity
  8
AM_5
100
AcDbCircle
 10
-0.0000000000000002
 20
0.0
 30
0.0
 40
34.60461910617831
100
AcDbArc
 50
294.1402165711538
 51
65.85978342884661
  0
INSERT
  5
2B80
330
2701
100
AcDbEntity
  8
AM_5
100
AcDbBlockReference
  2
_OPEN30
 10
11.83547678642541
 20
-32.51770521918276
 30
0.0
 41
2.5
 42
2.5
 43
2.5
 50
202.070108285577
  0
INSERT
  5
2B81
330
2701
100
AcDbEntity
  8
AM_5
100
AcDbBlockReference
  2
_OPEN30
 10
11.83547678642518
 20
32.51770521918285
 30
0.0
 41
2.5
 42
2.5
 43
2.5
 50
157.9298917144233
  0
MTEXT
  5
2B82
330
2701
100
AcDbEntity
  8
AM_5
 62
     2
100
AcDbMText
 10
31.50461910617831
 20
0.0000000000001143
 30
0.0
 40
3.2
 41
0.0
 71
     5
 72
     1
  1
140°
  7
ASAMI
 11
-0.0000000000000028
 21
1.0
 31
0.0
  0
POINT
  5
2B83
330
2701
100
AcDbEntity
  8
DEFPOINTS
 62
     0
100
AcDbPoint
 10
31.7745186357498
 20
-13.70618943944922
 30
0.0
  0
POINT
  5
2B84
330
2701
100
AcDbEntity
  8
DEFPOINTS
 62
     0
100
AcDbPoint
 10
0.0
 20
0.0000000000000005
 30
0.0
  0
POINT
  5
2B85
330
2701
100
AcDbEntity
  8
DEFPOINTS
 62
     0
100
AcDbPoint
 10
0.0
 20
-0.0000000000000005
 30
0.0
  0
POINT
  5
2B86
330
2701
100
AcDbEntity
  8
DEFPOINTS
 62
     0
100
AcDbPoint
 10
-0.6556852918174043
 20
1.801480533536825
 30
0.0
  0
POINT
  5
2B87
330
2701
100
AcDbEntity
  8
DEFPOINTS
 62
     0
100
AcDbPoint
 10
-0.6556852918174013
 20
-1.801480533536826
 30
0.0
  0
ENDBLK
  5
2710
330
2701
100
AcDbEntity
  8
0
100
AcDbBlockEnd
  0
ENDSEC
  0
SECTION
  2
ENTITIES
  0
LINE
  5
C1D
330
1F
100
AcDbEntity
  8
AM_0
 48
0.5
100
AcDbLine
 10
0.0
 20
-0.0000000000000005
 30
0.0
 11
-0.6556852918174043
 21
1.801480533536825
 31
0.0
  0
LINE
  5
C9F
330
1F
100
AcDbEntity
  8
AM_7
100
AcDbLine
 10
-153.5003433227474
 20
-0.000000000000131
 30
0.0
 11
2.319556708325104
 21
0.000000000000002
 31
0.0
1001
GENIUS_GENODEF_13
1002
{
1000
HIER
1070
     0
1002
}
1002
{
1000
MANEDIT
1070
     0
1002
}
1002
{
1000
NOSEL
1070
     0
1002
}
1002
{
1000
BEHIND
1070
     0
1002
}
1002
{
1000
REACTOR
1002
}
1001
GENIUS_GENOBJ-N-CEN_13
1002
{
1000
OWNER
1000
GEN
1002
}
  0
DIMENSION
  5
DF5
330
1F
100
AcDbEntity
  8
AM_5
100
AcDbDimension
  2
*D5
 10
-1.999999999999977
 20
-19.49998879310981
 30
0.0
 11
-45.99999999999993
 21
-16.09998879310981
 31
0.0
 70
    32
  1
<>
  3
AM_JIS$0
100
AcDbAlignedDimension
 13
-89.99999999999991
 23
-5.499987793109898
 33
0.0
 14
-1.999999999999977
 24
-5.249999585507761
 34
0.0
 50
0.0000000000001527
100
AcDbRotatedDimension
1001
ACAD
1000
DSTYLE
1002
{
1070
   271
1070
     0
1002
}
1001
GENIUS_GENDTOL_13
1000

1000
h7
1000

1040
0.0
  0
DIMENSION
  5
10FC
330
1F
100
AcDbEntity
  8
AM_5
100
AcDbDimension
  2
*D6
 10
16.31955770832508
 20
5.250000115296248
 30
0.0
 11
16.31955770832508
 21
18.98809535339148
 31
0.0
 70
   160
  1
%%c<>
  3
AM_JIS$0
100
AcDbAlignedDimension
 13
-1.999999999999976
 23
-5.24999958550776
 33
0.0
 14
-2.018674667155095
 24
5.250000115296254
 34
0.0
 50
90.00000000000003
100
AcDbRotatedDimension
1001
GENIUS_GENDTOL_13
1000

1000
h7
1000

1040
0.0
1001
ACAD
1000
DSTYLE
1002
{
1070
   271
1070
     1
1002
}
  0
TEXT
  5
19BD
330
1F
100
AcDbEntity
  8
AM_6
100
AcDbText
 10
-97.69998518542742
 20
-51.99998879310997
 30
0.0
 40
5.0
  1
MDW105LHK
 50
0.0000000000001527
 72
     4
 11
-76.50950899495123
 21
-49.49998879310991
 31
0.0
100
AcDbText
  0
LINE
  5
1AED
330
1F
100
AcDbEntity
  8
AM_0
 48
0.5
100
AcDbLine
 10
-1.685055819425087
 20
-4.583330225765755
 30
0.0
 11
-1.999999999999976
 21
-5.24999958550776
 31
0.0
  0
ELLIPSE
  5
1AEE
330
1F
100
AcDbEntity
  8
AM_0
 48
0.5
100
AcDbEllipse
 10
7.071694139679321
 20
6.181507039249205
 30
0.0
 11
8.90429828083378
 21
0.0029979848981374
 31
0.0
210
0.0
220
0.0
230
1.0
 40
0.9899886394734918
 41
3.323558732911947
 42
3.661246186326368
  0
LINE
  5
1AEF
330
1F
100
AcDbEntity
  8
AM_0
 48
0.5
100
AcDbLine
 10
-1.685062241473876
 20
4.583352335473399
 30
0.0
 11
-2.018674667155095
 21
5.250000115296254
 31
0.0
  0
ELLIPSE
  5
1B15
330
1F
100
AcDbEntity
  8
AM_11
 48
0.5
100
AcDbEllipse
 10
-101.5659128824804
 20
21.86398975156631
 30
0.0
 11
24.41816012064585
 21
0.0000000000003431
 31
0.0
210
0.0
220
0.0
230
1.0
 40
0.9899999999999996
 41
4.271663339930083
 42
5.153112800913374
  0
ELLIPSE
  5
1B16
330
1F
100
AcDbEntity
  8
AM_11
 48
0.5
100
AcDbEllipse
 10
-101.5659128824805
 20
-21.8639748404135
 30
0.0
 11
24.41816012064584
 21
0.0000000000001533
 31
0.0
210
0.0
220
0.0
230
1.0
 40
0.99
 41
1.130071552591885
 42
2.011521013575192
  0
ELLIPSE
  5
1B1A
330
1F
100
AcDbEntity
  8
AM_11
 48
0.5
100
AcDbEllipse
 10
-80.73257954914742
 20
-21.86397484041348
 30
0.0
 11
24.41816012064583
 21
0.0000000000002292
 31
0.0
210
0.0
220
0.0
230
1.0
 40
0.9900000000000002
 41
1.130071552591882
 42
2.011521013575189
  0
ELLIPSE
  5
1B1B
330
1F
100
AcDbEntity
  8
AM_11
 48
0.5
100
AcDbEllipse
 10
-80.73257954914728
 20
21.86398975156631
 30
0.0
 11
24.41816012064584
 21
0.000000000000419
 31
0.0
210
0.0
220
0.0
230
1.0
 40
0.99
 41
4.27166333993008
 42
5.153112800913372
  0
ELLIPSE
  5
1B2D
330
1F
100
AcDbEntity
  8
AM_11
 48
0.5
100
AcDbEllipse
 10
-122.3992887731485
 20
21.86400962369078
 30
0.0
 11
24.41816012064581
 21
0.0000000000000394
 31
0.0
210
0.0
220
0.0
230
1.0
 40
0.9900000000000005
 41
4.271663339930094
 42
5.153112800913387
  0
ELLIPSE
  5
1B2E
330
1F
100
AcDbEntity
  8
AM_11
 48
0.5
100
AcDbEllipse
 10
-122.3992887731486
 20
-21.86395496828902
 30
0.0
 11
24.41816012064581
 21
0.0000000000004569
 31
0.0
210
0.0
220
0.0
230
1.0
 40
0.9900000000000005
 41
1.130071552591872
 42
2.011521013575179
  0
LINE
  5
1C54
330
1F
100
AcDbEntity
  8
AM_0
 48
0.5
100
AcDbLine
 10
-150.7053654988582
 20
-5.500000000000124
 30
0.0
 11
-150.7054163614916
 21
5.499999999999874
 31
0.0
  0
LINE
  5
1C55
330
1F
100
AcDbEntity
  8
AM_0
 48
0.5
100
AcDbLine
 10
-150.9999999999998
 20
-5.217144775531812
 30
0.0
 11
-150.9999999999999
 21
5.217092895648193
 31
0.0
  0
LINE
  5
1C56
330
1F
100
AcDbEntity
  8
AM_0
 48
0.5
100
AcDbLine
 10
-150.9999999999998
 20
-5.217144775531812
 30
0.0
 11
-150.7053654988582
 21
-5.500000000000124
 31
0.0
  0
LINE
  5
1C57
330
1F
100
AcDbEntity
  8
AM_0
 48
0.5
100
AcDbLine
 10
-150.9999999999999
 20
5.217092895648193
 30
0.0
 11
-150.7054163614916
 21
5.499999999999874
 31
0.0
  0
LINE
  5
1C58
330
1F
100
AcDbEntity
  8
AM_0
100
AcDbLine
 10
-150.7053654988582
 20
-5.500000000000124
 30
0.0
 11
-89.99999999999991
 21
-5.499987793109898
 31
0.0
  0
LINE
  5
1C59
330
1F
100
AcDbEntity
  8
AM_0
100
AcDbLine
 10
-150.7054163614916
 20
5.499999999999874
 30
0.0
 11
-89.99998728434247
 21
5.499987793109296
 31
0.0
  0
LINE
  5
1C5A
330
1F
100
AcDbEntity
  8
AM_0
100
AcDbLine
 10
-89.99998728434247
 20
5.499987793109311
 30
0.0
 11
-89.56807150669915
 21
5.250621102619682
 31
0.0
  0
LINE
  5
1C5B
330
1F
100
AcDbEntity
  8
AM_0
100
AcDbLine
 10
-89.99999999999991
 20
-5.499987793109898
 30
0.0
 11
-89.99998728434247
 21
5.499987793109296
 31
0.0
  0
ELLIPSE
  5
1D45
330
1F
100
AcDbEntity
  8
AM_11
 48
0.5
100
AcDbEllipse
 10
-143.2325795489337
 20
-21.86397484041364
 30
0.0
 11
24.41816012064584
 21
0.0000000000001533
 31
0.0
210
0.0
220
0.0
230
1.0
 40
0.99
 41
1.130071552591885
 42
1.894522848304442
  0
ELLIPSE
  5
1D46
330
1F
100
AcDbEntity
  8
AM_11
 48
0.5
100
AcDbEllipse
 10
-143.2325795489336
 20
21.86398975156616
 30
0.0
 11
24.41816012064585
 21
0.0000000000003431
 31
0.0
210
0.0
220
0.0
230
1.0
 40
0.9899999999999996
 41
4.388662458875117
 42
5.153112800913374
  0
LINE
  5
22C2
330
1F
100
AcDbEntity
  8
AM_0
100
AcDbLine
 10
-89.99999999999991
 20
-5.499987787716756
 30
0.0
 11
-89.56701197347836
 21
-5.250002034048634
 31
0.0
  0
DIMENSION
  5
2387
330
1F
100
AcDbEntity
  8
AM_5
100
AcDbDimension
  2
*D7
 10
-150.9999999999998
 20
-30.87432054701594
 30
0.0
 11
-76.49999999999991
 21
-27.47432054701594
 31
0.0
 70
    32
  1
<>
 51
359.9999999999998
  3
AM_JIS$0
100
AcDbAlignedDimension
 13
-1.999999999999977
 23
-5.249999585507761
 33
0.0
 14
-150.9999999999998
 24
-5.217144775531813
 34
0.0
 50
0.0000000000002659
100
AcDbRotatedDimension
1001
ACAD
1000
DSTYLE
1002
{
1070
   271
1070
     0
1002
}
1001
GENIUS_GENDTOL_13
1000

1000
h7
1000

1040
0.0
  0
DIMENSION
  5
2606
330
1F
100
AcDbEntity
  8
AM_5
100
AcDbDimension
  2
*D8
 10
-165.0000009999999
 20
-5.50000000000012
 30
0.0
 11
-168.4000009999999
 21
-0.0000000000001471
 31
0.0
 70
    32
  1
%%c<>
 51
359.9999999999998
  3
AM_JIS$0
100
AcDbAlignedDimension
 13
-150.7054163614915
 23
5.499999999999874
 33
0.0
 14
-150.7053654988582
 24
-5.500000000000124
 34
0.0
 50
270.0000000000003
100
AcDbRotatedDimension
1001
ACAD
1000
DSTYLE
1002
{
1070
   271
1070
     0
1002
}
1001
GENIUS_GENDTOL_13
1000

1000
h7
1000

1040
0.0
  0
LINE
  5
26F2
330
1F
100
AcDbEntity
  8
AM_0
 48
0.5
100
AcDbLine
 10
0.0
 20
0.0000000000000005
 30
0.0
 11
-0.6556852918174013
 21
-1.801480533536826
 31
0.0
  0
ELLIPSE
  5
26F3
330
1F
100
AcDbEntity
  8
AM_0
 48
0.5
100
AcDbEllipse
 10
7.071694139679332
 20
-6.181507039249193
 30
0.0
 11
8.90429828083378
 21
-0.0029979848981222
 31
0.0
210
0.0
220
0.0
230
-1.0
 40
0.9899886394734918
 41
3.323558732911947
 42
3.661246186326368
  0
DIMENSION
  5
2700
330
1F
100
AcDbEntity
  8
AM_5
100
AcDbDimension
  2
*D9
 10
-0.6556852918174013
 20
-1.801480533536826
 30
0.0
 11
31.50461910617831
 21
0.0000000000000176
 31
0.0
 70
    34
  1
<>
 51
359.9999999999998
  3
AM_JIS$2
100
AcDb2LineAngularDimension
 13
0.0
 23
-0.0000000000000005
 33
0.0
 14
-0.6556852918174043
 24
1.801480533536825
 34
0.0
 15
0.0
 25
0.0000000000000005
 35
0.0
 16
31.7745186357498
 26
-13.70618943944922
 36
0.0
1001
GENIUS_GENDTOL_13
1000

1000
h7
1000

1040
0.0
1001
ACAD
1000
DSTYLE
1002
{
1070
   271
1070
     1
1070
   179
1070
     1
1002
}
  0
ELLIPSE
  5
296A
330
1F
100
AcDbEntity
  8
AM_11
 48
0.5
100
AcDbEllipse
 10
-59.8992462158139
 20
22.07834259226806
 30
0.0
 11
-24.41816012064584
 21
0.0000000000077657
 31
0.0
210
0.0
220
0.0
230
1.0
 40
0.999705882352941
 41
1.130070686340619
 42
2.01152014732391
  0
ELLIPSE
  5
296B
330
1F
100
AcDbEntity
  8
AM_11
 48
0.5
100
AcDbEllipse
 10
-59.89924621581412
 20
-22.07832753492723
 30
0.0
 11
-24.41816012064581
 21
0.0000000000090615
 31
0.0
210
0.0
220
0.0
230
1.0
 40
0.9997058823529416
 41
4.271664206182053
 42
5.15311366716536
  0
ELLIPSE
  5
296C
330
1F
100
AcDbEntity
  8
AM_11
 48
0.5
100
AcDbEllipse
 10
-39.06591288248663
 20
-22.07832753492735
 30
0.0
 11
-24.41816012064584
 21
0.0000000000000015
 31
0.0
210
0.0
220
0.0
230
1.0
 40
0.9997058823529409
 41
4.271664206181681
 42
5.153113667164989
  0
ELLIPSE
  5
296D
330
1F
100
AcDbEntity
  8
AM_11
 48
0.5
100
AcDbEllipse
 10
-39.06591288248641
 20
22.07834259226794
 30
0.0
 11
24.41816012064585
 21
0.0000000000012919
 31
0.0
210
0.0
220
0.0
230
1.0
 40
0.9997058823529405
 41
4.271663339930041
 42
5.153112800913333
  0
ELLIPSE
  5
296E
330
1F
100
AcDbEntity
  8
AM_11
 48
0.5
100
AcDbEllipse
 10
-18.23257954915307
 20
22.07834259226783
 30
0.0
 11
-24.41816012064585
 21
0.0000000000038836
 31
0.0
210
0.0
220
0.0
230
1.0
 40
0.9997058823529405
 41
1.13007068634046
 42
2.01152014732375
  0
ELLIPSE
  5
296F
330
1F
100
AcDbEntity
  8
AM_11
 48
0.5
100
AcDbEllipse
 10
-18.2325795491533
 20
-22.07832753492746
 30
0.0
 11
-24.41816012064585
 21
0.0000000000103574
 31
0.0
210
0.0
220
0.0
230
1.0
 40
0.99970588235294
 41
4.271664206182106
 42
5.153113667165412
  0
ELLIPSE
  5
2970
330
1F
100
AcDbEntity
  8
AM_11
 48
0.5
100
AcDbEllipse
 10
2.600753784180284
 20
22.07834259226772
 30
0.0
 11
24.41816012064514
 21
0.0000000008090605
 31
0.0
210
0.0
220
0.0
230
1.0
 40
0.9997058823529661
 41
4.271663339896957
 42
4.433393390937654
  0
LINE
  5
2ABB
330
1F
100
AcDbEntity
  8
AM_0
 48
0.5
100
AcDbLine
 10
-80.99021635766117
 20
-5.249999884702554
 30
0.0
 11
-89.56701197347834
 21
-5.250002034048634
 31
0.0
  0
LINE
  5
2ABC
330
1F
100
AcDbEntity
  8
AM_0
100
AcDbLine
 10
-89.56807150711227
 20
5.25062529658378
 30
0.0
 11
-89.56703718034734
 21
-5.250001990645497
 31
0.0
  0
LINE
  5
2ABD
330
1F
100
AcDbEntity
  8
AM_0
100
AcDbLine
 10
-79.30564298115957
 20
5.250745973075037
 30
0.0
 11
-89.56807150711226
 21
5.250621102858189
 31
0.0
  0
LINE
  5
2ABE
330
1F
100
AcDbEntity
  8
AM_0
 48
0.5
100
AcDbLine
 10
-4.744269441395009
 20
5.2500001152963
 30
0.0
 11
-2.018674667155095
 21
5.250000115296254
 31
0.0
  0
LINE
  5
2ABF
330
1F
100
AcDbEntity
  8
AM_0
 48
0.5
100
AcDbLine
 10
-4.744269441395171
 20
-5.249999884703703
 30
0.0
 11
-1.999999999999968
 21
-5.249999585507784
 31
0.0
  0
LINE
  5
2AC0
330
1F
100
AcDbEntity
  8
AM_0
 48
0.5
100
AcDbLine
 10
-35.04687460593263
 20
-5.24999988470331
 30
0.0
 11
-20.77871361457192
 21
-5.24999988470344
 31
0.0
  0
LINE
  5
2AC1
330
1F
100
AcDbEntity
  8
AM_11
 48
0.5
100
AcDbLine
 10
-20.77871361457175
 20
5.250000115296563
 30
0.0
 11
-4.744269441395009
 21
5.2500001152963
 31
0.0
  0
LINE
  5
2AC2
330
1F
100
AcDbEntity
  8
AM_11
 48
0.5
100
AcDbLine
 10
-20.77871361457192
 20
-5.24999988470344
 30
0.0
 11
-4.744269441395171
 21
-5.249999884703703
 31
0.0
  0
LINE
  5
2AC3
330
1F
100
AcDbEntity
  8
AM_11
 48
0.5
100
AcDbLine
 10
-49.00292093649373
 20
5.250745973074648
 30
0.0
 11
-38.77035340071111
 21
5.25000011529686
 31
0.0
  0
LINE
  5
2AC4
330
1F
100
AcDbEntity
  8
AM_0
100
AcDbLine
 10
-69.07308925574938
 20
5.250000115297253
 30
0.0
 11
-49.00292093649373
 21
5.250745973074648
 31
0.0
  0
LINE
  5
2AC5
330
1F
100
AcDbEntity
  8
AM_0
 48
0.5
100
AcDbLine
 10
-69.07309567782867
 20
-5.249999884702679
 30
0.0
 11
-51.08131878168788
 21
-5.249999884702929
 31
0.0
  0
LINE
  5
2AC6
330
1F
100
AcDbEntity
  8
AM_11
 48
0.5
100
AcDbLine
 10
-51.08131877910735
 20
-5.249999884703048
 30
0.0
 11
-35.04687460593264
 21
-5.250745742480916
 31
0.0
  0
LINE
  5
2AC7
330
1F
100
AcDbEntity
  8
AM_0
 48
0.5
100
AcDbLine
 10
-38.77036721108355
 20
5.25000011529686
 30
0.0
 11
-20.77871361457175
 21
5.250000115296563
 31
0.0
  0
LINE
  5
2AC8
330
1F
100
AcDbEntity
  8
AM_0
 48
0.5
100
AcDbLine
 10
0.0
 20
0.0
 30
0.0
 11
-2.687738011339155
 21
2.0424876109919
 31
0.0
  0
ELLIPSE
  5
2AC9
330
1F
100
AcDbEntity
  8
AM_0
 48
0.5
100
AcDbEllipse
 10
5.043293278907099
 20
-1.167002562621019
 30
0.0
 11
2.894476852705454
 21
7.673309391636407
 31
0.0
210
0.0
220
0.0
230
1.0
 40
0.9820358602574231
 41
2.056137141961059
 42
2.447969288214554
  0
ELLIPSE
  5
2ACA
330
1F
100
AcDbEntity
  8
AM_0
 48
0.5
100
AcDbEllipse
 10
-8.742679249156431
 20
8.900403976440372
 30
0.0
 11
-8.202963669274364
 21
9.451638461492144
 31
0.0
210
0.0
220
0.0
230
1.0
 40
0.6152963003762194
 41
3.018669211986848
 42
3.24161463415759
  0
SPLINE
  5
2ACB
330
1F
100
AcDbEntity
  8
AM_0
100
AcDbSpline
210
0.0
220
0.0
230
1.0
 70
     8
 71
     3
 72
    11
 73
     7
 74
     0
 42
0.0000000001
 43
0.0000000001
 40
11.27226913003534
 40
11.27226913003534
 40
11.27226913003534
 40
11.2722691300354
 40
12.28301561507924
 40
13.29510212255852
 40
14.30984805882082
 40
15.18258238371378
 40
15.18258238371378
 40
15.18258238371378
 40
15.18258238371378
 10
-51.08131877910937
 20
-5.249999884703048
 30
0.0
 10
-51.3638541476635
 20
-5.224304859063008
 30
0.0
 10
-51.92839196934069
 20
-5.162098320281641
 30
0.0
 10
-52.7722835337903
 20
-5.036612344808752
 30
0.0
 10
-53.57315150857841
 20
-4.886733106106984
 30
0.0
 10
-54.09110590466435
 20
-4.771516474624647
 30
0.0
 10
-54.32979403911869
 20
-4.714602641070405
 30
0.0
  0
SPLINE
  5
2ACC
330
1F
100
AcDbEntity
  8
AM_0
100
AcDbSpline
210
0.0
220
0.0
230
1.0
 70
     8
 71
     3
 72
    17
 73
    13
 74
     0
 42
0.0000000001
 43
0.0000000001
 40
1.580019955310467
 40
1.580019955310467
 40
1.580019955310467
 40
1.580019955310467
 40
2.030549285115227
 40
3.082371838836284
 40
4.126290986361125
 40
5.162752068350215
 40
6.192395305374981
 40
7.216039564037012
 40
8.234688489606833
 40
9.249433870634691
 40
10.26152376260694
 40
11.27226744710342
 40
11.27226744710342
 40
11.27226744710342
 40
11.27226744710352
 10
-43.06347119365788
 20
-3.87465447930257
 30
0.0
 10
-43.18390199656952
 20
-3.914560202804534
 30
0.0
 10
-43.5861813384913
 20
-4.045356541753506
 30
0.0
 10
-44.27297193625377
 20
-4.250515279369182
 30
0.0
 10
-45.12366369159597
 20
-4.480265849330511
 30
0.0
 10
-45.97458964158197
 20
-4.681956345395383
 30
0.0
 10
-46.82555458069795
 20
-4.854909445547442
 30
0.0
 10
-47.67661223091891
 20
-4.997867080583776
 30
0.0
 10
-48.52772867827081
 20
-5.110013454316833
 30
0.0
 10
-49.37889812294584
 20
-5.190621820720187
 30
0.0
 10
-50.23009959433314
 20
-5.239173294378097
 30
0.0
 10
-50.79770497123147
 20
-5.24999991474383
 30
0.0
 10
-51.08131877910931
 20
-5.249999884703048
 30
0.0
  0
SPLINE
  5
2ACD
330
1F
100
AcDbEntity
  8
AM_0
100
AcDbSpline
210
0.0
220
0.0
230
1.0
 70
     8
 71
     3
 72
    22
 73
    18
 74
     0
 42
0.0000000001
 43
0.0000000001
 40
17.17441611292
 40
17.17441611292
 40
17.17441611292
 40
17.17441611292
 40
17.38177636558528
 40
18.41823744757437
 40
19.46215659509824
 40
20.51397914882054
 40
21.57394542641293
 40
22.64209583141747
 40
23.71826625065247
 40
24.80210429862395
 40
25.8930771157021
 40
26.99048705697709
 40
28.09349309193389
 40
29.20112995599786
 40
30.31233024745139
 40
31.42594771747373
 40
32.5407895042663
 40
32.54078950426994
 40
32.54078950426994
 40
32.54078950426994
 10
-54.33016629886888
 20
-4.714537882360551
 30
0.0
 10
-54.38716396286097
 20
-4.702384647289842
 30
0.0
 10
-54.72883383025619
 20
-4.628357964092817
 30
0.0
 10
-55.35475377430387
 20
-4.479924829495448
 30
0.0
 10
-56.20556396047735
 20
-4.250527047782418
 30
0.0
 10
-57.05628745087878
 20
-3.994933496828558
 30
0.0
 10
-57.90693025156837
 20
-3.71473965495413
 30
0.0
 10
-58.75749123890613
 20
-3.411663524681619
 30
0.0
 10
-59.60798088231148
 20
-3.087591288819561
 30
0.0
 10
-60.45840311979056
 20
-2.744514591059092
 30
0.0
 10
-61.30876581977131
 20
-2.384549166596872
 30
0.0
 10
-62.15907843774783
 20
-2.00991577409593
 30
0.0
 10
-63.00934835392059
 20
-1.622918045615946
 30
0.0
 10
-63.85958412763095
 20
-1.225936856577291
 30
0.0
 10
-64.7097932954791
 20
-0.8214131919356866
 30
0.0
 10
-65.55998845257443
 20
-0.4118431813502461
 30
0.0
 10
-66.12667396855275
 20
-0.1371532631015575
 30
0.0
 10
-66.41017239913304
 20
0.0002671441064734
 30
0.0
  0
SPLINE
  5
2ACE
330
1F
100
AcDbEntity
  8
AM_0
100
AcDbSpline
210
0.0
220
0.0
230
1.0
 70
     8
 71
     3
 72
    23
 73
    19
 74
     0
 42
0.0000000001
 43
0.0000000001
 40
16.03460024169435
 40
16.03460024169435
 40
16.03460024169435
 40
16.03460024169435
 40
16.35212704903564
 40
17.38177054169784
 40
18.41822485651776
 40
19.46214173629503
 40
20.51396345435107
 40
21.57393551351153
 40
22.64208202342361
 40
23.7182574881101
 40
24.80209208578934
 40
25.89306333925047
 40
26.99048218457928
 40
28.09348763352352
 40
29.20111863782268
 40
30.31232390128032
 40
31.42594612798585
 40
32.5407912310448
 40
32.5407912310486
 40
32.5407912310486
 40
32.5407912310486
 10
-49.00292093649374
 20
5.250745973074648
 30
0.0
 10
-48.91547044430844
 20
5.23302289759763
 30
0.0
 10
-48.54481683129741
 20
5.155843892164019
 30
0.0
 10
-47.89190650031257
 20
5.004623410018003
 30
0.0
 10
-47.04638591246754
 20
4.779760206797963
 30
0.0
 10
-46.20165068391507
 20
4.5272763104832
 30
0.0
 10
-45.35765089857686
 20
4.248632969085373
 30
0.0
 10
-44.51435660140486
 20
3.945383625470775
 30
0.0
 10
-43.67171905200971
 20
3.619261780771741
 30
0.0
 10
-42.82967957231522
 20
3.272165382321395
 30
0.0
 10
-41.98819031461389
 20
2.906060016787159
 30
0.0
 10
-41.14718381366058
 20
2.523075965986611
 30
0.0
 10
-40.30659191528307
 20
2.125439298690631
 30
0.0
 10
-39.4663586132407
 20
1.715436259036197
 30
0.0
 10
-38.62641360623359
 20
1.295450958551269
 30
0.0
 10
-37.78667909756517
 20
0.8679358032654844
 30
0.0
 10
-36.94708670914196
 20
0.4353681277367009
 30
0.0
 10
-36.38750879300826
 20
0.1453551538506878
 30
0.0
 10
-36.10756723459183
 20
0.0002671441041957
 30
0.0
  0
SPLINE
  5
2ACF
330
1F
100
AcDbEntity
  8
AM_0
100
AcDbSpline
210
0.0
220
0.0
230
1.0
 70
     8
 71
     3
 72
    46
 73
    42
 74
     0
 42
0.0000000001
 43
0.0000000001
 40
0.0
 40
0.0
 40
0.0
 40
0.0
 40
1.685415058684573
 40
2.531036209541122
 40
3.379897699130124
 40
4.232934581347651
 40
5.090970612202446
 40
5.954688180526682
 40
6.824620803463244
 40
7.701151815239691
 40
8.584457046566678
 40
9.474582384070743
 40
10.37139106676737
 40
11.27458944007583
 40
12.18373345430765
 40
13.09824173870457
 40
14.0174134345011
 40
14.94044415455409
 40
15.86644439743313
 40
16.79446029130533
 40
17.72349377129849
 40
18.65252725129241
 40
19.5805431451646
 40
20.5065433880429
 40
21.42957410809586
 40
22.34874580389317
 40
23.26325408828901
 40
24.17239810252111
 40
25.07560240389441
 40
25.97241108659103
 40
26.8625364240951
 40
27.74584165542183
 40
28.62236045019041
 40
29.49229307312697
 40
30.35601064145121
 40
31.21404606334469
 40
32.06708345193547
 40
32.91595755657689
 40
33.76157841950692
 40
34.60498701064691
 40
35.44727335621125
 40
35.44727335621125
 40
35.44727335621125
 40
35.44727335621125
 10
-32.66408882165738
 20
-5.249999884703352
 30
0.0
 10
-33.23172192185387
 20
-5.23803997887354
 30
0.0
 10
-34.0841528544769
 20
-5.220079444723826
 30
0.0
 10
-35.21766743859583
 20
-5.109499735489741
 30
0.0
 10
-36.06878905900933
 20
-4.998005973075181
 30
0.0
 10
-36.91983792878557
 20
-4.85486692112132
 30
0.0
 10
-37.77081180597047
 20
-4.68198595144825
 30
0.0
 10
-38.62170631894432
 20
-4.48018958237186
 30
0.0
 10
-39.47252004258666
 20
-4.250792389137123
 30
0.0
 10
-40.32324919047588
 20
-3.995202904468554
 30
0.0
 10
-41.17389546301555
 20
-3.715006389133771
 30
0.0
 10
-42.02445657222587
 20
-3.411930633231519
 30
0.0
 10
-42.87494618282607
 20
-3.087858296416654
 30
0.0
 10
-43.72536842836566
 20
-2.744781624148912
 30
0.0
 10
-44.57573112927042
 20
-2.384816199753546
 30
0.0
 10
-45.42604373530711
 20
-2.010182781012264
 30
0.0
 10
-46.27631369865853
 20
-1.623185158212734
 30
0.0
 10
-47.12654929459665
 20
-1.226203570450837
 30
0.0
 10
-47.97675953804262
 20
-0.8216812067841489
 30
0.0
 10
-48.82695219572261
 20
-0.4121055953949123
 30
0.0
 10
-49.67713770653294
 20
0.0000001152135479
 30
0.0
 10
-50.52732321715652
 20
0.4121058263227999
 30
0.0
 10
-51.3775158753967
 20
0.821681436210394
 30
0.0
 10
-52.22772611679499
 20
1.226203805364919
 30
0.0
 10
-53.07796172032618
 20
1.623185372774427
 30
0.0
 10
-53.92823165552312
 20
2.010183071038539
 30
0.0
 10
-54.77854436582544
 20
2.384816210307938
 30
0.0
 10
-55.62890852970543
 20
2.744783451021853
 30
0.0
 10
-56.47933407957565
 20
3.087857006264112
 30
0.0
 10
-57.32982520731897
 20
3.411931004810939
 30
0.0
 10
-58.18038629672577
 20
3.715006850894357
 30
0.0
 10
-59.03102907490723
 20
3.995200791462613
 30
0.0
 10
-59.88175255456305
 20
4.250794229884001
 30
0.0
 10
-60.73256280524084
 20
4.480192360231382
 30
0.0
 10
-61.58345682576165
 20
4.68197552672989
 30
0.0
 10
-62.43443132682848
 20
4.85490663869673
 30
0.0
 10
-63.28548562806433
 20
4.997841286248969
 30
0.0
 10
-64.13660286286384
 20
5.110119943980584
 30
0.0
 10
-64.98777275587254
 20
5.190224854113625
 30
0.0
 10
-65.83897354571518
 20
5.240631803002314
 30
0.0
 10
-66.40657915132514
 20
5.246878730822443
 30
0.0
 10
-66.69019301339544
 20
5.250000115297214
 30
0.0
  0
SPLINE
  5
2AD0
330
1F
100
AcDbEntity
  8
AM_0
100
AcDbSpline
210
0.0
220
0.0
230
1.0
 70
     8
 71
     3
 72
    55
 73
    51
 74
     0
 42
0.0000000001
 43
0.0000000001
 40
0.0
 40
0.0
 40
0.0
 40
0.0
 40
1.010743684496582
 40
2.022833576467832
 40
3.037578957496688
 40
4.056212745003489
 40
5.079857003664532
 40
6.109500240690281
 40
7.145961322679372
 40
8.189895241603872
 40
9.241717795325891
 40
10.30168407291828
 40
11.36983447792315
 40
12.44600489715814
 40
13.52984294512926
 40
14.62081576220742
 40
15.7182257034828
 40
16.82123173843959
 40
17.92886860250316
 40
19.0400688939571
 40
20.15368796660465
 40
21.26852814259644
 40
22.38336992938901
 40
23.49698739941135
 40
24.6081876908653
 40
25.71582455492886
 40
26.81883757994213
 40
27.91624752121713
 40
29.00722033829659
 40
30.09105838626677
 40
31.16722880550176
 40
32.23537921050758
 40
33.29534548809967
 40
34.347168041821
 40
35.39108718934584
 40
36.42754827133493
 40
37.45720575381954
 40
38.48085062012849
 40
39.49948440763516
 40
40.51422944315121
 40
41.52631975251916
 40
42.53706336719636
 40
43.54780698187354
 40
44.55989729124051
 40
45.57464232675757
 40
46.59327611426424
 40
47.6169209805722
 40
48.64656348684535
 40
49.68302456883444
 40
50.58557219878025
 40
50.58557219878025
 40
50.58557219878025
 40
50.58557219878025
 10
-4.744269441395171
 20
-5.249999884703703
 30
0.0
 10
-5.02788325301474
 20
-5.246876261892724
 30
0.0
 10
-5.595488620917521
 20
-5.240624855923856
 30
0.0
 10
-6.446690110359273
 20
-5.190231505730756
 30
0.0
 10
-7.297855265218861
 20
-5.110119243135472
 30
0.0
 10
-8.148967741311849
 20
-4.997838860209427
 30
0.0
 10
-9.000019045875532
 20
-4.854911971411827
 30
0.0
 10
-9.850992389570482
 20
-4.681974149840204
 30
0.0
 10
-10.70189061886479
 20
-4.480190366300935
 30
0.0
 10
-11.55270618801083
 20
-4.250796248138273
 30
0.0
 10
-12.40343330140393
 20
-3.995200261321786
 30
0.0
 10
-13.25407619944845
 20
-3.715006755439425
 30
0.0
 10
-14.10463716033571
 20
-3.411930533955995
 30
0.0
 10
-14.95512681114361
 20
-3.087858323336839
 30
0.0
 10
-15.80554904573059
 20
-2.744781616750736
 30
0.0
 10
-16.65591174983911
 20
-2.384816202178145
 30
0.0
 10
-17.50622435410661
 20
-2.010182778763922
 30
0.0
 10
-18.35649432133055
 20
-1.623185164809967
 30
0.0
 10
-19.2067299034778
 20
-1.226203546187885
 30
0.0
 10
-20.0569401984304
 20
-0.8216812975965229
 30
0.0
 10
-20.90713266334194
 20
-0.4121052555761428
 30
0.0
 10
-21.75731930424699
 20
-0.0000009558941293
 30
0.0
 10
-22.60750212852538
 20
0.412110761922105
 30
0.0
 10
-23.45769744309675
 20
0.821680425760157
 30
0.0
 10
-24.30790668845336
 20
1.226203898817335
 30
0.0
 10
-25.15814378656124
 20
1.623187029762442
 30
0.0
 10
-26.00841728111285
 20
2.010181341010802
 30
0.0
 10
-26.85873122739831
 20
2.38481666433774
 30
0.0
 10
-27.70909405427092
 20
2.744781787015495
 30
0.0
 10
-28.55951625791375
 20
3.087858565749339
 30
0.0
 10
-29.41000591089941
 20
3.411930776842548
 30
0.0
 10
-30.26056689345113
 20
3.715006925855885
 30
0.0
 10
-31.11120970370002
 20
3.995200717841592
 30
0.0
 10
-31.9619331609805
 20
4.25079444774879
 30
0.0
 10
-32.81274346881493
 20
4.48019157040207
 30
0.0
 10
-33.66364138247017
 20
4.681979411559379
 30
0.0
 10
-34.51462080240001
 20
4.854897481231144
 30
0.0
 10
-35.36567491859671
 20
4.997868608922252
 30
0.0
 10
-36.21678764699751
 20
5.110015897946666
 30
0.0
 10
-37.06795339327252
 20
5.190614653129134
 30
0.0
 10
-37.91915416099685
 20
5.239181361056783
 30
0.0
 10
-38.77037363334185
 20
5.255405891149131
 30
0.0
 10
-39.62159310443436
 20
5.239181361031372
 30
0.0
 10
-40.47279387592333
 20
5.190614653231229
 30
0.0
 10
-41.32395960833799
 20
5.110015897562124
 30
0.0
 10
-42.17507238870461
 20
4.997868610367553
 30
0.0
 10
-43.02612216049106
 20
4.854898172804108
 30
0.0
 10
-43.87709822788588
 20
4.681981179553309
 30
0.0
 10
-44.68930766000226
 20
4.489351460864131
 30
0.0
 10
-45.21627838926332
 20
4.348479526528263
 30
0.0
 10
-45.46076209356493
 20
4.279825760779586
 30
0.0
  0
SPLINE
  5
2AD1
330
1F
100
AcDbEntity
  8
AM_0
100
AcDbSpline
210
0.0
220
0.0
230
1.0
 70
     8
 71
     3
 72
    22
 73
    18
 74
     0
 42
0.0000000001
 43
0.0000000001
 40
17.17441611292
 40
17.17441611292
 40
17.17441611292
 40
17.17441611292
 40
17.38177636558528
 40
18.41823744757437
 40
19.46215659509824
 40
20.51397914882054
 40
21.57394542641293
 40
22.64209583141747
 40
23.71826625065247
 40
24.80210429862395
 40
25.8930771157021
 40
26.99048705697709
 40
28.09349309193389
 40
29.20112995599786
 40
30.31233024745139
 40
31.42594771747373
 40
32.5407895042663
 40
32.54078950426994
 40
32.54078950426994
 40
32.54078950426994
 10
-24.02756113433139
 20
-4.714537882360942
 30
0.0
 10
-24.08455879832347
 20
-4.702384647290234
 30
0.0
 10
-24.4262286657187
 20
-4.628357964093209
 30
0.0
 10
-25.05214860976638
 20
-4.47992482949584
 30
0.0
 10
-25.90295879593987
 20
-4.250527047782811
 30
0.0
 10
-26.75368228634133
 20
-3.994933496828948
 30
0.0
 10
-27.60432508703093
 20
-3.714739654954518
 30
0.0
 10
-28.45488607436866
 20
-3.411663524682011
 30
0.0
 10
-29.305375717774
 20
-3.087591288819953
 30
0.0
 10
-30.15579795525308
 20
-2.744514591059483
 30
0.0
 10
-31.00616065523384
 20
-2.384549166597263
 30
0.0
 10
-31.85647327321033
 20
-2.009915774096321
 30
0.0
 10
-32.70674318938311
 20
-1.622918045616339
 30
0.0
 10
-33.55697896309347
 20
-1.225936856577683
 30
0.0
 10
-34.40718813094164
 20
-0.8214131919360781
 30
0.0
 10
-35.25738328803697
 20
-0.4118431813506376
 30
0.0
 10
-35.82406880401531
 20
-0.1371532631019489
 30
0.0
 10
-36.10756723459559
 20
0.0002671441060819
 30
0.0
  0
SPLINE
  5
2AD2
330
1F
100
AcDbEntity
  8
AM_0
 48
0.5
100
AcDbSpline
210
0.0
220
0.0
230
1.0
 70
     8
 71
     3
 72
    17
 73
    13
 74
     0
 42
0.0000000001
 43
0.0000000001
 40
0.0
 40
0.0
 40
0.0
 40
0.0
 40
1.010743614677189
 40
2.022833924044153
 40
3.037578959561199
 40
4.056212747067873
 40
5.079857613375832
 40
6.109500119648989
 40
7.14596120163808
 40
8.18989512056258
 40
9.241717674284874
 40
9.693948937866434
 40
9.693948937866434
 40
9.693948937866434
 40
9.693948937866434
 10
-4.744269441395009
 20
5.250000115296301
 30
0.0
 10
-5.027883304628902
 20
5.246878743519814
 30
0.0
 10
-5.595488912567377
 20
5.240631841113218
 30
0.0
 10
-6.446689684910982
 20
5.190224701261847
 30
0.0
 10
-7.297855413812875
 20
5.11012091792851
 30
0.0
 10
-8.148968207450103
 20
4.997840314646298
 30
0.0
 10
-9.000017929315873
 20
4.854905674120058
 30
0.0
 10
-9.850994184679116
 20
4.68197969249747
 30
0.0
 10
-10.70188555200829
 20
4.480175551510877
 30
0.0
 10
-11.55272504930401
 20
4.250851848610067
 30
0.0
 10
-12.2395448782479
 20
4.044265857221334
 30
0.0
 10
-12.6428857507919
 20
3.915119904237913
 30
0.0
 10
-12.76394704122428
 20
3.875589192570643
 30
0.0
  0
SPLINE
  5
2AD3
330
1F
100
AcDbEntity
  8
AM_0
 48
0.5
100
AcDbSpline
210
0.0
220
0.0
230
1.0
 70
     8
 71
     3
 72
    16
 73
    12
 74
     0
 42
0.0000000001
 43
0.0000000001
 40
0.0
 40
0.0
 40
0.0
 40
0.0
 40
1.010743614677189
 40
2.022833924044153
 40
3.037578959561199
 40
4.056212747067873
 40
5.079857613375832
 40
6.109500119648989
 40
7.14596120163808
 40
8.18989512056258
 40
8.545190612624931
 40
8.545190612624931
 40
8.545190612624931
 40
8.545190612624931
 10
-4.744269441395009
 20
5.250000115296301
 30
0.0
 10
-5.027867537544588
 20
5.249968567262665
 30
0.0
 10
-5.59549624157983
 20
5.239196026654892
 30
0.0
 10
-6.446687707567657
 20
5.190610692748368
 30
0.0
 10
-7.297855972536217
 20
5.110017030637527
 30
0.0
 10
-8.148967958537319
 20
4.997868055492094
 30
0.0
 10
-9.000018365825217
 20
4.85489925995667
 30
0.0
 10
-9.850992675869321
 20
4.681977355565697
 30
0.0
 10
-10.70189120399232
 20
4.480191537279812
 30
0.0
 10
-11.36350424750064
 20
4.301802859496291
 30
0.0
 10
-11.74166873586587
 20
4.192089405773656
 30
0.0
 10
-11.83756913810692
 20
4.163777052740004
 30
0.0
  0
SPLINE
  5
2AD4
330
1F
100
AcDbEntity
  8
AM_0
 48
0.5
100
AcDbSpline
210
0.0
220
0.0
230
1.0
 70
     8
 71
     3
 72
    25
 73
    21
 74
     0
 42
0.0000000001
 43
0.0000000001
 40
6.846175049578289
 40
6.846175049578289
 40
6.846175049578289
 40
6.846175049578289
 40
7.604337694224321
 40
8.711974558287883
 40
9.814980593243754
 40
10.91239053451967
 40
12.0033633515982
 40
13.08720139956839
 40
14.16337181880432
 40
15.23152222380919
 40
16.29148850140128
 40
17.34331105512262
 40
18.38723020264746
 40
19.42369128463655
 40
20.45333379090873
 40
21.47697865721768
 40
22.49561244472435
 40
23.5103574802404
 40
24.52244778960836
 40
25.53320666051913
 40
25.53320666051913
 40
25.53320666051913
 40
25.53320666051913
 10
-5.736984620649604
 20
0.9502844862632176
 30
0.0
 10
-5.930348461477628
 20
1.042465149172594
 30
0.0
 10
-6.406613931430075
 20
1.268394619508697
 30
0.0
 10
-7.166488811642888
 20
1.623185218647413
 30
0.0
 10
-8.016758681347628
 20
2.010183056482139
 30
0.0
 10
-8.86707131167634
 20
2.384816419863702
 30
0.0
 10
-9.717434008399216
 20
2.744781852193527
 30
0.0
 10
-10.56785624665524
 20
3.087858547380777
 30
0.0
 10
-11.41834589017888
 20
3.411930785715038
 30
0.0
 10
-12.26890687628928
 20
3.715006908725005
 30
0.0
 10
-13.11954968171575
 20
3.995200776905757
 30
0.0
 10
-13.97027315458643
 20
4.25079423093032
 30
0.0
 10
-14.82108340546949
 20
4.480192370321701
 30
0.0
 10
-15.67197743181641
 20
4.681975485761098
 30
0.0
 10
-16.52295190960513
 20
4.854906791119932
 30
0.0
 10
-17.37400210356261
 20
4.997840017494283
 30
0.0
 10
-18.22511477168959
 20
5.110120997719495
 30
0.0
 10
-19.07628053386065
 20
5.190224677509453
 30
0.0
 10
-19.92748557309064
 20
5.240632109813454
 30
0.0
 10
-20.49509546760724
 20
5.246878817328933
 30
0.0
 10
-20.77871361457175
 20
5.250000115296563
 30
0.0
  0
SPLINE
  5
2AD5
330
1F
100
AcDbEntity
  8
AM_0
100
AcDbSpline
210
0.0
220
0.0
230
1.0
 70
     8
 71
     3
 72
    11
 73
     7
 74
     0
 42
0.0000000001
 43
0.0000000001
 40
11.27226913003534
 40
11.27226913003534
 40
11.27226913003534
 40
11.2722691300354
 40
12.28301561507924
 40
13.29510212255852
 40
14.30984805882082
 40
15.18258238371378
 40
15.18258238371378
 40
15.18258238371378
 40
15.18258238371378
 10
-20.77871361457189
 20
-5.249999884703441
 30
0.0
 10
-21.06124898312603
 20
-5.224304859063397
 30
0.0
 10
-21.62578680480321
 20
-5.162098320282034
 30
0.0
 10
-22.46967836925283
 20
-5.036612344809145
 30
0.0
 10
-23.27054634404093
 20
-4.886733106107375
 30
0.0
 10
-23.78850074012686
 20
-4.771516474625038
 30
0.0
 10
-24.02718887458121
 20
-4.714602641070797
 30
0.0
  0
SPLINE
  5
2AD6
330
1F
100
AcDbEntity
  8
AM_0
100
AcDbSpline
210
0.0
220
0.0
230
1.0
 70
     8
 71
     3
 72
    17
 73
    13
 74
     0
 42
0.0000000001
 43
0.0000000001
 40
1.580019955310467
 40
1.580019955310467
 40
1.580019955310467
 40
1.580019955310467
 40
2.030549285115227
 40
3.082371838836284
 40
4.126290986361125
 40
5.162752068350215
 40
6.192395305374981
 40
7.216039564037012
 40
8.234688489606833
 40
9.249433870634691
 40
10.26152376260694
 40
11.27226744710342
 40
11.27226744710342
 40
11.27226744710342
 40
11.27226744710352
 10
-12.76086602912044
 20
-3.874654479302959
 30
0.0
 10
-12.88129683203206
 20
-3.914560202804926
 30
0.0
 10
-13.28357617395385
 20
-4.045356541753896
 30
0.0
 10
-13.97036677171628
 20
-4.250515279369575
 30
0.0
 10
-14.82105852705849
 20
-4.480265849330902
 30
0.0
 10
-15.67198447704449
 20
-4.681956345395776
 30
0.0
 10
-16.52294941616046
 20
-4.85490944554783
 30
0.0
 10
-17.37400706638144
 20
-4.997867080584168
 30
0.0
 10
-18.22512351373334
 20
-5.110013454317223
 30
0.0
 10
-19.07629295840838
 20
-5.19062182072058
 30
0.0
 10
-19.92749442979567
 20
-5.239173294378487
 30
0.0
 10
-20.49509980669399
 20
-5.249999914744224
 30
0.0
 10
-20.77871361457185
 20
-5.249999884703441
 30
0.0
  0
SPLINE
  5
2AD7
330
1F
100
AcDbEntity
  8
AM_0
100
AcDbSpline
210
0.0
220
0.0
230
1.0
 70
     8
 71
     3
 72
    46
 73
    42
 74
     0
 42
0.0000000001
 43
0.0000000001
 40
0.0
 40
0.0
 40
0.0
 40
0.0
 40
1.685415058684571
 40
2.531036209541119
 40
3.379897699130121
 40
4.232934581347655
 40
5.090970612202441
 40
5.954688180526682
 40
6.824620803463246
 40
7.701151815239689
 40
8.584457046566678
 40
9.474582384070741
 40
10.37139106676737
 40
11.27458944007583
 40
12.18373345430765
 40
13.09824173870457
 40
14.01741343450111
 40
14.9404441545541
 40
15.86644439743314
 40
16.79446029130534
 40
17.7234937712985
 40
18.65252725129241
 40
19.58054314516461
 40
20.50654338804289
 40
21.42957410809586
 40
22.34874580389317
 40
23.26325408828901
 40
24.17239810252111
 40
25.07560240389441
 40
25.97241108659103
 40
26.8625364240951
 40
27.74584165542183
 40
28.62236045019041
 40
29.49229307312697
 40
30.35601064145121
 40
31.21404606334468
 40
32.06708345193547
 40
32.91595755657689
 40
33.76157841950693
 40
34.60498701064689
 40
35.44727335621125
 40
35.44727335621125
 40
35.44727335621125
 40
35.44727335621125
 10
-2.361483657119913
 20
-5.249999884703743
 30
0.0
 10
-2.929116757316399
 20
-5.238039978873932
 30
0.0
 10
-3.781547689939429
 20
-5.220079444724216
 30
0.0
 10
-4.915062274058369
 20
-5.109499735490134
 30
0.0
 10
-5.766183894471846
 20
-4.998005973075574
 30
0.0
 10
-6.617232764248099
 20
-4.854866921121711
 30
0.0
 10
-7.468206641432997
 20
-4.681985951448644
 30
0.0
 10
-8.319101154406846
 20
-4.480189582372254
 30
0.0
 10
-9.169914878049178
 20
-4.250792389137512
 30
0.0
 10
-10.02064402593842
 20
-3.995202904468944
 30
0.0
 10
-10.8712902984781
 20
-3.715006389134163
 30
0.0
 10
-11.7218514076884
 20
-3.411930633231909
 30
0.0
 10
-12.57234101828859
 20
-3.087858296417045
 30
0.0
 10
-13.42276326382822
 20
-2.744781624149307
 30
0.0
 10
-14.27312596473294
 20
-2.384816199753932
 30
0.0
 10
-15.12343857076964
 20
-2.010182781012658
 30
0.0
 10
-15.97370853412104
 20
-1.623185158213123
 30
0.0
 10
-16.82394413005919
 20
-1.226203570451231
 30
0.0
 10
-17.67415437350519
 20
-0.8216812067845387
 30
0.0
 10
-18.52434703118513
 20
-0.4121055953953042
 30
0.0
 10
-19.37453254199548
 20
0.0000001152131565
 30
0.0
 10
-20.22471805261905
 20
0.4121058263224089
 30
0.0
 10
-21.07491071085922
 20
0.8216814362100002
 30
0.0
 10
-21.92512095225748
 20
1.226203805364528
 30
0.0
 10
-22.77535655578873
 20
1.623185372774036
 30
0.0
 10
-23.62562649098566
 20
2.010183071038146
 30
0.0
 10
-24.47593920128796
 20
2.384816210307546
 30
0.0
 10
-25.32630336516796
 20
2.744783451021463
 30
0.0
 10
-26.17672891503817
 20
3.087857006263718
 30
0.0
 10
-27.02722004278149
 20
3.411931004810547
 30
0.0
 10
-27.87778113218829
 20
3.715006850893965
 30
0.0
 10
-28.72842391036974
 20
3.995200791462221
 30
0.0
 10
-29.5791473900256
 20
4.250794229883609
 30
0.0
 10
-30.42995764070339
 20
4.480192360230991
 30
0.0
 10
-31.28085166122419
 20
4.681975526729498
 30
0.0
 10
-32.13182616229104
 20
4.85490663869634
 30
0.0
 10
-32.98288046352685
 20
4.997841286248578
 30
0.0
 10
-33.8339976983264
 20
5.110119943980196
 30
0.0
 10
-34.68516759133506
 20
5.190224854113231
 30
0.0
 10
-35.53636838117771
 20
5.240631803001924
 30
0.0
 10
-36.10397398678768
 20
5.246878730822055
 30
0.0
 10
-36.38758784885798
 20
5.250000115296822
 30
0.0
  0
SPLINE
  5
2AD8
330
1F
100
AcDbEntity
  8
AM_0
 48
0.5
100
AcDbSpline
210
0.0
220
0.0
230
1.0
 70
     8
 71
     3
 72
    10
 73
     6
 74
     0
 42
0.0000000001
 43
0.0000000001
 40
0.0
 40
0.0
 40
0.0
 40
0.0
 40
2.69986029516136
 40
4.147722969032201
 40
6.285750005020438
 40
6.285750005020438
 40
6.285750005020438
 40
6.285750005020438
 10
-5.736848532271332
 20
0.9502221306770762
 30
0.0
 10
-5.131031246913361
 20
0.4624608515419734
 30
0.0
 10
-4.200330397680811
 20
-0.286873721250168
 30
0.0
 10
-1.999347912541102
 20
0.0758922726727304
 30
0.0
 10
-2.413856934015537
 20
1.29773614129087
 30
0.0
 10
-2.687738011339155
 20
2.0424876109919
 30
0.0
  0
ELLIPSE
  5
2AD9
330
1F
100
AcDbEntity
  8
AM_0
 48
0.5
100
AcDbEllipse
 10
-8.923122588753516
 20
8.811403389832102
 30
0.0
 11
-0.0000000000251659
 21
12.65830624103442
 31
0.0
210
0.0
220
0.0
230
1.0
 40
0.9620009620008801
 41
3.652175978816186
 42
3.740670756495698
  0
ELLIPSE
  5
2ADA
330
1F
100
AcDbEntity
  8
AM_0
 48
0.5
100
AcDbEllipse
 10
3.043634109906386
 20
6.302948113343021
 30
0.0
 11
0.0000000000003256
 21
10.58108496665936
 31
0.0
210
0.0
220
0.0
230
1.0
 40
0.9620009620009623
 41
2.101163880029006
 42
2.5092848102239
  0
ELLIPSE
  5
2ADB
330
1F
100
AcDbEntity
  8
AM_0
 48
0.5
100
AcDbEllipse
 10
-1.685203336826915
 20
-1.368225459197508
 30
0.0
 11
-0.1427110603532819
 21
0.8623077601981227
 31
0.0
210
0.0
220
0.0
230
1.0
 40
0.4820567664283553
 41
1.814185377346756
 42
4.949527267058732
  0
ELLIPSE
  5
2ADC
330
1F
100
AcDbEntity
  8
AM_0
 48
0.5
100
AcDbEllipse
 10
-1.685203336826915
 20
-1.368225459197508
 30
0.0
 11
-0.7239281189588028
 21
0.446128974763116
 31
0.0
210
0.0
220
0.0
230
1.0
 40
0.509287863659824
 41
4.506920744695577
 42
7.650361086025087
  0
LINE
  5
2ADD
330
1F
100
AcDbEntity
  8
AM_0
100
AcDbLine
 10
-86.01867466715509
 20
2.8211166108258
 30
0.0
 11
-79.30563971055261
 21
5.250746368252678
 31
0.0
  0
POLYLINE
  5
2ADE
330
1F
100
AcDbEntity
  8
AM_0
100
AcDb2dPolyline
 66
     1
 10
0.0
 20
0.0
 30
0.0
 70
     2
  0
VERTEX
  5
2ADF
330
2ADE
100
AcDbEntity
  8
AM_0
100
AcDbVertex
100
AcDb2dVertex
 10
-81.20331842873586
 20
-2.287467953106291
 30
0.0
 42
0.0577636304330164
  0
VERTEX
  5
2AE0
330
2ADE
100
AcDbEntity
  8
AM_0
100
AcDbVertex
100
AcDb2dVertex
 10
-82.19768254534486
 20
-1.987166688850007
 30
0.0
 42
0.023594216953381
 70
     1
  0
VERTEX
  5
2AE1
330
2ADE
100
AcDbEntity
  8
AM_0
100
AcDbVertex
100
AcDb2dVertex
 10
-83.45735104805276
 20
-1.772089924539319
 30
0.0
 42
0.0348311362729188
  0
VERTEX
  5
2AE2
330
2ADE
100
AcDbEntity
  8
AM_0
100
AcDbVertex
100
AcDb2dVertex
 10
-84.97904995924983
 20
-1.640066643086858
 30
0.0
 42
0.1057889510459468
 70
     1
  0
VERTEX
  5
2AE3
330
2ADE
100
AcDbEntity
  8
AM_0
100
AcDbVertex
100
AcDb2dVertex
 10
-85.46637645844203
 20
-1.775147967476033
 30
0.0
 42
0.1036159811664945
  0
VERTEX
  5
2AE4
330
2ADE
100
AcDbEntity
  8
AM_0
100
AcDbVertex
100
AcDb2dVertex
 10
-85.9231710204893
 20
-2.077356744703234
 30
0.0
 42
0.2279815956434505
 70
     1
  0
VERTEX
  5
2AE5
330
2ADE
100
AcDbEntity
  8
AM_0
100
AcDbVertex
100
AcDb2dVertex
 10
-86.01867466715514
 20
-2.290517682215233
 30
0.0
 42
0.0884240313319158
  0
VERTEX
  5
2AE6
330
2ADE
100
AcDbEntity
  8
AM_0
100
AcDbVertex
100
AcDb2dVertex
 10
-85.96329090918956
 20
-2.614528842364155
 30
0.0
 42
0.0876927421742289
 70
     1
  0
VERTEX
  5
2AE7
330
2ADE
100
AcDbEntity
  8
AM_0
100
AcDbVertex
100
AcDb2dVertex
 10
-85.72879794529219
 20
-3.065118812925815
 30
0.0
 42
0.038537546653951
  0
VERTEX
  5
2AE8
330
2ADE
100
AcDbEntity
  8
AM_0
100
AcDbVertex
100
AcDb2dVertex
 10
-84.99209477038689
 20
-3.656250507470308
 30
0.0
 42
0.0220442519779929
 70
     1
  0
VERTEX
  5
2AE9
330
2ADE
100
AcDbEntity
  8
AM_0
100
AcDbVertex
100
AcDb2dVertex
 10
-83.58762773527674
 20
-4.528724467159247
 30
0.0
 42
0.0372086905244029
  0
VERTEX
  5
2AEA
330
2ADE
100
AcDbEntity
  8
AM_0
100
AcDbVertex
100
AcDb2dVertex
 10
-82.98384687160647
 20
-4.812003065079561
 30
0.0
 42
0.0235344846445626
 70
     1
  0
VERTEX
  5
2AEB
330
2ADE
100
AcDbEntity
  8
AM_0
100
AcDbVertex
100
AcDb2dVertex
 10
-81.98175007781115
 20
-5.142969646603429
 30
0.0
  0
SEQEND
  5
2AEC
330
2ADE
100
AcDbEntity
  8
AM_0
  0
SPLINE
  5
2AED
330
1F
100
AcDbEntity
  8
AM_0
100
AcDbSpline
210
0.0
220
0.0
230
1.0
 70
     8
 71
     3
 72
     9
 73
     5
 74
     0
 42
0.0000000001
 43
0.0000000001
 40
11.27226913003534
 40
11.27226913003534
 40
11.27226913003534
 40
11.2722691300354
 40
12.28301561507924
 40
12.99863635197729
 40
12.99863635197729
 40
12.99863635197729
 40
12.99863635197729
 10
-80.98775239431111
 20
-5.249999884702558
 30
0.0
 10
-81.18239708849369
 20
-5.23459500613634
 30
0.0
 10
-81.51431901644546
 20
-5.202766341772997
 30
0.0
 10
-81.84495633153682
 20
-5.161610760033225
 30
0.0
 10
-81.98175007781115
 20
-5.142969646603431
 30
0.0
  0
SPLINE
  5
2AEE
330
1F
100
AcDbEntity
  8
AM_0
100
AcDbSpline
210
0.0
220
0.0
230
1.0
 70
     8
 71
     3
 72
    13
 73
     9
 74
     0
 42
0.0000000001
 43
0.0000000001
 40
16.03460056234195
 40
16.03460056234195
 40
16.03460056234195
 40
16.03460056234195
 40
16.35212717791071
 40
17.38177067057215
 40
18.41822498539278
 40
19.46214186516937
 40
20.5139635832251
 40
21.34083983469381
 40
21.34083983469381
 40
21.34083983469381
 40
21.34083983469381
 10
-80.98983189390038
 20
-5.250477349064566
 30
0.0
 10
-80.90238136627643
 20
-5.232754795548277
 30
0.0
 10
-80.53172744655713
 20
-5.155577907657739
 30
0.0
 10
-79.87881747148378
 20
-5.004355659977107
 30
0.0
 10
-79.03329677723381
 20
-4.779493080248883
 30
0.0
 10
-78.18856157749795
 20
-4.527009015081996
 30
0.0
 10
-77.40690362581226
 20
-4.268947639366871
 30
0.0
 10
-76.90821961755871
 20
-4.091254016912079
 30
0.0
 10
-76.68944993196082
 20
-4.010934880417929
 30
0.0
  0
SPLINE
  5
2AEF
330
1F
100
AcDbEntity
  8
AM_0
 48
0.5
100
AcDbSpline
210
0.0
220
0.0
230
1.0
 70
     8
 71
     3
 72
    22
 73
    18
 74
     0
 42
0.0000000001
 43
0.0000000001
 40
0.0
 40
0.0
 40
0.0
 40
0.0
 40
1.010743684496582
 40
2.022833993863546
 40
3.037578683882831
 40
4.056212471389632
 40
5.079857945358201
 40
6.109499720892564
 40
7.145961650132166
 40
8.189873411961459
 40
9.241710626092514
 40
10.30166235592959
 40
11.36982472628033
 40
12.44598212828784
 40
13.52983440361964
 40
14.62080578343036
 40
14.90544694398022
 40
14.90544694398022
 40
14.90544694398022
 40
14.90544694398022
 10
-69.0730956777992
 20
-5.24999988470275
 30
0.0
 10
-69.35670954361254
 20
-5.246877195080421
 30
0.0
 10
-69.9243151370959
 20
-5.240627655442246
 30
0.0
 10
-70.77551573463836
 20
-5.190220267601399
 30
0.0
 10
-71.62668181054866
 20
-5.110121492190749
 30
0.0
 10
-72.47779473920793
 20
-4.997841005758427
 30
0.0
 10
-73.32884372579101
 20
-4.854900782503931
 30
0.0
 10
-74.17981989190015
 20
-4.6819774978332
 30
0.0
 10
-75.03071076771418
 20
-4.480188907031427
 30
0.0
 10
-75.88152220425572
 20
-4.250786824242418
 30
0.0
 10
-76.73224653871553
 20
-3.995203597720285
 30
0.0
 10
-77.58288821689546
 20
-3.714994735771414
 30
0.0
 10
-78.43345272230884
 20
-3.411943335497436
 30
0.0
 10
-79.28393941608189
 20
-3.087851024643847
 30
0.0
 10
-80.13436423108089
 20
-2.744782417964665
 30
0.0
 10
-80.7735179110038
 20
-2.474235702947752
 30
0.0
 10
-81.12967664560072
 20
-2.319599897134295
 30
0.0
 10
-81.20331842873584
 20
-2.287467953106292
 30
0.0
  0
SPLINE
  5
2AF0
330
1F
100
AcDbEntity
  8
AM_0
100
AcDbSpline
210
0.0
220
0.0
230
1.0
 70
     8
 71
     3
 72
    23
 73
    19
 74
     0
 42
0.0000000001
 43
0.0000000001
 40
16.03460024169435
 40
16.03460024169435
 40
16.03460024169435
 40
16.03460024169435
 40
16.35212704903564
 40
17.38177054169784
 40
18.41822485651776
 40
19.46214173629503
 40
20.51396345435107
 40
21.57393551351153
 40
22.64208202342361
 40
23.7182574881101
 40
24.80209208578934
 40
25.89306333925047
 40
26.99048218457928
 40
28.09348763352352
 40
29.20111863782268
 40
30.31232390128032
 40
31.42594612798585
 40
32.5407912310448
 40
32.5407912310486
 40
32.5407912310486
 40
32.5407912310486
 10
-79.30564298115955
 20
5.250745973075037
 30
0.0
 10
-79.21819248897425
 20
5.233022897598019
 30
0.0
 10
-78.84753887596322
 20
5.155843892164407
 30
0.0
 10
-78.1946285449784
 20
5.004623410018392
 30
0.0
 10
-77.34910795713337
 20
4.779760206798352
 30
0.0
 10
-76.5043727285809
 20
4.527276310483588
 30
0.0
 10
-75.66037294324267
 20
4.248632969085761
 30
0.0
 10
-74.81707864607066
 20
3.945383625471163
 30
0.0
 10
-73.97444109667549
 20
3.61926178077213
 30
0.0
 10
-73.13240161698101
 20
3.272165382321782
 30
0.0
 10
-72.29091235927966
 20
2.906060016787548
 30
0.0
 10
-71.44990585832643
 20
2.523075965987
 30
0.0
 10
-70.60931395994893
 20
2.12543929869102
 30
0.0
 10
-69.76908065790656
 20
1.715436259036585
 30
0.0
 10
-68.92913565089941
 20
1.295450958551657
 30
0.0
 10
-68.089401142231
 20
0.8679358032658726
 30
0.0
 10
-67.24980875380778
 20
0.4353681277370891
 30
0.0
 10
-66.6902308376741
 20
0.1453551538510759
 30
0.0
 10
-66.41028927925765
 20
0.0002671441045838
 30
0.0
  0
LINE
  5
2AF1
330
1F
100
AcDbEntity
  8
AM_11
 48
0.5
100
AcDbLine
 10
-80.99021635766117
 20
-5.249999884702554
 30
0.0
 11
-69.07308925574955
 21
-5.24999988470275
 31
0.0
  0
LINE
  5
2AF2
330
1F
100
AcDbEntity
  8
AM_11
 48
0.5
100
AcDbLine
 10
-79.30564298115957
 20
5.250745973075037
 30
0.0
 11
-69.07308925574938
 21
5.250000115297253
 31
0.0
  0
SPLINE
  5
2AF3
330
1F
100
AcDbEntity
  8
AM_0
100
AcDbSpline
210
0.0
220
0.0
230
1.0
 70
     8
 71
     3
 72
    55
 73
    51
 74
     0
 42
0.0000000001
 43
0.0000000001
 40
0.0
 40
0.0
 40
0.0
 40
0.0
 40
1.010743684496582
 40
2.022833576467832
 40
3.037578957496688
 40
4.056212745003489
 40
5.079857003664532
 40
6.109500240690281
 40
7.145961322679372
 40
8.189895241603872
 40
9.241717795325891
 40
10.30168407291828
 40
11.36983447792315
 40
12.44600489715814
 40
13.52984294512926
 40
14.62081576220742
 40
15.7182257034828
 40
16.82123173843959
 40
17.92886860250316
 40
19.0400688939571
 40
20.15368796660465
 40
21.26852814259644
 40
22.38336992938901
 40
23.49698739941135
 40
24.6081876908653
 40
25.71582455492886
 40
26.81883757994213
 40
27.91624752121713
 40
29.00722033829659
 40
30.09105838626677
 40
31.16722880550176
 40
32.23537921050758
 40
33.29534548809967
 40
34.347168041821
 40
35.39108718934584
 40
36.42754827133493
 40
37.45720575381954
 40
38.48085062012849
 40
39.49948440763516
 40
40.51422944315121
 40
41.52631975251916
 40
42.53706336719636
 40
43.54780698187354
 40
44.55989729124051
 40
45.57464232675757
 40
46.59327611426424
 40
47.6169209805722
 40
48.64656348684535
 40
49.68302456883444
 40
50.58557219878025
 40
50.58557219878025
 40
50.58557219878025
 40
50.58557219878025
 10
-35.04687460593264
 20
-5.249999884703311
 30
0.0
 10
-35.33048841755221
 20
-5.246876261892332
 30
0.0
 10
-35.89809378545499
 20
-5.240624855923464
 30
0.0
 10
-36.74929527489674
 20
-5.190231505730364
 30
0.0
 10
-37.60046042975634
 20
-5.110119243135082
 30
0.0
 10
-38.45157290584932
 20
-4.997838860209035
 30
0.0
 10
-39.302624210413
 20
-4.854911971411435
 30
0.0
 10
-40.15359755410797
 20
-4.681974149839818
 30
0.0
 10
-41.00449578340229
 20
-4.480190366300544
 30
0.0
 10
-41.85531135254833
 20
-4.250796248137882
 30
0.0
 10
-42.70603846594138
 20
-3.995200261321394
 30
0.0
 10
-43.5566813639859
 20
-3.715006755439036
 30
0.0
 10
-44.40724232487317
 20
-3.411930533955607
 30
0.0
 10
-45.25773197568109
 20
-3.087858323336448
 30
0.0
 10
-46.10815421026806
 20
-2.744781616750345
 30
0.0
 10
-46.95851691437659
 20
-2.384816202177753
 30
0.0
 10
-47.80882951864411
 20
-2.01018277876353
 30
0.0
 10
-48.65909948586804
 20
-1.623185164809575
 30
0.0
 10
-49.50933506801525
 20
-1.226203546187494
 30
0.0
 10
-50.35954536296785
 20
-0.821681297596131
 30
0.0
 10
-51.20973782787942
 20
-0.4121052555757515
 30
0.0
 10
-52.05992446878446
 20
-0.0000009558937379
 30
0.0
 10
-52.91010729306286
 20
0.4121107619224966
 30
0.0
 10
-53.76030260763425
 20
0.8216804257605481
 30
0.0
 10
-54.61051185299085
 20
1.226203898817726
 30
0.0
 10
-55.46074895109868
 20
1.623187029762833
 30
0.0
 10
-56.31102244565031
 20
2.010181341011195
 30
0.0
 10
-57.16133639193579
 20
2.384816664338133
 30
0.0
 10
-58.01169921880838
 20
2.744781787015885
 30
0.0
 10
-58.86212142245122
 20
3.087858565749731
 30
0.0
 10
-59.71261107543689
 20
3.41193077684294
 30
0.0
 10
-60.56317205798862
 20
3.715006925856276
 30
0.0
 10
-61.41381486823751
 20
3.995200717841981
 30
0.0
 10
-62.26453832551795
 20
4.250794447749183
 30
0.0
 10
-63.1153486333524
 20
4.480191570402461
 30
0.0
 10
-63.96624654700763
 20
4.681979411559771
 30
0.0
 10
-64.81722596693747
 20
4.854897481231532
 30
0.0
 10
-65.66828008313418
 20
4.997868608922641
 30
0.0
 10
-66.51939281153499
 20
5.110015897947057
 30
0.0
 10
-67.37055855780997
 20
5.190614653129528
 30
0.0
 10
-68.22175932553431
 20
5.239181361057176
 30
0.0
 10
-69.07297879787929
 20
5.255405891149522
 30
0.0
 10
-69.92419826897183
 20
5.239181361031763
 30
0.0
 10
-70.7753990404608
 20
5.190614653231619
 30
0.0
 10
-71.62656477287545
 20
5.110015897562518
 30
0.0
 10
-72.47767755324209
 20
4.997868610367942
 30
0.0
 10
-73.32872732502853
 20
4.854898172804499
 30
0.0
 10
-74.17970339242335
 20
4.681981179553702
 30
0.0
 10
-74.99191282453974
 20
4.48935146086452
 30
0.0
 10
-75.51888355380078
 20
4.348479526528656
 30
0.0
 10
-75.7633672581024
 20
4.279825760779979
 30
0.0
  0
SPLINE
  5
2AF4
330
1F
100
AcDbEntity
  8
AM_0
 48
0.5
100
AcDbSpline
210
0.0
220
0.0
230
1.0
 70
     8
 71
     3
 72
    26
 73
    22
 74
     0
 42
0.0000000001
 43
0.0000000001
 40
0.0
 40
0.0
 40
0.0
 40
0.0
 40
0.8422864037471089
 40
1.685694647057321
 40
2.531315797913884
 40
3.380177287502886
 40
4.233214169721234
 40
5.09125020057522
 40
5.954967768899448
 40
6.824900391836836
 40
7.701419186604396
 40
8.584724417931369
 40
9.47485577056355
 40
10.37165251267315
 40
11.27486274211709
 40
12.18400675634887
 40
13.09851504074504
 40
14.01768673654235
 40
14.94071745659532
 40
15.8667176994736
 40
16.76607142455336
 40
16.76607142455336
 40
16.76607142455336
 40
16.76607142455336
 10
-66.69030989352397
 20
-5.249999884702789
 30
0.0
 10
-66.97392370517765
 20
-5.246876262027927
 30
0.0
 10
-67.54152907314898
 20
-5.240624856331457
 30
0.0
 10
-68.39273056207765
 20
-5.19023150409148
 30
0.0
 10
-69.24389571889503
 20
-5.110119249306511
 30
0.0
 10
-70.09500818762884
 20
-4.997838837021971
 30
0.0
 10
-70.94605951986614
 20
-4.854912058624194
 30
0.0
 10
-71.79703275936308
 20
-4.681973821370492
 30
0.0
 10
-72.64792734000501
 20
-4.480192563092214
 30
0.0
 10
-73.49873745870962
 20
-4.25079380152699
 30
0.0
 10
-74.34946110407945
 20
-3.99520091766204
 30
0.0
 10
-75.20010527760184
 20
-3.715004742865978
 30
0.0
 10
-76.05066645448515
 20
-3.411935398201374
 30
0.0
 10
-76.90115427182705
 20
-3.087851986181647
 30
0.0
 10
-77.75158010123583
 20
-2.744785176125128
 30
0.0
 10
-78.60194578016209
 20
-2.384816099711111
 30
0.0
 10
-79.45225764763532
 20
-2.010181162413021
 30
0.0
 10
-80.30253131863235
 20
-1.527540221350289
 30
0.0
 10
-81.15275274143693
 20
-1.13052700494355
 30
0.0
 10
-81.89591820818893
 20
-0.6474318465453813
 30
0.0
 10
-83.12368387906788
 20
0.2126800350979949
 30
0.0
 10
-86.01867466715509
 20
2.8211166108258
 30
0.0
  0
VIEWPORT
  5
110
330
101
100
AcDbEntity
 67
     1
  8
0
100
AcDbViewport
 10
420.5
 20
297.0
 30
0.0
 40
948.9782706766916
 41
628.452
 68
     1
 69
     1
1001
ACAD
1000
MVIEW
1002
{
1070
    16
1010
0.0
1020
0.0
1030
0.0
1010
0.0
1020
0.0
1030
1.0
1040
0.0
1040
628.452
1040
420.5
1040
297.0
1040
50.0
1040
0.0
1040
0.0
1070
     0
1070
   100
1070
     1
1070
     1
1070
     0
1070
     0
1070
     0
1070
     0
1040
0.0
1040
0.0
1040
0.0
1040
10.0
1040
10.0
1040
10.0
1040
10.0
1070
     0
1002
{
1002
}
1002
}
  0
ENDSEC
  0
SECTION
  2
OBJECTS
  0
DICTIONARY
  5
C
330
0
100
AcDbDictionary
  3
ACAD_GROUP
350
D
  3
ACAD_LAYOUT
350
1A
  3
ACAD_MLINESTYLE
350
17
  3
ACAD_PLOTSETTINGS
350
19
  3
ACAD_PLOTSTYLENAME
350
E
  3
ACDBVARIABLEDICTIONARY
350
34
  3
ACMDICTIONARY
350
43
  3
AMG
350
2B
  3
AMGSNAPSETTINGS
350
6E
  3
DWGPROPS
350
2B47
  3
ACDBHEADERROUNDTRIPXREC
350
2B53
  0
DICTIONARY
  5
74
330
1F
100
AcDbDictionary
280
     1
  3
ACAD_INDEX
360
2B49
  3
ACAD_LAYOUTSELFREF
360
2B76
  0
DICTIONARY
  5
2B7B
330
101
100
AcDbDictionary
280
     1
  3
ACAD_LAYOUTSELFREF
360
2B7C
  0
DICTIONARY
  5
D
102
{ACAD_REACTORS
330
C
102
}
330
C
100
AcDbDictionary
  0
DICTIONARY
  5
1A
102
{ACAD_REACTORS
330
C
102
}
330
C
100
AcDbDictionary
  0
DICTIONARY
  5
17
102
{ACAD_REACTORS
330
C
102
}
330
C
100
AcDbDictionary
  3
STANDARD
350
18
  0
DICTIONARY
  5
19
102
{ACAD_REACTORS
330
C
102
}
330
C
100
AcDbDictionary
  0
ACDBDICTIONARYWDFLT
  5
E
102
{ACAD_REACTORS
330
C
102
}
330
C
100
AcDbDictionary
281
     1
  3
Normal
350
F
100
AcDbDictionaryWithDefault
340
F
  0
DICTIONARY
  5
34
102
{ACAD_REACTORS
330
C
102
}
330
C
100
AcDbDictionary
  3
INDEXCTL
350
35
  3
SORTENTS
350
B5E
  0
DICTIONARY
  5
43
102
{ACAD_REACTORS
330
C
102
}
330
C
100
AcDbDictionary
  3
ACMSTDDICTIONARY
350
260
  0
DICTIONARY
  5
2B
102
{ACAD_REACTORS
330
C
102
}
330
C
100
AcDbDictionary
  3
ACMGSETTINGS
350
2C
  0
DICTIONARY
  5
6E
102
{ACAD_REACTORS
330
C
102
}
330
C
100
AcDbDictionary
  0
XRECORD
  5
2B47
102
{ACAD_REACTORS
330
C
102
}
330
C
100
AcDbXrecord
  1
DWGPROPS COOKIE
  2

  3

  4

  6

  7

  8

  9

300
AmdtFileType=82
301
=
302
=
303
=
304
=
305
=
306
=
307
=
308
=
309
=
 40
0.0577797800925926
 41
2452800.443498622
 42
2452948.693485601
  1

 90
        1
  0
DICTIONARY
  5
2B53
102
{ACAD_REACTORS
330
C
102
}
330
C
100
AcDbDictionary
  3
TSTACKALIGN
350
2B54
  3
TSTACKSIZE
350
2B55
  3
HYPERLINKBASE
350
2B56
  3
STYLESHEET
350
2B57
  3
LAYOUTDICT
350
2B58
  3
PLOTSETDICT
350
2B59
  3
PLOTSTYLNAMDICT
350
2B5A
  3
LWETCUNION
350
2B5B
  3
INSUNITS
350
2B5C
  3
CEPSNTYPE
350
2B5D
  3
FINGERPRINTGUID
350
2B5E
  3
VERSIONGUID
350
2B5F
  3
PSVPSCALE
350
2B60
  3
DIMSTYLEDATA
350
2B61
  3
PUCSORTHOREF
350
2B62
  3
PUCSORTHOVIEW
350
2B63
  3
PUCSBASE
350
2B64
  3
PUCSORGTOP
350
2B65
  3
PUCSORGBOTTOM
350
2B66
  3
PUCSORGLEFT
350
2B67
  3
PUCSORGRIGHT
350
2B68
  3
PUCSORGFRONT
350
2B69
  3
PUCSORGBACK
350
2B6A
  3
UCSORTHOREF
350
2B6B
  3
UCSORTHOVIEW
350
2B6C
  3
UCSBASE
350
2B6D
  3
UCSORGTOP
350
2B6E
  3
UCSORGBOTTOM
350
2B6F
  3
UCSORGLEFT
350
2B70
  3
UCSORGRIGHT
350
2B71
  3
UCSORGFRONT
350
2B72
  3
UCSORGBACK
350
2B73
  0
DICTIONARY
  5
2B49
102
{ACAD_REACTORS
330
74
102
}
330
74
100
AcDbDictionary
  3
*A1
350
2B4A
  0
XRECORD
  5
2B76
102
{ACAD_REACTORS
330
74
102
}
330
74
100
AcDbXrecord
340
1F
  0
XRECORD
  5
2B7C
102
{ACAD_REACTORS
330
2B7B
102
}
330
2B7B
100
AcDbXrecord
340
101
  0
MLINESTYLE
  5
18
102
{ACAD_REACTORS
330
17
102
}
330
17
100
AcDbMlineStyle
  2
STANDARD
 70
     0
  3

 62
   256
 51
90.0
 52
90.0
 71
     2
 49
0.5
 62
   256
  6
BYLAYER
 49
-0.5
 62
   256
  6
BYLAYER
  0
ACDBPLACEHOLDER
  5
F
102
{ACAD_REACTORS
330
E
102
}
330
E
100
AcDbPlaceHolder
280
     0
  0
DICTIONARYVAR
  5
35
102
{ACAD_REACTORS
330
34
102
}
330
34
100
DictionaryVariables
280
     0
  1
1
  0
DICTIONARYVAR
  5
B5E
102
{ACAD_REACTORS
330
34
102
}
330
34
100
DictionaryVariables
280
     0
  1
96
  0
DICTIONARY
  5
260
102
{ACAD_REACTORS
330
43
102
}
330
43
100
AcDbDictionary
  0
DICTIONARY
  5
2C
102
{ACAD_REACTORS
330
2B
102
}
330
2B
100
AcDbDictionary
  3
DWGSETTINGS
350
2D
  0
XRECORD
  5
2B54
102
{ACAD_REACTORS
330
2B53
102
}
330
2B53
100
AcDbXrecord
 90
        1
  0
XRECORD
  5
2B55
102
{ACAD_REACTORS
330
2B53
102
}
330
2B53
100
AcDbXrecord
 90
       70
  0
XRECORD
  5
2B56
102
{ACAD_REACTORS
330
2B53
102
}
330
2B53
100
AcDbXrecord
  1

  0
XRECORD
  5
2B57
102
{ACAD_REACTORS
330
2B53
102
}
330
2B53
100
AcDbXrecord
  1
ASAMI.ctb
  0
XRECORD
  5
2B58
102
{ACAD_REACTORS
330
2B53
102
}
330
2B53
100
AcDbXrecord
340
1A
  0
XRECORD
  5
2B59
102
{ACAD_REACTORS
330
2B53
102
}
330
2B53
100
AcDbXrecord
340
19
  0
XRECORD
  5
2B5A
102
{ACAD_REACTORS
330
2B53
102
}
330
2B53
100
AcDbXrecord
340
E
  0
XRECORD
  5
2B5B
102
{ACAD_REACTORS
330
2B53
102
}
330
2B53
100
AcDbXrecord
 90
    10781
  0
XRECORD
  5
2B5C
102
{ACAD_REACTORS
330
2B53
102
}
330
2B53
100
AcDbXrecord
 90
        4
  0
XRECORD
  5
2B5D
102
{ACAD_REACTORS
330
2B53
102
}
330
2B53
100
AcDbXrecord
 90
        0
  0
XRECORD
  5
2B5E
102
{ACAD_REACTORS
330
2B53
102
}
330
2B53
100
AcDbXrecord
  1
{AFB28963-8C59-40AE-9337-C84526B81ACE}
  0
XRECORD
  5
2B5F
102
{ACAD_REACTORS
330
2B53
102
}
330
2B53
100
AcDbXrecord
  1
{C06021A4-5385-4FBA-B384-83DF5A42D379}
  0
XRECORD
  5
2B60
102
{ACAD_REACTORS
330
2B53
102
}
330
2B53
100
AcDbXrecord
 40
0.0
  0
XRECORD
  5
2B61
102
{ACAD_REACTORS
330
2B53
102
}
330
2B53
100
AcDbXrecord
1000
DSTYLE
1002
{
1070
    79
 70
     2
1070
   341
340
59
1070
   342
340
59
1070
   371
 70
    -1
1070
   372
 70
    -1
1002
}
  0
XRECORD
  5
2B62
102
{ACAD_REACTORS
330
2B53
102
}
330
2B53
100
AcDbXrecord
340
0
  0
XRECORD
  5
2B63
102
{ACAD_REACTORS
330
2B53
102
}
330
2B53
100
AcDbXrecord
 70
     0
  0
XRECORD
  5
2B64
102
{ACAD_REACTORS
330
2B53
102
}
330
2B53
100
AcDbXrecord
340
0
  0
XRECORD
  5
2B65
102
{ACAD_REACTORS
330
2B53
102
}
330
2B53
100
AcDbXrecord
 10
0.0
 20
0.0
 30
0.0
  0
XRECORD
  5
2B66
102
{ACAD_REACTORS
330
2B53
102
}
330
2B53
100
AcDbXrecord
 10
0.0
 20
0.0
 30
0.0
  0
XRECORD
  5
2B67
102
{ACAD_REACTORS
330
2B53
102
}
330
2B53
100
AcDbXrecord
 10
0.0
 20
0.0
 30
0.0
  0
XRECORD
  5
2B68
102
{ACAD_REACTORS
330
2B53
102
}
330
2B53
100
AcDbXrecord
 10
0.0
 20
0.0
 30
0.0
  0
XRECORD
  5
2B69
102
{ACAD_REACTORS
330
2B53
102
}
330
2B53
100
AcDbXrecord
 10
0.0
 20
0.0
 30
0.0
  0
XRECORD
  5
2B6A
102
{ACAD_REACTORS
330
2B53
102
}
330
2B53
100
AcDbXrecord
 10
0.0
 20
0.0
 30
0.0
  0
XRECORD
  5
2B6B
102
{ACAD_REACTORS
330
2B53
102
}
330
2B53
100
AcDbXrecord
340
0
  0
XRECORD
  5
2B6C
102
{ACAD_REACTORS
330
2B53
102
}
330
2B53
100
AcDbXrecord
 70
     0
  0
XRECORD
  5
2B6D
102
{ACAD_REACTORS
330
2B53
102
}
330
2B53
100
AcDbXrecord
340
0
  0
XRECORD
  5
2B6E
102
{ACAD_REACTORS
330
2B53
102
}
330
2B53
100
AcDbXrecord
 10
0.0
 20
0.0
 30
0.0
  0
XRECORD
  5
2B6F
102
{ACAD_REACTORS
330
2B53
102
}
330
2B53
100
AcDbXrecord
 10
0.0
 20
0.0
 30
0.0
  0
XRECORD
  5
2B70
102
{ACAD_REACTORS
330
2B53
102
}
330
2B53
100
AcDbXrecord
 10
0.0
 20
0.0
 30
0.0
  0
XRECORD
  5
2B71
102
{ACAD_REACTORS
330
2B53
102
}
330
2B53
100
AcDbXrecord
 10
0.0
 20
0.0
 30
0.0
  0
XRECORD
  5
2B72
102
{ACAD_REACTORS
330
2B53
102
}
330
2B53
100
AcDbXrecord
 10
0.0
 20
0.0
 30
0.0
  0
XRECORD
  5
2B73
102
{ACAD_REACTORS
330
2B53
102
}
330
2B53
100
AcDbXrecord
 10
0.0
 20
0.0
 30
0.0
  0
LAYER_INDEX
  5
2B4A
102
{ACAD_REACTORS
330
2B49
102
}
330
2B49
100
AcDbIndex
 40
2453151.683664629
100
AcDbLayerIndex
  8
0
360
2B4B
 90
        0
  8
AM_0
360
2B4C
 90
       53
  8
AM_7
360
2B4D
 90
        1
  8
AM_11
360
2B4E
 90
       21
  8
AM_5
360
2B4F
 90
        5
  8
Defpoints
360
2B50
 90
        0
  8
AM_6
360
2B51
 90
        1
  0
XRECORD
  5
2D
102
{ACAD_REACTORS
330
2C
102
}
330
2C
100
AcDbXrecord
  1
VERSION
140
15.0
  1
PRODUCT
  2
AutoCAD Mechanical 2000
  0
IDBUFFER
  5
2B4B
330
0
100
AcDbIdBuffer
  0
IDBUFFER
  5
2B4C
330
0
100
AcDbIdBuffer
330
2AEE
330
2AEF
330
2AF0
330
2AF3
330
2AF4
330
C1D
330
1AED
330
1AEE
330
1AEF
330
1C54
330
1C55
330
1C56
330
1C57
330
1C58
330
1C59
330
1C5A
330
1C5B
330
22C2
330
26F2
330
26F3
330
2ABB
330
2ABC
330
2ABD
330
2ABE
330
2ABF
330
2AC0
330
2AC4
330
2AC5
330
2AC7
330
2AC8
330
2AC9
330
2ACA
330
2ACB
330
2ACC
330
2ACD
330
2ACE
330
2ACF
330
2AD0
330
2AD1
330
2AD2
330
2AD3
330
2AD4
330
2AD5
330
2AD6
330
2AD7
330
2AD8
330
2AD9
330
2ADA
330
2ADB
330
2ADC
330
2ADD
330
2ADE
330
2AED
  0
IDBUFFER
  5
2B4D
330
0
100
AcDbIdBuffer
330
C9F
  0
IDBUFFER
  5
2B4E
330
0
100
AcDbIdBuffer
330
2AC2
330
2AC3
330
2AC6
330
2AF1
330
2AF2
330
1B15
330
1B16
330
1B1A
330
1B1B
330
1B2D
330
1B2E
330
1D45
330
1D46
330
296A
330
296B
330
296C
330
296D
330
296E
330
296F
330
2970
330
2AC1
  0
IDBUFFER
  5
2B4F
330
0
100
AcDbIdBuffer
330
DF5
330
10FC
330
2387
330
2606
330
2700
  0
IDBUFFER
  5
2B50
330
0
100
AcDbIdBuffer
  0
IDBUFFER
  5
2B51
330
0
100
AcDbIdBuffer
330
19BD
  0
ENDSEC
  0
EOF
