  0
SECTION
  2
HEADER
  9
$ACADVER
  1
AC1014
  9
$ACADMAINTVER
 70
     9
  9
$DWGCODEPAGE
  3
ANSI_932
  9
$INSBASE
 10
0.0
 20
0.0
 30
0.0
  9
$EXTMIN
 10
-130.150001
 20
-28.75056505856445
 30
-0.00000001
  9
$EXTMAX
 10
14.19739567786174
 20
13.81102314157886
 30
0.00000001
  9
$LIMMIN
 10
-156.1444050923396
 20
-44.51020785580943
  9
$LIMMAX
 10
20.31336096277607
 20
28.16015358894219
  9
$ORTHOMODE
 70
     0
  9
$REGENMODE
 70
     1
  9
$FILLMODE
 70
     1
  9
$QTEXTMODE
 70
     0
  9
$MIRRTEXT
 70
     0
  9
$DRAGMODE
 70
     2
  9
$LTSCALE
 40
1.0
  9
$OSMODE
 70
    55
  9
$ATTMODE
 70
     1
  9
$TEXTSIZE
 40
2.5
  9
$TRACEWID
 40
1.0
  9
$TEXTSTYLE
  7
STANDARD
  9
$CLAYER
  8
AM_0
  9
$CELTYPE
  6
BYLAYER
  9
$CECOLOR
 62
   256
  9
$CELTSCALE
 40
1.0
  9
$DELOBJ
 70
     1
  9
$DISPSILH
 70
     0
  9
$DIMSCALE
 40
0.5
  9
$DIMASZ
 40
2.5
  9
$DIMEXO
 40
1.0
  9
$DIMDLI
 40
12.0
  9
$DIMRND
 40
0.0
  9
$DIMDLE
 40
0.0
  9
$DIMEXE
 40
1.0
  9
$DIMTP
 40
0.1
  9
$DIMTM
 40
0.1
  9
$DIMTXT
 40
3.2
  9
$DIMCEN
 40
0.0
  9
$DIMTSZ
 40
0.0
  9
$DIMTOL
 70
     0
  9
$DIMLIM
 70
     0
  9
$DIMTIH
 70
     0
  9
$DIMTOH
 70
     0
  9
$DIMSE1
 70
     0
  9
$DIMSE2
 70
     0
  9
$DIMTAD
 70
     3
  9
$DIMZIN
 70
     8
  9
$DIMBLK
  1
OPEN30
  9
$DIMASO
 70
     1
  9
$DIMSHO
 70
     1
  9
$DIMPOST
  1

  9
$DIMAPOST
  1
"
  9
$DIMALT
 70
     0
  9
$DIMALTD
 70
     2
  9
$DIMALTF
 40
0.0393701
  9
$DIMLFAC
 40
1.0
  9
$DIMTOFL
 70
     1
  9
$DIMTVP
 40
0.0
  9
$DIMTIX
 70
     0
  9
$DIMSOXD
 70
     0
  9
$DIMSAH
 70
     0
  9
$DIMBLK1
  1

  9
$DIMBLK2
  1

  9
$DIMSTYLE
  2
AM_JIS
  9
$DIMCLRD
 70
   256
  9
$DIMCLRE
 70
   256
  9
$DIMCLRT
 70
     2
  9
$DIMTFAC
 40
0.71
  9
$DIMGAP
 40
1.5
  9
$DIMJUST
 70
     0
  9
$DIMSD1
 70
     0
  9
$DIMSD2
 70
     0
  9
$DIMTOLJ
 70
     0
  9
$DIMTZIN
 70
     0
  9
$DIMALTZ
 70
     0
  9
$DIMALTTZ
 70
     0
  9
$DIMFIT
 70
     3
  9
$DIMUPT
 70
     0
  9
$DIMUNIT
 70
     2
  9
$DIMDEC
 70
     3
  9
$DIMTDEC
 70
     3
  9
$DIMALTU
 70
     2
  9
$DIMALTTD
 70
     2
  9
$DIMTXSTY
  7
ASAMI
  9
$DIMAUNIT
 70
     0
  9
$LUNITS
 70
     2
  9
$LUPREC
 70
     2
  9
$SKETCHINC
 40
1.0
  9
$FILLETRAD
 40
2.5
  9
$AUNITS
 70
     0
  9
$AUPREC
 70
     0
  9
$MENU
  1
.
  9
$ELEVATION
 40
0.0
  9
$PELEVATION
 40
0.0
  9
$THICKNESS
 40
0.0
  9
$LIMCHECK
 70
     0
  9
$BLIPMODE
 70
     0
  9
$CHAMFERA
 40
0.5
  9
$CHAMFERB
 40
0.5
  9
$CHAMFERC
 40
20.0
  9
$CHAMFERD
 40
0.0
  9
$SKPOLY
 70
     0
  9
$TDCREATE
 40
2452800.443498622
  9
$TDUPDATE
 40
2453151.573757766
  9
$TDINDWG
 40
0.0685351389
  9
$TDUSRTIMER
 40
0.0685351389
  9
$USRTIMER
 70
     1
  9
$ANGBASE
 50
0.0
  9
$ANGDIR
 70
     0
  9
$PDMODE
 70
     0
  9
$PDSIZE
 40
0.0
  9
$PLINEWID
 40
0.0
  9
$COORDS
 70
     1
  9
$SPLFRAME
 70
     0
  9
$SPLINETYPE
 70
     6
  9
$SPLINESEGS
 70
     8
  9
$ATTDIA
 70
     1
  9
$ATTREQ
 70
     1
  9
$HANDLING
 70
 12289
  9
$HANDSEED
  5
36AC
  9
$SURFTAB1
 70
     6
  9
$SURFTAB2
 70
     6
  9
$SURFTYPE
 70
     6
  9
$SURFU
 70
     6
  9
$SURFV
 70
     6
  9
$UCSNAME
  2

  9
$UCSORG
 10
0.0
 20
0.0
 30
0.0
  9
$UCSXDIR
 10
1.0
 20
0.0000000000000027
 30
0.0
  9
$UCSYDIR
 10
-0.0000000000000027
 20
1.0
 30
0.0
  9
$PUCSNAME
  2

  9
$PUCSORG
 10
0.0
 20
0.0
 30
0.0
  9
$PUCSXDIR
 10
1.0
 20
0.0
 30
0.0
  9
$PUCSYDIR
 10
0.0
 20
1.0
 30
0.0
  9
$USERI1
 70
     0
  9
$USERI2
 70
     0
  9
$USERI3
 70
     0
  9
$USERI4
 70
     0
  9
$USERI5
 70
     0
  9
$USERR1
 40
0.0
  9
$USERR2
 40
0.0
  9
$USERR3
 40
0.0
  9
$USERR4
 40
0.0
  9
$USERR5
 40
0.0
  9
$WORLDVIEW
 70
     1
  9
$SHADEDGE
 70
     3
  9
$SHADEDIF
 70
    70
  9
$TILEMODE
 70
     1
  9
$MAXACTVP
 70
    64
  9
$PINSBASE
 10
0.0
 20
0.0
 30
0.0
  9
$PLIMCHECK
 70
     0
  9
$PEXTMIN
 10
1.000000000000000E+20
 20
1.000000000000000E+20
 30
1.000000000000000E+20
  9
$PEXTMAX
 10
-1.000000000000000E+20
 20
-1.000000000000000E+20
 30
-1.000000000000000E+20
  9
$PLIMMIN
 10
0.0
 20
0.0
  9
$PLIMMAX
 10
841.0
 20
594.0
  9
$UNITMODE
 70
     0
  9
$VISRETAIN
 70
     1
  9
$PLINEGEN
 70
     0
  9
$PSLTSCALE
 70
     0
  9
$TREEDEPTH
 70
  3020
  9
$PICKSTYLE
 70
     0
  9
$CMLSTYLE
  2
STANDARD
  9
$CMLJUST
 70
     0
  9
$CMLSCALE
 40
20.0
  9
$PROXYGRAPHICS
 70
     1
  9
$MEASUREMENT
 70
     1
  0
ENDSEC
  0
SECTION
  2
CLASSES
  0
CLASS
  1
ACDBDICTIONARYWDFLT
  2
AcDbDictionaryWithDefault
  3
AutoCAD 2000
 90
        0
280
     0
281
     0
  0
CLASS
  1
ACDBPLACEHOLDER
  2
AcDbPlaceHolder
  3
AutoCAD 2000
 90
        0
280
     0
281
     0
  0
CLASS
  1
LAYOUT
  2
AcDbLayout
  3
AutoCAD 2000
 90
        0
280
     0
281
     0
  0
CLASS
  1
AMGSETTINGSOBJ
  2
AmgSettingsObj
  3
"AcadM|Product Description: AutoCAD Mechanical 2000|Company: Autodesk"
 90
        0
280
     0
281
     0
  0
CLASS
  1
ACME_DOCUMENT
  2
AcMeDbDoc
  3
AcMeServices
 90
        0
280
     0
281
     0
  0
CLASS
  1
ACMESCOPE
  2
AcMeScope
  3
AcMeServices
 90
        0
280
     0
281
     0
  0
CLASS
  1
ACMECOMMANDHISTORY
  2
AcMeCommandHistory
  3
AcMeServices
 90
        0
280
     0
281
     0
  0
CLASS
  1
DICTIONARYVAR
  2
AcDbDictionaryVar
  3
AutoCAD 2000
 90
        0
280
     0
281
     0
  0
CLASS
  1
ACIMSYSVARMAN
  2
AcImSysVarManager
  3
AcMeServices
 90
        0
280
     0
281
     0
  0
CLASS
  1
ACIMREALSYSVAR
  2
AcImRealSysVar
  3
AcMeServices
 90
        0
280
     0
281
     0
  0
CLASS
  1
ACIMINTSYSVAR
  2
AcImIntSysVar
  3
AcMeServices
 90
        0
280
     0
281
     0
  0
CLASS
  1
ACMEDRAWINGMAN
  2
AcMeDrawingMan
  3
AcMeServices
 90
        0
280
     0
281
     0
  0
CLASS
  1
ACMEVIEW
  2
AcMeView
  3
AcMeServices
 90
        0
280
     0
281
     0
  0
CLASS
  1
ACDBENTITYCACHE
  2
AcMeEntityCache
  3
AcMeServices
 90
        0
280
     0
281
     0
  0
CLASS
  1
GSMANAGER
  2
AcMeGSManager
  3
AcMeServices
 90
        0
280
     0
281
     0
  0
CLASS
  1
AmdtInternalReactor
  2
AmdtInternalReactor
  3
AcMeServices
 90
        0
280
     0
281
     0
  0
CLASS
  1
ACMESTATEMGR
  2
AcMeStateMgr
  3
AcMeServices
 90
        0
280
     0
281
     0
  0
CLASS
  1
ACME_DATABASE
  2
AcMeDbDatabase
  3
AcMeServices
 90
        0
280
     0
281
     0
  0
CLASS
  1
ACRFINSADJUSTERMGR
  2
AcRfInsAdjusterMgr
  3
AcMeServices
 90
        0
280
     0
281
     0
  0
CLASS
  1
ACMDATADICTIONARY
  2
AcmDataDictionary
  3
"AcmSymBB|Product Description: AutoCAD Mechanical 2000|Company: Autodesk"
 90
        0
280
     0
281
     0
  0
CLASS
  1
ACMDATAENTRYBLOCK
  2
AcmDataEntryBlock
  3
"AcmSymBB|Product Description: AutoCAD Mechanical 2000|Company: Autodesk"
 90
        0
280
     0
281
     0
  0
CLASS
  1
AMGOBJPROPCFG
  2
AmgObjPropCfg
  3
"AmgLay|Product Description: AutoCAD Mechanical 2000|Company: Autodesk"
 90
        1
280
     0
281
     0
  0
CLASS
  1
ACAMGFILTERDAT
  2
AcAmgFilterDat
  3
"AcadM|Product Description: AutoCAD Mechanical 2000|Company: Autodesk"
 90
        0
280
     0
281
     0
  0
CLASS
  1
LAYER_INDEX
  2
AcDbLayerIndex
  3
AutoCAD 2000
 90
        0
280
     0
281
     0
  0
CLASS
  1
IDBUFFER
  2
AcDbIdBuffer
  3
AutoCAD 2000
 90
        0
280
     0
281
     0
  0
CLASS
  1
ACIMSTRSYSVAR
  2
AcImStrSysVar
  3
AcMeServices
 90
        0
280
     0
281
     0
  0
CLASS
  1
ACMSTANDARDJIS
  2
AcmStandardJIS
  3
"AcmSymBB|Product Description: AutoCAD Mechanical 2000|Company: Autodesk"
 90
        0
280
     0
281
     0
  0
CLASS
  1
ACMSURFSTANDARDJIS
  2
AcmSurfTextStdJIS
  3
"AcmSymBB|Product Description: AutoCAD Mechanical 2000|Company: Autodesk"
 90
        0
280
     0
281
     0
  0
CLASS
  1
ACMFCFSTANDARDJIS
  2
AcmFCFStdJIS
  3
"AcmSymBB|Product Description: AutoCAD Mechanical 2000|Company: Autodesk"
 90
        0
280
     0
281
     0
  0
CLASS
  1
ACMWELDSTANDARDJIS
  2
AcmWeldingStdJIS
  3
"AcmSymBB|Product Description: AutoCAD Mechanical 2000|Company: Autodesk"
 90
        0
280
     0
281
     0
  0
CLASS
  1
ACMIDSTANDARDJIS
  2
AcmIdStdJIS
  3
"AcmSymBB|Product Description: AutoCAD Mechanical 2000|Company: Autodesk"
 90
        0
280
     0
281
     0
  0
CLASS
  1
ACMDATUMSTANDARDJIS
  2
AcmDatumStdJIS
  3
"AcmSymBB|Product Description: AutoCAD Mechanical 2000|Company: Autodesk"
 90
        0
280
     0
281
     0
  0
CLASS
  1
ACMBOMSTANDARDJIS
  2
AcmBOMStdJIS
  3
"AcmSymBB|Product Description: AutoCAD Mechanical 2000|Company: Autodesk"
 90
        0
280
     0
281
     0
  0
CLASS
  1
ACMSTANDARDANSI
  2
AcmStandardANSI
  3
"AcmSymBB|Product Description: AutoCAD Mechanical 2000|Company: Autodesk"
 90
        0
280
     0
281
     0
  0
CLASS
  1
ACMSURFSTANDARDANSI
  2
AcmSurfTextStdANSI
  3
"AcmSymBB|Product Description: AutoCAD Mechanical 2000|Company: Autodesk"
 90
        0
280
     0
281
     0
  0
CLASS
  1
ACMFCFSTANDARDANSI
  2
AcmFCFStdANSI
  3
"AcmSymBB|Product Description: AutoCAD Mechanical 2000|Company: Autodesk"
 90
        0
280
     0
281
     0
  0
CLASS
  1
ACMWELDSTANDARDANSI
  2
AcmWeldingStdANSI
  3
"AcmSymBB|Product Description: AutoCAD Mechanical 2000|Company: Autodesk"
 90
        0
280
     0
281
     0
  0
CLASS
  1
ACMIDSTANDARDANSI
  2
AcmIdStdANSI
  3
"AcmSymBB|Product Description: AutoCAD Mechanical 2000|Company: Autodesk"
 90
        0
280
     0
281
     0
  0
CLASS
  1
ACMDATUMSTANDARDANSI
  2
AcmDatumStdANSI
  3
"AcmSymBB|Product Description: AutoCAD Mechanical 2000|Company: Autodesk"
 90
        0
280
     0
281
     0
  0
CLASS
  1
ACMBOMSTANDARDANSI
  2
AcmBOMStdANSI
  3
"AcmSymBB|Product Description: AutoCAD Mechanical 2000|Company: Autodesk"
 90
        0
280
     0
281
     0
  0
CLASS
  1
ACMSTANDARDBSI
  2
AcmStandardBSI
  3
"AcmSymBB|Product Description: AutoCAD Mechanical 2000|Company: Autodesk"
 90
        0
280
     0
281
     0
  0
CLASS
  1
ACMSURFSTANDARDBSI
  2
AcmSurfTextStdBSI
  3
"AcmSymBB|Product Description: AutoCAD Mechanical 2000|Company: Autodesk"
 90
        0
280
     0
281
     0
  0
CLASS
  1
ACMFCFSTANDARDBSI
  2
AcmFCFStdBSI
  3
"AcmSymBB|Product Description: AutoCAD Mechanical 2000|Company: Autodesk"
 90
        0
280
     0
281
     0
  0
CLASS
  1
ACMWELDSTANDARDBSI
  2
AcmWeldingStdBSI
  3
"AcmSymBB|Product Description: AutoCAD Mechanical 2000|Company: Autodesk"
 90
        0
280
     0
281
     0
  0
CLASS
  1
ACMIDSTANDARDBSI
  2
AcmIdStdBSI
  3
"AcmSymBB|Product Description: AutoCAD Mechanical 2000|Company: Autodesk"
 90
        0
280
     0
281
     0
  0
CLASS
  1
ACMDATUMSTANDARDBSI
  2
AcmDatumStdBSI
  3
"AcmSymBB|Product Description: AutoCAD Mechanical 2000|Company: Autodesk"
 90
        0
280
     0
281
     0
  0
CLASS
  1
ACMBOMSTANDARDBSI
  2
AcmBOMStdBSI
  3
"AcmSymBB|Product Description: AutoCAD Mechanical 2000|Company: Autodesk"
 90
        0
280
     0
281
     0
  0
CLASS
  1
LONG_TRANSACTION
  2
AcDbLongTransaction
  3
AutoCAD 2000
 90
        0
280
     0
281
     0
  0
CLASS
  1
LWPOLYLINE
  2
AcDbPolyline
  3
AutoCAD 2000
 90
        0
280
     0
281
     1
  0
CLASS
  1
HATCH
  2
AcDbHatch
  3
AutoCAD 2000
 90
        0
280
     0
281
     1
  0
CLASS
  1
XRECORD
  2
AcDbXrecord
  3
AutoCAD 2000
 90
        0
280
     0
281
     0
  0
ENDSEC
  0
SECTION
  2
TABLES
  0
TABLE
  2
VPORT
  5
8
330
0
100
AcDbSymbolTable
 70
     3
  0
VPORT
  5
3681
330
8
100
AcDbSymbolTableRecord
100
AcDbViewportTableRecord
  2
*ACTIVE
 70
     0
 10
0.0
 20
0.0
 11
1.0
 21
1.0
 12
-55.29841545119626
 22
-7.470899773513039
 13
0.0
 23
0.0
 14
2.5
 24
2.5
 15
10.0
 25
10.0
 16
0.0
 26
0.0
 36
1.0
 17
0.0
 27
0.0
 37
0.0
 40
96.07655095823762
 41
1.56570841889117
 42
50.0
 43
0.0
 44
0.0
 50
0.0
 51
0.0
 71
     0
 72
   100
 73
     1
 74
     1
 75
     0
 76
     0
 77
     0
 78
     0
  0
ENDTAB
  0
TABLE
  2
LTYPE
  5
5
330
0
100
AcDbSymbolTable
 70
    10
  0
LTYPE
  5
14
330
5
100
AcDbSymbolTableRecord
100
AcDbLinetypeTableRecord
  2
BYBLOCK
 70
     0
  3

 72
    65
 73
     0
 40
0.0
  0
LTYPE
  5
15
330
5
100
AcDbSymbolTableRecord
100
AcDbLinetypeTableRecord
  2
BYLAYER
 70
     0
  3

 72
    65
 73
     0
 40
0.0
  0
LTYPE
  5
16
330
5
100
AcDbSymbolTableRecord
100
AcDbLinetypeTableRecord
  2
CONTINUOUS
 70
     0
  3
Solid line
 72
    65
 73
     0
 40
0.0
  0
LTYPE
  5
4B
330
5
100
AcDbSymbolTableRecord
100
AcDbLinetypeTableRecord
  2
AM_ISO02W050
 70
     0
  3
__ __ __ __ __ __ __ __ __ __ __ __ __ __ __
 72
    65
 73
     2
 40
7.5
 49
6.0
 74
     0
 49
-1.5
 74
     0
  0
LTYPE
  5
4C
330
5
100
AcDbSymbolTableRecord
100
AcDbLinetypeTableRecord
  2
AM_ISO08W050
 70
     0
  3
____ . ____ . ____ . ____ . ____ . ____ . ____
 72
    65
 73
     4
 40
18.0
 49
12.0
 74
     0
 49
-1.5
 74
     0
 49
3.0
 74
     0
 49
-1.5
 74
     0
  0
LTYPE
  5
4D
330
5
100
AcDbSymbolTableRecord
100
AcDbLinetypeTableRecord
  2
AM_ISO09W050
 70
     0
  3
_____ . . _____ . . _____ . . ____ .. ____
 72
    65
 73
     6
 40
22.5
 49
12.0
 74
     0
 49
-1.5
 74
     0
 49
3.0
 74
     0
 49
-1.5
 74
     0
 49
3.0
 74
     0
 49
-1.5
 74
     0
  0
LTYPE
  5
4E
330
5
100
AcDbSymbolTableRecord
100
AcDbLinetypeTableRecord
  2
AMCONSTR
 70
     0
  3
_______________________
 72
    65
 73
     2
 40
9999.0
 49
9999.0
 74
     0
 49
0.0
 74
     0
  0
LTYPE
  5
4F
330
5
100
AcDbSymbolTableRecord
100
AcDbLinetypeTableRecord
  2
AM_ISO02W050X2
 70
     0
  3
 _ _ _ _ _ _ _ _ _ _ _ _
 72
    65
 73
     2
 40
3.75
 49
3.0
 74
     0
 49
-0.75
 74
     0
  0
LTYPE
  5
50
330
5
100
AcDbSymbolTableRecord
100
AcDbLinetypeTableRecord
  2
AM_ISO08W050X2
 70
     0
  3
__ . __ . __ . __ . __ . __
 72
    65
 73
     4
 40
9.0
 49
6.0
 74
     0
 49
-0.75
 74
     0
 49
1.5
 74
     0
 49
-0.75
 74
     0
  0
LTYPE
  5
53
330
5
100
AcDbSymbolTableRecord
100
AcDbLinetypeTableRecord
  2
AMZIGZAG
 70
     0
  3
/\/-/\/-/\/-/\/-/\/-/\/
 72
    65
 73
     2
 40
11.00009999999999
 49
0.0001
 74
     4
 75
   135
340
52
 46
0.04
 50
0.0
 44
0.0
 45
0.0
 49
-11.0
 74
     0
  0
LTYPE
  5
166
330
5
100
AcDbSymbolTableRecord
100
AcDbLinetypeTableRecord
  2
ACJISTGL
 70
     0
  3
_ _ _ _ _
 72
    65
 73
     2
 40
3.0
 49
2.0
 74
     0
 49
-1.0
 74
     0
  0
LTYPE
  5
26A
330
5
100
AcDbSymbolTableRecord
100
AcDbLinetypeTableRecord
  2
ACJISTGB
 70
     0
  3
__ . . __ . .
 72
    65
 73
     6
 40
9.0
 49
4.0
 74
     0
 49
-1.0
 74
     0
 49
1.0
 74
     0
 49
-1.0
 74
     0
 49
1.0
 74
     0
 49
-1.0
 74
     0
  0
ENDTAB
  0
TABLE
  2
LAYER
  5
2
330
0
100
AcDbSymbolTable
 70
     8
  0
LAYER
  5
10
330
2
100
AcDbSymbolTableRecord
100
AcDbLayerTableRecord
  2
0
 70
     0
 62
     7
  6
CONTINUOUS
  0
LAYER
  5
3F9
330
2
100
AcDbSymbolTableRecord
100
AcDbLayerTableRecord
  2
AM_0
 70
     0
 62
     7
  6
CONTINUOUS
  0
LAYER
  5
C7C
330
2
100
AcDbSymbolTableRecord
100
AcDbLayerTableRecord
  2
AM_7
 70
     0
 62
     4
  6
AM_ISO08W050
  0
LAYER
  5
C97
330
2
100
AcDbSymbolTableRecord
100
AcDbLayerTableRecord
  2
AM_11
 70
     0
 62
     3
  6
AM_ISO09W050
  0
LAYER
  5
CC5
330
2
100
AcDbSymbolTableRecord
100
AcDbLayerTableRecord
  2
AM_5
 70
     0
 62
     3
  6
CONTINUOUS
  0
LAYER
  5
CC7
330
2
100
AcDbSymbolTableRecord
100
AcDbLayerTableRecord
  2
DEFPOINTS
 70
     0
 62
     7
  6
CONTINUOUS
  0
LAYER
  5
19BC
330
2
100
AcDbSymbolTableRecord
100
AcDbLayerTableRecord
  2
AM_6
 70
     0
 62
     2
  6
CONTINUOUS
  0
LAYER
  5
3625
330
2
100
AcDbSymbolTableRecord
100
AcDbLayerTableRecord
  2
AM_CL
 70
     0
 62
     1
  6
AMCONSTR
  0
ENDTAB
  0
TABLE
  2
STYLE
  5
3
330
0
100
AcDbSymbolTable
 70
     5
  0
STYLE
  5
11
330
3
100
AcDbSymbolTableRecord
100
AcDbTextStyleTableRecord
  2
STANDARD
 70
     0
 40
0.0
 41
1.0
 50
0.0
 71
     0
 42
2.5
  3
simplex.shx
  4
EXTFONT.SHX
  0
STYLE
  5
52
330
3
100
AcDbSymbolTableRecord
100
AcDbTextStyleTableRecord
  2

 70
     1
 40
0.0
 41
1.0
 50
0.0
 71
     0
 42
2.5
  3
ltypeshp.shx
  4

  0
STYLE
  5
6B
330
3
100
AcDbSymbolTableRecord
100
AcDbTextStyleTableRecord
  2
ASAMI
 70
     0
 40
0.0
 41
1.0
 50
0.0
 71
     0
 42
2.5
  3
simplex.shx
  4
EXTFONT.SHX
  0
STYLE
  5
262
330
3
100
AcDbSymbolTableRecord
100
AcDbTextStyleTableRecord
  2
ACJISTS
 70
     0
 40
1.0
 41
1.0
 50
0.0
 71
     0
 42
2.5
  3
simplex.shx
  4
bigfont.shx
  0
STYLE
  5
269
330
3
100
AcDbSymbolTableRecord
100
AcDbTextStyleTableRecord
  2
ACJISGDT
 70
     0
 40
0.0
 41
1.0
 50
0.0
 71
     0
 42
2.5
  3
amgdtans.shx
  4

  0
ENDTAB
  0
TABLE
  2
VIEW
  5
6
330
0
100
AcDbSymbolTable
 70
     0
  0
ENDTAB
  0
TABLE
  2
UCS
  5
7
330
0
100
AcDbSymbolTable
 70
     0
  0
ENDTAB
  0
TABLE
  2
APPID
  5
9
330
0
100
AcDbSymbolTable
 70
    16
  0
APPID
  5
12
330
9
100
AcDbSymbolTableRecord
100
AcDbRegAppTableRecord
  2
ACAD
 70
     0
  0
APPID
  5
30
330
9
100
AcDbSymbolTableRecord
100
AcDbRegAppTableRecord
  2
MCAD_NO_VIS
 70
     0
  0
APPID
  5
31
330
9
100
AcDbSymbolTableRecord
100
AcDbRegAppTableRecord
  2
ACAD_TEMP_GRAPHIC
 70
     0
  0
APPID
  5
2C2
330
9
100
AcDbSymbolTableRecord
100
AcDbRegAppTableRecord
  2
GENIUS_GENDTOL_13
 70
     0
  0
APPID
  5
339
330
9
100
AcDbSymbolTableRecord
100
AcDbRegAppTableRecord
  2
GENIUS_GENODEF_13
 70
     0
  0
APPID
  5
33A
330
9
100
AcDbSymbolTableRecord
100
AcDbRegAppTableRecord
  2
GENIUS_GENOBJ-N-RSBK_13
 70
     0
  0
APPID
  5
33B
330
9
100
AcDbSymbolTableRecord
100
AcDbRegAppTableRecord
  2
GENIUS_GENOBJ-N-LIB_13
 70
     0
  0
APPID
  5
33C
330
9
100
AcDbSymbolTableRecord
100
AcDbRegAppTableRecord
  2
GENIUS_GENSCALE_13
 70
     0
  0
APPID
  5
378
330
9
100
AcDbSymbolTableRecord
100
AcDbRegAppTableRecord
  2
GENIUS_GENDIMSH_14
 70
     0
  0
APPID
  5
C82
330
9
100
AcDbSymbolTableRecord
100
AcDbRegAppTableRecord
  2
GENIUS_GENOBJ-N-CRS_13
 70
     0
  0
APPID
  5
C83
330
9
100
AcDbSymbolTableRecord
100
AcDbRegAppTableRecord
  2
GENIUS_GENOENT_13
 70
     0
  0
APPID
  5
C84
330
9
100
AcDbSymbolTableRecord
100
AcDbRegAppTableRecord
  2
GENIUS_GENOREF_13
 70
     0
  0
APPID
  5
C85
330
9
100
AcDbSymbolTableRecord
100
AcDbRegAppTableRecord
  2
GENIUS_GENOLIS_13
 70
     0
  0
APPID
  5
CA0
330
9
100
AcDbSymbolTableRecord
100
AcDbRegAppTableRecord
  2
GENIUS_GENOBJ-N-CEN_13
 70
     0
  0
APPID
  5
2796
330
9
100
AcDbSymbolTableRecord
100
AcDbRegAppTableRecord
  2
GENIUS_GENFIL_13
 70
     0
  0
APPID
  5
2797
330
9
100
AcDbSymbolTableRecord
100
AcDbRegAppTableRecord
  2
GENIUS_GENOBJ-N-CHA_13
 70
     0
  0
ENDTAB
  0
TABLE
  2
DIMSTYLE
  5
A
330
0
100
AcDbSymbolTable
 70
     9
  0
DIMSTYLE
105
58
330
A
100
AcDbSymbolTableRecord
100
AcDbDimStyleTableRecord
  2
AM_JIS
 70
     0
  3

  4
"
  5
OPEN30
  6

  7

 40
0.5
 41
2.5
 42
1.0
 43
12.0
 44
1.0
 45
0.0
 46
0.0
 47
0.1
 48
0.1
140
3.2
141
0.0
142
0.0
143
0.0393701
144
1.0
145
0.0
146
0.71
147
1.5
 71
     0
 72
     0
 73
     0
 74
     0
 75
     0
 76
     0
 77
     3
 78
     8
170
     0
171
     2
172
     1
173
     0
174
     0
175
     0
176
   256
177
   256
178
     2
270
     2
271
     3
272
     3
273
     2
274
     2
340
6B
275
     0
280
     0
281
     0
282
     0
283
     0
284
     0
285
     0
286
     0
287
     3
288
     0
  0
DIMSTYLE
105
5F
330
A
100
AcDbSymbolTableRecord
100
AcDbDimStyleTableRecord
  2
AM_JIS$3
 70
     0
  3

  4
"
  5
OPEN30
  6

  7

 40
0.5
 41
2.5
 42
1.0
 43
10.0
 44
1.0
 45
0.0
 46
0.0
 47
0.1
 48
0.1
140
3.2
141
0.0
142
0.0
143
0.0393701
144
1.0
145
0.0
146
0.71
147
1.5
 71
     0
 72
     0
 73
     0
 74
     1
 75
     0
 76
     0
 77
     3
 78
     8
170
     0
171
     2
172
     0
173
     0
174
     0
175
     0
176
   256
177
   256
178
     2
270
     2
271
     2
272
     3
273
     2
274
     2
340
6B
275
     0
280
     0
281
     0
282
     0
283
     0
284
     0
285
     0
286
     0
287
     0
288
     1
  0
DIMSTYLE
105
60
330
A
100
AcDbSymbolTableRecord
100
AcDbDimStyleTableRecord
  2
AM_JIS$4
 70
     0
  3

  4
"
  5
OPEN30
  6

  7

 40
0.5
 41
2.5
 42
1.0
 43
10.0
 44
1.0
 45
0.0
 46
0.0
 47
0.1
 48
0.1
140
3.2
141
0.0
142
0.0
143
0.0393701
144
1.0
145
0.0
146
0.71
147
1.5
 71
     0
 72
     0
 73
     0
 74
     1
 75
     0
 76
     0
 77
     3
 78
     8
170
     0
171
     2
172
     0
173
     0
174
     0
175
     0
176
   256
177
   256
178
     2
270
     2
271
     2
272
     3
273
     2
274
     2
340
6B
275
     0
280
     0
281
     0
282
     0
283
     0
284
     0
285
     0
286
     0
287
     0
288
     1
  0
DIMSTYLE
105
61
330
A
100
AcDbSymbolTableRecord
100
AcDbDimStyleTableRecord
  2
AM_JIS$6
 70
     0
  3

  4
"
  5
OPEN30
  6

  7

 40
0.5
 41
2.5
 42
1.0
 43
10.0
 44
1.0
 45
0.0
 46
0.0
 47
0.1
 48
0.1
140
3.2
141
0.0
142
0.0
143
0.0393701
144
1.0
145
0.0
146
0.71
147
1.5
 71
     0
 72
     0
 73
     0
 74
     0
 75
     0
 76
     0
 77
     0
 78
     8
170
     0
171
     2
172
     1
173
     0
174
     0
175
     0
176
   256
177
   256
178
     2
270
     2
271
     2
272
     2
273
     2
274
     2
340
6B
275
     0
280
     0
281
     0
282
     0
283
     0
284
     0
285
     0
286
     0
287
     3
288
     0
  0
DIMSTYLE
105
62
330
A
100
AcDbSymbolTableRecord
100
AcDbDimStyleTableRecord
  2
AM_JIS$7
 70
     0
  3

  4
"
  5
OPEN30
  6

  7

 40
0.5
 41
2.5
 42
1.0
 43
10.0
 44
1.0
 45
0.0
 46
0.0
 47
0.1
 48
0.1
140
3.2
141
0.0
142
0.0
143
0.0393701
144
1.0
145
0.0
146
0.71
147
1.5
 71
     0
 72
     0
 73
     0
 74
     0
 75
     0
 76
     0
 77
     3
 78
     8
170
     0
171
     2
172
     1
173
     0
174
     0
175
     0
176
   256
177
   256
178
     2
270
     2
271
     2
272
     3
273
     2
274
     2
340
6B
275
     0
280
     0
281
     0
282
     0
283
     0
284
     0
285
     0
286
     0
287
     3
288
     0
  0
DIMSTYLE
105
63
330
A
100
AcDbSymbolTableRecord
100
AcDbDimStyleTableRecord
  2
AM_JIS$SF
 70
     0
  3

  4
"
  5
OPEN30
  6

  7

 40
0.5
 41
2.5
 42
1.0
 43
10.0
 44
1.0
 45
0.0
 46
0.0
 47
0.1
 48
0.1
140
3.2
141
0.0
142
0.0
143
0.0393701
144
1.0
145
0.0
146
0.71
147
1.5
 71
     0
 72
     0
 73
     0
 74
     0
 75
     1
 76
     1
 77
     3
 78
     8
170
     0
171
     2
172
     1
173
     0
174
     0
175
     0
176
   256
177
   256
178
     2
270
     2
271
     2
272
     2
273
     2
274
     2
340
6B
275
     0
280
     0
281
     0
282
     0
283
     0
284
     0
285
     0
286
     0
287
     3
288
     0
  0
DIMSTYLE
105
68
330
A
100
AcDbSymbolTableRecord
100
AcDbDimStyleTableRecord
  2
AM_JIS$SH
 70
     0
  3

  4
"
  5

  6
GENAXEH
  7
OPEN30
 40
0.5
 41
2.5
 42
1.0
 43
10.0
 44
1.0
 45
0.0
 46
0.0
 47
0.1
 48
0.1
140
3.2
141
0.0
142
0.0
143
0.0393701
144
2.0
145
0.0
146
0.71
147
1.5
 71
     0
 72
     0
 73
     0
 74
     0
 75
     1
 76
     1
 77
     3
 78
     8
170
     0
171
     2
172
     1
173
     1
174
     0
175
     0
176
   256
177
   256
178
     2
270
     2
271
     2
272
     2
273
     2
274
     2
340
6B
275
     0
280
     0
281
     0
282
     0
283
     0
284
     0
285
     0
286
     0
287
     3
288
     0
  0
DIMSTYLE
105
B34
102
{ACAD_REACTORS
330
2C81
102
}
330
A
100
AcDbSymbolTableRecord
100
AcDbDimStyleTableRecord
  2
AM_JIS$2
 70
     0
  3

  4
"
  5
OPEN30
  6

  7

 40
0.5
 41
2.5
 42
1.0
 43
12.0
 44
1.0
 45
0.0
 46
0.0
 47
0.1
 48
0.1
140
3.2
141
0.0
142
0.0
143
0.0393701
144
1.0
145
0.0
146
0.71
147
1.5
 71
     0
 72
     0
 73
     0
 74
     0
 75
     0
 76
     0
 77
     3
 78
     8
170
     0
171
     2
172
     1
173
     0
174
     0
175
     0
176
   256
177
   256
178
     2
270
     2
271
     3
272
     3
273
     2
274
     2
340
6B
275
     0
280
     0
281
     0
282
     0
283
     0
284
     0
285
     0
286
     0
287
     3
288
     0
  0
DIMSTYLE
105
BA5
102
{ACAD_REACTORS
330
CC6
330
2069
330
2C16
330
2D60
102
}
330
A
100
AcDbSymbolTableRecord
100
AcDbDimStyleTableRecord
  2
AM_JIS$0
 70
     0
  3

  4
"
  5
OPEN30
  6

  7

 40
0.5
 41
2.5
 42
0.0
 43
10.0
 44
1.0
 45
0.0
 46
0.0
 47
0.1
 48
0.1000000001
140
3.799999999999999
141
0.0
142
0.0
143
0.0393701
144
1.0
145
0.0
146
0.71
147
1.5
 71
     0
 72
     0
 73
     0
 74
     0
 75
     0
 76
     0
 77
     3
 78
     1
170
     0
171
     2
172
     1
173
     0
174
     0
175
     0
176
     3
177
     3
178
     2
270
     2
271
     2
272
     2
273
     2
274
     2
340
11
275
     1
280
     0
281
     0
282
     0
283
     0
284
     8
285
     0
286
     0
287
     0
288
     0
  0
ENDTAB
  0
TABLE
  2
BLOCK_RECORD
  5
1
330
0
100
AcDbSymbolTable
 70
    10
  0
BLOCK_RECORD
  5
1F
102
{ACAD_XDICTIONARY
360
74
102
}
330
1
100
AcDbSymbolTableRecord
100
AcDbBlockTableRecord
  2
*MODEL_SPACE
  0
BLOCK_RECORD
  5
101
102
{ACAD_XDICTIONARY
360
36AA
102
}
330
1
100
AcDbSymbolTableRecord
100
AcDbBlockTableRecord
  2
*PAPER_SPACE
  0
BLOCK_RECORD
  5
59
330
1
100
AcDbSymbolTableRecord
100
AcDbBlockTableRecord
  2
_OPEN30
  0
BLOCK_RECORD
  5
64
330
1
100
AcDbSymbolTableRecord
100
AcDbBlockTableRecord
  2
GENAXEH
  0
BLOCK_RECORD
  5
CC8
330
1
100
AcDbSymbolTableRecord
100
AcDbBlockTableRecord
  2
*D5
  0
BLOCK_RECORD
  5
206A
330
1
100
AcDbSymbolTableRecord
100
AcDbBlockTableRecord
  2
*D6
  0
BLOCK_RECORD
  5
2C17
330
1
100
AcDbSymbolTableRecord
100
AcDbBlockTableRecord
  2
*D7
  0
BLOCK_RECORD
  5
2C82
330
1
100
AcDbSymbolTableRecord
100
AcDbBlockTableRecord
  2
*D8
  0
BLOCK_RECORD
  5
2D61
330
1
100
AcDbSymbolTableRecord
100
AcDbBlockTableRecord
  2
*D9
  0
ENDTAB
  0
ENDSEC
  0
SECTION
  2
BLOCKS
  0
BLOCK
  5
20
330
1F
100
AcDbEntity
  8
0
100
AcDbBlockBegin
  2
*MODEL_SPACE
 70
     0
 10
0.0
 20
0.0
 30
0.0
  3
*MODEL_SPACE
  1

  0
ENDBLK
  5
21
330
1F
100
AcDbEntity
  8
0
100
AcDbBlockEnd
  0
BLOCK
  5
103
330
101
100
AcDbEntity
 67
     1
  8
0
100
AcDbBlockBegin
  2
*PAPER_SPACE
 70
     0
 10
0.0
 20
0.0
 30
0.0
  3
*PAPER_SPACE
  1

  0
ENDBLK
  5
104
330
101
100
AcDbEntity
 67
     1
  8
0
100
AcDbBlockEnd
  0
BLOCK
  5
5D
330
59
100
AcDbEntity
  8
0
100
AcDbBlockBegin
  2
_OPEN30
 70
     0
 10
0.0
 20
0.0
 30
0.0
  3
_OPEN30
  1

  0
LINE
  5
5A
330
59
100
AcDbEntity
  8
0
 62
     0
100
AcDbLine
 10
-1.0
 20
0.26794919
 30
0.0
 11
0.0
 21
0.0
 31
0.0
  0
LINE
  5
5B
330
59
100
AcDbEntity
  8
0
 62
     0
100
AcDbLine
 10
0.0
 20
0.0
 30
0.0
 11
-1.0
 21
-0.26794919
 31
0.0
  0
LINE
  5
5C
330
59
100
AcDbEntity
  8
0
 62
     0
100
AcDbLine
 10
0.0
 20
0.0
 30
0.0
 11
-1.0
 21
0.0
 31
0.0
  0
ENDBLK
  5
5E
330
59
100
AcDbEntity
  8
0
100
AcDbBlockEnd
  0
BLOCK
  5
66
330
64
100
AcDbEntity
  8
0
100
AcDbBlockBegin
  2
GENAXEH
 70
     0
 10
0.0
 20
0.0
 30
0.0
  3
GENAXEH
  1

  0
LINE
  5
65
330
64
100
AcDbEntity
  8
0
100
AcDbLine
 10
-1.0
 20
0.0
 30
0.0
 11
1.0
 21
0.0
 31
0.0
  0
ENDBLK
  5
67
330
64
100
AcDbEntity
  8
0
100
AcDbBlockEnd
  0
BLOCK
  5
CD2
330
CC8
100
AcDbEntity
  8
0
100
AcDbBlockBegin
  2
*D5
 70
     1
 10
0.0
 20
0.0
 30
0.0
  3
*D5
  1

  0
LINE
  5
362D
330
CC8
100
AcDbEntity
  8
AM_5
 62
     3
100
AcDbLine
 10
-117.9999999999999
 20
-4.949991671745003
 30
0.0
 11
-117.9999999999999
 21
-18.00056505856442
 31
0.0
  0
LINE
  5
362E
330
CC8
100
AcDbEntity
  8
AM_5
 62
     3
100
AcDbLine
 10
-2.000000000000009
 20
-5.400010566254251
 30
0.0
 11
-2.00000000000001
 21
-18.00056505856442
 31
0.0
  0
LINE
  5
362F
330
CC8
100
AcDbEntity
  8
AM_5
 62
     3
100
AcDbLine
 10
-116.7499999999999
 20
-17.50056505856442
 30
0.0
 11
-3.25000000000001
 21
-17.50056505856442
 31
0.0
  0
INSERT
  5
3630
330
CC8
100
AcDbEntity
  8
AM_5
 62
     3
100
AcDbBlockReference
  2
_OPEN30
 10
-117.9999999999999
 20
-17.50056505856442
 30
0.0
 41
1.25
 42
1.25
 43
1.25
 50
180.0
  0
INSERT
  5
3631
330
CC8
100
AcDbEntity
  8
AM_5
 62
     3
100
AcDbBlockReference
  2
_OPEN30
 10
-2.00000000000001
 20
-17.50056505856442
 30
0.0
 41
1.25
 42
1.25
 43
1.25
  0
MTEXT
  5
3632
330
CC8
100
AcDbEntity
  8
AM_5
 62
     2
100
AcDbMText
 10
-60.0
 20
-15.80056505856443
 30
0.0
 40
1.9
 41
0.0
 71
     5
 72
     1
  1
116
1001
ACAD
1000
MTEXTBEGIN
1070
    73
1070
     1
1070
    44
1040
1.0
1070
    74
1070
     0
1000
MTEXTEND
  0
POINT
  5
3633
330
CC8
100
AcDbEntity
  8
DEFPOINTS
 62
     0
100
AcDbPoint
 10
-117.9999999999999
 20
-4.949991671745003
 30
0.0
  0
POINT
  5
3634
330
CC8
100
AcDbEntity
  8
DEFPOINTS
 62
     0
100
AcDbPoint
 10
-2.000000000000009
 20
-5.400010566254251
 30
0.0
  0
POINT
  5
3635
330
CC8
100
AcDbEntity
  8
DEFPOINTS
 62
     0
100
AcDbPoint
 10
-2.00000000000001
 20
-17.50056505856442
 30
0.0
  0
ENDBLK
  5
CD3
330
CC8
100
AcDbEntity
  8
0
100
AcDbBlockEnd
  0
BLOCK
  5
2074
330
206A
100
AcDbEntity
  8
0
100
AcDbBlockBegin
  2
*D6
 70
     1
 10
0.0
 20
0.0
 30
0.0
  3
*D6
  1

  0
LINE
  5
364A
330
206A
100
AcDbEntity
  8
AM_5
 62
     3
100
AcDbLine
 10
-57.00000000000006
 20
-5.49999999999985
 30
0.0
 11
-57.00000000000003
 21
-13.00056505856455
 31
0.0
  0
LINE
  5
364B
330
206A
100
AcDbEntity
  8
AM_5
 62
     3
100
AcDbLine
 10
-1.999999999999993
 20
-5.400010566254257
 30
0.0
 11
-1.999999999999972
 21
-13.00056505856439
 31
0.0
  0
LINE
  5
364C
330
206A
100
AcDbEntity
  8
AM_5
 62
     3
100
AcDbLine
 10
-55.75000000000003
 20
-12.50056505856455
 30
0.0
 11
-3.249999999999973
 21
-12.5005650585644
 31
0.0
  0
INSERT
  5
364D
330
206A
100
AcDbEntity
  8
AM_5
 62
     3
100
AcDbBlockReference
  2
_OPEN30
 10
-57.00000000000003
 20
-12.50056505856455
 30
0.0
 41
1.25
 42
1.25
 43
1.25
 50
180.0000000000001
  0
INSERT
  5
364E
330
206A
100
AcDbEntity
  8
AM_5
 62
     3
100
AcDbBlockReference
  2
_OPEN30
 10
-1.999999999999973
 20
-12.50056505856439
 30
0.0
 41
1.25
 42
1.25
 43
1.25
 50
0.0000000000001527
  0
MTEXT
  5
364F
330
206A
100
AcDbEntity
  8
AM_5
 62
     2
100
AcDbMText
 10
-29.50000000000001
 20
-10.80056505856447
 30
0.0
 40
1.9
 41
0.0
 71
     5
 72
     1
  1
55
1001
ACAD
1000
MTEXTBEGIN
1070
    73
1070
     1
1070
    44
1040
1.0
1070
    74
1070
     0
1000
MTEXTEND
  0
POINT
  5
3650
330
206A
100
AcDbEntity
  8
DEFPOINTS
 62
     0
100
AcDbPoint
 10
-57.00000000000007
 20
-5.499999999999684
 30
0.0
  0
POINT
  5
3651
330
206A
100
AcDbEntity
  8
DEFPOINTS
 62
     0
100
AcDbPoint
 10
-2.000000000000009
 20
-5.400010566254251
 30
0.0
  0
POINT
  5
3652
330
206A
100
AcDbEntity
  8
DEFPOINTS
 62
     0
100
AcDbPoint
 10
-2.00000000000001
 20
-12.50056505856439
 30
0.0
  0
ENDBLK
  5
2075
330
206A
100
AcDbEntity
  8
0
100
AcDbBlockEnd
  0
BLOCK
  5
2C21
330
2C17
100
AcDbEntity
  8
0
100
AcDbBlockBegin
  2
*D7
 70
     1
 10
0.0
 20
0.0
 30
0.0
  3
*D7
  1

  0
LINE
  5
3636
330
2C17
100
AcDbEntity
  8
AM_5
 62
     3
100
AcDbLine
 10
-117.4999999999999
 20
-5.499999999999788
 30
0.0
 11
-128.000001
 21
-5.499999999999825
 31
0.0
  0
LINE
  5
3637
330
2C17
100
AcDbEntity
  8
AM_5
 62
     3
100
AcDbLine
 10
-117.5
 20
5.500000000000243
 30
0.0
 11
-128.000001
 21
5.500000000000206
 31
0.0
  0
LINE
  5
3638
330
2C17
100
AcDbEntity
  8
AM_5
 62
     3
100
AcDbLine
 10
-127.500001
 20
-4.249999999999823
 30
0.0
 11
-127.500001
 21
4.250000000000208
 31
0.0
  0
INSERT
  5
3639
330
2C17
100
AcDbEntity
  8
AM_5
 62
     3
100
AcDbBlockReference
  2
_OPEN30
 10
-127.500001
 20
-5.499999999999823
 30
0.0
 41
1.25
 42
1.25
 43
1.25
 50
270.0000000000002
  0
INSERT
  5
363A
330
2C17
100
AcDbEntity
  8
AM_5
 62
     3
100
AcDbBlockReference
  2
_OPEN30
 10
-127.500001
 20
5.500000000000208
 30
0.0
 41
1.25
 42
1.25
 43
1.25
 50
90.00000000000019
  0
MTEXT
  5
363B
330
2C17
100
AcDbEntity
  8
AM_5
 62
     2
100
AcDbMText
 10
-129.200001
 20
0.0000118250605924
 30
0.0
 40
1.9
 41
0.0
 71
     5
 72
     1
  1
%%c11
 11
-0.0000000000000037
 21
1.0
 31
0.0
1001
ACAD
1000
MTEXTBEGIN
1070
    73
1070
     1
1070
    44
1040
1.0
1070
    74
1070
     0
1000
MTEXTEND
  0
POINT
  5
363C
330
2C17
100
AcDbEntity
  8
DEFPOINTS
 62
     0
100
AcDbPoint
 10
-117.5
 20
-5.499999999999345
 30
0.0
  0
POINT
  5
363D
330
2C17
100
AcDbEntity
  8
DEFPOINTS
 62
     0
100
AcDbPoint
 10
-117.4999999999999
 20
5.500000000000686
 30
0.0
  0
POINT
  5
363E
330
2C17
100
AcDbEntity
  8
DEFPOINTS
 62
     0
100
AcDbPoint
 10
-127.500001
 20
5.50000000000069
 30
0.0
  0
ENDBLK
  5
2C22
330
2C17
100
AcDbEntity
  8
0
100
AcDbBlockEnd
  0
BLOCK
  5
2C90
330
2C82
100
AcDbEntity
  8
0
100
AcDbBlockBegin
  2
*D8
 70
     1
 10
0.0
 20
0.0
 30
0.0
  3
*D8
  1

  0
LINE
  5
363F
330
2C82
100
AcDbEntity
  8
AM_5
100
AcDbLine
 10
0.1710100704080682
 20
-0.4698463108496652
 30
0.0
 11
5.026805339375732
 21
-13.81103427669009
 31
0.0
  0
LINE
  5
3640
330
2C82
100
AcDbEntity
  8
AM_5
100
AcDbLine
 10
0.1710111111829818
 20
0.4698459320372585
 30
0.0
 11
5.026835932737171
 21
13.81102314157886
 31
0.0
  0
ARC
  5
3641
330
2C82
100
AcDbEntity
  8
AM_5
100
AcDbCircle
 10
-0.0000000000000027
 20
-0.0000000000000074
 30
0.0
 40
14.19739567787044
100
AcDbArc
 50
295.0461983747144
 51
64.95367470711542
  0
INSERT
  5
3642
330
2C82
100
AcDbEntity
  8
AM_5
100
AcDbBlockReference
  2
_OPEN30
 10
4.855795268967663
 20
-13.34118796584043
 30
0.0
 41
1.25
 42
1.25
 43
1.25
 50
202.5230991108504
  0
INSERT
  5
3643
330
2C82
100
AcDbEntity
  8
AM_5
100
AcDbBlockReference
  2
_OPEN30
 10
4.855824821554189
 20
13.3411772095416
 30
0.0
 41
1.25
 42
1.25
 43
1.25
 50
157.4767739709793
  0
MTEXT
  5
3644
330
2C82
100
AcDbEntity
  8
AM_5
 62
     2
100
AcDbMText
 10
12.64739567786268
 20
-0.0000140078757316
 30
0.0
 40
1.6
 41
0.0
 71
     5
 72
     1
  1
140°
  7
ASAMI
 11
0.0000011075699751
 21
0.9999999999993868
 31
0.0
1001
ACAD
1000
MTEXTBEGIN
1070
    73
1070
     1
1070
    44
1040
1.0
1070
    74
1070
     0
1000
MTEXTEND
  0
POINT
  5
3645
330
2C82
100
AcDbEntity
  8
DEFPOINTS
 62
     0
100
AcDbPoint
 10
13.03627323003058
 20
-5.623310795785894
 30
0.0
  0
POINT
  5
3646
330
2C82
100
AcDbEntity
  8
DEFPOINTS
 62
     0
100
AcDbPoint
 10
-0.0000000000000006
 20
-0.0000000000000017
 30
0.0
  0
POINT
  5
3647
330
2C82
100
AcDbEntity
  8
DEFPOINTS
 62
     0
100
AcDbPoint
 10
-0.0000000000000004
 20
-0.0000000000000136
 30
0.0
  0
POINT
  5
3648
330
2C82
100
AcDbEntity
  8
DEFPOINTS
 62
     0
100
AcDbPoint
 10
-0.6288636867983345
 20
1.727788793750287
 30
0.0
  0
POINT
  5
3649
330
2C82
100
AcDbEntity
  8
DEFPOINTS
 62
     0
100
AcDbPoint
 10
-0.6288762571457326
 20
-1.727811421905671
 30
0.0
  0
ENDBLK
  5
2C91
330
2C82
100
AcDbEntity
  8
0
100
AcDbBlockEnd
  0
BLOCK
  5
2D6B
330
2D61
100
AcDbEntity
  8
0
100
AcDbBlockBegin
  2
*D9
 70
     1
 10
0.0
 20
0.0
 30
0.0
  3
*D9
  1

  0
LINE
  5
3653
330
2D61
100
AcDbEntity
  8
AM_5
 62
     3
100
AcDbLine
 10
-2.000000000000013
 20
5.40000055835815
 30
0.0
 11
9.819919985816213
 21
5.399959068597889
 31
0.0
  0
LINE
  5
3654
330
2D61
100
AcDbEntity
  8
AM_5
 62
     3
100
AcDbLine
 10
-1.999999999999994
 20
-5.400010566254257
 30
0.0
 11
9.819882076094922
 21
-5.400052055881448
 31
0.0
  0
LINE
  5
3655
330
2D61
100
AcDbEntity
  8
AM_5
 62
     3
100
AcDbLine
 10
9.319915598124589
 20
4.149960823683473
 30
0.0
 11
9.319886463792705
 21
-4.150050300811266
 31
0.0
  0
INSERT
  5
3656
330
2D61
100
AcDbEntity
  8
AM_5
 62
     3
100
AcDbBlockReference
  2
_OPEN30
 10
9.319919985819293
 20
5.399960823675772
 30
0.0
 41
1.25
 42
1.25
 43
1.25
 50
89.99979888288931
  0
INSERT
  5
3657
330
2D61
100
AcDbEntity
  8
AM_5
 62
     3
100
AcDbBlockReference
  2
_OPEN30
 10
9.319882076098002
 20
-5.400050300803566
 30
0.0
 41
1.25
 42
1.25
 43
1.25
 50
269.9997988828893
  0
MTEXT
  5
3658
330
2D61
100
AcDbEntity
  8
AM_5
 62
     2
100
AcDbMText
 10
7.619901030969121
 20
-0.0000387712990999
 30
0.0
 40
1.9
 41
0.0
 71
     5
 72
     1
  1
%%c10.8
 11
0.0000035101557632
 21
0.9999999999938395
 31
0.0
1001
ACAD
1000
MTEXTBEGIN
1070
    73
1070
     1
1070
    44
1040
1.0
1070
    74
1070
     0
1000
MTEXTEND
  0
POINT
  5
3659
330
2D61
100
AcDbEntity
  8
DEFPOINTS
 62
     0
100
AcDbPoint
 10
-1.999999999999997
 20
5.400000558358156
 30
0.0
  0
POINT
  5
365A
330
2D61
100
AcDbEntity
  8
DEFPOINTS
 62
     0
100
AcDbPoint
 10
-2.00000000000001
 20
-5.400010566254252
 30
0.0
  0
POINT
  5
365B
330
2D61
100
AcDbEntity
  8
DEFPOINTS
 62
     0
100
AcDbPoint
 10
9.319882076097988
 20
-5.400050300803593
 30
0.0
  0
ENDBLK
  5
2D6C
330
2D61
100
AcDbEntity
  8
0
100
AcDbBlockEnd
  0
ENDSEC
  0
SECTION
  2
ENTITIES
  0
LINE
  5
C1D
330
1F
100
AcDbEntity
  8
AM_0
 48
0.5
100
AcDbLine
 10
-0.0000000000000004
 20
-0.0000000000000136
 30
0.0
 11
-0.6288636867983345
 21
1.727788793750287
 31
0.0
  0
LINE
  5
C20
330
1F
100
AcDbEntity
  8
AM_0
 48
0.5
100
AcDbLine
 10
-0.0000000000000006
 20
-0.0000000000000017
 30
0.0
 11
-0.6288762571457325
 21
-1.727811421905671
 31
0.0
  0
DIMENSION
  5
CC6
330
1F
100
AcDbEntity
  8
AM_5
100
AcDbDimension
  2
*D5
 10
-2.00000000000001
 20
-17.50056505856442
 30
0.0
 11
-60.0
 21
-15.80056505856443
 31
0.0
 70
    32
  1
<>
  3
AM_JIS$0
100
AcDbAlignedDimension
 13
-117.9999999999999
 23
-4.949991671745003
 33
0.0
 14
-2.000000000000009
 24
-5.400010566254251
 34
0.0
 50
0.0000000000001132
100
AcDbRotatedDimension
1001
GENIUS_GENDTOL_13
1000

1000
h7
1000

1040
0.0
1001
ACAD
1000
DSTYLE
1002
{
1070
   271
1070
     0
1002
}
  0
TEXT
  5
19BD
330
1F
100
AcDbEntity
  8
AM_6
100
AcDbText
 10
-71.01190476190471
 20
-28.75056505856445
 30
0.0
 40
2.5
  1
MDW108MHK
 50
0.0000000000001527
 72
     4
 11
-59.99999999999996
 21
-27.50056505856443
 31
0.0
100
AcDbText
  0
DIMENSION
  5
2069
330
1F
100
AcDbEntity
  8
AM_5
100
AcDbDimension
  2
*D6
 10
-2.00000000000001
 20
-12.50056505856439
 30
0.0
 11
-29.50000000000004
 21
-10.80056505856439
 31
0.0
 70
    32
  1
<>
 51
359.9999999999998
  3
AM_JIS$0
100
AcDbAlignedDimension
 13
-57.00000000000007
 23
-5.499999999999684
 33
0.0
 14
-2.000000000000009
 24
-5.400010566254251
 34
0.0
 50
0.0000000000001527
100
AcDbRotatedDimension
1001
ACAD
1000
DSTYLE
1002
{
1070
   271
1070
     0
1070
   174
1070
     1
1002
}
1001
GENIUS_GENDTOL_13
1000

1000
h7
1000

1040
0.0
  0
LINE
  5
23EF
330
1F
100
AcDbEntity
  8
AM_7
100
AcDbLine
 10
-120.4999999999999
 20
0.0000000000006714
 30
0.0
 11
2.319900031072544
 21
-0.0000000000000194
 31
0.0
1001
GENIUS_GENODEF_13
1002
{
1000
HIER
1070
     0
1002
}
1002
{
1000
MANEDIT
1070
     0
1002
}
1002
{
1000
NOSEL
1070
     0
1002
}
1002
{
1000
BEHIND
1070
     0
1002
}
1002
{
1000
REACTOR
1002
}
1001
GENIUS_GENOBJ-N-CEN_13
1002
{
1000
OWNER
1000
GEN
1002
}
  0
LINE
  5
24A7
330
1F
100
AcDbEntity
  8
AM_0
 48
0.5
100
AcDbLine
 10
-1.552914286975393
 20
4.629174220165593
 30
0.0
 11
-1.999999999999997
 21
5.400000558358155
 31
0.0
  0
ELLIPSE
  5
24B7
330
1F
100
AcDbEntity
  8
AM_11
 48
0.5
100
AcDbEllipse
 10
-17.32962994420974
 20
20.09720314218303
 30
0.0
 11
-23.19725211461353
 21
0.0000000000001765
 31
0.0
210
0.0
220
0.0
230
1.0
 40
0.9578947368421058
 41
1.130070686340284
 42
2.011520147323574
  0
ELLIPSE
  5
24B8
330
1F
100
AcDbEntity
  8
AM_11
 48
0.5
100
AcDbEllipse
 10
-17.32962994421084
 20
-20.09718855347517
 30
0.0
 11
-23.1972521146135
 21
0.0000000000001044
 31
0.0
210
0.0
220
0.0
230
1.0
 40
0.9578947368421054
 41
4.271664206181664
 42
5.153113667164971
  0
ELLIPSE
  5
24BE
330
1F
100
AcDbEntity
  8
AM_0
 48
0.5
100
AcDbEllipse
 10
7.381806094752817
 20
6.243325914573077
 30
0.0
 11
8.104082925716948
 21
4.346823266509869
 31
0.0
210
0.0
220
0.0
230
0.9999999999999998
 40
0.8865390934601007
 41
2.790918318021922
 42
3.165246863909731
  0
ELLIPSE
  5
24C7
330
1F
100
AcDbEntity
  8
AM_11
 48
0.5
100
AcDbEllipse
 10
-76.70462994420417
 20
20.09720314218454
 30
0.0
 11
-23.19725211461353
 21
0.0000000000005165
 31
0.0
210
0.0
220
0.0
230
1.0
 40
0.9578947368421058
 41
1.130070686340301
 42
2.011520147323591
  0
ELLIPSE
  5
24C8
330
1F
100
AcDbEntity
  8
AM_11
 48
0.5
100
AcDbEllipse
 10
-76.70462994420531
 20
-20.09718855347366
 30
0.0
 11
23.1972521146135
 21
0.0000000000003877
 31
0.0
210
0.0
220
0.0
230
1.0
 40
0.957894736842107
 41
1.13007155259185
 42
2.011521013575156
  0
ELLIPSE
  5
24D4
330
1F
100
AcDbEntity
  8
AM_11
 48
0.5
100
AcDbEllipse
 10
-56.91296327753751
 20
20.09720314218406
 30
0.0
 11
-23.19725211461356
 21
0.0000000000001353
 31
0.0
210
0.0
220
0.0
230
1.0
 40
0.9578947368421049
 41
1.130070686340283
 42
2.011520147323574
  0
ELLIPSE
  5
24D5
330
1F
100
AcDbEntity
  8
AM_11
 48
0.5
100
AcDbEllipse
 10
-56.91296327753862
 20
-20.09718855347414
 30
0.0
 11
-23.19725211461346
 21
0.0000000000004186
 31
0.0
210
0.0
220
0.0
230
1.0
 40
0.9578947368421083
 41
4.271664206181676
 42
5.153113667164986
  0
ELLIPSE
  5
24E6
330
1F
100
AcDbEntity
  8
AM_11
 48
0.5
100
AcDbEllipse
 10
-37.1212966108775
 20
-20.09718855347467
 30
0.0
 11
-23.19725211461349
 21
0.0000000000006298
 31
0.0
210
0.0
220
0.0
230
1.0
 40
0.957894736842106
 41
4.271664206181685
 42
5.153113667164993
  0
ELLIPSE
  5
24E7
330
1F
100
AcDbEntity
  8
AM_11
 48
0.5
100
AcDbEllipse
 10
-37.1212966108764
 20
20.09720314218353
 30
0.0
 11
23.19725211461354
 21
0.0000000000000375
 31
0.0
210
0.0
220
0.0
230
1.0
 40
0.9578947368421051
 41
4.271663339930067
 42
5.153112800913361
  0
ELLIPSE
  5
2BF2
330
1F
100
AcDbEntity
  8
AM_11
 48
0.5
100
AcDbEllipse
 10
-116.2879632775293
 20
20.0972031421844
 30
0.0
 11
-23.19725211461353
 21
0.0000000000005165
 31
0.0
210
0.0
220
0.0
230
1.0
 40
0.9578947368421058
 41
1.49692573364896
 42
2.011520147323591
  0
ELLIPSE
  5
2BF3
330
1F
100
AcDbEntity
  8
AM_11
 48
0.5
100
AcDbEllipse
 10
-96.49629661086271
 20
20.09720314218392
 30
0.0
 11
-23.19725211461356
 21
0.0000000000001353
 31
0.0
210
0.0
220
0.0
230
1.0
 40
0.9578947368421049
 41
1.130070686340283
 42
2.011520147323574
  0
ELLIPSE
  5
2BF4
330
1F
100
AcDbEntity
  8
AM_11
 48
0.5
100
AcDbEllipse
 10
-116.2879632775305
 20
-20.09718855347379
 30
0.0
 11
23.1972521146135
 21
0.0000000000003877
 31
0.0
210
0.0
220
0.0
230
1.0
 40
0.957894736842107
 41
1.13007155259185
 42
1.644666919940789
  0
ELLIPSE
  5
2BF5
330
1F
100
AcDbEntity
  8
AM_11
 48
0.5
100
AcDbEllipse
 10
-96.49629661086381
 20
-20.09718855347427
 30
0.0
 11
-23.19725211461346
 21
0.0000000000004186
 31
0.0
210
0.0
220
0.0
230
1.0
 40
0.9578947368421083
 41
4.271664206181676
 42
5.153113667164986
  0
LINE
  5
2C0E
330
1F
100
AcDbEntity
  8
AM_0
 48
0.5
100
AcDbLine
 10
-57.00000000000007
 20
-5.499999999999684
 30
0.0
 11
-57.00000000000007
 21
5.500651318728751
 31
0.0
  0
LINE
  5
2C11
330
1F
100
AcDbEntity
  8
AM_0
 48
0.5
100
AcDbLine
 10
-117.5
 20
-5.499999999999345
 30
0.0
 11
-118.0
 21
-4.949999999999346
 31
0.0
1001
GENIUS_GENFIL_13
1070
     0
1040
0.5
1040
0.5
1040
20.0
1040
0.0
1002
{
1002
}
1001
GENIUS_GENODEF_13
1002
{
1000
HIER
1070
     0
1002
}
1002
{
1000
MANEDIT
1070
     0
1002
}
1002
{
1000
NOSEL
1070
     0
1002
}
1002
{
1000
BEHIND
1070
     0
1002
}
1002
{
1000
REACTOR
1002
}
1001
GENIUS_GENOBJ-N-CHA_13
1002
{
1000
OWNER
1000
GEN
1002
}
  0
LINE
  5
2C12
330
1F
100
AcDbEntity
  8
AM_0
100
AcDbLine
 10
-117.5
 20
-5.499999999999345
 30
0.0
 11
-56.99999999999943
 21
-5.499999999999279
 31
0.0
  0
LINE
  5
2C13
330
1F
100
AcDbEntity
  8
AM_0
 48
0.5
100
AcDbLine
 10
-117.5
 20
5.500000000000654
 30
0.0
 11
-118.0
 21
4.950000000000652
 31
0.0
1001
GENIUS_GENFIL_13
1070
     0
1040
0.5
1040
0.5
1040
20.0
1040
0.0
1002
{
1002
}
1001
GENIUS_GENODEF_13
1002
{
1000
HIER
1070
     0
1002
}
1002
{
1000
MANEDIT
1070
     0
1002
}
1002
{
1000
NOSEL
1070
     0
1002
}
1002
{
1000
BEHIND
1070
     0
1002
}
1002
{
1000
REACTOR
1002
}
1001
GENIUS_GENOBJ-N-CHA_13
1002
{
1000
OWNER
1000
GEN
1002
}
  0
LINE
  5
2C14
330
1F
100
AcDbEntity
  8
AM_0
 48
0.5
100
AcDbLine
 10
-117.5
 20
-5.499999999999374
 30
0.0
 11
-117.4999999999999
 21
5.499991671746321
 31
0.0
  0
LINE
  5
2C15
330
1F
100
AcDbEntity
  8
AM_0
 48
0.5
100
AcDbLine
 10
-118.0
 20
-4.949991671744987
 30
0.0
 11
-118.0
 21
4.950000000000652
 31
0.0
  0
DIMENSION
  5
2C16
330
1F
100
AcDbEntity
  8
AM_5
100
AcDbDimension
  2
*D7
 10
-127.500001
 20
5.50000000000069
 30
0.0
 11
-127.500001
 21
0.0000118250610828
 31
0.0
 70
   160
  1
%%c<>
 51
359.9999999999997
  3
AM_JIS$0
100
AcDbAlignedDimension
 13
-117.5
 23
-5.499999999999345
 33
0.0
 14
-117.4999999999999
 24
5.500000000000686
 34
0.0
 50
270.0
100
AcDbRotatedDimension
1001
ACAD
1000
DSTYLE
1002
{
1070
   271
1070
     0
1002
}
1001
GENIUS_GENDTOL_13
1000

1000
h7
1000

1040
0.0
  0
LINE
  5
2C23
330
1F
100
AcDbEntity
  8
AM_0
100
AcDbLine
 10
-57.00000000000006
 20
5.500000000000717
 30
0.0
 11
-117.5
 21
5.500000000000654
 31
0.0
  0
ELLIPSE
  5
2C72
330
1F
100
AcDbEntity
  8
AM_0
 48
0.5
100
AcDbEllipse
 10
7.381806094752746
 20
-6.243325914573173
 30
0.0
 11
8.104082925716896
 21
-4.346823266509962
 31
0.0
210
0.0
220
0.0
230
-0.9999999999999998
 40
0.8865390934601007
 41
2.790918318021922
 42
3.165246863909731
  0
LINE
  5
2C73
330
1F
100
AcDbEntity
  8
AM_0
 48
0.5
100
AcDbLine
 10
-1.552914286975446
 20
-4.629174220165586
 30
0.0
 11
-2.000000000000009
 21
-5.400010566254251
 31
0.0
  0
DIMENSION
  5
2C81
330
1F
100
AcDbEntity
  8
AM_5
100
AcDbDimension
  2
*D8
 10
-0.6288762571457325
 20
-1.727811421905671
 30
0.0
 11
12.64739567786268
 21
-0.000014007875769
 31
0.0
 70
    34
  1
<>
 51
359.9999999999998
  3
AM_JIS$2
100
AcDb2LineAngularDimension
 13
-0.0000000000000004
 23
-0.0000000000000136
 33
0.0
 14
-0.6288636867983345
 24
1.727788793750287
 34
0.0
 15
-0.0000000000000006
 25
-0.0000000000000017
 35
0.0
 16
13.03627323003058
 26
-5.623310795785894
 36
0.0
1001
ACAD
1000
DSTYLE
1002
{
1070
   179
1070
     3
1002
}
1001
GENIUS_GENDTOL_13
1000

1000
h7
1000

1040
0.0
  0
DIMENSION
  5
2D60
330
1F
100
AcDbEntity
  8
AM_5
100
AcDbDimension
  2
*D9
 10
9.319882076097988
 20
-5.400050300803593
 30
0.0
 11
7.619901030969121
 21
-0.0000387712991221
 31
0.0
 70
    32
  1
%%c<>
 51
359.9999999999998
  3
AM_JIS$0
100
AcDbAlignedDimension
 13
-1.999999999999997
 23
5.400000558358155
 33
0.0
 14
-2.000000000000009
 24
-5.400010566254251
 34
0.0
 50
89.99979888288933
100
AcDbRotatedDimension
1001
ACAD
1000
DSTYLE
1002
{
1070
   271
1070
     1
1002
}
1001
GENIUS_GENDTOL_13
1000

1000
h7
1000

1040
0.0
  0
LINE
  5
2FB7
330
1F
100
AcDbEntity
  8
AM_0
100
AcDbLine
 10
-56.99967434063605
 20
5.500564058565166
 30
0.0
 11
-56.82670575707764
 21
5.40070060028636
 31
0.0
  0
LINE
  5
2FB9
330
1F
100
AcDbEntity
  8
AM_0
100
AcDbLine
 10
-56.99967434063611
 20
-5.500564058564537
 30
0.0
 11
-56.82550129212494
 21
-5.400005202121042
 31
0.0
  0
LINE
  5
35AD
330
1F
100
AcDbEntity
  8
AM_0
100
AcDbLine
 10
-56.8255100338519
 20
-4.301430268459598
 30
0.0
 11
-56.82550928025027
 21
-5.400006473220034
 31
0.0
  0
LINE
  5
35AE
330
1F
100
AcDbEntity
  8
AM_0
100
AcDbLine
 10
-56.82551262996589
 20
-0.5168988306914552
 30
0.0
 11
-56.82551092706749
 21
-2.99932932065243
 31
0.0
  0
LINE
  5
35AF
330
1F
100
AcDbEntity
  8
AM_0
100
AcDbLine
 10
-56.82670575707763
 20
5.40070060028636
 30
0.0
 11
-56.82670178397057
 21
-0.3911670397450885
 31
0.0
  0
ELLIPSE
  5
35B0
330
1F
100
AcDbEntity
  8
AM_0
 48
0.5
100
AcDbEllipse
 10
-55.1764681819928
 20
-3.600274658201064
 30
0.0
 11
-1.503988094526408
 21
1.085355970052361
 31
0.0
210
0.0
220
0.0
230
1.0
 40
0.9546001729041041
 41
0.658560964366775
 42
2.210177272817116
  0
LINE
  5
35B1
330
1F
100
AcDbEntity
  8
AM_0
 48
0.5
100
AcDbLine
 10
-56.82550129212494
 20
-5.400005202121042
 30
0.0
 11
-55.11033675707534
 21
-5.39999952900269
 31
0.0
  0
ELLIPSE
  5
35B2
330
1F
100
AcDbEntity
  8
AM_0
 48
0.5
100
AcDbEllipse
 10
-55.63271214955575
 20
-3.655117034909951
 30
0.0
 11
1.295882260553562
 21
0.4432353611190158
 31
0.0
210
0.0
220
0.0
230
1.0
 40
0.9888658607036495
 41
0.9548234131721912
 42
2.783069595434009
  0
LINE
  5
35B3
330
1F
100
AcDbEntity
  8
AM_0
 48
0.5
100
AcDbLine
 10
-44.94626330327332
 20
2.75092027325163
 30
0.0
 11
-56.99999304336436
 21
-0.4369983673075491
 31
0.0
  0
LINE
  5
35B4
330
1F
100
AcDbEntity
  8
AM_11
 48
0.5
100
AcDbLine
 10
-55.11043537381035
 20
-5.400008381335671
 30
0.0
 11
-42.128097311156
 21
-5.399999441640201
 31
0.0
  0
SPLINE
  5
35B5
330
1F
100
AcDbEntity
  8
AM_0
100
AcDbSpline
210
0.0
220
0.0
230
1.0
 70
     8
 71
     3
 72
    13
 73
     9
 74
     0
 42
0.0000000001
 43
0.0000000001
 40
16.03460056234195
 40
16.03460056234195
 40
16.03460056234195
 40
16.03460056234195
 40
16.35212717791071
 40
17.38177067057215
 40
18.41822498539278
 40
19.46214186516937
 40
20.5139635832251
 40
21.34083983469381
 40
21.34083983469381
 40
21.34083983469381
 40
21.34083983469381
 10
-55.11045935945428
 20
-5.400010534143167
 30
0.0
 10
-54.91577052768999
 20
-5.382536852213796
 30
0.0
 10
-54.51426253186578
 20
-5.303154910383539
 30
0.0
 10
-53.80700284405813
 20
-5.147612027054913
 30
0.0
 10
-52.89109908231371
 20
-4.916324802191625
 30
0.0
 10
-51.97604620143501
 20
-4.65662690659143
 30
0.0
 10
-51.12932126233528
 20
-4.391192348713042
 30
0.0
 10
-50.589125661935
 20
-4.208421765616704
 30
0.0
 10
-50.35214508965874
 20
-4.1258077966513
 30
0.0
  0
SPLINE
  5
35B6
330
1F
100
AcDbEntity
  8
AM_0
 48
0.5
100
AcDbSpline
210
0.0
220
0.0
230
1.0
 70
     8
 71
     3
 72
    22
 73
    18
 74
     0
 42
0.0000000001
 43
0.0000000001
 40
0.0
 40
0.0
 40
0.0
 40
0.0
 40
1.010743684496582
 40
2.022833993863546
 40
3.037578683882831
 40
4.056212471389632
 40
5.079857945358201
 40
6.109499720892564
 40
7.145961650132166
 40
8.189873411961459
 40
9.241710626092514
 40
10.30166235592959
 40
11.36982472628033
 40
12.44598212828784
 40
13.52983440361964
 40
14.62080578343036
 40
14.90544694398022
 40
14.90544694398022
 40
14.90544694398022
 40
14.90544694398022
 10
-42.10178816805465
 20
-5.400274658201671
 30
0.0
 10
-42.40901069773116
 20
-5.397062748875836
 30
0.0
 10
-43.02386507302205
 20
-5.390634650962259
 30
0.0
 10
-43.94592154613985
 20
-5.338787052040216
 30
0.0
 10
-44.86794062396622
 20
-5.256399740189236
 30
0.0
 10
-45.78990213044344
 20
-5.140911239858814
 30
0.0
 10
-46.71179437216044
 20
-4.993887010225591
 30
0.0
 10
-47.63360773166144
 20
-4.816023060278526
 30
0.0
 10
-48.55532870110904
 20
-4.608469081168101
 30
0.0
 10
-49.47696361857823
 20
-4.372512653156515
 30
0.0
 10
-50.39850418339009
 20
-4.109627048733718
 30
0.0
 10
-51.31995521142517
 20
-3.821412219300566
 30
0.0
 10
-52.24132264265694
 20
-3.509702207590162
 30
0.0
 10
-53.16260578503031
 20
-3.17635011642644
 30
0.0
 10
-54.08382189769949
 20
-2.823479549556395
 30
0.0
 10
-54.77618018503092
 20
-2.545202928396116
 30
0.0
 10
-55.1619863835236
 20
-2.386148956702263
 30
0.0
 10
-55.24175827633911
 20
-2.353098957130601
 30
0.0
  0
SPLINE
  5
35B7
330
1F
100
AcDbEntity
  8
AM_0
 48
0.5
100
AcDbSpline
210
0.0
220
0.0
230
1.0
 70
     8
 71
     3
 72
    26
 73
    22
 74
     0
 42
0.0000000001
 43
0.0000000001
 40
0.0
 40
0.0
 40
0.0
 40
0.0
 40
0.8422864037471089
 40
1.685694647057321
 40
2.531315797913884
 40
3.380177287502886
 40
4.233214169721234
 40
5.09125020057522
 40
5.954967768899448
 40
6.824900391836836
 40
7.701419186604396
 40
8.584724417931369
 40
9.47485577056355
 40
10.37165251267315
 40
11.27486274211709
 40
12.18400675634887
 40
13.09851504074504
 40
14.01768673654235
 40
14.94071745659532
 40
15.8667176994736
 40
16.76607142455336
 40
16.76607142455336
 40
16.76607142455336
 40
16.76607142455336
 10
-39.52065387046689
 20
-5.400274658201788
 30
0.0
 10
-39.82787634147536
 20
-5.397061789164785
 30
0.0
 10
-40.44273047248208
 20
-5.390631771876963
 30
0.0
 10
-41.36478791118711
 20
-5.338798609572958
 30
0.0
 10
-42.2868059934132
 20
-5.256397433222676
 30
0.0
 10
-43.20876700167967
 20
-5.140909009158542
 30
0.0
 10
-44.13066178430851
 20
-4.993898608520802
 30
0.0
 10
-45.05247197357946
 20
-4.816019278774105
 30
0.0
 10
-45.97419695625325
 20
-4.608472841687851
 30
0.0
 10
-46.89583044618578
 20
-4.372519829792157
 30
0.0
 10
-47.81737026454623
 20
-4.109624292102464
 30
0.0
 10
-48.73882399564176
 20
-3.821422512312203
 30
0.0
 10
-49.66018782126904
 20
-3.509694043514296
 30
0.0
 10
-50.58147218073969
 20
-3.176351105436829
 30
0.0
 10
-51.50268939226041
 20
-2.823482386521524
 30
0.0
 10
-52.42384144623567
 20
-2.453228479352793
 30
0.0
 10
-53.34493520936999
 20
-2.067889686703296
 30
0.0
 10
-54.26598759646648
 20
-1.66984346572848
 30
0.0
 10
-55.18698338611197
 20
-1.261487014567232
 30
0.0
 10
-56.09851854802354
 20
-0.8498221796359716
 30
0.0
 10
-56.70244488830972
 20
-0.5732628558701144
 30
0.0
 10
-57.00000000000006
 20
-0.4370018005348579
 30
0.0
  0
LINE
  5
35B8
330
1F
100
AcDbEntity
  8
AM_0
 48
0.5
100
AcDbLine
 10
-53.09400679828369
 20
5.400767726360465
 30
0.0
 11
-56.82670575707764
 21
5.40070060028636
 31
0.0
  0
LINE
  5
35B9
330
1F
100
AcDbEntity
  8
AM_0
 48
0.5
100
AcDbLine
 10
-5.151164393870605
 20
5.400000558358317
 30
0.0
 11
-1.999999999999997
 21
5.400000558358155
 31
0.0
  0
LINE
  5
35BA
330
1F
100
AcDbEntity
  8
AM_0
 48
0.5
100
AcDbLine
 10
-0.0000000000000164
 20
-0.0000000000000011
 30
0.0
 11
-2.590947267588073
 21
2.053875810474377
 31
0.0
  0
LINE
  5
35BB
330
1F
100
AcDbEntity
  8
AM_0
 48
0.5
100
AcDbLine
 10
-5.151164393871122
 20
-5.399999441641684
 30
0.0
 11
-2.000000000000009
 21
-5.400010566254251
 31
0.0
  0
LINE
  5
35BC
330
1F
100
AcDbEntity
  8
AM_11
 48
0.5
100
AcDbLine
 10
-53.09400679828375
 20
5.400767726360465
 30
0.0
 11
-42.00965704544801
 21
5.400000558360095
 31
0.0
  0
LINE
  5
35BD
330
1F
100
AcDbEntity
  8
AM_0
 48
0.5
100
AcDbLine
 10
-42.0096720054273
 20
5.400000558360095
 30
0.0
 11
-22.52035220389921
 21
5.400000558359154
 31
0.0
  0
LINE
  5
35BE
330
1F
100
AcDbEntity
  8
AM_0
 48
0.5
100
AcDbLine
 10
-42.128097311156
 20
-5.399999441640201
 30
0.0
 11
-22.52034643294518
 21
-5.400009741323372
 31
0.0
  0
LINE
  5
35BF
330
1F
100
AcDbEntity
  8
AM_11
 48
0.5
100
AcDbLine
 10
-22.52034643294518
 20
-5.400009741323372
 30
0.0
 11
-5.151164393871122
 21
-5.399999441641684
 31
0.0
  0
LINE
  5
35C0
330
1F
100
AcDbEntity
  8
AM_11
 48
0.5
100
AcDbLine
 10
-22.52035220389921
 20
5.400000558359154
 30
0.0
 11
-5.151164393870605
 21
5.400000558358317
 31
0.0
  0
ELLIPSE
  5
35C1
330
1F
100
AcDbEntity
  8
AM_11
 48
0.5
100
AcDbEllipse
 10
2.462036722457
 20
20.2850274706141
 30
0.0
 11
-23.19725211461391
 21
0.000000000007501
 31
0.0
210
0.0
220
0.0
230
1.0
 40
0.9668470241023053
 41
1.130070686340593
 42
1.291800737381281
  0
SPLINE
  5
35C2
330
1F
100
AcDbEntity
  8
AM_0
100
AcDbSpline
210
0.0
220
0.0
230
1.0
 70
     8
 71
     3
 72
    23
 73
    19
 74
     0
 42
0.0000000001
 43
0.0000000001
 40
16.03460024169435
 40
16.03460024169435
 40
16.03460024169435
 40
16.03460024169435
 40
16.35212704903564
 40
17.38177054169784
 40
18.41822485651776
 40
19.46214173629503
 40
20.51396345435107
 40
21.57393551351153
 40
22.64208202342361
 40
23.7182574881101
 40
24.80209208578934
 40
25.89306333925047
 40
26.99048218457928
 40
28.09348763352352
 40
29.20111863782268
 40
30.31232390128032
 40
31.42594612798585
 40
32.5407912310448
 40
32.5407912310486
 40
32.5407912310486
 40
32.5407912310486
 10
-53.09400679828375
 20
5.400767726360463
 30
0.0
 10
-52.99927672803991
 20
5.382538277298385
 30
0.0
 10
-52.59776906445503
 20
5.303154157423802
 30
0.0
 10
-51.89050899110902
 20
5.147613090073587
 30
0.0
 10
-50.97460534462694
 20
4.916325223904373
 30
0.0
 10
-50.05955243253287
 20
4.656627501980589
 30
0.0
 10
-49.14529618362055
 20
4.37002292225708
 30
0.0
 10
-48.2318041493155
 20
4.058109311682031
 30
0.0
 10
-47.31902353196736
 20
3.722669699991567
 30
0.0
 10
-46.40689076900332
 20
3.365656261585468
 30
0.0
 10
-45.49535402976377
 20
2.989090742750224
 30
0.0
 10
-44.584340233043
 20
2.595164290498202
 30
0.0
 10
-43.67377555136032
 20
2.186166575565164
 30
0.0
 10
-42.76359931638808
 20
1.764449163349146
 30
0.0
 10
-41.85373537478628
 20
1.332464282850335
 30
0.0
 10
-40.94409945388399
 20
0.892734408842069
 30
0.0
 10
-40.03461748363968
 20
0.4478076568695761
 30
0.0
 10
-39.42845902783677
 20
0.1495085980153712
 30
0.0
 10
-39.12521449678524
 20
0.0002752165618266
 30
0.0
  0
ELLIPSE
  5
35C3
330
1F
100
AcDbEntity
  8
AM_0
 48
0.5
100
AcDbEllipse
 10
-9.126053634831723
 20
9.154705224495753
 30
0.0
 11
9.233880672534402
 21
11.54755811602855
 31
0.0
210
0.0
220
0.0
230
0.9999999999999998
 40
0.8729564360243047
 41
4.503063909923178
 42
4.614131429341053
  0
ELLIPSE
  5
35C4
330
1F
100
AcDbEntity
  8
AM_0
 48
0.5
100
AcDbEllipse
 10
-5.991234246712095
 20
5.50902091506661
 30
0.0
 11
0.0000000000011004
 21
8.389702765545534
 31
0.0
210
0.0
220
0.0
230
1.0
 40
0.9351851851851954
 41
3.517054509082795
 42
3.681821570856294
  0
ELLIPSE
  5
35C5
330
1F
100
AcDbEntity
  8
AM_0
 48
0.5
100
AcDbEllipse
 10
-1.570663938021995
 20
-1.405401935363312
 30
0.0
 11
-0.1489498432782591
 21
0.886658812878012
 31
0.0
210
0.0
220
0.0
230
1.0
 40
0.4880272686393562
 41
1.809778933342471
 42
4.945120823054447
  0
ELLIPSE
  5
35C6
330
1F
100
AcDbEntity
  8
AM_0
 48
0.5
100
AcDbEllipse
 10
-1.570739693072281
 20
-1.40731717540686
 30
0.0
 11
-0.7577672378607697
 21
0.4554610091758745
 31
0.0
210
0.0
220
0.0
230
0.9999999999999998
 40
0.5058492356876478
 41
4.497965161750998
 42
7.641405503080509
  0
ELLIPSE
  5
35C7
330
1F
100
AcDbEntity
  8
AM_0
 48
0.5
100
AcDbEllipse
 10
5.277632195533749
 20
-1.442149517157051
 30
0.0
 11
-6.46125728160247
 21
5.822126366513323
 31
0.0
210
0.0
220
0.0
230
1.0
 40
0.9470393387576498
 41
0.8618298855048717
 42
1.248231356035964
  0
SPLINE
  5
35C8
330
1F
100
AcDbEntity
  8
AM_0
100
AcDbSpline
210
0.0
220
0.0
230
1.0
 70
     8
 71
     3
 72
    22
 73
    18
 74
     0
 42
0.0000000001
 43
0.0000000001
 40
17.17441611292
 40
17.17441611292
 40
17.17441611292
 40
17.17441611292
 40
17.38177636558528
 40
18.41823744757437
 40
19.46215659509824
 40
20.51397914882054
 40
21.57394542641293
 40
22.64209583141747
 40
23.71826625065247
 40
24.80210429862395
 40
25.8930771157021
 40
26.99048705697709
 40
28.09349309193389
 40
29.20112995599786
 40
30.31233024745139
 40
31.42594771747373
 40
32.5407895042663
 40
32.54078950426994
 40
32.54078950426994
 40
32.54078950426994
 10
-26.03964118750208
 20
-4.849238524945596
 30
0.0
 10
-26.10138346680525
 20
-4.836738054587152
 30
0.0
 10
-26.47149471180511
 20
-4.760596323298771
 30
0.0
 10
-27.14951765695923
 20
-4.607922241998599
 30
0.0
 10
-28.07115121997689
 20
-4.371970237950878
 30
0.0
 10
-28.9926908704691
 20
-4.109074014112593
 30
0.0
 10
-29.91414311445411
 20
-3.820874633898864
 30
0.0
 10
-30.83550673475759
 20
-3.509139185618541
 30
0.0
 10
-31.75679307229733
 20
-3.175807743017538
 30
0.0
 10
-32.67800639288806
 20
-2.822928853892454
 30
0.0
 10
-33.59915521994357
 20
-2.452678703016997
 30
0.0
 10
-34.52024979605475
 20
-2.067341499301712
 30
0.0
 10
-35.44129811576687
 20
-1.669286692865128
 30
0.0
 10
-36.36230945092023
 20
-1.260963184139623
 30
0.0
 10
-37.28329196547886
 20
-0.844881700508229
 30
0.0
 10
-38.20425930299775
 20
-0.4236096896203173
 30
0.0
 10
-38.81811701143746
 20
-0.1410714879930749
 30
0.0
 10
-39.1252144967893
 20
0.0002752165637668
 30
0.0
  0
SPLINE
  5
35C9
330
1F
100
AcDbEntity
  8
AM_0
100
AcDbSpline
210
0.0
220
0.0
230
1.0
 70
     8
 71
     3
 72
    17
 73
    13
 74
     0
 42
0.0000000001
 43
0.0000000001
 40
1.580019955310467
 40
1.580019955310467
 40
1.580019955310467
 40
1.580019955310467
 40
2.030549285115227
 40
3.082371838836284
 40
4.126290986361125
 40
5.162752068350215
 40
6.192395305374981
 40
7.216039564037012
 40
8.234688489606833
 40
9.249433870634691
 40
10.26152376260694
 40
11.27226744710342
 40
11.27226744710342
 40
11.27226744710342
 40
11.27226744710352
 10
-13.8350807320729
 20
-3.985358453229212
 30
0.0
 10
-13.96553646919062
 20
-4.026404340259801
 30
0.0
 10
-14.40130245935965
 20
-4.160937717464443
 30
0.0
 10
-15.14526307002134
 20
-4.371958133297688
 30
0.0
 10
-16.06676834375573
 20
-4.60827300525788
 30
0.0
 10
-16.98852730702921
 20
-4.815726086924573
 30
0.0
 10
-17.91032850497661
 20
-4.993620704223805
 30
0.0
 10
-18.83223013151245
 20
-5.140662843118288
 30
0.0
 10
-19.75419544958626
 20
-5.25601339895797
 30
0.0
 10
-20.67621817660103
 20
-5.338924861544259
 30
0.0
 10
-21.5982755963045
 20
-5.388863520163785
 30
0.0
 10
-22.21312973698133
 20
-5.399999472539954
 30
0.0
 10
-22.52034643294518
 20
-5.400009741323373
 30
0.0
  0
SPLINE
  5
35CA
330
1F
100
AcDbEntity
  8
AM_0
100
AcDbSpline
210
0.0
220
0.0
230
1.0
 70
     8
 71
     3
 72
    11
 73
     7
 74
     0
 42
0.0000000001
 43
0.0000000001
 40
11.27226913003534
 40
11.27226913003534
 40
11.27226913003534
 40
11.2722691300354
 40
12.28301561507924
 40
13.29510212255852
 40
14.30984805882082
 40
15.18258238371378
 40
15.18258238371378
 40
15.18258238371378
 40
15.18258238371378
 10
-22.52034643294523
 20
-5.400009741323373
 30
0.0
 10
-22.82640645974987
 20
-5.373570272411082
 30
0.0
 10
-23.43793769492537
 20
-5.309586403950233
 30
0.0
 10
-24.35207671439599
 20
-5.180515114892372
 30
0.0
 10
-25.21961076265453
 20
-5.02635361222767
 30
0.0
 10
-25.78068086184115
 20
-4.907845076988673
 30
0.0
 10
-26.03923794000281
 20
-4.849305133904302
 30
0.0
  0
SPLINE
  5
35CB
330
1F
100
AcDbEntity
  8
AM_0
 48
0.5
100
AcDbSpline
210
0.0
220
0.0
230
1.0
 70
     8
 71
     3
 72
    25
 73
    21
 74
     0
 42
0.0000000001
 43
0.0000000001
 40
6.846175049578289
 40
6.846175049578289
 40
6.846175049578289
 40
6.846175049578289
 40
7.604337694224321
 40
8.711974558287883
 40
9.814980593243754
 40
10.91239053451967
 40
12.0033633515982
 40
13.08720139956839
 40
14.16337181880432
 40
15.23152222380919
 40
16.29148850140128
 40
17.34331105512262
 40
18.38723020264746
 40
19.42369128463655
 40
20.45333379090873
 40
21.47697865721768
 40
22.49561244472435
 40
23.5103574802404
 40
24.52244778960836
 40
25.53320666051913
 40
25.53320666051913
 40
25.53320666051913
 40
25.53320666051913
 10
-6.226515444653261
 20
0.977435911352893
 30
0.0
 10
-6.435975331802254
 20
1.072250307488259
 30
0.0
 10
-6.951886223735377
 20
1.304634905548266
 30
0.0
 10
-7.775014818901661
 20
1.669562378948116
 30
0.0
 10
-8.696063088277627
 20
2.067617297863863
 30
0.0
 10
-9.617157677769252
 20
2.45295447162779
 30
0.0
 10
-10.53830650129567
 20
2.82320463059564
 30
0.0
 10
-11.45951982272801
 20
3.176083517073983
 30
0.0
 10
-12.38080616039591
 20
3.509414962217823
 30
0.0
 10
-13.30216977936989
 20
3.821150403028103
 30
0.0
 10
-14.2236220284861
 20
4.109349810299764
 30
0.0
 10
-15.14516165998821
 20
4.372245934439344
 30
0.0
 10
-16.066795293102
 20
4.608198306384795
 30
0.0
 10
-16.98851967534001
 20
4.815746653693924
 30
0.0
 10
-17.91033120598097
 20
4.993618853491607
 30
0.0
 10
-18.83222475557698
 20
5.140635886333829
 30
0.0
 10
-19.75418597983455
 20
5.256124894565508
 30
0.0
 10
-20.67620471780533
 20
5.338517250920914
 30
0.0
 10
-21.59826600234683
 20
5.390364895576494
 30
0.0
 10
-22.21312503669876
 20
5.39679008044958
 30
0.0
 10
-22.52035220389921
 20
5.400000558359153
 30
0.0
  0
SPLINE
  5
35CC
330
1F
100
AcDbEntity
  8
AM_0
 48
0.5
100
AcDbSpline
210
0.0
220
0.0
230
1.0
 70
     8
 71
     3
 72
    17
 73
    13
 74
     0
 42
0.0000000001
 43
0.0000000001
 40
0.0
 40
0.0
 40
0.0
 40
0.0
 40
1.010743614677189
 40
2.022833924044153
 40
3.037578959561199
 40
4.056212747067873
 40
5.079857613375832
 40
6.109500119648989
 40
7.14596120163808
 40
8.18989512056258
 40
9.241717674284874
 40
9.693948937866434
 40
9.693948937866434
 40
9.693948937866434
 40
9.693948937866434
 10
-5.151164393870605
 20
5.400000558358316
 30
0.0
 10
-5.458386920752951
 20
5.396790004531083
 30
0.0
 10
-6.073241311702232
 20
5.390364619198602
 30
0.0
 10
-6.995297974172021
 20
5.338517275351514
 30
0.0
 10
-7.917316676104234
 20
5.256124812494388
 30
0.0
 10
-8.839278036319834
 20
5.140636191975577
 30
0.0
 10
-9.761171074526139
 20
4.993617704577189
 30
0.0
 10
-10.68298453071099
 20
4.815750980622552
 30
0.0
 10
-11.60470603258856
 20
4.608181007036374
 30
0.0
 10
-12.52637134665301
 20
4.37230519833843
 30
0.0
 10
-13.27036362176627
 20
4.159816750052901
 30
0.0
 10
-13.70727950678317
 20
4.026980912698535
 30
0.0
 10
-13.83841821463823
 20
3.986320752126493
 30
0.0
  0
SPLINE
  5
35CD
330
1F
100
AcDbEntity
  8
AM_0
100
AcDbSpline
210
0.0
220
0.0
230
1.0
 70
     8
 71
     3
 72
    46
 73
    42
 74
     0
 42
0.0000000001
 43
0.0000000001
 40
0.0
 40
0.0
 40
0.0
 40
0.0
 40
1.685415058684571
 40
2.531036209541119
 40
3.379897699130121
 40
4.232934581347655
 40
5.090970612202441
 40
5.954688180526682
 40
6.824620803463246
 40
7.701151815239689
 40
8.584457046566678
 40
9.474582384070741
 40
10.37139106676737
 40
11.27458944007583
 40
12.18373345430765
 40
13.09824173870457
 40
14.01741343450111
 40
14.9404441545541
 40
15.86644439743314
 40
16.79446029130534
 40
17.7234937712985
 40
18.65252725129241
 40
19.58054314516461
 40
20.50654338804289
 40
21.42957410809586
 40
22.34874580389317
 40
23.26325408828901
 40
24.17239810252111
 40
25.07560240389441
 40
25.97241108659103
 40
26.8625364240951
 40
27.74584165542183
 40
28.62236045019041
 40
29.49229307312697
 40
30.35601064145121
 40
31.21404606334468
 40
32.06708345193547
 40
32.91595755657689
 40
33.76157841950693
 40
34.60498701064689
 40
35.44727335621125
 40
35.44727335621125
 40
35.44727335621125
 40
35.44727335621125
 10
-2.570030096283325
 20
-5.399999441641814
 30
0.0
 10
-3.184914268008763
 20
-5.38769782421684
 30
0.0
 10
-4.108303492100207
 20
-5.369224131948532
 30
0.0
 10
-5.33617441075068
 20
-5.255485002450583
 30
0.0
 10
-6.258145332503477
 20
-5.140805703966998
 30
0.0
 10
-7.180037447690382
 20
-4.993576964814433
 30
0.0
 10
-8.101848327731897
 20
-4.815756538864953
 30
0.0
 10
-9.023573237104757
 20
-4.608194559243496
 30
0.0
 10
-9.94521063205822
 20
-4.372243160487738
 30
0.0
 10
-10.86675641098036
 20
-4.109351119114322
 30
0.0
 10
-11.78821241582017
 20
-3.82114898905566
 30
0.0
 10
-12.70957616814117
 20
-3.509413925841883
 30
0.0
 10
-13.63086247014498
 20
-3.176082379403705
 30
0.0
 10
-14.55207579946723
 20
-2.823203516499717
 30
0.0
 10
-15.47322462752361
 20
-2.452953365693016
 30
0.0
 10
-16.39431919070111
 20
-2.067616134987675
 30
0.0
 10
-17.31536756151908
 20
-1.669561437250982
 30
0.0
 10
-18.23637870410212
 20
-1.261237518410148
 30
0.0
 10
-19.15736238379383
 20
-0.8451573729243781
 30
0.0
 10
-20.07832701384023
 20
-0.4238796012097073
 30
0.0
 10
-20.9992839020954
 20
0.0000005582733108
 30
0.0
 10
-21.92024079014825
 20
0.423880718271429
 30
0.0
 10
-22.84120542080152
 20
0.8451584884415531
 30
0.0
 10
-23.76218909827505
 20
1.261238639571955
 30
0.0
 10
-24.68320024908324
 20
1.669562537478907
 30
0.0
 10
-25.6042485894031
 20
2.067617312836309
 30
0.0
 10
-26.52534326552549
 20
2.45295425608486
 30
0.0
 10
-27.44649367833856
 20
2.823206275104922
 30
0.0
 10
-28.36771058705139
 20
3.176081931925555
 30
0.0
 10
-29.28899853248877
 20
3.509415187573751
 30
0.0
 10
-30.21036226335779
 20
3.821150343545301
 30
0.0
 10
-31.13181448296102
 20
4.109349825272681
 30
0.0
 10
-32.05335412181313
 20
4.37224593336328
 30
0.0
 10
-32.97498775470458
 20
4.608198296006331
 30
0.0
 10
-33.89671213063147
 20
4.81574669583339
 30
0.0
 10
-34.81852368648831
 20
4.993618696713606
 30
0.0
 10
-35.74042168526183
 20
5.140637191338798
 30
0.0
 10
-36.6623878563322
 20
5.256123810719913
 30
0.0
 10
-37.58441106900088
 20
5.338517432571064
 30
0.0
 10
-38.50646775042638
 20
5.390364579999474
 30
0.0
 10
-39.12132213885333
 20
5.396789991471627
 30
0.0
 10
-39.42854466447522
 20
5.400000558359968
 30
0.0
  0
SPLINE
  5
35CE
330
1F
100
AcDbEntity
  8
AM_0
 48
0.5
100
AcDbSpline
210
0.0
220
0.0
230
1.0
 70
     8
 71
     3
 72
    10
 73
     6
 74
     0
 42
0.0000000001
 43
0.0000000001
 40
0.0
 40
0.0
 40
0.0
 40
0.0
 40
2.69986029516136
 40
4.147722969032201
 40
6.285750005020438
 40
6.285750005020438
 40
6.285750005020438
 40
6.285750005020438
 10
-6.226515444653261
 20
0.977435911352893
 30
0.0
 10
-5.367571273212529
 20
0.4756744584967187
 30
0.0
 10
-4.396057657618872
 20
-0.2950696735180855
 30
0.0
 10
-2.098558462512668
 20
0.0780610630882538
 30
0.0
 10
-2.53124438783535
 20
1.334814756524069
 30
0.0
 10
-2.590947267588068
 20
2.073436532478902
 30
0.0
  0
ELLIPSE
  5
35CF
330
1F
100
AcDbEntity
  8
AM_0
 48
0.5
100
AcDbEllipse
 10
3.16556663422705
 20
6.483032784920391
 30
0.0
 11
-9.943439375411573
 21
9.846828940104481
 31
0.0
210
0.0
220
0.0
230
0.9999999999999998
 40
0.7673126944912016
 41
1.369383563990338
 42
1.693691496157231
  0
SPLINE
  5
35D0
330
1F
100
AcDbEntity
  8
AM_0
100
AcDbSpline
210
0.0
220
0.0
230
1.0
 70
     8
 71
     3
 72
    55
 73
    51
 74
     0
 42
0.0000000001
 43
0.0000000001
 40
0.0
 40
0.0
 40
0.0
 40
0.0
 40
1.010743684496582
 40
2.022833576467832
 40
3.037578957496688
 40
4.056212745003489
 40
5.079857003664532
 40
6.109500240690281
 40
7.145961322679372
 40
8.189895241603872
 40
9.241717795325891
 40
10.30168407291828
 40
11.36983447792315
 40
12.44600489715814
 40
13.52984294512926
 40
14.62081576220742
 40
15.7182257034828
 40
16.82123173843959
 40
17.92886860250316
 40
19.0400688939571
 40
20.15368796660465
 40
21.26852814259644
 40
22.38336992938901
 40
23.49698739941135
 40
24.6081876908653
 40
25.71582455492886
 40
26.81883757994213
 40
27.91624752121713
 40
29.00722033829659
 40
30.09105838626677
 40
31.16722880550176
 40
32.23537921050758
 40
33.29534548809967
 40
34.347168041821
 40
35.39108718934584
 40
36.42754827133493
 40
37.45720575381954
 40
38.48085062012849
 40
39.49948440763516
 40
40.51422944315121
 40
41.52631975251916
 40
42.53706336719636
 40
43.54780698187354
 40
44.55989729124051
 40
45.57464232675757
 40
46.59327611426424
 40
47.6169209805722
 40
48.64656348684535
 40
49.68302456883444
 40
50.58557219878025
 40
50.58557219878025
 40
50.58557219878025
 40
50.58557219878025
 10
-5.151164393871121
 20
-5.399999441641686
 30
0.0
 10
-5.458386864842649
 20
-5.39678657246467
 30
0.0
 10
-6.073240995775117
 20
-5.390356554896674
 30
0.0
 10
-6.995298435035932
 20
-5.338523394698022
 30
0.0
 10
-7.917316515141243
 20
-5.256122210314277
 30
0.0
 10
-8.839277531379496
 20
-5.140633816447455
 30
0.0
 10
-9.761172284031079
 20
-4.993623302255604
 30
0.0
 10
-10.68298258617372
 20
-4.815744400067624
 30
0.0
 10
-11.60471152122203
 20
-4.608195365570058
 30
0.0
 10
-12.52635091530312
 20
-4.372247129745576
 30
0.0
 10
-13.44789449037303
 20
-4.109348400448586
 30
0.0
 10
-14.36934683981702
 20
-3.821149365826704
 30
0.0
 10
-15.29071043146824
 20
-3.509413823729431
 30
0.0
 10
-16.21199677702674
 20
-3.176082407092556
 30
0.0
 10
-17.13321009448462
 20
-2.823203508889676
 30
0.0
 10
-18.05435892601149
 20
-2.452953368186412
 30
0.0
 10
-18.9754534872725
 20
-2.067616132674606
 30
0.0
 10
-19.89650186228538
 20
-1.669561444036222
 30
0.0
 10
-20.81751298992953
 20
-1.261237493453479
 30
0.0
 10
-21.73849672541537
 20
-0.8451574663309065
 30
0.0
 10
-22.65946114664691
 20
-0.4238792516813432
 30
0.0
 10
-23.58041925906842
 20
-0.0000005434369564
 30
0.0
 10
-24.50137323715861
 20
0.4238857948883433
 30
0.0
 10
-25.42234074526213
 20
0.845157449121798
 30
0.0
 10
-26.34332334378122
 20
1.261238735694925
 30
0.0
 10
-27.264336113578
 20
1.669564241809922
 30
0.0
 10
-28.18538830954135
 20
2.067615533379695
 30
0.0
 10
-29.10648432453293
 20
2.452954723087432
 30
0.0
 10
-30.02763328904306
 20
2.82320456355601
 30
0.0
 10
-30.94884657298095
 20
3.176083535967995
 30
0.0
 10
-31.87013292089849
 20
3.509414953092468
 30
0.0
 10
-32.79149653601756
 20
3.821150420649074
 30
0.0
 10
-33.71294879035761
 20
4.109349749548688
 30
0.0
 10
-34.63448840497173
 20
4.372246157453266
 30
0.0
 10
-35.55612209977768
 20
4.608197483610951
 30
0.0
 10
-36.4778506929124
 20
4.8157506916585
 30
0.0
 10
-37.39966757708954
 20
4.993609277606635
 30
0.0
 10
-38.32156537542088
 20
5.140665294660371
 30
0.0
 10
-39.24352666496963
 20
5.256016791942657
 30
0.0
 10
-40.16554538572112
 20
5.338918368701803
 30
0.0
 10
-41.08760204318712
 20
5.388872696855977
 30
0.0
 10
-42.00967896228898
 20
5.405560784950999
 30
0.0
 10
-42.93175588003411
 20
5.388872696829903
 30
0.0
 10
-43.85381254157812
 20
5.338918368806931
 30
0.0
 10
-44.7758312473155
 20
5.25601679154731
 30
0.0
 10
-45.69779259315583
 20
5.140665296147209
 30
0.0
 10
-46.61968568543831
 20
4.993609988939121
 30
0.0
 10
-47.54149893800781
 20
4.815752510166904
 30
0.0
 10
-48.42131853232254
 20
4.617619085229489
 30
0.0
 10
-48.99215550478432
 20
4.472722238484045
 30
0.0
 10
-49.25699058922148
 20
4.402106936571133
 30
0.0
  0
VIEWPORT
  5
110
330
101
100
AcDbEntity
 67
     1
  8
0
100
AcDbViewport
 10
420.5
 20
297.0
 30
0.0
 40
948.9782706766916
 41
628.452
 68
     1
 69
     1
1001
ACAD
1000
MVIEW
1002
{
1070
    16
1010
0.0
1020
0.0
1030
0.0
1010
0.0
1020
0.0
1030
1.0
1040
0.0
1040
628.452
1040
420.5
1040
297.0
1040
50.0
1040
0.0
1040
0.0
1070
     0
1070
   100
1070
     1
1070
     1
1070
     0
1070
     0
1070
     0
1070
     0
1040
0.0
1040
0.0
1040
0.0
1040
10.0
1040
10.0
1040
10.0
1040
10.0
1070
     0
1002
{
1002
}
1002
}
  0
ENDSEC
  0
SECTION
  2
OBJECTS
  0
DICTIONARY
  5
C
330
0
100
AcDbDictionary
  3
ACAD_GROUP
350
D
  3
ACAD_LAYOUT
350
1A
  3
ACAD_MLINESTYLE
350
17
  3
ACAD_PLOTSETTINGS
350
19
  3
ACAD_PLOTSTYLENAME
350
E
  3
ACDBVARIABLEDICTIONARY
350
34
  3
ACMDICTIONARY
350
43
  3
AMG
350
2B
  3
AMGSNAPSETTINGS
350
6E
  3
DWGPROPS
350
3675
  3
ACDBHEADERROUNDTRIPXREC
350
3682
  0
DICTIONARY
  5
74
330
1F
100
AcDbDictionary
280
     1
  3
ACAD_INDEX
360
3677
  3
ACAD_LAYOUTSELFREF
360
36A5
  0
DICTIONARY
  5
36AA
330
101
100
AcDbDictionary
280
     1
  3
ACAD_LAYOUTSELFREF
360
36AB
  0
DICTIONARY
  5
D
102
{ACAD_REACTORS
330
C
102
}
330
C
100
AcDbDictionary
  0
DICTIONARY
  5
1A
102
{ACAD_REACTORS
330
C
102
}
330
C
100
AcDbDictionary
  0
DICTIONARY
  5
17
102
{ACAD_REACTORS
330
C
102
}
330
C
100
AcDbDictionary
  3
STANDARD
350
18
  0
DICTIONARY
  5
19
102
{ACAD_REACTORS
330
C
102
}
330
C
100
AcDbDictionary
  0
ACDBDICTIONARYWDFLT
  5
E
102
{ACAD_REACTORS
330
C
102
}
330
C
100
AcDbDictionary
281
     1
  3
Normal
350
F
100
AcDbDictionaryWithDefault
340
F
  0
DICTIONARY
  5
34
102
{ACAD_REACTORS
330
C
102
}
330
C
100
AcDbDictionary
  3
INDEXCTL
350
35
  3
SORTENTS
350
B5E
  0
DICTIONARY
  5
43
102
{ACAD_REACTORS
330
C
102
}
330
C
100
AcDbDictionary
  3
ACMSTDDICTIONARY
350
260
  0
DICTIONARY
  5
2B
102
{ACAD_REACTORS
330
C
102
}
330
C
100
AcDbDictionary
  3
ACMGSETTINGS
350
2C
  0
DICTIONARY
  5
6E
102
{ACAD_REACTORS
330
C
102
}
330
C
100
AcDbDictionary
  0
XRECORD
  5
3675
102
{ACAD_REACTORS
330
C
102
}
330
C
100
AcDbXrecord
  1
DWGPROPS COOKIE
  2

  3

  4

  6

  7

  8

  9

300
AmdtFileType=82
301
=
302
=
303
=
304
=
305
=
306
=
307
=
308
=
309
=
 40
0.0684503240740741
 41
2452800.443498622
 42
2452946.625753391
  1

 90
        1
  0
DICTIONARY
  5
3682
102
{ACAD_REACTORS
330
C
102
}
330
C
100
AcDbDictionary
  3
TSTACKALIGN
350
3683
  3
TSTACKSIZE
350
3684
  3
HYPERLINKBASE
350
3685
  3
STYLESHEET
350
3686
  3
LAYOUTDICT
350
3687
  3
PLOTSETDICT
350
3688
  3
PLOTSTYLNAMDICT
350
3689
  3
LWETCUNION
350
368A
  3
INSUNITS
350
368B
  3
CEPSNTYPE
350
368C
  3
FINGERPRINTGUID
350
368D
  3
VERSIONGUID
350
368E
  3
PSVPSCALE
350
368F
  3
DIMSTYLEDATA
350
3690
  3
PUCSORTHOREF
350
3691
  3
PUCSORTHOVIEW
350
3692
  3
PUCSBASE
350
3693
  3
PUCSORGTOP
350
3694
  3
PUCSORGBOTTOM
350
3695
  3
PUCSORGLEFT
350
3696
  3
PUCSORGRIGHT
350
3697
  3
PUCSORGFRONT
350
3698
  3
PUCSORGBACK
350
3699
  3
UCSORTHOREF
350
369A
  3
UCSORTHOVIEW
350
369B
  3
UCSBASE
350
369C
  3
UCSORGTOP
350
369D
  3
UCSORGBOTTOM
350
369E
  3
UCSORGLEFT
350
369F
  3
UCSORGRIGHT
350
36A0
  3
UCSORGFRONT
350
36A1
  3
UCSORGBACK
350
36A2
  0
DICTIONARY
  5
3677
102
{ACAD_REACTORS
330
74
102
}
330
74
100
AcDbDictionary
  3
*A1
350
3678
  0
XRECORD
  5
36A5
102
{ACAD_REACTORS
330
74
102
}
330
74
100
AcDbXrecord
340
1F
  0
XRECORD
  5
36AB
102
{ACAD_REACTORS
330
36AA
102
}
330
36AA
100
AcDbXrecord
340
101
  0
MLINESTYLE
  5
18
102
{ACAD_REACTORS
330
17
102
}
330
17
100
AcDbMlineStyle
  2
STANDARD
 70
     0
  3

 62
   256
 51
90.0
 52
90.0
 71
     2
 49
0.5
 62
   256
  6
BYLAYER
 49
-0.5
 62
   256
  6
BYLAYER
  0
ACDBPLACEHOLDER
  5
F
102
{ACAD_REACTORS
330
E
102
}
330
E
100
AcDbPlaceHolder
280
     0
  0
DICTIONARYVAR
  5
35
102
{ACAD_REACTORS
330
34
102
}
330
34
100
DictionaryVariables
280
     0
  1
1
  0
DICTIONARYVAR
  5
B5E
102
{ACAD_REACTORS
330
34
102
}
330
34
100
DictionaryVariables
280
     0
  1
96
  0
DICTIONARY
  5
260
102
{ACAD_REACTORS
330
43
102
}
330
43
100
AcDbDictionary
  0
DICTIONARY
  5
2C
102
{ACAD_REACTORS
330
2B
102
}
330
2B
100
AcDbDictionary
  3
DWGSETTINGS
350
2D
  0
XRECORD
  5
3683
102
{ACAD_REACTORS
330
3682
102
}
330
3682
100
AcDbXrecord
 90
        1
  0
XRECORD
  5
3684
102
{ACAD_REACTORS
330
3682
102
}
330
3682
100
AcDbXrecord
 90
       70
  0
XRECORD
  5
3685
102
{ACAD_REACTORS
330
3682
102
}
330
3682
100
AcDbXrecord
  1

  0
XRECORD
  5
3686
102
{ACAD_REACTORS
330
3682
102
}
330
3682
100
AcDbXrecord
  1
ASAMI.ctb
  0
XRECORD
  5
3687
102
{ACAD_REACTORS
330
3682
102
}
330
3682
100
AcDbXrecord
340
1A
  0
XRECORD
  5
3688
102
{ACAD_REACTORS
330
3682
102
}
330
3682
100
AcDbXrecord
340
19
  0
XRECORD
  5
3689
102
{ACAD_REACTORS
330
3682
102
}
330
3682
100
AcDbXrecord
340
E
  0
XRECORD
  5
368A
102
{ACAD_REACTORS
330
3682
102
}
330
3682
100
AcDbXrecord
 90
    10781
  0
XRECORD
  5
368B
102
{ACAD_REACTORS
330
3682
102
}
330
3682
100
AcDbXrecord
 90
        4
  0
XRECORD
  5
368C
102
{ACAD_REACTORS
330
3682
102
}
330
3682
100
AcDbXrecord
 90
        0
  0
XRECORD
  5
368D
102
{ACAD_REACTORS
330
3682
102
}
330
3682
100
AcDbXrecord
  1
{AFB28963-8C59-40AE-9337-C84526B81ACE}
  0
XRECORD
  5
368E
102
{ACAD_REACTORS
330
3682
102
}
330
3682
100
AcDbXrecord
  1
{AB39A25E-C447-4E54-90AC-F8174B4A9380}
  0
XRECORD
  5
368F
102
{ACAD_REACTORS
330
3682
102
}
330
3682
100
AcDbXrecord
 40
0.0
  0
XRECORD
  5
3690
102
{ACAD_REACTORS
330
3682
102
}
330
3682
100
AcDbXrecord
1000
DSTYLE
1002
{
1070
    79
 70
     2
1070
   341
340
59
1070
   342
340
59
1070
   371
 70
    -1
1070
   372
 70
    -1
1002
}
  0
XRECORD
  5
3691
102
{ACAD_REACTORS
330
3682
102
}
330
3682
100
AcDbXrecord
340
0
  0
XRECORD
  5
3692
102
{ACAD_REACTORS
330
3682
102
}
330
3682
100
AcDbXrecord
 70
     0
  0
XRECORD
  5
3693
102
{ACAD_REACTORS
330
3682
102
}
330
3682
100
AcDbXrecord
340
0
  0
XRECORD
  5
3694
102
{ACAD_REACTORS
330
3682
102
}
330
3682
100
AcDbXrecord
 10
0.0
 20
0.0
 30
0.0
  0
XRECORD
  5
3695
102
{ACAD_REACTORS
330
3682
102
}
330
3682
100
AcDbXrecord
 10
0.0
 20
0.0
 30
0.0
  0
XRECORD
  5
3696
102
{ACAD_REACTORS
330
3682
102
}
330
3682
100
AcDbXrecord
 10
0.0
 20
0.0
 30
0.0
  0
XRECORD
  5
3697
102
{ACAD_REACTORS
330
3682
102
}
330
3682
100
AcDbXrecord
 10
0.0
 20
0.0
 30
0.0
  0
XRECORD
  5
3698
102
{ACAD_REACTORS
330
3682
102
}
330
3682
100
AcDbXrecord
 10
0.0
 20
0.0
 30
0.0
  0
XRECORD
  5
3699
102
{ACAD_REACTORS
330
3682
102
}
330
3682
100
AcDbXrecord
 10
0.0
 20
0.0
 30
0.0
  0
XRECORD
  5
369A
102
{ACAD_REACTORS
330
3682
102
}
330
3682
100
AcDbXrecord
340
0
  0
XRECORD
  5
369B
102
{ACAD_REACTORS
330
3682
102
}
330
3682
100
AcDbXrecord
 70
     0
  0
XRECORD
  5
369C
102
{ACAD_REACTORS
330
3682
102
}
330
3682
100
AcDbXrecord
340
0
  0
XRECORD
  5
369D
102
{ACAD_REACTORS
330
3682
102
}
330
3682
100
AcDbXrecord
 10
0.0
 20
0.0
 30
0.0
  0
XRECORD
  5
369E
102
{ACAD_REACTORS
330
3682
102
}
330
3682
100
AcDbXrecord
 10
0.0
 20
0.0
 30
0.0
  0
XRECORD
  5
369F
102
{ACAD_REACTORS
330
3682
102
}
330
3682
100
AcDbXrecord
 10
0.0
 20
0.0
 30
0.0
  0
XRECORD
  5
36A0
102
{ACAD_REACTORS
330
3682
102
}
330
3682
100
AcDbXrecord
 10
0.0
 20
0.0
 30
0.0
  0
XRECORD
  5
36A1
102
{ACAD_REACTORS
330
3682
102
}
330
3682
100
AcDbXrecord
 10
0.0
 20
0.0
 30
0.0
  0
XRECORD
  5
36A2
102
{ACAD_REACTORS
330
3682
102
}
330
3682
100
AcDbXrecord
 10
0.0
 20
0.0
 30
0.0
  0
LAYER_INDEX
  5
3678
102
{ACAD_REACTORS
330
3677
102
}
330
3677
100
AcDbIndex
 40
2453151.573757766
100
AcDbLayerIndex
  8
0
360
3679
 90
        0
  8
AM_0
360
367A
 90
       46
  8
AM_7
360
367B
 90
        1
  8
AM_11
360
367C
 90
       17
  8
AM_5
360
367D
 90
        5
  8
Defpoints
360
367E
 90
        0
  8
AM_6
360
367F
 90
        1
  8
AM_CL
360
3680
 90
        0
  0
XRECORD
  5
2D
102
{ACAD_REACTORS
330
2C
102
}
330
2C
100
AcDbXrecord
  1
VERSION
140
15.0
  1
PRODUCT
  2
AutoCAD Mechanical 2000
  0
IDBUFFER
  5
3679
330
0
100
AcDbIdBuffer
  0
IDBUFFER
  5
367A
330
0
100
AcDbIdBuffer
330
35AE
330
35AF
330
35B0
330
35B1
330
35B2
330
35B3
330
35B5
330
35B6
330
35B7
330
35B8
330
35B9
330
35BA
330
35BB
330
35BD
330
35BE
330
35C2
330
35C3
330
35C4
330
35C5
330
35C6
330
35C7
330
35C8
330
35C9
330
35CA
330
35CB
330
35CC
330
35CD
330
35CE
330
35CF
330
35D0
330
C1D
330
C20
330
24A7
330
24BE
330
2C0E
330
2C11
330
2C12
330
2C13
330
2C14
330
2C15
330
2C23
330
2C72
330
2C73
330
2FB7
330
2FB9
330
35AD
  0
IDBUFFER
  5
367B
330
0
100
AcDbIdBuffer
330
23EF
  0
IDBUFFER
  5
367C
330
0
100
AcDbIdBuffer
330
35C1
330
24B7
330
24B8
330
24C7
330
24C8
330
24D4
330
24D5
330
24E6
330
24E7
330
2BF2
330
2BF3
330
2BF4
330
2BF5
330
35B4
330
35BC
330
35BF
330
35C0
  0
IDBUFFER
  5
367D
330
0
100
AcDbIdBuffer
330
CC6
330
2069
330
2C16
330
2C81
330
2D60
  0
IDBUFFER
  5
367E
330
0
100
AcDbIdBuffer
  0
IDBUFFER
  5
367F
330
0
100
AcDbIdBuffer
330
19BD
  0
IDBUFFER
  5
3680
330
0
100
AcDbIdBuffer
  0
ENDSEC
  0
EOF
